osu file format v14

[General]
AudioFilename: audio.mp3
AudioLeadIn: 0
PreviewTime: 192302
Countdown: 0
SampleSet: None
StackLeniency: 0.7
Mode: 3
LetterboxInBreaks: 0
SpecialStyle: 0
WidescreenStoryboard: 0

[Editor]
DistanceSpacing: 0.1
BeatDivisor: 8
GridSize: 32
TimelineZoom: 2.499999

[Metadata]
Title:NUCLEAR-STAR
TitleUnicode:NUCLEAR-STAR
Artist:Camellia
ArtistUnicode:Camellia
Creator:CrazyOnePro
Version:777's 7k EXTRA
Source:
Tags:
BeatmapID:1763955
BeatmapSetID:843020

[Difficulty]
HPDrainRate:8
CircleSize:7
OverallDifficulty:8
ApproachRate:5
SliderMultiplier:1
SliderTickRate:1

[Events]
//Background and Video events
0,0,"a750c6_5486310.jpg",0,0
//Break Periods
//Storyboard Layer 0 (Background)
//Storyboard Layer 1 (Fail)
//Storyboard Layer 2 (Pass)
//Storyboard Layer 3 (Foreground)
//Storyboard Sound Samples

[TimingPoints]
544,301.507537688442,4,2,0,5,1,0

[HitObjects]
36,192,21046,5,0,0:0:0:0:
402,192,21046,1,0,0:0:0:0:
329,192,21046,1,0,0:0:0:0:
256,192,21197,1,0,0:0:0:0:
402,192,21348,1,0,0:0:0:0:
329,192,21498,1,0,0:0:0:0:
475,192,21498,1,0,0:0:0:0:
182,192,21574,1,0,0:0:0:0:
109,192,21649,1,0,0:0:0:0:
36,192,21724,1,0,0:0:0:0:
402,192,21800,1,0,0:0:0:0:
182,192,21951,1,0,0:0:0:0:
329,192,22101,1,0,0:0:0:0:
256,192,22177,1,0,0:0:0:0:
109,192,22252,1,0,0:0:0:0:
256,192,22403,1,0,0:0:0:0:
402,192,22554,1,0,0:0:0:0:
329,192,22704,1,0,0:0:0:0:
475,192,22704,1,0,0:0:0:0:
256,192,22780,1,0,0:0:0:0:
182,192,22855,1,0,0:0:0:0:
109,192,22930,1,0,0:0:0:0:
36,192,23006,1,0,0:0:0:0:
256,192,23006,1,0,0:0:0:0:
402,192,23157,1,0,0:0:0:0:
36,192,23307,1,0,0:0:0:0:
182,192,23307,1,0,0:0:0:0:
256,192,23383,1,0,0:0:0:0:
475,192,23458,1,0,0:0:0:0:
329,192,23458,1,0,0:0:0:0:
256,192,23609,1,0,0:0:0:0:
182,192,23609,1,0,0:0:0:0:
109,192,23684,1,0,0:0:0:0:
36,192,23760,1,0,0:0:0:0:
475,192,23760,1,0,0:0:0:0:
256,192,23910,1,0,0:0:0:0:
109,192,23910,1,0,0:0:0:0:
36,192,23986,1,0,0:0:0:0:
182,192,24061,1,0,0:0:0:0:
329,192,24061,1,0,0:0:0:0:
402,192,24136,1,0,0:0:0:0:
256,192,24212,1,0,0:0:0:0:
109,192,24287,1,0,0:0:0:0:
36,192,24363,1,0,0:0:0:0:
475,192,24363,1,0,0:0:0:0:
182,192,24438,1,0,0:0:0:0:
475,192,24513,1,0,0:0:0:0:
402,192,24589,1,0,0:0:0:0:
182,192,24664,1,0,0:0:0:0:
36,192,24664,1,0,0:0:0:0:
329,192,24815,1,0,0:0:0:0:
475,192,24890,1,0,0:0:0:0:
109,192,24966,1,0,0:0:0:0:
402,192,24966,1,0,0:0:0:0:
329,192,25041,1,0,0:0:0:0:
256,192,25116,1,0,0:0:0:0:
182,192,25116,1,0,0:0:0:0:
36,192,25192,1,0,0:0:0:0:
475,192,25267,1,0,0:0:0:0:
329,192,25267,1,0,0:0:0:0:
109,192,25418,1,0,0:0:0:0:
182,192,25493,1,0,0:0:0:0:
475,192,25569,1,0,0:0:0:0:
329,192,25569,1,0,0:0:0:0:
36,192,25569,1,0,0:0:0:0:
109,192,25719,1,0,0:0:0:0:
475,192,25870,1,0,0:0:0:0:
402,192,25870,1,0,0:0:0:0:
36,192,25870,1,0,0:0:0:0:
109,192,26021,1,0,0:0:0:0:
256,192,26021,1,0,0:0:0:0:
475,192,26172,1,0,0:0:0:0:
36,192,26172,1,0,0:0:0:0:
182,192,26172,1,0,0:0:0:0:
109,192,26247,1,0,0:0:0:0:
182,192,26322,1,0,0:0:0:0:
402,192,26322,1,0,0:0:0:0:
256,192,26398,1,0,0:0:0:0:
109,192,26473,1,0,0:0:0:0:
36,192,26473,1,0,0:0:0:0:
402,192,26473,1,0,0:0:0:0:
329,192,26549,1,0,0:0:0:0:
182,192,26624,1,0,0:0:0:0:
475,192,26624,1,0,0:0:0:0:
109,192,26699,1,0,0:0:0:0:
36,192,26775,1,0,0:0:0:0:
402,192,26775,1,0,0:0:0:0:
329,192,26775,1,0,0:0:0:0:
182,192,26925,1,0,0:0:0:0:
256,192,26925,1,0,0:0:0:0:
36,192,27076,1,0,0:0:0:0:
109,192,27076,1,0,0:0:0:0:
329,192,27152,1,0,0:0:0:0:
182,192,27227,1,0,0:0:0:0:
256,192,27302,1,0,0:0:0:0:
475,192,27378,1,0,0:0:0:0:
36,192,27378,1,0,0:0:0:0:
329,192,27528,1,0,0:0:0:0:
182,192,27604,1,0,0:0:0:0:
36,192,27679,1,0,0:0:0:0:
475,192,27679,1,0,0:0:0:0:
256,192,27755,1,0,0:0:0:0:
329,192,27830,1,0,0:0:0:0:
329,192,27981,1,0,0:0:0:0:
256,192,28056,1,0,0:0:0:0:
109,192,28131,1,0,0:0:0:0:
402,192,28131,1,0,0:0:0:0:
36,192,28282,1,0,0:0:0:0:
475,192,28282,1,0,0:0:0:0:
402,192,28433,1,0,0:0:0:0:
182,192,28433,1,0,0:0:0:0:
36,192,28508,1,0,0:0:0:0:
475,192,28584,1,0,0:0:0:0:
329,192,28584,1,0,0:0:0:0:
36,192,28734,1,0,0:0:0:0:
182,192,28734,1,0,0:0:0:0:
256,192,28810,1,0,0:0:0:0:
109,192,28810,1,0,0:0:0:0:
475,192,28885,1,0,0:0:0:0:
182,192,28885,1,0,0:0:0:0:
402,192,28961,1,0,0:0:0:0:
329,192,29036,1,0,0:0:0:0:
256,192,29111,1,0,0:0:0:0:
182,192,29187,1,0,0:0:0:0:
36,192,29187,1,0,0:0:0:0:
475,192,29187,1,0,0:0:0:0:
329,192,29262,1,0,0:0:0:0:
256,192,29337,1,0,0:0:0:0:
109,192,29337,1,0,0:0:0:0:
402,192,29488,1,0,0:0:0:0:
36,192,29488,1,0,0:0:0:0:
109,192,29564,1,0,0:0:0:0:
402,192,29639,1,0,0:0:0:0:
182,192,29639,1,0,0:0:0:0:
256,192,29714,1,0,0:0:0:0:
36,192,29790,1,0,0:0:0:0:
475,192,29790,1,0,0:0:0:0:
329,192,29865,1,0,0:0:0:0:
182,192,29940,1,0,0:0:0:0:
402,192,29940,1,0,0:0:0:0:
109,192,30016,1,0,0:0:0:0:
36,192,30091,1,0,0:0:0:0:
329,192,30091,1,0,0:0:0:0:
256,192,30167,1,0,0:0:0:0:
182,192,30242,1,0,0:0:0:0:
109,192,30317,1,0,0:0:0:0:
36,192,30393,1,0,0:0:0:0:
475,192,30393,1,0,0:0:0:0:
402,192,30468,1,0,0:0:0:0:
329,192,30543,1,0,0:0:0:0:
256,192,30619,1,0,0:0:0:0:
402,192,30694,1,0,0:0:0:0:
182,192,30694,1,0,0:0:0:0:
36,192,30845,1,0,0:0:0:0:
182,192,30920,1,0,0:0:0:0:
109,192,30996,1,0,0:0:0:0:
402,192,30996,1,0,0:0:0:0:
329,192,31147,1,0,0:0:0:0:
256,192,31222,1,0,0:0:0:0:
402,192,31297,1,0,0:0:0:0:
182,192,31297,1,0,0:0:0:0:
36,192,31373,1,0,0:0:0:0:
109,192,31448,1,0,0:0:0:0:
256,192,31599,1,0,0:0:0:0:
475,192,31599,1,0,0:0:0:0:
329,192,31674,1,0,0:0:0:0:
182,192,31750,1,0,0:0:0:0:
256,192,31825,1,0,0:0:0:0:
329,192,31863,1,0,0:0:0:0:
36,192,31900,1,0,0:0:0:0:
402,192,31900,1,0,0:0:0:0:
182,192,32051,1,0,0:0:0:0:
329,192,32126,1,0,0:0:0:0:
475,192,32202,1,0,0:0:0:0:
36,192,32202,1,0,0:0:0:0:
109,192,32353,1,0,0:0:0:0:
256,192,32503,1,0,0:0:0:0:
475,192,32503,1,0,0:0:0:0:
109,192,32654,1,0,0:0:0:0:
36,192,32729,1,0,0:0:0:0:
329,192,32805,1,0,0:0:0:0:
475,192,32805,1,0,0:0:0:0:
109,192,32956,1,0,0:0:0:0:
182,192,32993,1,0,0:0:0:0:
256,192,33031,1,0,0:0:0:0:
329,192,33069,1,0,0:0:0:0:
182,192,33106,1,0,0:0:0:0:
402,192,33106,1,0,0:0:0:0:
256,192,33182,1,0,0:0:0:0:
329,192,33257,1,0,0:0:0:0:
36,192,33332,1,0,0:0:0:0:
329,192,33408,1,0,0:0:0:0:
109,192,33408,1,0,0:0:0:0:
182,192,33483,1,0,0:0:0:0:
402,192,33559,1,0,0:0:0:0:
256,192,33634,1,0,0:0:0:0:
36,192,33709,1,0,0:0:0:0:
182,192,33709,1,0,0:0:0:0:
329,192,33785,1,0,0:0:0:0:
402,192,33860,1,0,0:0:0:0:
475,192,33935,1,0,0:0:0:0:
36,192,34011,1,0,0:0:0:0:
329,192,34011,1,0,0:0:0:0:
256,192,34162,1,0,0:0:0:0:
329,192,34237,1,0,0:0:0:0:
402,192,34312,1,0,0:0:0:0:
475,192,34312,1,0,0:0:0:0:
182,192,34463,1,0,0:0:0:0:
256,192,34538,1,0,0:0:0:0:
475,192,34614,1,0,0:0:0:0:
402,192,34614,1,0,0:0:0:0:
109,192,34689,1,0,0:0:0:0:
182,192,34765,1,0,0:0:0:0:
109,192,34840,1,0,0:0:0:0:
36,192,34915,1,0,0:0:0:0:
329,192,34915,1,0,0:0:0:0:
402,192,35066,1,0,0:0:0:0:
329,192,35141,1,0,0:0:0:0:
475,192,35217,1,0,0:0:0:0:
109,192,35217,1,0,0:0:0:0:
256,192,35217,1,0,0:0:0:0:
182,192,35368,1,0,0:0:0:0:
402,192,35518,1,0,0:0:0:0:
36,192,35518,1,0,0:0:0:0:
109,192,35518,1,0,0:0:0:0:
256,192,35669,1,0,0:0:0:0:
329,192,35745,1,0,0:0:0:0:
182,192,35820,1,0,0:0:0:0:
475,192,35820,1,0,0:0:0:0:
402,192,35895,1,0,0:0:0:0:
329,192,35971,1,0,0:0:0:0:
182,192,36046,1,0,0:0:0:0:
109,192,36121,1,0,0:0:0:0:
36,192,36121,1,0,0:0:0:0:
402,192,36121,1,0,0:0:0:0:
329,192,36197,1,0,0:0:0:0:
475,192,36272,1,0,0:0:0:0:
402,192,36423,1,0,0:0:0:0:
182,192,36423,1,0,0:0:0:0:
36,192,36423,1,0,0:0:0:0:
109,192,36574,1,0,0:0:0:0:
36,192,36724,1,0,0:0:0:0:
329,192,36724,1,0,0:0:0:0:
475,192,36724,1,0,0:0:0:0:
182,192,36875,1,0,0:0:0:0:
329,192,36951,1,0,0:0:0:0:
402,192,37026,1,0,0:0:0:0:
256,192,37026,1,0,0:0:0:0:
36,192,37026,1,0,0:0:0:0:
109,192,37101,1,0,0:0:0:0:
182,192,37177,1,0,0:0:0:0:
475,192,37252,1,0,0:0:0:0:
329,192,37327,1,0,0:0:0:0:
402,192,37327,1,0,0:0:0:0:
36,192,37327,1,0,0:0:0:0:
182,192,37403,1,0,0:0:0:0:
256,192,37478,1,0,0:0:0:0:
329,192,37554,1,0,0:0:0:0:
109,192,37629,1,0,0:0:0:0:
475,192,37629,1,0,0:0:0:0:
402,192,37629,1,0,0:0:0:0:
182,192,37780,1,0,0:0:0:0:
36,192,37930,1,0,0:0:0:0:
475,192,37930,1,0,0:0:0:0:
329,192,37930,1,0,0:0:0:0:
256,192,38081,1,0,0:0:0:0:
182,192,38157,1,0,0:0:0:0:
402,192,38232,1,0,0:0:0:0:
109,192,38232,1,0,0:0:0:0:
36,192,38232,1,0,0:0:0:0:
256,192,38383,1,0,0:0:0:0:
329,192,38383,1,0,0:0:0:0:
402,192,38458,1,0,0:0:0:0:
182,192,38533,1,0,0:0:0:0:
36,192,38533,1,0,0:0:0:0:
475,192,38533,1,0,0:0:0:0:
256,192,38609,1,0,0:0:0:0:
329,192,38684,1,0,0:0:0:0:
402,192,38760,1,0,0:0:0:0:
109,192,38835,1,0,0:0:0:0:
182,192,38835,1,0,0:0:0:0:
475,192,38835,1,0,0:0:0:0:
256,192,38986,1,0,0:0:0:0:
329,192,39136,1,0,0:0:0:0:
109,192,39136,1,0,0:0:0:0:
36,192,39136,1,0,0:0:0:0:
402,192,39287,1,0,0:0:0:0:
109,192,39438,1,0,0:0:0:0:
36,192,39513,1,0,0:0:0:0:
182,192,39589,1,0,0:0:0:0:
109,192,39664,1,0,0:0:0:0:
256,192,39739,1,0,0:0:0:0:
182,192,39815,1,0,0:0:0:0:
329,192,39890,1,0,0:0:0:0:
109,192,39890,1,0,0:0:0:0:
36,192,39966,1,0,0:0:0:0:
475,192,40041,1,0,0:0:0:0:
402,192,40079,1,0,0:0:0:0:
329,192,40116,1,0,0:0:0:0:
36,192,40154,1,0,0:0:0:0:
109,192,40192,1,0,0:0:0:0:
182,192,40229,1,0,0:0:0:0:
256,192,40267,1,0,0:0:0:0:
329,192,40305,1,0,0:0:0:0:
36,192,40342,1,0,0:0:0:0:
109,192,40342,1,0,0:0:0:0:
402,192,40342,1,0,0:0:0:0:
475,192,40342,1,0,0:0:0:0:
182,192,40493,1,0,0:0:0:0:
329,192,40644,1,0,0:0:0:0:
475,192,40644,1,0,0:0:0:0:
109,192,40644,1,0,0:0:0:0:
182,192,40795,1,0,0:0:0:0:
109,192,40870,1,0,0:0:0:0:
256,192,40946,1,0,0:0:0:0:
36,192,40946,1,0,0:0:0:0:
402,192,40946,1,0,0:0:0:0:
329,192,41096,1,0,0:0:0:0:
182,192,41247,1,0,0:0:0:0:
475,192,41247,1,0,0:0:0:0:
36,192,41247,1,0,0:0:0:0:
256,192,41398,1,0,0:0:0:0:
329,192,41473,1,0,0:0:0:0:
402,192,41511,1,0,0:0:0:0:
36,192,41549,1,0,0:0:0:0:
182,192,41549,1,0,0:0:0:0:
475,192,41549,1,0,0:0:0:0:
256,192,41699,1,0,0:0:0:0:
109,192,41850,1,0,0:0:0:0:
329,192,41850,1,0,0:0:0:0:
475,192,41850,1,0,0:0:0:0:
402,192,42001,1,0,0:0:0:0:
182,192,42152,1,0,0:0:0:0:
475,192,42152,1,0,0:0:0:0:
36,192,42152,1,0,0:0:0:0:
329,192,42302,1,0,0:0:0:0:
256,192,42378,1,0,0:0:0:0:
402,192,42453,1,0,0:0:0:0:
182,192,42453,1,0,0:0:0:0:
475,192,42453,1,0,0:0:0:0:
109,192,42604,1,0,0:0:0:0:
182,192,42641,1,0,0:0:0:0:
256,192,42679,1,0,0:0:0:0:
329,192,42717,1,0,0:0:0:0:
36,192,42755,1,0,0:0:0:0:
402,192,42755,1,0,0:0:0:0:
475,192,42755,1,0,0:0:0:0:
182,192,42905,1,0,0:0:0:0:
329,192,42905,1,0,0:0:0:0:
256,192,43056,1,0,0:0:0:0:
475,192,43056,1,0,0:0:0:0:
109,192,43056,1,0,0:0:0:0:
182,192,43207,1,0,0:0:0:0:
402,192,43207,1,0,0:0:0:0:
36,192,43358,1,0,0:0:0:0:
329,192,43358,1,0,0:0:0:0:
109,192,43358,1,0,0:0:0:0:
256,192,43508,1,0,0:0:0:0:
109,192,43659,1,0,0:0:0:0:
402,192,43659,1,0,0:0:0:0:
475,192,43659,1,0,0:0:0:0:
329,192,43810,1,0,0:0:0:0:
256,192,43885,1,0,0:0:0:0:
475,192,43961,1,0,0:0:0:0:
182,192,43961,1,0,0:0:0:0:
36,192,43961,1,0,0:0:0:0:
109,192,44111,1,0,0:0:0:0:
402,192,44262,1,0,0:0:0:0:
36,192,44262,1,0,0:0:0:0:
256,192,44262,1,0,0:0:0:0:
329,192,44413,1,0,0:0:0:0:
256,192,44488,1,0,0:0:0:0:
109,192,44564,1,0,0:0:0:0:
402,192,44564,1,0,0:0:0:0:
475,192,44564,1,0,0:0:0:0:
182,192,44714,1,0,0:0:0:0:
329,192,44865,1,0,0:0:0:0:
475,192,44865,1,0,0:0:0:0:
36,192,44865,1,0,0:0:0:0:
109,192,45016,1,0,0:0:0:0:
182,192,45091,1,0,0:0:0:0:
402,192,45167,1,0,0:0:0:0:
475,192,45167,1,0,0:0:0:0:
36,192,45167,1,0,0:0:0:0:
329,192,45242,1,0,0:0:0:0:
182,192,45317,1,0,0:0:0:0:
256,192,45393,1,0,0:0:0:0:
36,192,45468,1,0,0:0:0:0:
402,192,45468,1,0,0:0:0:0:
109,192,45468,1,0,0:0:0:0:
182,192,45619,1,0,0:0:0:0:
109,192,45770,1,0,0:0:0:0:
402,192,45770,1,0,0:0:0:0:
475,192,45770,1,0,0:0:0:0:
182,192,45920,1,0,0:0:0:0:
329,192,46071,1,0,0:0:0:0:
475,192,46071,1,0,0:0:0:0:
36,192,46071,1,0,0:0:0:0:
182,192,46222,1,0,0:0:0:0:
402,192,46222,1,0,0:0:0:0:
256,192,46373,1,0,0:0:0:0:
36,192,46373,1,0,0:0:0:0:
475,192,46373,1,0,0:0:0:0:
402,192,46523,1,0,0:0:0:0:
109,192,46674,1,0,0:0:0:0:
329,192,46674,1,0,0:0:0:0:
36,192,46674,1,0,0:0:0:0:
256,192,46825,1,0,0:0:0:0:
475,192,46825,1,0,0:0:0:0:
182,192,46976,1,0,0:0:0:0:
402,192,46976,1,0,0:0:0:0:
36,192,46976,1,0,0:0:0:0:
109,192,47126,1,0,0:0:0:0:
329,192,47126,1,0,0:0:0:0:
475,192,47277,1,0,0:0:0:0:
256,192,47277,1,0,0:0:0:0:
36,192,47277,1,0,0:0:0:0:
182,192,47428,1,0,0:0:0:0:
402,192,47579,1,0,0:0:0:0:
36,192,47579,1,0,0:0:0:0:
256,192,47579,1,0,0:0:0:0:
329,192,47729,1,0,0:0:0:0:
256,192,47805,1,0,0:0:0:0:
109,192,47880,1,0,0:0:0:0:
475,192,47880,1,0,0:0:0:0:
182,192,47880,1,0,0:0:0:0:
329,192,48031,1,0,0:0:0:0:
182,192,48182,1,0,0:0:0:0:
402,192,48182,1,0,0:0:0:0:
475,192,48182,1,0,0:0:0:0:
256,192,48332,1,0,0:0:0:0:
36,192,48483,1,0,0:0:0:0:
402,192,48483,1,0,0:0:0:0:
109,192,48483,1,0,0:0:0:0:
256,192,48634,1,0,0:0:0:0:
182,192,48709,1,0,0:0:0:0:
109,192,48785,1,0,0:0:0:0:
475,192,48785,1,0,0:0:0:0:
329,192,48785,1,0,0:0:0:0:
256,192,48935,1,0,0:0:0:0:
329,192,49011,1,0,0:0:0:0:
402,192,49086,1,0,0:0:0:0:
36,192,49086,1,0,0:0:0:0:
475,192,49086,1,0,0:0:0:0:
182,192,49237,1,0,0:0:0:0:
256,192,49312,1,0,0:0:0:0:
109,192,49388,1,0,0:0:0:0:
329,192,49388,1,0,0:0:0:0:
402,192,49388,1,0,0:0:0:0:
402,192,49538,1,0,0:0:0:0:
329,192,49614,1,0,0:0:0:0:
182,192,49689,1,0,0:0:0:0:
475,192,49689,1,0,0:0:0:0:
109,192,49689,1,0,0:0:0:0:
256,192,49840,1,0,0:0:0:0:
182,192,49915,1,0,0:0:0:0:
36,192,49991,1,0,0:0:0:0:
109,192,49991,1,0,0:0:0:0:
329,192,49991,1,0,0:0:0:0:
402,192,50141,1,0,0:0:0:0:
475,192,50141,1,0,0:0:0:0:
109,192,50292,1,0,0:0:0:0:
36,192,50292,1,0,0:0:0:0:
402,192,50443,1,0,0:0:0:0:
475,192,50443,1,0,0:0:0:0:
109,192,50594,1,0,0:0:0:0:
36,192,50594,1,0,0:0:0:0:
402,192,50745,1,0,0:0:0:0:
475,192,50745,1,0,0:0:0:0:
109,192,50895,1,0,0:0:0:0:
182,192,50895,1,0,0:0:0:0:
329,192,51046,1,0,0:0:0:0:
402,192,51046,1,0,0:0:0:0:
182,192,51197,1,0,0:0:0:0:
109,192,51197,1,0,0:0:0:0:
329,192,51348,1,0,0:0:0:0:
402,192,51348,1,0,0:0:0:0:
182,192,51498,1,0,0:0:0:0:
109,192,51498,1,0,0:0:0:0:
329,192,51649,1,0,0:0:0:0:
402,192,51649,1,0,0:0:0:0:
36,192,51800,1,0,0:0:0:0:
182,192,51800,1,0,0:0:0:0:
329,192,51951,1,0,0:0:0:0:
475,192,51951,1,0,0:0:0:0:
182,192,52101,1,0,0:0:0:0:
36,192,52101,1,0,0:0:0:0:
329,192,52252,1,0,0:0:0:0:
475,192,52252,1,0,0:0:0:0:
182,192,52403,1,0,0:0:0:0:
36,192,52403,1,0,0:0:0:0:
475,192,52554,1,0,0:0:0:0:
329,192,52554,1,0,0:0:0:0:
182,192,52704,1,0,0:0:0:0:
36,192,52704,1,0,0:0:0:0:
402,192,52855,1,0,0:0:0:0:
475,192,52855,1,0,0:0:0:0:
182,192,53006,1,0,0:0:0:0:
109,192,53006,1,0,0:0:0:0:
475,192,53157,1,0,0:0:0:0:
402,192,53157,1,0,0:0:0:0:
182,192,53307,1,0,0:0:0:0:
109,192,53307,1,0,0:0:0:0:
402,192,53458,1,0,0:0:0:0:
475,192,53458,1,0,0:0:0:0:
182,192,53609,1,0,0:0:0:0:
109,192,53609,1,0,0:0:0:0:
475,192,53760,1,0,0:0:0:0:
402,192,53760,1,0,0:0:0:0:
182,192,53910,1,0,0:0:0:0:
109,192,53910,1,0,0:0:0:0:
402,192,54061,1,0,0:0:0:0:
475,192,54061,1,0,0:0:0:0:
109,192,54212,1,0,0:0:0:0:
36,192,54212,1,0,0:0:0:0:
329,192,54363,1,0,0:0:0:0:
402,192,54363,1,0,0:0:0:0:
109,192,54513,1,0,0:0:0:0:
36,192,54513,1,0,0:0:0:0:
329,192,54664,1,0,0:0:0:0:
402,192,54664,1,0,0:0:0:0:
36,192,54815,1,0,0:0:0:0:
109,192,54853,1,0,0:0:0:0:
182,192,54890,1,0,0:0:0:0:
256,192,54928,1,0,0:0:0:0:
329,192,54966,1,0,0:0:0:0:
402,192,55003,1,0,0:0:0:0:
475,192,55041,1,0,0:0:0:0:
36,192,55079,1,0,0:0:0:0:
109,192,55116,1,0,0:0:0:0:
182,192,55154,1,0,0:0:0:0:
256,192,55192,1,0,0:0:0:0:
475,192,55229,1,0,0:0:0:0:
402,192,55267,1,0,0:0:0:0:
329,192,55305,1,0,0:0:0:0:
256,192,55342,1,0,0:0:0:0:
182,192,55380,1,0,0:0:0:0:
109,192,55418,1,0,0:0:0:0:
36,192,55456,1,0,0:0:0:0:
329,192,55493,1,0,0:0:0:0:
402,192,55531,1,0,0:0:0:0:
475,192,55569,1,0,0:0:0:0:
182,192,55606,1,0,0:0:0:0:
256,192,55644,1,0,0:0:0:0:
329,192,55682,1,0,0:0:0:0:
402,192,55719,1,0,0:0:0:0:
475,192,55757,1,0,0:0:0:0:
36,192,55795,1,0,0:0:0:0:
109,192,55832,1,0,0:0:0:0:
182,192,55870,1,0,0:0:0:0:
475,192,55908,1,0,0:0:0:0:
402,192,55946,1,0,0:0:0:0:
329,192,55983,1,0,0:0:0:0:
256,192,56021,1,0,0:0:0:0:
182,192,56059,1,0,0:0:0:0:
109,192,56096,1,0,0:0:0:0:
36,192,56134,1,0,0:0:0:0:
402,192,56172,1,0,0:0:0:0:
329,192,56209,1,0,0:0:0:0:
109,192,56247,1,0,0:0:0:0:
182,192,56285,1,0,0:0:0:0:
402,192,56322,1,0,0:0:0:0:
329,192,56360,1,0,0:0:0:0:
256,192,56398,1,0,0:0:0:0:
182,192,56435,1,0,0:0:0:0:
475,192,56473,1,0,0:0:0:0:
402,192,56511,1,0,0:0:0:0:
329,192,56549,1,0,0:0:0:0:
256,192,56586,1,0,0:0:0:0:
36,192,56624,128,0,57227:0:0:0:0:
109,192,56624,128,0,57227:0:0:0:0:
182,192,56624,128,0,57227:0:0:0:0:
109,192,58131,1,0,0:0:0:0:
329,192,58320,1,0,0:0:0:0:
256,192,58433,1,0,0:0:0:0:
36,192,58584,1,0,0:0:0:0:
402,192,58734,1,0,0:0:0:0:
329,192,58734,1,0,0:0:0:0:
182,192,58810,1,0,0:0:0:0:
109,192,58810,1,0,0:0:0:0:
402,192,58885,1,0,0:0:0:0:
329,192,58885,1,0,0:0:0:0:
256,192,58961,1,0,0:0:0:0:
182,192,59036,1,0,0:0:0:0:
402,192,59111,1,0,0:0:0:0:
475,192,59187,1,0,0:0:0:0:
36,192,59187,1,0,0:0:0:0:
109,192,59187,1,0,0:0:0:0:
182,192,59337,1,0,0:0:0:0:
329,192,59337,1,0,0:0:0:0:
402,192,59337,1,0,0:0:0:0:
109,192,59488,1,0,0:0:0:0:
256,192,59488,1,0,0:0:0:0:
402,192,59639,1,0,0:0:0:0:
329,192,59639,1,0,0:0:0:0:
256,192,59790,1,0,0:0:0:0:
329,192,59940,1,0,0:0:0:0:
402,192,59940,1,0,0:0:0:0:
182,192,60091,1,0,0:0:0:0:
329,192,60242,1,0,0:0:0:0:
402,192,60242,1,0,0:0:0:0:
109,192,60393,1,0,0:0:0:0:
402,192,60543,1,0,0:0:0:0:
329,192,60543,1,0,0:0:0:0:
36,192,60694,1,0,0:0:0:0:
329,192,60845,1,0,0:0:0:0:
402,192,60845,1,0,0:0:0:0:
109,192,60996,1,0,0:0:0:0:
402,192,61147,1,0,0:0:0:0:
475,192,61147,1,0,0:0:0:0:
182,192,61297,1,0,0:0:0:0:
402,192,61448,1,0,0:0:0:0:
475,192,61448,1,0,0:0:0:0:
256,192,61599,1,0,0:0:0:0:
402,192,61750,1,0,0:0:0:0:
475,192,61750,1,0,0:0:0:0:
109,192,61900,1,0,0:0:0:0:
329,192,61976,1,0,0:0:0:0:
402,192,62051,1,0,0:0:0:0:
475,192,62051,1,0,0:0:0:0:
182,192,62202,1,0,0:0:0:0:
256,192,62353,1,0,0:0:0:0:
36,192,62353,1,0,0:0:0:0:
402,192,62353,1,0,0:0:0:0:
109,192,62503,1,0,0:0:0:0:
182,192,62579,1,0,0:0:0:0:
256,192,62654,1,0,0:0:0:0:
475,192,62654,1,0,0:0:0:0:
36,192,62654,1,0,0:0:0:0:
329,192,62805,1,0,0:0:0:0:
36,192,62956,1,0,0:0:0:0:
256,192,62956,1,0,0:0:0:0:
402,192,62956,1,0,0:0:0:0:
109,192,63106,1,0,0:0:0:0:
402,192,63257,1,0,0:0:0:0:
256,192,63257,1,0,0:0:0:0:
475,192,63257,1,0,0:0:0:0:
329,192,63408,1,0,0:0:0:0:
256,192,63559,1,0,0:0:0:0:
109,192,63559,1,0,0:0:0:0:
36,192,63559,1,0,0:0:0:0:
402,192,63709,1,0,0:0:0:0:
329,192,63785,1,0,0:0:0:0:
36,192,63860,1,0,0:0:0:0:
182,192,63860,1,0,0:0:0:0:
475,192,63860,1,0,0:0:0:0:
256,192,64011,1,0,0:0:0:0:
402,192,64011,1,0,0:0:0:0:
475,192,64162,1,0,0:0:0:0:
109,192,64162,1,0,0:0:0:0:
36,192,64162,1,0,0:0:0:0:
182,192,64312,1,0,0:0:0:0:
36,192,64463,1,0,0:0:0:0:
329,192,64463,1,0,0:0:0:0:
475,192,64463,1,0,0:0:0:0:
256,192,64652,1,0,0:0:0:0:
109,192,64765,1,0,0:0:0:0:
402,192,64765,1,0,0:0:0:0:
36,192,64765,1,0,0:0:0:0:
182,192,64915,1,0,0:0:0:0:
256,192,65066,1,0,0:0:0:0:
475,192,65066,1,0,0:0:0:0:
402,192,65066,1,0,0:0:0:0:
109,192,65217,1,0,0:0:0:0:
402,192,65368,1,0,0:0:0:0:
36,192,65368,1,0,0:0:0:0:
182,192,65368,1,0,0:0:0:0:
256,192,65518,1,0,0:0:0:0:
329,192,65669,1,0,0:0:0:0:
109,192,65669,1,0,0:0:0:0:
475,192,65669,1,0,0:0:0:0:
182,192,65820,1,0,0:0:0:0:
256,192,65971,1,0,0:0:0:0:
475,192,65971,1,0,0:0:0:0:
36,192,65971,1,0,0:0:0:0:
402,192,66121,1,0,0:0:0:0:
329,192,66272,1,0,0:0:0:0:
36,192,66272,1,0,0:0:0:0:
182,192,66272,1,0,0:0:0:0:
109,192,66423,1,0,0:0:0:0:
182,192,66574,1,0,0:0:0:0:
402,192,66574,1,0,0:0:0:0:
475,192,66574,1,0,0:0:0:0:
329,192,66724,1,0,0:0:0:0:
109,192,66724,1,0,0:0:0:0:
256,192,66875,1,0,0:0:0:0:
36,192,66875,1,0,0:0:0:0:
475,192,66875,1,0,0:0:0:0:
109,192,67026,1,0,0:0:0:0:
402,192,67177,1,0,0:0:0:0:
475,192,67177,1,0,0:0:0:0:
182,192,67177,1,0,0:0:0:0:
256,192,67327,1,0,0:0:0:0:
329,192,67403,1,0,0:0:0:0:
36,192,67478,1,0,0:0:0:0:
182,192,67478,1,0,0:0:0:0:
402,192,67478,1,0,0:0:0:0:
329,192,67629,1,0,0:0:0:0:
402,192,67780,1,0,0:0:0:0:
475,192,67780,1,0,0:0:0:0:
256,192,67780,1,0,0:0:0:0:
182,192,67930,1,0,0:0:0:0:
109,192,68081,1,0,0:0:0:0:
36,192,68081,1,0,0:0:0:0:
475,192,68081,1,0,0:0:0:0:
329,192,68232,1,0,0:0:0:0:
475,192,68383,1,0,0:0:0:0:
256,192,68383,1,0,0:0:0:0:
182,192,68383,1,0,0:0:0:0:
36,192,68533,1,0,0:0:0:0:
402,192,68533,1,0,0:0:0:0:
182,192,68684,1,0,0:0:0:0:
329,192,68684,1,0,0:0:0:0:
109,192,68684,1,0,0:0:0:0:
256,192,68835,1,0,0:0:0:0:
402,192,68835,1,0,0:0:0:0:
329,192,68986,1,0,0:0:0:0:
109,192,68986,1,0,0:0:0:0:
402,192,69136,1,0,0:0:0:0:
182,192,69136,1,0,0:0:0:0:
36,192,69287,1,0,0:0:0:0:
256,192,69287,1,0,0:0:0:0:
475,192,69287,1,0,0:0:0:0:
182,192,69438,1,0,0:0:0:0:
109,192,69589,1,0,0:0:0:0:
36,192,69589,1,0,0:0:0:0:
256,192,69739,1,0,0:0:0:0:
182,192,69890,1,0,0:0:0:0:
329,192,69890,1,0,0:0:0:0:
36,192,70041,1,0,0:0:0:0:
109,192,70192,1,0,0:0:0:0:
329,192,70192,1,0,0:0:0:0:
256,192,70342,1,0,0:0:0:0:
182,192,70493,1,0,0:0:0:0:
36,192,70493,1,0,0:0:0:0:
256,192,70644,1,0,0:0:0:0:
329,192,70795,1,0,0:0:0:0:
109,192,70795,1,0,0:0:0:0:
182,192,70946,1,0,0:0:0:0:
329,192,71096,1,0,0:0:0:0:
109,192,71096,1,0,0:0:0:0:
182,192,71247,1,0,0:0:0:0:
109,192,71398,1,0,0:0:0:0:
329,192,71398,1,0,0:0:0:0:
256,192,71549,1,0,0:0:0:0:
182,192,71699,1,0,0:0:0:0:
36,192,71699,1,0,0:0:0:0:
256,192,71850,1,0,0:0:0:0:
329,192,72001,1,0,0:0:0:0:
109,192,72001,1,0,0:0:0:0:
182,192,72152,1,0,0:0:0:0:
402,192,72302,1,0,0:0:0:0:
475,192,72302,1,0,0:0:0:0:
329,192,72453,1,0,0:0:0:0:
256,192,72604,1,0,0:0:0:0:
109,192,72604,1,0,0:0:0:0:
182,192,72755,1,0,0:0:0:0:
329,192,72905,1,0,0:0:0:0:
475,192,72905,1,0,0:0:0:0:
182,192,73056,1,0,0:0:0:0:
109,192,73207,1,0,0:0:0:0:
36,192,73207,1,0,0:0:0:0:
256,192,73358,1,0,0:0:0:0:
329,192,73508,1,0,0:0:0:0:
475,192,73508,1,0,0:0:0:0:
256,192,73659,1,0,0:0:0:0:
182,192,73810,1,0,0:0:0:0:
109,192,74111,1,0,0:0:0:0:
36,192,74111,1,0,0:0:0:0:
402,192,74111,1,0,0:0:0:0:
256,192,74262,1,0,0:0:0:0:
329,192,74262,1,0,0:0:0:0:
475,192,74413,1,0,0:0:0:0:
36,192,74413,1,0,0:0:0:0:
182,192,74413,1,0,0:0:0:0:
109,192,74564,1,0,0:0:0:0:
402,192,74564,1,0,0:0:0:0:
36,192,74714,1,0,0:0:0:0:
182,192,74714,1,0,0:0:0:0:
329,192,74714,1,0,0:0:0:0:
256,192,74865,1,0,0:0:0:0:
475,192,74865,1,0,0:0:0:0:
109,192,75016,1,0,0:0:0:0:
402,192,75016,1,0,0:0:0:0:
182,192,75016,1,0,0:0:0:0:
475,192,75167,1,0,0:0:0:0:
256,192,75167,1,0,0:0:0:0:
329,192,75317,1,0,0:0:0:0:
402,192,75317,1,0,0:0:0:0:
182,192,75317,1,0,0:0:0:0:
36,192,75468,1,0,0:0:0:0:
109,192,75543,1,0,0:0:0:0:
475,192,75619,1,0,0:0:0:0:
182,192,75619,1,0,0:0:0:0:
329,192,75619,1,0,0:0:0:0:
109,192,75770,1,0,0:0:0:0:
256,192,75770,1,0,0:0:0:0:
402,192,75920,1,0,0:0:0:0:
182,192,75920,1,0,0:0:0:0:
475,192,75920,1,0,0:0:0:0:
109,192,76071,1,0,0:0:0:0:
329,192,76071,1,0,0:0:0:0:
36,192,76071,1,0,0:0:0:0:
402,192,76222,1,0,0:0:0:0:
475,192,76222,1,0,0:0:0:0:
182,192,76222,1,0,0:0:0:0:
109,192,76373,1,0,0:0:0:0:
36,192,76373,1,0,0:0:0:0:
329,192,76373,1,0,0:0:0:0:
475,192,76523,5,0,0:0:0:0:
256,192,76523,1,0,0:0:0:0:
402,192,76599,1,0,0:0:0:0:
182,192,76599,1,0,0:0:0:0:
329,192,76674,1,0,0:0:0:0:
109,192,76674,1,0,0:0:0:0:
182,192,76750,1,0,0:0:0:0:
402,192,76750,1,0,0:0:0:0:
256,192,76825,1,0,0:0:0:0:
475,192,76825,1,0,0:0:0:0:
329,192,76900,1,0,0:0:0:0:
36,192,76900,1,0,0:0:0:0:
256,192,76976,1,0,0:0:0:0:
109,192,76976,1,0,0:0:0:0:
182,192,77051,1,0,0:0:0:0:
402,192,77051,1,0,0:0:0:0:
109,192,77126,1,0,0:0:0:0:
475,192,77126,1,0,0:0:0:0:
402,192,77202,1,0,0:0:0:0:
182,192,77202,1,0,0:0:0:0:
329,192,77277,1,0,0:0:0:0:
109,192,77277,1,0,0:0:0:0:
256,192,77353,1,0,0:0:0:0:
36,192,77353,1,0,0:0:0:0:
182,192,77428,1,0,0:0:0:0:
402,192,77428,1,0,0:0:0:0:
109,192,77503,1,0,0:0:0:0:
475,192,77503,1,0,0:0:0:0:
329,192,77579,1,0,0:0:0:0:
36,192,77579,1,0,0:0:0:0:
256,192,77654,1,0,0:0:0:0:
475,192,77654,1,0,0:0:0:0:
109,192,77729,1,0,0:0:0:0:
36,192,77729,1,0,0:0:0:0:
402,192,77729,1,0,0:0:0:0:
256,192,77918,1,0,0:0:0:0:
109,192,78106,1,0,0:0:0:0:
256,192,78332,1,0,0:0:0:0:
36,192,78332,1,0,0:0:0:0:
182,192,78559,1,0,0:0:0:0:
475,192,78634,1,0,0:0:0:0:
256,192,78709,1,0,0:0:0:0:
182,192,78935,1,0,0:0:0:0:
36,192,78935,1,0,0:0:0:0:
329,192,79086,1,0,0:0:0:0:
109,192,79237,1,0,0:0:0:0:
402,192,79237,1,0,0:0:0:0:
475,192,79237,1,0,0:0:0:0:
256,192,79388,1,0,0:0:0:0:
36,192,79538,1,0,0:0:0:0:
182,192,79538,1,0,0:0:0:0:
402,192,79538,1,0,0:0:0:0:
329,192,79689,1,0,0:0:0:0:
402,192,79840,1,0,0:0:0:0:
475,192,79840,1,0,0:0:0:0:
182,192,79840,1,0,0:0:0:0:
256,192,80066,1,0,0:0:0:0:
402,192,80141,1,0,0:0:0:0:
109,192,80141,1,0,0:0:0:0:
36,192,80141,1,0,0:0:0:0:
329,192,80292,1,0,0:0:0:0:
256,192,80443,1,0,0:0:0:0:
475,192,80443,1,0,0:0:0:0:
109,192,80443,1,0,0:0:0:0:
329,192,80594,1,0,0:0:0:0:
402,192,80745,1,0,0:0:0:0:
36,192,80745,1,0,0:0:0:0:
182,192,80745,1,0,0:0:0:0:
475,192,80745,1,0,0:0:0:0:
329,192,80895,1,0,0:0:0:0:
109,192,81046,1,0,0:0:0:0:
475,192,81046,1,0,0:0:0:0:
256,192,81046,1,0,0:0:0:0:
402,192,81197,1,0,0:0:0:0:
329,192,81272,1,0,0:0:0:0:
36,192,81348,1,0,0:0:0:0:
182,192,81348,1,0,0:0:0:0:
402,192,81348,1,0,0:0:0:0:
329,192,81498,1,0,0:0:0:0:
256,192,81649,1,0,0:0:0:0:
475,192,81649,1,0,0:0:0:0:
109,192,81649,1,0,0:0:0:0:
402,192,81800,1,0,0:0:0:0:
329,192,81951,1,0,0:0:0:0:
36,192,81951,1,0,0:0:0:0:
182,192,81951,1,0,0:0:0:0:
109,192,82101,1,0,0:0:0:0:
182,192,82252,1,0,0:0:0:0:
475,192,82252,1,0,0:0:0:0:
36,192,82252,1,0,0:0:0:0:
329,192,82403,1,0,0:0:0:0:
475,192,82478,1,0,0:0:0:0:
36,192,82554,1,0,0:0:0:0:
402,192,82554,1,0,0:0:0:0:
256,192,82554,1,0,0:0:0:0:
329,192,82704,1,0,0:0:0:0:
109,192,82780,1,0,0:0:0:0:
475,192,82855,1,0,0:0:0:0:
36,192,82855,1,0,0:0:0:0:
182,192,82855,1,0,0:0:0:0:
402,192,83006,1,0,0:0:0:0:
256,192,83081,1,0,0:0:0:0:
109,192,83157,1,0,0:0:0:0:
329,192,83157,1,0,0:0:0:0:
475,192,83157,1,0,0:0:0:0:
256,192,83307,1,0,0:0:0:0:
475,192,83307,1,0,0:0:0:0:
36,192,83307,1,0,0:0:0:0:
329,192,83458,1,0,0:0:0:0:
109,192,83458,1,0,0:0:0:0:
256,192,83609,1,0,0:0:0:0:
182,192,83760,1,0,0:0:0:0:
475,192,83760,1,0,0:0:0:0:
402,192,83760,1,0,0:0:0:0:
329,192,83910,1,0,0:0:0:0:
36,192,84061,1,0,0:0:0:0:
256,192,84061,1,0,0:0:0:0:
402,192,84061,1,0,0:0:0:0:
109,192,84212,1,0,0:0:0:0:
182,192,84363,1,0,0:0:0:0:
329,192,84363,1,0,0:0:0:0:
475,192,84363,1,0,0:0:0:0:
256,192,84513,1,0,0:0:0:0:
109,192,84589,1,0,0:0:0:0:
182,192,84664,1,0,0:0:0:0:
36,192,84664,1,0,0:0:0:0:
329,192,84664,1,0,0:0:0:0:
329,192,84815,1,0,0:0:0:0:
402,192,84966,1,0,0:0:0:0:
36,192,84966,1,0,0:0:0:0:
182,192,84966,1,0,0:0:0:0:
329,192,85116,1,0,0:0:0:0:
256,192,85267,1,0,0:0:0:0:
475,192,85267,1,0,0:0:0:0:
36,192,85267,1,0,0:0:0:0:
182,192,85418,1,0,0:0:0:0:
329,192,85569,1,0,0:0:0:0:
475,192,85569,1,0,0:0:0:0:
109,192,85569,1,0,0:0:0:0:
182,192,85719,1,0,0:0:0:0:
256,192,85870,1,0,0:0:0:0:
36,192,85870,1,0,0:0:0:0:
402,192,85870,1,0,0:0:0:0:
329,192,86021,1,0,0:0:0:0:
329,192,86172,1,0,0:0:0:0:
475,192,86172,1,0,0:0:0:0:
36,192,86172,1,0,0:0:0:0:
256,192,86360,1,0,0:0:0:0:
36,192,86473,1,0,0:0:0:0:
402,192,86473,1,0,0:0:0:0:
182,192,86473,1,0,0:0:0:0:
329,192,86624,1,0,0:0:0:0:
109,192,86775,1,0,0:0:0:0:
475,192,86775,1,0,0:0:0:0:
36,192,86775,1,0,0:0:0:0:
182,192,86925,1,0,0:0:0:0:
256,192,87001,1,0,0:0:0:0:
36,192,87076,1,0,0:0:0:0:
475,192,87076,1,0,0:0:0:0:
329,192,87076,1,0,0:0:0:0:
402,192,87227,1,0,0:0:0:0:
109,192,87378,1,0,0:0:0:0:
475,192,87378,1,0,0:0:0:0:
182,192,87378,1,0,0:0:0:0:
256,192,87528,1,0,0:0:0:0:
402,192,87604,1,0,0:0:0:0:
109,192,87679,1,0,0:0:0:0:
182,192,87755,1,0,0:0:0:0:
256,192,87830,1,0,0:0:0:0:
36,192,87830,1,0,0:0:0:0:
329,192,87905,1,0,0:0:0:0:
475,192,87981,1,0,0:0:0:0:
402,192,88056,1,0,0:0:0:0:
329,192,88131,1,0,0:0:0:0:
109,192,88131,1,0,0:0:0:0:
256,192,88207,1,0,0:0:0:0:
36,192,88282,1,0,0:0:0:0:
109,192,88358,1,0,0:0:0:0:
182,192,88433,1,0,0:0:0:0:
256,192,88508,1,0,0:0:0:0:
475,192,88584,1,0,0:0:0:0:
402,192,88584,1,0,0:0:0:0:
36,192,88584,1,0,0:0:0:0:
182,192,88734,1,0,0:0:0:0:
109,192,88885,1,0,0:0:0:0:
475,192,88885,1,0,0:0:0:0:
402,192,89036,1,0,0:0:0:0:
182,192,89036,1,0,0:0:0:0:
256,192,89187,1,0,0:0:0:0:
36,192,89187,1,0,0:0:0:0:
329,192,89187,1,0,0:0:0:0:
402,192,89337,1,0,0:0:0:0:
36,192,89488,1,0,0:0:0:0:
475,192,89488,1,0,0:0:0:0:
182,192,89488,1,0,0:0:0:0:
329,192,89639,1,0,0:0:0:0:
256,192,89790,1,0,0:0:0:0:
109,192,89790,1,0,0:0:0:0:
402,192,89790,1,0,0:0:0:0:
182,192,89940,1,0,0:0:0:0:
256,192,90016,1,0,0:0:0:0:
36,192,90091,1,0,0:0:0:0:
475,192,90091,1,0,0:0:0:0:
329,192,90091,1,0,0:0:0:0:
182,192,90242,1,0,0:0:0:0:
109,192,90393,1,0,0:0:0:0:
36,192,90393,1,0,0:0:0:0:
402,192,90393,1,0,0:0:0:0:
329,192,90543,1,0,0:0:0:0:
182,192,90619,1,0,0:0:0:0:
109,192,90694,1,0,0:0:0:0:
36,192,90694,1,0,0:0:0:0:
329,192,90694,1,0,0:0:0:0:
402,192,90845,1,0,0:0:0:0:
329,192,90883,1,0,0:0:0:0:
256,192,90920,1,0,0:0:0:0:
182,192,90958,1,0,0:0:0:0:
109,192,90996,1,0,0:0:0:0:
36,192,90996,1,0,0:0:0:0:
475,192,90996,1,0,0:0:0:0:
256,192,91147,1,0,0:0:0:0:
475,192,91297,1,0,0:0:0:0:
329,192,91297,1,0,0:0:0:0:
182,192,91297,1,0,0:0:0:0:
109,192,91448,1,0,0:0:0:0:
402,192,91448,1,0,0:0:0:0:
182,192,91599,1,0,0:0:0:0:
475,192,91599,1,0,0:0:0:0:
329,192,91750,1,0,0:0:0:0:
402,192,91900,1,0,0:0:0:0:
182,192,91900,1,0,0:0:0:0:
475,192,91900,1,0,0:0:0:0:
256,192,92051,1,0,0:0:0:0:
109,192,92202,1,0,0:0:0:0:
402,192,92202,1,0,0:0:0:0:
36,192,92202,1,0,0:0:0:0:
329,192,92353,1,0,0:0:0:0:
182,192,92503,1,0,0:0:0:0:
475,192,92503,1,0,0:0:0:0:
36,192,92503,1,0,0:0:0:0:
329,192,92654,1,0,0:0:0:0:
109,192,92805,1,0,0:0:0:0:
36,192,92805,1,0,0:0:0:0:
256,192,92805,1,0,0:0:0:0:
402,192,92880,1,0,0:0:0:0:
329,192,92880,1,0,0:0:0:0:
182,192,92880,1,0,0:0:0:0:
109,192,92956,1,0,0:0:0:0:
475,192,92956,1,0,0:0:0:0:
256,192,92956,1,0,0:0:0:0:
36,192,93031,1,0,0:0:0:0:
182,192,93031,1,0,0:0:0:0:
329,192,93031,1,0,0:0:0:0:
109,192,93106,1,0,0:0:0:0:
475,192,93106,1,0,0:0:0:0:
402,192,93106,1,0,0:0:0:0:
475,192,93257,1,0,0:0:0:0:
182,192,93257,1,0,0:0:0:0:
329,192,93257,1,0,0:0:0:0:
109,192,93408,1,0,0:0:0:0:
36,192,93408,1,0,0:0:0:0:
402,192,93408,1,0,0:0:0:0:
256,192,93408,1,0,0:0:0:0:
182,192,93559,1,0,0:0:0:0:
329,192,93559,1,0,0:0:0:0:
475,192,93709,1,0,0:0:0:0:
36,192,93709,1,0,0:0:0:0:
256,192,93709,1,0,0:0:0:0:
402,192,93709,1,0,0:0:0:0:
329,192,93860,1,0,0:0:0:0:
109,192,93860,1,0,0:0:0:0:
36,192,94011,1,0,0:0:0:0:
475,192,94011,1,0,0:0:0:0:
256,192,94011,1,0,0:0:0:0:
182,192,94011,1,0,0:0:0:0:
402,192,94162,1,0,0:0:0:0:
109,192,94162,1,0,0:0:0:0:
182,192,94237,1,0,0:0:0:0:
36,192,94312,1,0,0:0:0:0:
475,192,94312,1,0,0:0:0:0:
329,192,94312,1,0,0:0:0:0:
256,192,94312,1,0,0:0:0:0:
109,192,94463,1,0,0:0:0:0:
402,192,94463,1,0,0:0:0:0:
329,192,94538,1,0,0:0:0:0:
36,192,94614,1,0,0:0:0:0:
256,192,94614,1,0,0:0:0:0:
475,192,94614,1,0,0:0:0:0:
182,192,94614,1,0,0:0:0:0:
329,192,94765,1,0,0:0:0:0:
402,192,94765,1,0,0:0:0:0:
182,192,94840,1,0,0:0:0:0:
109,192,94915,1,0,0:0:0:0:
36,192,94915,1,0,0:0:0:0:
475,192,94915,1,0,0:0:0:0:
402,192,94915,1,0,0:0:0:0:
182,192,95066,1,0,0:0:0:0:
329,192,95066,1,0,0:0:0:0:
256,192,95141,1,0,0:0:0:0:
109,192,95217,1,0,0:0:0:0:
36,192,95217,1,0,0:0:0:0:
475,192,95217,1,0,0:0:0:0:
402,192,95217,1,0,0:0:0:0:
182,192,95368,1,0,0:0:0:0:
329,192,95368,1,0,0:0:0:0:
256,192,95368,1,0,0:0:0:0:
36,192,95518,1,0,0:0:0:0:
109,192,95518,1,0,0:0:0:0:
475,192,95518,1,0,0:0:0:0:
402,192,95518,1,0,0:0:0:0:
329,192,95669,1,0,0:0:0:0:
256,192,95669,1,0,0:0:0:0:
182,192,95669,1,0,0:0:0:0:
475,192,95820,1,0,0:0:0:0:
329,192,95820,1,0,0:0:0:0:
109,192,95820,1,0,0:0:0:0:
36,192,95820,1,0,0:0:0:0:
256,192,96046,1,0,0:0:0:0:
109,192,96046,1,0,0:0:0:0:
402,192,96046,1,0,0:0:0:0:
36,192,96272,1,0,0:0:0:0:
475,192,96272,1,0,0:0:0:0:
182,192,96272,1,0,0:0:0:0:
329,192,96272,1,0,0:0:0:0:
109,192,96423,1,0,0:0:0:0:
256,192,96423,1,0,0:0:0:0:
402,192,96423,1,0,0:0:0:0:
182,192,96574,1,0,0:0:0:0:
329,192,96574,1,0,0:0:0:0:
109,192,96649,1,0,0:0:0:0:
36,192,96649,1,0,0:0:0:0:
402,192,96649,1,0,0:0:0:0:
256,192,96724,1,0,0:0:0:0:
182,192,96875,1,0,0:0:0:0:
109,192,96875,1,0,0:0:0:0:
402,192,96875,1,0,0:0:0:0:
329,192,97026,1,0,0:0:0:0:
36,192,97026,1,0,0:0:0:0:
475,192,97026,1,0,0:0:0:0:
256,192,97177,1,0,0:0:0:0:
475,192,97252,1,0,0:0:0:0:
329,192,97252,1,0,0:0:0:0:
109,192,97252,1,0,0:0:0:0:
256,192,97403,1,0,0:0:0:0:
402,192,97403,1,0,0:0:0:0:
36,192,97403,1,0,0:0:0:0:
475,192,97403,1,0,0:0:0:0:
182,192,97478,1,0,0:0:0:0:
329,192,97478,1,0,0:0:0:0:
256,192,97554,1,0,0:0:0:0:
109,192,97554,1,0,0:0:0:0:
402,192,97554,1,0,0:0:0:0:
329,192,97629,1,0,0:0:0:0:
475,192,97629,1,0,0:0:0:0:
36,192,97629,1,0,0:0:0:0:
109,192,97704,1,0,0:0:0:0:
182,192,97780,1,0,0:0:0:0:
256,192,97855,1,0,0:0:0:0:
329,192,97930,1,0,0:0:0:0:
402,192,98006,1,0,0:0:0:0:
36,192,98081,1,0,0:0:0:0:
109,192,98157,1,0,0:0:0:0:
329,192,98232,1,0,0:0:0:0:
475,192,98232,1,0,0:0:0:0:
182,192,98232,1,0,0:0:0:0:
109,192,98533,1,0,0:0:0:0:
256,192,98533,1,0,0:0:0:0:
329,192,98684,1,0,0:0:0:0:
109,192,98835,1,0,0:0:0:0:
36,192,98835,1,0,0:0:0:0:
402,192,98835,1,0,0:0:0:0:
182,192,99136,1,0,0:0:0:0:
475,192,99136,1,0,0:0:0:0:
256,192,99287,1,0,0:0:0:0:
329,192,99363,1,0,0:0:0:0:
182,192,99438,1,0,0:0:0:0:
475,192,99438,1,0,0:0:0:0:
402,192,99438,1,0,0:0:0:0:
109,192,99739,1,0,0:0:0:0:
329,192,99739,1,0,0:0:0:0:
256,192,99890,1,0,0:0:0:0:
402,192,99890,1,0,0:0:0:0:
182,192,100041,1,0,0:0:0:0:
36,192,100041,1,0,0:0:0:0:
475,192,100041,1,0,0:0:0:0:
402,192,100342,1,0,0:0:0:0:
109,192,100342,1,0,0:0:0:0:
329,192,100493,1,0,0:0:0:0:
182,192,100569,1,0,0:0:0:0:
256,192,100606,1,0,0:0:0:0:
475,192,100644,1,0,0:0:0:0:
36,192,100644,1,0,0:0:0:0:
329,192,100644,1,0,0:0:0:0:
109,192,100946,1,0,0:0:0:0:
329,192,100946,1,0,0:0:0:0:
182,192,101096,1,0,0:0:0:0:
329,192,101247,1,0,0:0:0:0:
475,192,101247,1,0,0:0:0:0:
402,192,101247,1,0,0:0:0:0:
256,192,101398,1,0,0:0:0:0:
182,192,101549,1,0,0:0:0:0:
36,192,101549,1,0,0:0:0:0:
256,192,101699,1,0,0:0:0:0:
329,192,101775,1,0,0:0:0:0:
402,192,101850,1,0,0:0:0:0:
475,192,101850,1,0,0:0:0:0:
182,192,101850,1,0,0:0:0:0:
256,192,102152,1,0,0:0:0:0:
36,192,102152,1,0,0:0:0:0:
182,192,102302,1,0,0:0:0:0:
256,192,102378,1,0,0:0:0:0:
36,192,102453,1,0,0:0:0:0:
182,192,102453,1,0,0:0:0:0:
475,192,102453,1,0,0:0:0:0:
109,192,102755,1,0,0:0:0:0:
475,192,102755,1,0,0:0:0:0:
402,192,102830,1,0,0:0:0:0:
329,192,102905,1,0,0:0:0:0:
182,192,103056,1,0,0:0:0:0:
36,192,103056,1,0,0:0:0:0:
109,192,103056,1,0,0:0:0:0:
329,192,103358,1,0,0:0:0:0:
475,192,103358,1,0,0:0:0:0:
256,192,103508,1,0,0:0:0:0:
182,192,103659,1,0,0:0:0:0:
36,192,103659,1,0,0:0:0:0:
402,192,103659,1,0,0:0:0:0:
256,192,103810,1,0,0:0:0:0:
329,192,103885,1,0,0:0:0:0:
402,192,103961,1,0,0:0:0:0:
475,192,103961,1,0,0:0:0:0:
182,192,104111,1,0,0:0:0:0:
109,192,104262,1,0,0:0:0:0:
36,192,104262,1,0,0:0:0:0:
329,192,104262,1,0,0:0:0:0:
256,192,104564,1,0,0:0:0:0:
475,192,104564,1,0,0:0:0:0:
182,192,104639,1,0,0:0:0:0:
109,192,104714,1,0,0:0:0:0:
329,192,104790,1,0,0:0:0:0:
182,192,104865,1,0,0:0:0:0:
36,192,104865,1,0,0:0:0:0:
402,192,104865,1,0,0:0:0:0:
256,192,105167,1,0,0:0:0:0:
475,192,105167,1,0,0:0:0:0:
329,192,105317,1,0,0:0:0:0:
182,192,105468,1,0,0:0:0:0:
36,192,105468,1,0,0:0:0:0:
402,192,105468,1,0,0:0:0:0:
256,192,105770,1,0,0:0:0:0:
475,192,105770,1,0,0:0:0:0:
329,192,105920,1,0,0:0:0:0:
182,192,106071,1,0,0:0:0:0:
36,192,106071,1,0,0:0:0:0:
109,192,106071,1,0,0:0:0:0:
256,192,106373,1,0,0:0:0:0:
475,192,106373,1,0,0:0:0:0:
329,192,106523,1,0,0:0:0:0:
109,192,106523,1,0,0:0:0:0:
182,192,106674,1,0,0:0:0:0:
36,192,106674,1,0,0:0:0:0:
402,192,106674,1,0,0:0:0:0:
256,192,106825,1,0,0:0:0:0:
475,192,106976,1,0,0:0:0:0:
109,192,106976,1,0,0:0:0:0:
182,192,107126,1,0,0:0:0:0:
329,192,107202,1,0,0:0:0:0:
256,192,107277,1,0,0:0:0:0:
475,192,107277,1,0,0:0:0:0:
36,192,107277,1,0,0:0:0:0:
109,192,107428,1,0,0:0:0:0:
182,192,107503,1,0,0:0:0:0:
256,192,107579,1,0,0:0:0:0:
475,192,107579,1,0,0:0:0:0:
182,192,107729,1,0,0:0:0:0:
475,192,107880,5,0,0:0:0:0:
329,192,107880,1,0,0:0:0:0:
182,192,108031,1,0,0:0:0:0:
109,192,108031,1,0,0:0:0:0:
329,192,108182,1,0,0:0:0:0:
475,192,108182,1,0,0:0:0:0:
182,192,108332,1,0,0:0:0:0:
36,192,108332,1,0,0:0:0:0:
329,192,108483,1,0,0:0:0:0:
402,192,108483,1,0,0:0:0:0:
182,192,108634,1,0,0:0:0:0:
36,192,108634,1,0,0:0:0:0:
329,192,108785,1,0,0:0:0:0:
475,192,108785,1,0,0:0:0:0:
109,192,108935,1,0,0:0:0:0:
36,192,108935,1,0,0:0:0:0:
329,192,109086,1,0,0:0:0:0:
475,192,109086,1,0,0:0:0:0:
402,192,109237,1,0,0:0:0:0:
256,192,109237,1,0,0:0:0:0:
329,192,109388,1,0,0:0:0:0:
182,192,109388,1,0,0:0:0:0:
256,192,109538,1,0,0:0:0:0:
109,192,109538,1,0,0:0:0:0:
182,192,109689,1,0,0:0:0:0:
36,192,109689,1,0,0:0:0:0:
329,192,109840,1,0,0:0:0:0:
475,192,109840,1,0,0:0:0:0:
402,192,109991,1,0,0:0:0:0:
256,192,109991,1,0,0:0:0:0:
329,192,110141,1,0,0:0:0:0:
182,192,110141,1,0,0:0:0:0:
256,192,110292,1,0,0:0:0:0:
109,192,110292,1,0,0:0:0:0:
475,192,110443,1,0,0:0:0:0:
329,192,110443,1,0,0:0:0:0:
109,192,110594,1,0,0:0:0:0:
36,192,110594,1,0,0:0:0:0:
329,192,110745,1,0,0:0:0:0:
402,192,110745,1,0,0:0:0:0:
182,192,110895,1,0,0:0:0:0:
36,192,110895,1,0,0:0:0:0:
329,192,111046,1,0,0:0:0:0:
475,192,111046,1,0,0:0:0:0:
182,192,111197,1,0,0:0:0:0:
109,192,111197,1,0,0:0:0:0:
402,192,111348,1,0,0:0:0:0:
475,192,111348,1,0,0:0:0:0:
182,192,111498,1,0,0:0:0:0:
36,192,111498,1,0,0:0:0:0:
329,192,111649,5,0,0:0:0:0:
475,192,111649,1,0,0:0:0:0:
182,192,111800,1,0,0:0:0:0:
109,192,111800,1,0,0:0:0:0:
329,192,111951,1,0,0:0:0:0:
402,192,111951,1,0,0:0:0:0:
109,192,112101,1,0,0:0:0:0:
256,192,112101,1,0,0:0:0:0:
329,192,112252,1,0,0:0:0:0:
475,192,112252,1,0,0:0:0:0:
109,192,112403,1,0,0:0:0:0:
36,192,112403,1,0,0:0:0:0:
402,192,112554,1,0,0:0:0:0:
329,192,112554,1,0,0:0:0:0:
475,192,112704,5,0,0:0:0:0:
182,192,112704,1,0,0:0:0:0:
402,192,112780,1,0,0:0:0:0:
109,192,112780,1,0,0:0:0:0:
329,192,112855,1,0,0:0:0:0:
36,192,112855,1,0,0:0:0:0:
256,192,112930,1,0,0:0:0:0:
475,192,112930,1,0,0:0:0:0:
182,192,113006,1,0,0:0:0:0:
402,192,113006,1,0,0:0:0:0:
329,192,113081,1,0,0:0:0:0:
109,192,113081,1,0,0:0:0:0:
256,192,113157,1,0,0:0:0:0:
475,192,113157,1,0,0:0:0:0:
182,192,113232,1,0,0:0:0:0:
402,192,113232,1,0,0:0:0:0:
475,192,113307,1,0,0:0:0:0:
109,192,113307,1,0,0:0:0:0:
36,192,113307,1,0,0:0:0:0:
182,192,113383,1,0,0:0:0:0:
256,192,113458,1,0,0:0:0:0:
109,192,113458,1,0,0:0:0:0:
475,192,113533,1,0,0:0:0:0:
329,192,113533,1,0,0:0:0:0:
182,192,113609,1,0,0:0:0:0:
36,192,113609,1,0,0:0:0:0:
475,192,113684,1,0,0:0:0:0:
329,192,113684,1,0,0:0:0:0:
256,192,113760,1,0,0:0:0:0:
109,192,113760,1,0,0:0:0:0:
182,192,113835,1,0,0:0:0:0:
329,192,113835,1,0,0:0:0:0:
475,192,113910,1,0,0:0:0:0:
36,192,113910,1,0,0:0:0:0:
402,192,113986,1,0,0:0:0:0:
256,192,113986,1,0,0:0:0:0:
182,192,114061,1,0,0:0:0:0:
475,192,114061,1,0,0:0:0:0:
329,192,114136,1,0,0:0:0:0:
109,192,114136,1,0,0:0:0:0:
182,192,114212,1,0,0:0:0:0:
402,192,114212,1,0,0:0:0:0:
36,192,114287,1,0,0:0:0:0:
256,192,114287,1,0,0:0:0:0:
182,192,114363,1,0,0:0:0:0:
475,192,114363,1,0,0:0:0:0:
329,192,114438,1,0,0:0:0:0:
109,192,114438,1,0,0:0:0:0:
36,192,114513,1,0,0:0:0:0:
402,192,114513,1,0,0:0:0:0:
329,192,114589,1,0,0:0:0:0:
182,192,114589,1,0,0:0:0:0:
109,192,114664,1,0,0:0:0:0:
475,192,114664,1,0,0:0:0:0:
329,192,114739,1,0,0:0:0:0:
36,192,114739,1,0,0:0:0:0:
182,192,114815,1,0,0:0:0:0:
402,192,114815,1,0,0:0:0:0:
256,192,114890,1,0,0:0:0:0:
109,192,114890,1,0,0:0:0:0:
36,192,114966,1,0,0:0:0:0:
475,192,114966,1,0,0:0:0:0:
329,192,115041,1,0,0:0:0:0:
109,192,115041,1,0,0:0:0:0:
36,192,115116,1,0,0:0:0:0:
182,192,115116,1,0,0:0:0:0:
402,192,115116,1,0,0:0:0:0:
329,192,115267,1,0,0:0:0:0:
256,192,115267,1,0,0:0:0:0:
475,192,115267,1,0,0:0:0:0:
109,192,115418,1,0,0:0:0:0:
36,192,115418,1,0,0:0:0:0:
402,192,115418,1,0,0:0:0:0:
329,192,115569,1,0,0:0:0:0:
182,192,115569,1,0,0:0:0:0:
36,192,115569,1,0,0:0:0:0:
256,192,115719,1,0,0:0:0:0:
475,192,115719,1,0,0:0:0:0:
109,192,115719,1,0,0:0:0:0:
329,192,115870,1,0,0:0:0:0:
402,192,115870,1,0,0:0:0:0:
182,192,115870,1,0,0:0:0:0:
36,192,116021,1,0,0:0:0:0:
402,192,116021,1,0,0:0:0:0:
256,192,116021,1,0,0:0:0:0:
329,192,116172,1,0,0:0:0:0:
475,192,116172,1,0,0:0:0:0:
182,192,116172,1,0,0:0:0:0:
36,192,116322,1,0,0:0:0:0:
109,192,116322,1,0,0:0:0:0:
475,192,116322,1,0,0:0:0:0:
402,192,116322,1,0,0:0:0:0:
182,192,117378,1,0,0:0:0:0:
329,192,117378,1,0,0:0:0:0:
36,192,117528,1,0,0:0:0:0:
475,192,117528,1,0,0:0:0:0:
402,192,117528,1,0,0:0:0:0:
109,192,117528,1,0,0:0:0:0:
475,192,118131,1,0,0:0:0:0:
329,192,118131,1,0,0:0:0:0:
256,192,118131,1,0,0:0:0:0:
36,192,118131,1,0,0:0:0:0:
182,192,118282,1,0,0:0:0:0:
109,192,118282,1,0,0:0:0:0:
182,192,118734,1,0,0:0:0:0:
109,192,118734,1,0,0:0:0:0:
402,192,118734,1,0,0:0:0:0:
475,192,118734,1,0,0:0:0:0:
329,192,118885,1,0,0:0:0:0:
36,192,118885,1,0,0:0:0:0:
182,192,119036,1,0,0:0:0:0:
329,192,119111,1,0,0:0:0:0:
36,192,119262,1,0,0:0:0:0:
329,192,119262,1,0,0:0:0:0:
109,192,119337,1,0,0:0:0:0:
256,192,119337,1,0,0:0:0:0:
402,192,119337,1,0,0:0:0:0:
475,192,119337,1,0,0:0:0:0:
182,192,119488,1,0,0:0:0:0:
329,192,119639,1,0,0:0:0:0:
109,192,119639,1,0,0:0:0:0:
256,192,119790,1,0,0:0:0:0:
182,192,119940,1,0,0:0:0:0:
475,192,119940,1,0,0:0:0:0:
36,192,119940,1,0,0:0:0:0:
256,192,120091,1,0,0:0:0:0:
402,192,120091,1,0,0:0:0:0:
329,192,120242,1,0,0:0:0:0:
109,192,120242,1,0,0:0:0:0:
182,192,120393,1,0,0:0:0:0:
475,192,120393,1,0,0:0:0:0:
36,192,120543,1,0,0:0:0:0:
475,192,120543,1,0,0:0:0:0:
109,192,120543,1,0,0:0:0:0:
182,192,120619,1,0,0:0:0:0:
402,192,120619,1,0,0:0:0:0:
109,192,120694,1,0,0:0:0:0:
329,192,120694,1,0,0:0:0:0:
256,192,120770,1,0,0:0:0:0:
36,192,120770,1,0,0:0:0:0:
329,192,120845,1,0,0:0:0:0:
109,192,120845,1,0,0:0:0:0:
402,192,120920,1,0,0:0:0:0:
182,192,120920,1,0,0:0:0:0:
475,192,120996,1,0,0:0:0:0:
256,192,120996,1,0,0:0:0:0:
182,192,121071,1,0,0:0:0:0:
402,192,121071,1,0,0:0:0:0:
109,192,121147,1,0,0:0:0:0:
36,192,121147,1,0,0:0:0:0:
329,192,121147,1,0,0:0:0:0:
36,192,121297,1,0,0:0:0:0:
256,192,121297,1,0,0:0:0:0:
109,192,121373,1,0,0:0:0:0:
329,192,121373,1,0,0:0:0:0:
475,192,121448,1,0,0:0:0:0:
402,192,121448,1,0,0:0:0:0:
182,192,121448,1,0,0:0:0:0:
36,192,121523,1,0,0:0:0:0:
329,192,121523,1,0,0:0:0:0:
109,192,121599,1,0,0:0:0:0:
256,192,121599,1,0,0:0:0:0:
402,192,121599,1,0,0:0:0:0:
36,192,121750,1,0,0:0:0:0:
182,192,121750,1,0,0:0:0:0:
329,192,121750,1,0,0:0:0:0:
475,192,121750,1,0,0:0:0:0:
109,192,121825,1,0,0:0:0:0:
402,192,121825,1,0,0:0:0:0:
182,192,121900,1,0,0:0:0:0:
475,192,121900,1,0,0:0:0:0:
402,192,121976,1,0,0:0:0:0:
109,192,121976,1,0,0:0:0:0:
329,192,122051,1,0,0:0:0:0:
36,192,122051,1,0,0:0:0:0:
256,192,122202,1,0,0:0:0:0:
109,192,122202,1,0,0:0:0:0:
36,192,122353,1,0,0:0:0:0:
329,192,122353,1,0,0:0:0:0:
475,192,122353,1,0,0:0:0:0:
182,192,122503,1,0,0:0:0:0:
329,192,122654,1,0,0:0:0:0:
109,192,122654,1,0,0:0:0:0:
402,192,122805,1,0,0:0:0:0:
109,192,122956,1,0,0:0:0:0:
36,192,122956,1,0,0:0:0:0:
329,192,122956,1,0,0:0:0:0:
402,192,123106,1,0,0:0:0:0:
182,192,123106,1,0,0:0:0:0:
329,192,123257,1,0,0:0:0:0:
182,192,123408,1,0,0:0:0:0:
256,192,123483,1,0,0:0:0:0:
329,192,123559,1,0,0:0:0:0:
475,192,123559,1,0,0:0:0:0:
402,192,123559,1,0,0:0:0:0:
109,192,123709,1,0,0:0:0:0:
182,192,123860,1,0,0:0:0:0:
402,192,123860,1,0,0:0:0:0:
329,192,124011,1,0,0:0:0:0:
109,192,124011,1,0,0:0:0:0:
256,192,124086,1,0,0:0:0:0:
36,192,124086,1,0,0:0:0:0:
402,192,124086,1,0,0:0:0:0:
109,192,124162,1,0,0:0:0:0:
329,192,124162,1,0,0:0:0:0:
475,192,124162,1,0,0:0:0:0:
182,192,124162,1,0,0:0:0:0:
329,192,124463,1,0,0:0:0:0:
182,192,124463,1,0,0:0:0:0:
109,192,124614,1,0,0:0:0:0:
475,192,124765,1,0,0:0:0:0:
402,192,124765,1,0,0:0:0:0:
256,192,124765,1,0,0:0:0:0:
182,192,124840,1,0,0:0:0:0:
329,192,124840,1,0,0:0:0:0:
329,192,125066,1,0,0:0:0:0:
109,192,125066,1,0,0:0:0:0:
256,192,125217,1,0,0:0:0:0:
182,192,125368,1,0,0:0:0:0:
475,192,125368,1,0,0:0:0:0:
36,192,125368,1,0,0:0:0:0:
256,192,125518,1,0,0:0:0:0:
109,192,125518,1,0,0:0:0:0:
402,192,125518,1,0,0:0:0:0:
402,192,125669,1,0,0:0:0:0:
256,192,125669,1,0,0:0:0:0:
109,192,125669,1,0,0:0:0:0:
109,192,125820,1,0,0:0:0:0:
256,192,125820,1,0,0:0:0:0:
402,192,125820,1,0,0:0:0:0:
36,192,125971,1,0,0:0:0:0:
329,192,125971,1,0,0:0:0:0:
475,192,126046,1,0,0:0:0:0:
182,192,126084,1,0,0:0:0:0:
109,192,126121,1,0,0:0:0:0:
329,192,126121,1,0,0:0:0:0:
402,192,126197,1,0,0:0:0:0:
182,192,126197,1,0,0:0:0:0:
109,192,126272,1,0,0:0:0:0:
36,192,126272,1,0,0:0:0:0:
256,192,126272,1,0,0:0:0:0:
182,192,126423,1,0,0:0:0:0:
329,192,126423,1,0,0:0:0:0:
402,192,126574,1,0,0:0:0:0:
109,192,126574,1,0,0:0:0:0:
256,192,126574,1,0,0:0:0:0:
475,192,126574,1,0,0:0:0:0:
329,192,126724,1,0,0:0:0:0:
36,192,126724,1,0,0:0:0:0:
402,192,126875,1,0,0:0:0:0:
109,192,126875,1,0,0:0:0:0:
182,192,127026,1,0,0:0:0:0:
329,192,127101,1,0,0:0:0:0:
475,192,127177,1,0,0:0:0:0:
256,192,127177,1,0,0:0:0:0:
36,192,127177,1,0,0:0:0:0:
182,192,127478,1,0,0:0:0:0:
329,192,127478,1,0,0:0:0:0:
36,192,127780,1,0,0:0:0:0:
475,192,127780,1,0,0:0:0:0:
182,192,127780,1,0,0:0:0:0:
329,192,127780,1,0,0:0:0:0:
256,192,127930,1,0,0:0:0:0:
109,192,127930,1,0,0:0:0:0:
402,192,127930,1,0,0:0:0:0:
109,192,128383,1,0,0:0:0:0:
256,192,128383,1,0,0:0:0:0:
402,192,128383,1,0,0:0:0:0:
182,192,128684,1,0,0:0:0:0:
256,192,128835,1,0,0:0:0:0:
36,192,128835,1,0,0:0:0:0:
475,192,128835,1,0,0:0:0:0:
402,192,128910,1,0,0:0:0:0:
109,192,128910,1,0,0:0:0:0:
329,192,128986,1,0,0:0:0:0:
475,192,128986,1,0,0:0:0:0:
182,192,128986,1,0,0:0:0:0:
36,192,128986,1,0,0:0:0:0:
109,192,129136,1,0,0:0:0:0:
402,192,129136,1,0,0:0:0:0:
109,192,129287,1,0,0:0:0:0:
256,192,129287,1,0,0:0:0:0:
402,192,129287,1,0,0:0:0:0:
182,192,129438,1,0,0:0:0:0:
329,192,129589,1,0,0:0:0:0:
475,192,129589,1,0,0:0:0:0:
402,192,129589,1,0,0:0:0:0:
36,192,129589,1,0,0:0:0:0:
182,192,129739,1,0,0:0:0:0:
402,192,129890,1,0,0:0:0:0:
109,192,129890,1,0,0:0:0:0:
36,192,130041,1,0,0:0:0:0:
182,192,130116,1,0,0:0:0:0:
109,192,130192,1,0,0:0:0:0:
329,192,130192,1,0,0:0:0:0:
475,192,130192,1,0,0:0:0:0:
402,192,130192,1,0,0:0:0:0:
256,192,130267,1,0,0:0:0:0:
36,192,130267,1,0,0:0:0:0:
109,192,130342,1,0,0:0:0:0:
329,192,130342,1,0,0:0:0:0:
182,192,130418,1,0,0:0:0:0:
402,192,130418,1,0,0:0:0:0:
256,192,130493,1,0,0:0:0:0:
475,192,130493,1,0,0:0:0:0:
402,192,130569,1,0,0:0:0:0:
182,192,130569,1,0,0:0:0:0:
329,192,130644,1,0,0:0:0:0:
109,192,130644,1,0,0:0:0:0:
256,192,130719,1,0,0:0:0:0:
36,192,130719,1,0,0:0:0:0:
182,192,130795,1,0,0:0:0:0:
109,192,130946,1,0,0:0:0:0:
329,192,130946,1,0,0:0:0:0:
182,192,131021,1,0,0:0:0:0:
402,192,131021,1,0,0:0:0:0:
256,192,131096,1,0,0:0:0:0:
475,192,131096,1,0,0:0:0:0:
36,192,131096,1,0,0:0:0:0:
109,192,131172,1,0,0:0:0:0:
329,192,131172,1,0,0:0:0:0:
182,192,131247,1,0,0:0:0:0:
402,192,131247,1,0,0:0:0:0:
36,192,131398,1,0,0:0:0:0:
256,192,131398,1,0,0:0:0:0:
475,192,131398,1,0,0:0:0:0:
402,192,131473,1,0,0:0:0:0:
109,192,131473,1,0,0:0:0:0:
329,192,131549,1,0,0:0:0:0:
36,192,131549,1,0,0:0:0:0:
256,192,131624,1,0,0:0:0:0:
475,192,131624,1,0,0:0:0:0:
182,192,131699,1,0,0:0:0:0:
109,192,131850,1,0,0:0:0:0:
329,192,131850,1,0,0:0:0:0:
182,192,132001,1,0,0:0:0:0:
475,192,132001,1,0,0:0:0:0:
36,192,132001,1,0,0:0:0:0:
402,192,132001,1,0,0:0:0:0:
109,192,132152,1,0,0:0:0:0:
329,192,132152,1,0,0:0:0:0:
475,192,132302,1,0,0:0:0:0:
402,192,132302,1,0,0:0:0:0:
36,192,132302,1,0,0:0:0:0:
256,192,132302,1,0,0:0:0:0:
329,192,132453,1,0,0:0:0:0:
182,192,132453,1,0,0:0:0:0:
402,192,132604,1,0,0:0:0:0:
109,192,132604,1,0,0:0:0:0:
256,192,132604,1,0,0:0:0:0:
329,192,132755,1,0,0:0:0:0:
182,192,132755,1,0,0:0:0:0:
109,192,132905,1,0,0:0:0:0:
402,192,132905,1,0,0:0:0:0:
475,192,132905,1,0,0:0:0:0:
36,192,132905,1,0,0:0:0:0:
256,192,133056,1,0,0:0:0:0:
182,192,133207,1,0,0:0:0:0:
402,192,133207,1,0,0:0:0:0:
475,192,133207,1,0,0:0:0:0:
329,192,133358,1,0,0:0:0:0:
256,192,133508,1,0,0:0:0:0:
36,192,133508,1,0,0:0:0:0:
109,192,133508,1,0,0:0:0:0:
402,192,133508,1,0,0:0:0:0:
182,192,133659,1,0,0:0:0:0:
475,192,133659,1,0,0:0:0:0:
402,192,133810,1,0,0:0:0:0:
36,192,133810,1,0,0:0:0:0:
109,192,133810,1,0,0:0:0:0:
182,192,133885,1,0,0:0:0:0:
256,192,133961,1,0,0:0:0:0:
402,192,134111,1,0,0:0:0:0:
475,192,134111,1,0,0:0:0:0:
109,192,134111,1,0,0:0:0:0:
36,192,134111,1,0,0:0:0:0:
256,192,134262,1,0,0:0:0:0:
109,192,134413,1,0,0:0:0:0:
329,192,134413,1,0,0:0:0:0:
402,192,134413,1,0,0:0:0:0:
475,192,134564,1,0,0:0:0:0:
182,192,134564,1,0,0:0:0:0:
402,192,134714,1,0,0:0:0:0:
329,192,134714,1,0,0:0:0:0:
109,192,134714,1,0,0:0:0:0:
182,192,134865,1,0,0:0:0:0:
475,192,134865,1,0,0:0:0:0:
36,192,134865,1,0,0:0:0:0:
329,192,134865,1,0,0:0:0:0:
256,192,135016,1,0,0:0:0:0:
402,192,135016,1,0,0:0:0:0:
109,192,135016,1,0,0:0:0:0:
329,192,135167,1,0,0:0:0:0:
182,192,135167,1,0,0:0:0:0:
475,192,135167,1,0,0:0:0:0:
256,192,135317,1,0,0:0:0:0:
402,192,135317,1,0,0:0:0:0:
36,192,135317,1,0,0:0:0:0:
475,192,135317,1,0,0:0:0:0:
182,192,135393,1,0,0:0:0:0:
329,192,135393,1,0,0:0:0:0:
109,192,135393,1,0,0:0:0:0:
475,192,135468,1,0,0:0:0:0:
402,192,135468,1,0,0:0:0:0:
256,192,135468,1,0,0:0:0:0:
256,192,135543,1,0,0:0:0:0:
475,192,135543,1,0,0:0:0:0:
402,192,135543,1,0,0:0:0:0:
329,192,135619,1,0,0:0:0:0:
36,192,135619,1,0,0:0:0:0:
109,192,135845,1,0,0:0:0:0:
402,192,135845,1,0,0:0:0:0:
256,192,136071,1,0,0:0:0:0:
109,192,136222,1,0,0:0:0:0:
182,192,136373,1,0,0:0:0:0:
256,192,136523,1,0,0:0:0:0:
182,192,136674,1,0,0:0:0:0:
475,192,136825,1,0,0:0:0:0:
109,192,136825,1,0,0:0:0:0:
329,192,136825,1,0,0:0:0:0:
256,192,137126,1,0,0:0:0:0:
36,192,137126,1,0,0:0:0:0:
36,192,137353,1,0,0:0:0:0:
402,192,137353,1,0,0:0:0:0:
182,192,137353,1,0,0:0:0:0:
109,192,137428,1,0,0:0:0:0:
475,192,137428,1,0,0:0:0:0:
256,192,137428,1,0,0:0:0:0:
329,192,137428,1,0,0:0:0:0:
182,192,137579,1,0,0:0:0:0:
256,192,137729,1,0,0:0:0:0:
475,192,137729,1,0,0:0:0:0:
402,192,137729,1,0,0:0:0:0:
182,192,137880,1,0,0:0:0:0:
329,192,138031,1,0,0:0:0:0:
182,192,138182,1,0,0:0:0:0:
256,192,138332,1,0,0:0:0:0:
329,192,138483,1,0,0:0:0:0:
402,192,138634,1,0,0:0:0:0:
475,192,138634,1,0,0:0:0:0:
109,192,138634,1,0,0:0:0:0:
182,192,138634,1,0,0:0:0:0:
329,192,138785,1,0,0:0:0:0:
36,192,138785,1,0,0:0:0:0:
182,192,138935,1,0,0:0:0:0:
402,192,138935,1,0,0:0:0:0:
329,192,139086,1,0,0:0:0:0:
109,192,139086,1,0,0:0:0:0:
256,192,139237,1,0,0:0:0:0:
36,192,139237,1,0,0:0:0:0:
475,192,139237,1,0,0:0:0:0:
256,192,139538,1,0,0:0:0:0:
475,192,139538,1,0,0:0:0:0:
329,192,139689,1,0,0:0:0:0:
109,192,139689,1,0,0:0:0:0:
182,192,139765,1,0,0:0:0:0:
36,192,139765,1,0,0:0:0:0:
402,192,139765,1,0,0:0:0:0:
256,192,139840,1,0,0:0:0:0:
475,192,139840,1,0,0:0:0:0:
109,192,139840,1,0,0:0:0:0:
329,192,139840,1,0,0:0:0:0:
182,192,139991,1,0,0:0:0:0:
402,192,139991,1,0,0:0:0:0:
109,192,140141,1,0,0:0:0:0:
36,192,140141,1,0,0:0:0:0:
329,192,140141,1,0,0:0:0:0:
182,192,140217,1,0,0:0:0:0:
256,192,140292,1,0,0:0:0:0:
475,192,140292,1,0,0:0:0:0:
329,192,140368,1,0,0:0:0:0:
109,192,140368,1,0,0:0:0:0:
182,192,140443,1,0,0:0:0:0:
36,192,140443,1,0,0:0:0:0:
256,192,140518,1,0,0:0:0:0:
402,192,140594,1,0,0:0:0:0:
182,192,140594,1,0,0:0:0:0:
329,192,140669,1,0,0:0:0:0:
109,192,140669,1,0,0:0:0:0:
256,192,140745,1,0,0:0:0:0:
36,192,140745,1,0,0:0:0:0:
475,192,140745,1,0,0:0:0:0:
402,192,140820,1,0,0:0:0:0:
329,192,140895,1,0,0:0:0:0:
109,192,140895,1,0,0:0:0:0:
182,192,140971,1,0,0:0:0:0:
402,192,140971,1,0,0:0:0:0:
475,192,141046,1,0,0:0:0:0:
36,192,141046,1,0,0:0:0:0:
109,192,141046,1,0,0:0:0:0:
256,192,141046,1,0,0:0:0:0:
402,192,141197,1,0,0:0:0:0:
182,192,141197,1,0,0:0:0:0:
36,192,141348,1,0,0:0:0:0:
329,192,141348,1,0,0:0:0:0:
109,192,141498,1,0,0:0:0:0:
256,192,141498,1,0,0:0:0:0:
402,192,141649,1,0,0:0:0:0:
475,192,141649,1,0,0:0:0:0:
329,192,141649,1,0,0:0:0:0:
182,192,141951,1,0,0:0:0:0:
36,192,141951,1,0,0:0:0:0:
182,192,142177,1,0,0:0:0:0:
329,192,142177,1,0,0:0:0:0:
475,192,142177,1,0,0:0:0:0:
36,192,142252,1,0,0:0:0:0:
109,192,142252,1,0,0:0:0:0:
256,192,142252,1,0,0:0:0:0:
402,192,142252,1,0,0:0:0:0:
182,192,142403,1,0,0:0:0:0:
329,192,142403,1,0,0:0:0:0:
475,192,142554,1,0,0:0:0:0:
256,192,142554,1,0,0:0:0:0:
329,192,142629,1,0,0:0:0:0:
402,192,142704,1,0,0:0:0:0:
475,192,142780,1,0,0:0:0:0:
109,192,142855,1,0,0:0:0:0:
182,192,142930,1,0,0:0:0:0:
36,192,143006,1,0,0:0:0:0:
109,192,143081,1,0,0:0:0:0:
402,192,143157,1,0,0:0:0:0:
329,192,143232,1,0,0:0:0:0:
256,192,143307,1,0,0:0:0:0:
36,192,143458,1,0,0:0:0:0:
475,192,143458,1,0,0:0:0:0:
182,192,143458,1,0,0:0:0:0:
256,192,143609,1,0,0:0:0:0:
402,192,143609,1,0,0:0:0:0:
109,192,143609,1,0,0:0:0:0:
36,192,143760,1,0,0:0:0:0:
182,192,143760,1,0,0:0:0:0:
402,192,143910,1,0,0:0:0:0:
329,192,143910,1,0,0:0:0:0:
475,192,144061,1,0,0:0:0:0:
36,192,144061,1,0,0:0:0:0:
109,192,144061,1,0,0:0:0:0:
182,192,144136,1,0,0:0:0:0:
256,192,144212,1,0,0:0:0:0:
402,192,144363,1,0,0:0:0:0:
329,192,144438,1,0,0:0:0:0:
36,192,144589,1,0,0:0:0:0:
182,192,144589,1,0,0:0:0:0:
402,192,144589,1,0,0:0:0:0:
475,192,144664,1,0,0:0:0:0:
109,192,144664,1,0,0:0:0:0:
256,192,144664,1,0,0:0:0:0:
182,192,144815,1,0,0:0:0:0:
329,192,144890,1,0,0:0:0:0:
36,192,144966,1,0,0:0:0:0:
475,192,144966,1,0,0:0:0:0:
402,192,144966,1,0,0:0:0:0:
329,192,145116,1,0,0:0:0:0:
109,192,145116,1,0,0:0:0:0:
182,192,145267,1,0,0:0:0:0:
402,192,145267,1,0,0:0:0:0:
36,192,145418,1,0,0:0:0:0:
109,192,145493,1,0,0:0:0:0:
402,192,145569,1,0,0:0:0:0:
475,192,145569,1,0,0:0:0:0:
329,192,145569,1,0,0:0:0:0:
256,192,145719,1,0,0:0:0:0:
109,192,145719,1,0,0:0:0:0:
182,192,145870,1,0,0:0:0:0:
402,192,145870,1,0,0:0:0:0:
329,192,145870,1,0,0:0:0:0:
36,192,146021,1,0,0:0:0:0:
475,192,146021,1,0,0:0:0:0:
109,192,146096,1,0,0:0:0:0:
402,192,146096,1,0,0:0:0:0:
182,192,146172,1,0,0:0:0:0:
329,192,146172,1,0,0:0:0:0:
256,192,146247,1,0,0:0:0:0:
475,192,146322,1,0,0:0:0:0:
36,192,146322,1,0,0:0:0:0:
109,192,146398,1,0,0:0:0:0:
402,192,146398,1,0,0:0:0:0:
256,192,146473,1,0,0:0:0:0:
182,192,146473,1,0,0:0:0:0:
329,192,146473,1,0,0:0:0:0:
109,192,146775,1,0,0:0:0:0:
475,192,146775,1,0,0:0:0:0:
36,192,146775,1,0,0:0:0:0:
402,192,146775,1,0,0:0:0:0:
109,192,147076,1,0,0:0:0:0:
182,192,147152,1,0,0:0:0:0:
329,192,147227,1,0,0:0:0:0:
402,192,147227,1,0,0:0:0:0:
36,192,147227,1,0,0:0:0:0:
36,192,147378,1,0,0:0:0:0:
475,192,147378,1,0,0:0:0:0:
329,192,147378,1,0,0:0:0:0:
182,192,147378,1,0,0:0:0:0:
329,192,147528,1,0,0:0:0:0:
109,192,147679,1,0,0:0:0:0:
402,192,147679,1,0,0:0:0:0:
256,192,147679,1,0,0:0:0:0:
329,192,147830,1,0,0:0:0:0:
182,192,147830,1,0,0:0:0:0:
109,192,147981,1,0,0:0:0:0:
475,192,147981,1,0,0:0:0:0:
402,192,147981,1,0,0:0:0:0:
329,192,148131,1,0,0:0:0:0:
36,192,148131,1,0,0:0:0:0:
109,192,148282,1,0,0:0:0:0:
256,192,148282,1,0,0:0:0:0:
402,192,148282,1,0,0:0:0:0:
182,192,148433,1,0,0:0:0:0:
475,192,148433,1,0,0:0:0:0:
329,192,148433,1,0,0:0:0:0:
36,192,148584,1,0,0:0:0:0:
109,192,148584,1,0,0:0:0:0:
329,192,148584,1,0,0:0:0:0:
182,192,148734,1,0,0:0:0:0:
402,192,148734,1,0,0:0:0:0:
329,192,148885,1,0,0:0:0:0:
256,192,148885,1,0,0:0:0:0:
475,192,148885,1,0,0:0:0:0:
109,192,149187,1,0,0:0:0:0:
256,192,149187,1,0,0:0:0:0:
402,192,149187,1,0,0:0:0:0:
182,192,149337,1,0,0:0:0:0:
475,192,149337,1,0,0:0:0:0:
402,192,149488,1,0,0:0:0:0:
329,192,149488,1,0,0:0:0:0:
36,192,149488,1,0,0:0:0:0:
256,192,149639,1,0,0:0:0:0:
109,192,149639,1,0,0:0:0:0:
182,192,149790,1,0,0:0:0:0:
475,192,149790,1,0,0:0:0:0:
402,192,149790,1,0,0:0:0:0:
329,192,149940,1,0,0:0:0:0:
36,192,149940,1,0,0:0:0:0:
109,192,150091,1,0,0:0:0:0:
256,192,150091,1,0,0:0:0:0:
475,192,150091,1,0,0:0:0:0:
402,192,150242,1,0,0:0:0:0:
182,192,150242,1,0,0:0:0:0:
329,192,150393,1,0,0:0:0:0:
36,192,150393,1,0,0:0:0:0:
475,192,150393,1,0,0:0:0:0:
256,192,150543,1,0,0:0:0:0:
109,192,150543,1,0,0:0:0:0:
329,192,150694,1,0,0:0:0:0:
182,192,150694,1,0,0:0:0:0:
402,192,150845,1,0,0:0:0:0:
109,192,150845,1,0,0:0:0:0:
475,192,150845,1,0,0:0:0:0:
329,192,150996,1,0,0:0:0:0:
256,192,150996,1,0,0:0:0:0:
36,192,150996,1,0,0:0:0:0:
182,192,151147,1,0,0:0:0:0:
329,192,151297,1,0,0:0:0:0:
109,192,151297,1,0,0:0:0:0:
36,192,151297,1,0,0:0:0:0:
256,192,151448,1,0,0:0:0:0:
182,192,151448,1,0,0:0:0:0:
402,192,151599,1,0,0:0:0:0:
329,192,151599,1,0,0:0:0:0:
475,192,151599,1,0,0:0:0:0:
182,192,151750,1,0,0:0:0:0:
36,192,151750,1,0,0:0:0:0:
109,192,151900,1,0,0:0:0:0:
256,192,151900,1,0,0:0:0:0:
402,192,151900,1,0,0:0:0:0:
182,192,152051,1,0,0:0:0:0:
475,192,152051,1,0,0:0:0:0:
402,192,152202,1,0,0:0:0:0:
256,192,152202,1,0,0:0:0:0:
36,192,152202,1,0,0:0:0:0:
109,192,152353,1,0,0:0:0:0:
182,192,152503,1,0,0:0:0:0:
329,192,152503,1,0,0:0:0:0:
475,192,152503,1,0,0:0:0:0:
402,192,152654,1,0,0:0:0:0:
256,192,152805,1,0,0:0:0:0:
109,192,152805,1,0,0:0:0:0:
36,192,152805,1,0,0:0:0:0:
182,192,152956,1,0,0:0:0:0:
402,192,152956,1,0,0:0:0:0:
256,192,153106,1,0,0:0:0:0:
475,192,153106,1,0,0:0:0:0:
36,192,153106,1,0,0:0:0:0:
329,192,153182,1,0,0:0:0:0:
109,192,153182,1,0,0:0:0:0:
402,192,153257,1,0,0:0:0:0:
182,192,153257,1,0,0:0:0:0:
329,192,153408,1,0,0:0:0:0:
256,192,153408,1,0,0:0:0:0:
36,192,153408,1,0,0:0:0:0:
182,192,153559,1,0,0:0:0:0:
402,192,153709,1,0,0:0:0:0:
109,192,153709,1,0,0:0:0:0:
475,192,153709,1,0,0:0:0:0:
329,192,153860,1,0,0:0:0:0:
182,192,153860,1,0,0:0:0:0:
256,192,154011,1,0,0:0:0:0:
109,192,154011,1,0,0:0:0:0:
36,192,154011,1,0,0:0:0:0:
182,192,154162,1,0,0:0:0:0:
402,192,154162,1,0,0:0:0:0:
329,192,154312,1,0,0:0:0:0:
475,192,154312,1,0,0:0:0:0:
36,192,154312,1,0,0:0:0:0:
256,192,154463,1,0,0:0:0:0:
109,192,154463,1,0,0:0:0:0:
329,192,154614,1,0,0:0:0:0:
182,192,154614,1,0,0:0:0:0:
475,192,154614,1,0,0:0:0:0:
402,192,154689,1,0,0:0:0:0:
109,192,154689,1,0,0:0:0:0:
329,192,154765,1,0,0:0:0:0:
36,192,154765,1,0,0:0:0:0:
109,192,154915,1,0,0:0:0:0:
475,192,154915,1,0,0:0:0:0:
256,192,154915,1,0,0:0:0:0:
402,192,155066,5,0,0:0:0:0:
36,192,155217,1,0,0:0:0:0:
109,192,155255,1,0,0:0:0:0:
182,192,155292,1,0,0:0:0:0:
402,192,155330,1,0,0:0:0:0:
329,192,155368,1,0,0:0:0:0:
256,192,155405,1,0,0:0:0:0:
182,192,155443,1,0,0:0:0:0:
109,192,155481,1,0,0:0:0:0:
36,192,155518,1,0,0:0:0:0:
329,192,155556,1,0,0:0:0:0:
402,192,155594,1,0,0:0:0:0:
475,192,155631,1,0,0:0:0:0:
109,192,155669,1,0,0:0:0:0:
182,192,155707,1,0,0:0:0:0:
256,192,155745,1,0,0:0:0:0:
329,192,155782,1,0,0:0:0:0:
402,192,155820,1,0,0:0:0:0:
36,192,155858,1,0,0:0:0:0:
109,192,155895,1,0,0:0:0:0:
182,192,155933,1,0,0:0:0:0:
475,192,155971,1,0,0:0:0:0:
402,192,156008,1,0,0:0:0:0:
329,192,156046,1,0,0:0:0:0:
256,192,156084,1,0,0:0:0:0:
36,192,156121,5,0,0:0:0:0:
182,192,156121,1,0,0:0:0:0:
402,192,156121,1,0,0:0:0:0:
109,192,156423,1,0,0:0:0:0:
182,192,156574,1,0,0:0:0:0:
329,192,156875,1,0,0:0:0:0:
402,192,157026,1,0,0:0:0:0:
36,192,157026,1,0,0:0:0:0:
329,192,158081,1,0,0:0:0:0:
256,192,158307,1,0,0:0:0:0:
36,192,158533,1,0,0:0:0:0:
475,192,158533,1,0,0:0:0:0:
256,192,158835,1,0,0:0:0:0:
329,192,158986,1,0,0:0:0:0:
329,192,159287,1,0,0:0:0:0:
256,192,159438,1,0,0:0:0:0:
475,192,159438,1,0,0:0:0:0:
182,192,160531,1,0,0:0:0:0:
256,192,160719,1,0,0:0:0:0:
182,192,160946,1,0,0:0:0:0:
36,192,160946,1,0,0:0:0:0:
329,192,161247,1,0,0:0:0:0:
256,192,161398,1,0,0:0:0:0:
109,192,161699,1,0,0:0:0:0:
182,192,161850,1,0,0:0:0:0:
402,192,161850,1,0,0:0:0:0:
329,192,162943,1,0,0:0:0:0:
256,192,163131,1,0,0:0:0:0:
182,192,163358,1,0,0:0:0:0:
36,192,163358,1,0,0:0:0:0:
329,192,163659,1,0,0:0:0:0:
256,192,163810,1,0,0:0:0:0:
256,192,164111,1,0,0:0:0:0:
402,192,164187,1,0,0:0:0:0:
36,192,164262,1,0,0:0:0:0:
182,192,164262,1,0,0:0:0:0:
329,192,164413,1,0,0:0:0:0:
256,192,164488,1,0,0:0:0:0:
182,192,164564,1,0,0:0:0:0:
36,192,164639,1,0,0:0:0:0:
109,192,164714,1,0,0:0:0:0:
182,192,164790,1,0,0:0:0:0:
256,192,164865,1,0,0:0:0:0:
329,192,164940,1,0,0:0:0:0:
402,192,165016,1,0,0:0:0:0:
475,192,165091,1,0,0:0:0:0:
109,192,165167,1,0,0:0:0:0:
182,192,165242,1,0,0:0:0:0:
256,192,165317,1,0,0:0:0:0:
329,192,165393,1,0,0:0:0:0:
402,192,165468,1,0,0:0:0:0:
36,192,165543,1,0,0:0:0:0:
109,192,165619,1,0,0:0:0:0:
182,192,165694,1,0,0:0:0:0:
256,192,165770,1,0,0:0:0:0:
475,192,165770,1,0,0:0:0:0:
256,192,166071,1,0,0:0:0:0:
182,192,166222,1,0,0:0:0:0:
402,192,166523,1,0,0:0:0:0:
329,192,166674,1,0,0:0:0:0:
182,192,166674,1,0,0:0:0:0:
109,192,167767,1,0,0:0:0:0:
182,192,167956,1,0,0:0:0:0:
256,192,168182,1,0,0:0:0:0:
402,192,168182,1,0,0:0:0:0:
182,192,168483,1,0,0:0:0:0:
109,192,168634,1,0,0:0:0:0:
256,192,168935,1,0,0:0:0:0:
329,192,169086,1,0,0:0:0:0:
475,192,169086,1,0,0:0:0:0:
329,192,169689,1,0,0:0:0:0:
109,192,170179,1,0,0:0:0:0:
182,192,170368,1,0,0:0:0:0:
329,192,170594,1,0,0:0:0:0:
475,192,170594,1,0,0:0:0:0:
182,192,170895,1,0,0:0:0:0:
109,192,171046,1,0,0:0:0:0:
182,192,171348,1,0,0:0:0:0:
256,192,171498,1,0,0:0:0:0:
402,192,171498,1,0,0:0:0:0:
182,192,171800,1,0,0:0:0:0:
256,192,172591,1,0,0:0:0:0:
182,192,172780,1,0,0:0:0:0:
109,192,173006,1,0,0:0:0:0:
329,192,173006,1,0,0:0:0:0:
182,192,173307,1,0,0:0:0:0:
256,192,173458,1,0,0:0:0:0:
329,192,173760,1,0,0:0:0:0:
36,192,173910,1,0,0:0:0:0:
182,192,173910,1,0,0:0:0:0:
402,192,173910,1,0,0:0:0:0:
402,192,174212,1,0,0:0:0:0:
475,192,174438,1,0,0:0:0:0:
109,192,174513,1,0,0:0:0:0:
182,192,174589,1,0,0:0:0:0:
256,192,174664,1,0,0:0:0:0:
329,192,174739,1,0,0:0:0:0:
402,192,174815,1,0,0:0:0:0:
475,192,174890,1,0,0:0:0:0:
36,192,174966,1,0,0:0:0:0:
109,192,175041,1,0,0:0:0:0:
182,192,175116,1,0,0:0:0:0:
256,192,175192,1,0,0:0:0:0:
329,192,175267,1,0,0:0:0:0:
402,192,175342,1,0,0:0:0:0:
475,192,175418,1,0,0:0:0:0:
36,192,175418,1,0,0:0:0:0:
109,192,175418,1,0,0:0:0:0:
182,192,175719,1,0,0:0:0:0:
402,192,175719,1,0,0:0:0:0:
256,192,175870,1,0,0:0:0:0:
109,192,176021,1,0,0:0:0:0:
36,192,176021,1,0,0:0:0:0:
182,192,176172,1,0,0:0:0:0:
256,192,176322,1,0,0:0:0:0:
402,192,176322,1,0,0:0:0:0:
36,192,176473,1,0,0:0:0:0:
109,192,176549,1,0,0:0:0:0:
182,192,176624,1,0,0:0:0:0:
402,192,176624,1,0,0:0:0:0:
256,192,176925,1,0,0:0:0:0:
36,192,176925,1,0,0:0:0:0:
109,192,177076,1,0,0:0:0:0:
402,192,177076,1,0,0:0:0:0:
182,192,177227,1,0,0:0:0:0:
475,192,177227,1,0,0:0:0:0:
329,192,177227,1,0,0:0:0:0:
256,192,177378,1,0,0:0:0:0:
36,192,177378,1,0,0:0:0:0:
109,192,177528,1,0,0:0:0:0:
329,192,177528,1,0,0:0:0:0:
475,192,177528,1,0,0:0:0:0:
182,192,177679,1,0,0:0:0:0:
402,192,177679,1,0,0:0:0:0:
329,192,177755,1,0,0:0:0:0:
109,192,177755,1,0,0:0:0:0:
256,192,177830,1,0,0:0:0:0:
36,192,177830,1,0,0:0:0:0:
475,192,177830,1,0,0:0:0:0:
109,192,177981,1,0,0:0:0:0:
329,192,178131,1,0,0:0:0:0:
402,192,178131,1,0,0:0:0:0:
475,192,178131,1,0,0:0:0:0:
256,192,178282,1,0,0:0:0:0:
36,192,178282,1,0,0:0:0:0:
182,192,178433,1,0,0:0:0:0:
402,192,178433,1,0,0:0:0:0:
329,192,178584,1,0,0:0:0:0:
256,192,178659,1,0,0:0:0:0:
182,192,178734,1,0,0:0:0:0:
109,192,178734,1,0,0:0:0:0:
36,192,178734,1,0,0:0:0:0:
329,192,178885,1,0,0:0:0:0:
256,192,178961,1,0,0:0:0:0:
182,192,179036,1,0,0:0:0:0:
475,192,179036,1,0,0:0:0:0:
36,192,179036,1,0,0:0:0:0:
182,192,179187,1,0,0:0:0:0:
329,192,179337,1,0,0:0:0:0:
475,192,179337,1,0,0:0:0:0:
256,192,179488,1,0,0:0:0:0:
36,192,179488,1,0,0:0:0:0:
109,192,179639,1,0,0:0:0:0:
329,192,179639,1,0,0:0:0:0:
182,192,179790,1,0,0:0:0:0:
475,192,179790,1,0,0:0:0:0:
402,192,179940,1,0,0:0:0:0:
329,192,179940,1,0,0:0:0:0:
36,192,179940,1,0,0:0:0:0:
256,192,180091,1,0,0:0:0:0:
109,192,180091,1,0,0:0:0:0:
182,192,180242,1,0,0:0:0:0:
402,192,180242,1,0,0:0:0:0:
36,192,180242,1,0,0:0:0:0:
329,192,180393,1,0,0:0:0:0:
109,192,180393,1,0,0:0:0:0:
182,192,180543,1,0,0:0:0:0:
475,192,180543,1,0,0:0:0:0:
36,192,180543,1,0,0:0:0:0:
402,192,180694,1,0,0:0:0:0:
109,192,180694,1,0,0:0:0:0:
256,192,180845,1,0,0:0:0:0:
475,192,180845,1,0,0:0:0:0:
329,192,180996,1,0,0:0:0:0:
182,192,181071,1,0,0:0:0:0:
109,192,181147,1,0,0:0:0:0:
36,192,181147,1,0,0:0:0:0:
402,192,181147,1,0,0:0:0:0:
182,192,181297,1,0,0:0:0:0:
475,192,181297,1,0,0:0:0:0:
402,192,181448,1,0,0:0:0:0:
329,192,181448,1,0,0:0:0:0:
256,192,181448,1,0,0:0:0:0:
182,192,181750,1,0,0:0:0:0:
109,192,181750,1,0,0:0:0:0:
36,192,181750,1,0,0:0:0:0:
329,192,181900,1,0,0:0:0:0:
475,192,181900,1,0,0:0:0:0:
402,192,182051,1,0,0:0:0:0:
109,192,182051,1,0,0:0:0:0:
256,192,182051,1,0,0:0:0:0:
182,192,182202,1,0,0:0:0:0:
256,192,182353,1,0,0:0:0:0:
402,192,182353,1,0,0:0:0:0:
475,192,182353,1,0,0:0:0:0:
329,192,182503,1,0,0:0:0:0:
182,192,182654,1,0,0:0:0:0:
402,192,182654,1,0,0:0:0:0:
36,192,182654,1,0,0:0:0:0:
402,192,182956,1,0,0:0:0:0:
475,192,182956,1,0,0:0:0:0:
109,192,182956,1,0,0:0:0:0:
256,192,183106,1,0,0:0:0:0:
182,192,183257,1,0,0:0:0:0:
329,192,183257,1,0,0:0:0:0:
36,192,183257,1,0,0:0:0:0:
402,192,183408,1,0,0:0:0:0:
329,192,183483,1,0,0:0:0:0:
256,192,183559,1,0,0:0:0:0:
109,192,183559,1,0,0:0:0:0:
36,192,183559,1,0,0:0:0:0:
182,192,183709,1,0,0:0:0:0:
256,192,183860,1,0,0:0:0:0:
475,192,183860,1,0,0:0:0:0:
402,192,183860,1,0,0:0:0:0:
109,192,184011,1,0,0:0:0:0:
329,192,184162,1,0,0:0:0:0:
36,192,184162,1,0,0:0:0:0:
109,192,184312,1,0,0:0:0:0:
182,192,184463,1,0,0:0:0:0:
256,192,184614,1,0,0:0:0:0:
329,192,184765,1,0,0:0:0:0:
182,192,184915,1,0,0:0:0:0:
475,192,185066,5,0,0:0:0:0:
256,192,185066,1,0,0:0:0:0:
109,192,185066,1,0,0:0:0:0:
182,192,185217,1,0,0:0:0:0:
36,192,185217,1,0,0:0:0:0:
402,192,185217,1,0,0:0:0:0:
475,192,185368,1,0,0:0:0:0:
329,192,185368,1,0,0:0:0:0:
109,192,185368,1,0,0:0:0:0:
256,192,185368,1,0,0:0:0:0:
182,192,185518,1,0,0:0:0:0:
36,192,185518,1,0,0:0:0:0:
402,192,185518,1,0,0:0:0:0:
402,192,185669,1,0,0:0:0:0:
109,192,185669,1,0,0:0:0:0:
329,192,185669,1,0,0:0:0:0:
182,192,185820,1,0,0:0:0:0:
36,192,185820,1,0,0:0:0:0:
475,192,185820,1,0,0:0:0:0:
402,192,185971,1,0,0:0:0:0:
256,192,185971,1,0,0:0:0:0:
109,192,185971,1,0,0:0:0:0:
182,192,186121,1,0,0:0:0:0:
36,192,186121,1,0,0:0:0:0:
329,192,186121,1,0,0:0:0:0:
402,192,186272,1,0,0:0:0:0:
475,192,186272,1,0,0:0:0:0:
109,192,186272,1,0,0:0:0:0:
36,192,186423,1,0,0:0:0:0:
256,192,186423,1,0,0:0:0:0:
329,192,186423,1,0,0:0:0:0:
475,192,186574,1,0,0:0:0:0:
109,192,186574,1,0,0:0:0:0:
182,192,186574,1,0,0:0:0:0:
36,192,186724,1,0,0:0:0:0:
329,192,186724,1,0,0:0:0:0:
402,192,186724,1,0,0:0:0:0:
475,192,186875,1,0,0:0:0:0:
182,192,186875,1,0,0:0:0:0:
256,192,186875,1,0,0:0:0:0:
36,192,187026,1,0,0:0:0:0:
329,192,187026,1,0,0:0:0:0:
109,192,187026,1,0,0:0:0:0:
329,192,187177,1,0,0:0:0:0:
402,192,187177,1,0,0:0:0:0:
475,192,187177,1,0,0:0:0:0:
182,192,187327,1,0,0:0:0:0:
109,192,187327,1,0,0:0:0:0:
36,192,187327,1,0,0:0:0:0:
329,192,187478,1,0,0:0:0:0:
402,192,187478,1,0,0:0:0:0:
475,192,187478,1,0,0:0:0:0:
182,192,187629,1,0,0:0:0:0:
109,192,187629,1,0,0:0:0:0:
36,192,187629,1,0,0:0:0:0:
329,192,187780,1,0,0:0:0:0:
402,192,187780,1,0,0:0:0:0:
475,192,187780,1,0,0:0:0:0:
182,192,187930,1,0,0:0:0:0:
109,192,187930,1,0,0:0:0:0:
36,192,187930,1,0,0:0:0:0:
329,192,188081,1,0,0:0:0:0:
402,192,188081,1,0,0:0:0:0:
475,192,188081,1,0,0:0:0:0:
109,192,188232,1,0,0:0:0:0:
36,192,188232,1,0,0:0:0:0:
182,192,188232,1,0,0:0:0:0:
329,192,188383,1,0,0:0:0:0:
402,192,188383,1,0,0:0:0:0:
475,192,188383,1,0,0:0:0:0:
182,192,188533,1,0,0:0:0:0:
109,192,188533,1,0,0:0:0:0:
36,192,188533,1,0,0:0:0:0:
329,192,188684,1,0,0:0:0:0:
402,192,188684,1,0,0:0:0:0:
475,192,188684,1,0,0:0:0:0:
182,192,188835,1,0,0:0:0:0:
109,192,188835,1,0,0:0:0:0:
36,192,188835,1,0,0:0:0:0:
329,192,188986,1,0,0:0:0:0:
402,192,188986,1,0,0:0:0:0:
475,192,188986,1,0,0:0:0:0:
182,192,189136,1,0,0:0:0:0:
109,192,189136,1,0,0:0:0:0:
36,192,189136,1,0,0:0:0:0:
329,192,189287,1,0,0:0:0:0:
475,192,189287,1,0,0:0:0:0:
402,192,189287,1,0,0:0:0:0:
182,192,189438,1,0,0:0:0:0:
109,192,189438,1,0,0:0:0:0:
36,192,189438,1,0,0:0:0:0:
329,192,189589,1,0,0:0:0:0:
402,192,189589,1,0,0:0:0:0:
475,192,189589,1,0,0:0:0:0:
182,192,189739,1,0,0:0:0:0:
109,192,189739,1,0,0:0:0:0:
36,192,189739,1,0,0:0:0:0:
256,192,189890,1,0,0:0:0:0:
475,192,189890,1,0,0:0:0:0:
182,192,189966,1,0,0:0:0:0:
402,192,189966,1,0,0:0:0:0:
109,192,190041,1,0,0:0:0:0:
329,192,190041,1,0,0:0:0:0:
36,192,190116,1,0,0:0:0:0:
256,192,190116,1,0,0:0:0:0:
329,192,190192,1,0,0:0:0:0:
109,192,190192,1,0,0:0:0:0:
402,192,190267,1,0,0:0:0:0:
182,192,190267,1,0,0:0:0:0:
475,192,190342,1,0,0:0:0:0:
256,192,190342,1,0,0:0:0:0:
109,192,190418,1,0,0:0:0:0:
329,192,190418,1,0,0:0:0:0:
182,192,190493,1,0,0:0:0:0:
402,192,190493,1,0,0:0:0:0:
256,192,190569,1,0,0:0:0:0:
475,192,190569,1,0,0:0:0:0:
329,192,190644,1,0,0:0:0:0:
109,192,190644,1,0,0:0:0:0:
402,192,190719,1,0,0:0:0:0:
182,192,190719,1,0,0:0:0:0:
475,192,190795,1,0,0:0:0:0:
256,192,190795,1,0,0:0:0:0:
329,192,190870,1,0,0:0:0:0:
36,192,190870,1,0,0:0:0:0:
402,192,190946,1,0,0:0:0:0:
109,192,190946,1,0,0:0:0:0:
329,192,191021,1,0,0:0:0:0:
182,192,191021,1,0,0:0:0:0:
256,192,191096,1,0,0:0:0:0:
475,192,191096,1,0,0:0:0:0:
182,192,191172,1,0,0:0:0:0:
402,192,191172,1,0,0:0:0:0:
109,192,191247,1,0,0:0:0:0:
329,192,191247,1,0,0:0:0:0:
36,192,191322,1,0,0:0:0:0:
256,192,191322,1,0,0:0:0:0:
182,192,191398,1,0,0:0:0:0:
109,192,191398,1,0,0:0:0:0:
256,192,191473,1,0,0:0:0:0:
402,192,191473,1,0,0:0:0:0:
329,192,191549,1,0,0:0:0:0:
475,192,191549,1,0,0:0:0:0:
402,192,191624,1,0,0:0:0:0:
36,192,191624,1,0,0:0:0:0:
475,192,191699,1,0,0:0:0:0:
182,192,191699,1,0,0:0:0:0:
402,192,191737,1,0,0:0:0:0:
109,192,191737,1,0,0:0:0:0:
329,192,191775,1,0,0:0:0:0:
36,192,191775,1,0,0:0:0:0:
256,192,191812,1,0,0:0:0:0:
475,192,191812,1,0,0:0:0:0:
182,192,191850,1,0,0:0:0:0:
402,192,191850,1,0,0:0:0:0:
109,192,191888,1,0,0:0:0:0:
329,192,191888,1,0,0:0:0:0:
36,192,191925,1,0,0:0:0:0:
256,192,191925,1,0,0:0:0:0:
402,192,191963,1,0,0:0:0:0:
109,192,191963,1,0,0:0:0:0:
475,192,192001,1,0,0:0:0:0:
182,192,192001,1,0,0:0:0:0:
36,192,192038,1,0,0:0:0:0:
329,192,192038,1,0,0:0:0:0:
109,192,192076,1,0,0:0:0:0:
402,192,192076,1,0,0:0:0:0:
182,192,192114,1,0,0:0:0:0:
475,192,192114,1,0,0:0:0:0:
256,192,192152,1,0,0:0:0:0:
36,192,192152,1,0,0:0:0:0:
329,192,192189,1,0,0:0:0:0:
109,192,192189,1,0,0:0:0:0:
402,192,192227,1,0,0:0:0:0:
182,192,192227,1,0,0:0:0:0:
475,192,192265,1,0,0:0:0:0:
256,192,192265,1,0,0:0:0:0:
109,192,192302,1,0,0:0:0:0:
329,192,192302,1,0,0:0:0:0:
36,192,192302,1,0,0:0:0:0:
36,192,193810,1,0,0:0:0:0:
402,192,193810,1,0,0:0:0:0:
109,192,193885,1,0,0:0:0:0:
329,192,193885,1,0,0:0:0:0:
182,192,193961,1,0,0:0:0:0:
402,192,193961,1,0,0:0:0:0:
36,192,194036,1,0,0:0:0:0:
475,192,194036,1,0,0:0:0:0:
109,192,194111,1,0,0:0:0:0:
402,192,194111,1,0,0:0:0:0:
402,192,194262,1,0,0:0:0:0:
182,192,194262,1,0,0:0:0:0:
329,192,194262,1,0,0:0:0:0:
36,192,194413,1,0,0:0:0:0:
256,192,194413,1,0,0:0:0:0:
109,192,194413,1,0,0:0:0:0:
182,192,194564,1,0,0:0:0:0:
329,192,194564,1,0,0:0:0:0:
402,192,194564,1,0,0:0:0:0:
36,192,194714,1,0,0:0:0:0:
475,192,194714,1,0,0:0:0:0:
256,192,194714,1,0,0:0:0:0:
182,192,194865,1,0,0:0:0:0:
109,192,194978,1,0,0:0:0:0:
36,192,195016,1,0,0:0:0:0:
402,192,195016,1,0,0:0:0:0:
475,192,195016,1,0,0:0:0:0:
329,192,195016,1,0,0:0:0:0:
256,192,195091,1,0,0:0:0:0:
182,192,195167,1,0,0:0:0:0:
109,192,195317,1,0,0:0:0:0:
36,192,195317,1,0,0:0:0:0:
402,192,195317,1,0,0:0:0:0:
329,192,195393,1,0,0:0:0:0:
256,192,195468,1,0,0:0:0:0:
329,192,195619,1,0,0:0:0:0:
402,192,195619,1,0,0:0:0:0:
36,192,195619,1,0,0:0:0:0:
109,192,195694,1,0,0:0:0:0:
182,192,195770,1,0,0:0:0:0:
402,192,195920,1,0,0:0:0:0:
475,192,195920,1,0,0:0:0:0:
36,192,195920,1,0,0:0:0:0:
256,192,196071,1,0,0:0:0:0:
329,192,196147,1,0,0:0:0:0:
36,192,196222,1,0,0:0:0:0:
475,192,196222,1,0,0:0:0:0:
402,192,196222,1,0,0:0:0:0:
109,192,196297,1,0,0:0:0:0:
182,192,196373,1,0,0:0:0:0:
256,192,196448,1,0,0:0:0:0:
109,192,196523,1,0,0:0:0:0:
36,192,196523,1,0,0:0:0:0:
475,192,196523,1,0,0:0:0:0:
402,192,196599,1,0,0:0:0:0:
329,192,196674,1,0,0:0:0:0:
256,192,196750,1,0,0:0:0:0:
36,192,196825,1,0,0:0:0:0:
475,192,196825,1,0,0:0:0:0:
182,192,196825,1,0,0:0:0:0:
402,192,196900,1,0,0:0:0:0:
329,192,196976,1,0,0:0:0:0:
109,192,196976,1,0,0:0:0:0:
182,192,197051,1,0,0:0:0:0:
36,192,197126,1,0,0:0:0:0:
475,192,197126,1,0,0:0:0:0:
256,192,197126,1,0,0:0:0:0:
402,192,197277,1,0,0:0:0:0:
329,192,197353,1,0,0:0:0:0:
256,192,197428,1,0,0:0:0:0:
36,192,197428,1,0,0:0:0:0:
402,192,197428,1,0,0:0:0:0:
109,192,197503,1,0,0:0:0:0:
182,192,197579,1,0,0:0:0:0:
329,192,197729,1,0,0:0:0:0:
36,192,197729,1,0,0:0:0:0:
475,192,197729,1,0,0:0:0:0:
402,192,197805,1,0,0:0:0:0:
329,192,197880,1,0,0:0:0:0:
256,192,197956,1,0,0:0:0:0:
182,192,198031,1,0,0:0:0:0:
109,192,198031,1,0,0:0:0:0:
475,192,198031,1,0,0:0:0:0:
402,192,198106,1,0,0:0:0:0:
329,192,198182,1,0,0:0:0:0:
109,192,198257,1,0,0:0:0:0:
182,192,198332,1,0,0:0:0:0:
36,192,198332,1,0,0:0:0:0:
475,192,198332,1,0,0:0:0:0:
329,192,198483,1,0,0:0:0:0:
182,192,198559,1,0,0:0:0:0:
256,192,198634,1,0,0:0:0:0:
402,192,198634,1,0,0:0:0:0:
36,192,198634,1,0,0:0:0:0:
109,192,198709,1,0,0:0:0:0:
329,192,198785,1,0,0:0:0:0:
182,192,198935,1,0,0:0:0:0:
402,192,198935,1,0,0:0:0:0:
475,192,198935,1,0,0:0:0:0:
329,192,199011,1,0,0:0:0:0:
256,192,199086,1,0,0:0:0:0:
182,192,199162,1,0,0:0:0:0:
109,192,199237,1,0,0:0:0:0:
36,192,199237,1,0,0:0:0:0:
402,192,199237,1,0,0:0:0:0:
329,192,199312,1,0,0:0:0:0:
182,192,199388,1,0,0:0:0:0:
256,192,199463,1,0,0:0:0:0:
329,192,199538,1,0,0:0:0:0:
475,192,199538,1,0,0:0:0:0:
402,192,199538,1,0,0:0:0:0:
182,192,199689,1,0,0:0:0:0:
256,192,199765,1,0,0:0:0:0:
109,192,199840,1,0,0:0:0:0:
36,192,199840,1,0,0:0:0:0:
402,192,199840,1,0,0:0:0:0:
329,192,199915,1,0,0:0:0:0:
182,192,199991,1,0,0:0:0:0:
329,192,200141,1,0,0:0:0:0:
109,192,200141,1,0,0:0:0:0:
475,192,200141,1,0,0:0:0:0:
402,192,200217,1,0,0:0:0:0:
182,192,200292,1,0,0:0:0:0:
329,192,200368,1,0,0:0:0:0:
256,192,200443,1,0,0:0:0:0:
109,192,200443,1,0,0:0:0:0:
36,192,200443,1,0,0:0:0:0:
402,192,200518,1,0,0:0:0:0:
329,192,200594,1,0,0:0:0:0:
109,192,200669,1,0,0:0:0:0:
182,192,200745,1,0,0:0:0:0:
402,192,200745,1,0,0:0:0:0:
475,192,200745,1,0,0:0:0:0:
329,192,200895,1,0,0:0:0:0:
256,192,200971,1,0,0:0:0:0:
182,192,201046,1,0,0:0:0:0:
36,192,201046,1,0,0:0:0:0:
402,192,201121,1,0,0:0:0:0:
329,192,201197,1,0,0:0:0:0:
109,192,201272,1,0,0:0:0:0:
182,192,201348,1,0,0:0:0:0:
402,192,201348,1,0,0:0:0:0:
475,192,201348,1,0,0:0:0:0:
329,192,201423,1,0,0:0:0:0:
256,192,201498,1,0,0:0:0:0:
109,192,201574,1,0,0:0:0:0:
182,192,201649,1,0,0:0:0:0:
402,192,201649,1,0,0:0:0:0:
475,192,201649,1,0,0:0:0:0:
329,192,201724,1,0,0:0:0:0:
256,192,201800,1,0,0:0:0:0:
182,192,201875,1,0,0:0:0:0:
109,192,201951,1,0,0:0:0:0:
36,192,201951,1,0,0:0:0:0:
402,192,201951,1,0,0:0:0:0:
182,192,202101,1,0,0:0:0:0:
256,192,202177,1,0,0:0:0:0:
329,192,202252,1,0,0:0:0:0:
475,192,202252,1,0,0:0:0:0:
36,192,202252,1,0,0:0:0:0:
182,192,202327,1,0,0:0:0:0:
109,192,202403,1,0,0:0:0:0:
329,192,202478,1,0,0:0:0:0:
256,192,202554,1,0,0:0:0:0:
36,192,202554,1,0,0:0:0:0:
475,192,202554,1,0,0:0:0:0:
182,192,202629,1,0,0:0:0:0:
329,192,202704,1,0,0:0:0:0:
402,192,202855,1,0,0:0:0:0:
475,192,202855,1,0,0:0:0:0:
109,192,202855,1,0,0:0:0:0:
329,192,202930,1,0,0:0:0:0:
182,192,203006,1,0,0:0:0:0:
36,192,203081,1,0,0:0:0:0:
329,192,203157,1,0,0:0:0:0:
475,192,203157,1,0,0:0:0:0:
402,192,203157,1,0,0:0:0:0:
109,192,203232,1,0,0:0:0:0:
182,192,203307,1,0,0:0:0:0:
256,192,203383,1,0,0:0:0:0:
329,192,203458,1,0,0:0:0:0:
36,192,203458,1,0,0:0:0:0:
475,192,203458,1,0,0:0:0:0:
182,192,203533,1,0,0:0:0:0:
402,192,203609,1,0,0:0:0:0:
256,192,203684,1,0,0:0:0:0:
109,192,203760,1,0,0:0:0:0:
36,192,203760,1,0,0:0:0:0:
329,192,203760,1,0,0:0:0:0:
182,192,203910,1,0,0:0:0:0:
256,192,203986,1,0,0:0:0:0:
329,192,204061,1,0,0:0:0:0:
475,192,204061,1,0,0:0:0:0:
402,192,204136,1,0,0:0:0:0:
182,192,204212,1,0,0:0:0:0:
36,192,204212,1,0,0:0:0:0:
109,192,204287,1,0,0:0:0:0:
256,192,204363,1,0,0:0:0:0:
402,192,204363,1,0,0:0:0:0:
475,192,204363,1,0,0:0:0:0:
329,192,204513,1,0,0:0:0:0:
182,192,204589,1,0,0:0:0:0:
109,192,204664,1,0,0:0:0:0:
36,192,204664,1,0,0:0:0:0:
475,192,204664,1,0,0:0:0:0:
329,192,204739,1,0,0:0:0:0:
256,192,204815,1,0,0:0:0:0:
329,192,204966,1,0,0:0:0:0:
402,192,204966,1,0,0:0:0:0:
109,192,204966,1,0,0:0:0:0:
182,192,205116,1,0,0:0:0:0:
256,192,205192,1,0,0:0:0:0:
329,192,205267,1,0,0:0:0:0:
475,192,205267,1,0,0:0:0:0:
109,192,205267,1,0,0:0:0:0:
36,192,205418,1,0,0:0:0:0:
182,192,205493,1,0,0:0:0:0:
256,192,205569,1,0,0:0:0:0:
475,192,205569,1,0,0:0:0:0:
402,192,205569,1,0,0:0:0:0:
329,192,205719,1,0,0:0:0:0:
182,192,205795,1,0,0:0:0:0:
109,192,205870,1,0,0:0:0:0:
402,192,205870,1,0,0:0:0:0:
475,192,205870,1,0,0:0:0:0:
256,192,206021,1,0,0:0:0:0:
109,192,206096,1,0,0:0:0:0:
182,192,206172,1,0,0:0:0:0:
329,192,206172,1,0,0:0:0:0:
475,192,206172,1,0,0:0:0:0:
36,192,206247,1,0,0:0:0:0:
256,192,206322,1,0,0:0:0:0:
402,192,206398,1,0,0:0:0:0:
182,192,206473,1,0,0:0:0:0:
36,192,206473,1,0,0:0:0:0:
109,192,206473,1,0,0:0:0:0:
329,192,206549,1,0,0:0:0:0:
256,192,206624,1,0,0:0:0:0:
182,192,206699,1,0,0:0:0:0:
402,192,206775,1,0,0:0:0:0:
475,192,206775,1,0,0:0:0:0:
329,192,206775,1,0,0:0:0:0:
256,192,206925,1,0,0:0:0:0:
182,192,207001,1,0,0:0:0:0:
109,192,207076,1,0,0:0:0:0:
36,192,207076,1,0,0:0:0:0:
402,192,207076,1,0,0:0:0:0:
256,192,207152,1,0,0:0:0:0:
329,192,207227,1,0,0:0:0:0:
109,192,207378,1,0,0:0:0:0:
402,192,207378,1,0,0:0:0:0:
475,192,207378,1,0,0:0:0:0:
256,192,207453,1,0,0:0:0:0:
36,192,207528,1,0,0:0:0:0:
182,192,207604,1,0,0:0:0:0:
329,192,207679,1,0,0:0:0:0:
475,192,207679,1,0,0:0:0:0:
109,192,207679,1,0,0:0:0:0:
402,192,207755,1,0,0:0:0:0:
182,192,207830,1,0,0:0:0:0:
256,192,207905,1,0,0:0:0:0:
329,192,207981,1,0,0:0:0:0:
109,192,207981,1,0,0:0:0:0:
36,192,207981,1,0,0:0:0:0:
256,192,208131,1,0,0:0:0:0:
182,192,208207,1,0,0:0:0:0:
329,192,208282,1,0,0:0:0:0:
475,192,208282,1,0,0:0:0:0:
36,192,208282,1,0,0:0:0:0:
256,192,208395,1,0,0:0:0:0:
109,192,208471,1,0,0:0:0:0:
182,192,208584,1,0,0:0:0:0:
402,192,208584,1,0,0:0:0:0:
475,192,208584,1,0,0:0:0:0:
329,192,208659,1,0,0:0:0:0:
256,192,208734,1,0,0:0:0:0:
109,192,208810,1,0,0:0:0:0:
182,192,208885,1,0,0:0:0:0:
36,192,208885,1,0,0:0:0:0:
329,192,208885,1,0,0:0:0:0:
402,192,208961,1,0,0:0:0:0:
256,192,208961,1,0,0:0:0:0:
182,192,209036,1,0,0:0:0:0:
109,192,209111,1,0,0:0:0:0:
329,192,209187,1,0,0:0:0:0:
475,192,209187,1,0,0:0:0:0:
36,192,209187,1,0,0:0:0:0:
109,192,209262,1,0,0:0:0:0:
182,192,209337,1,0,0:0:0:0:
256,192,209413,1,0,0:0:0:0:
402,192,209488,1,0,0:0:0:0:
36,192,209488,1,0,0:0:0:0:
109,192,209488,1,0,0:0:0:0:
329,192,209639,1,0,0:0:0:0:
182,192,209790,1,0,0:0:0:0:
109,192,209790,1,0,0:0:0:0:
475,192,209790,1,0,0:0:0:0:
256,192,209940,1,0,0:0:0:0:
402,192,209940,1,0,0:0:0:0:
36,192,209940,1,0,0:0:0:0:
182,192,210091,1,0,0:0:0:0:
109,192,210091,1,0,0:0:0:0:
329,192,210091,1,0,0:0:0:0:
36,192,210204,1,0,0:0:0:0:
256,192,210242,1,0,0:0:0:0:
475,192,210242,1,0,0:0:0:0:
402,192,210242,1,0,0:0:0:0:
109,192,210393,1,0,0:0:0:0:
36,192,210393,1,0,0:0:0:0:
329,192,210393,1,0,0:0:0:0:
402,192,210543,1,0,0:0:0:0:
329,192,210619,1,0,0:0:0:0:
182,192,210694,1,0,0:0:0:0:
109,192,210694,1,0,0:0:0:0:
475,192,210694,1,0,0:0:0:0:
256,192,210770,1,0,0:0:0:0:
329,192,210845,1,0,0:0:0:0:
182,192,210996,1,0,0:0:0:0:
36,192,210996,1,0,0:0:0:0:
475,192,210996,1,0,0:0:0:0:
402,192,211071,1,0,0:0:0:0:
109,192,211071,1,0,0:0:0:0:
329,192,211071,1,0,0:0:0:0:
256,192,211147,1,0,0:0:0:0:
182,192,211147,1,0,0:0:0:0:
36,192,211147,1,0,0:0:0:0:
402,192,211297,1,0,0:0:0:0:
475,192,211297,1,0,0:0:0:0:
109,192,211297,1,0,0:0:0:0:
182,192,211373,1,0,0:0:0:0:
475,192,211448,1,0,0:0:0:0:
329,192,211448,1,0,0:0:0:0:
36,192,211448,1,0,0:0:0:0:
109,192,211448,1,0,0:0:0:0:
256,192,211523,1,0,0:0:0:0:
182,192,211599,1,0,0:0:0:0:
36,192,211599,1,0,0:0:0:0:
402,192,211599,1,0,0:0:0:0:
329,192,211674,1,0,0:0:0:0:
402,192,211750,1,0,0:0:0:0:
475,192,211750,1,0,0:0:0:0:
109,192,211750,1,0,0:0:0:0:
182,192,211825,1,0,0:0:0:0:
256,192,211900,1,0,0:0:0:0:
36,192,211900,1,0,0:0:0:0:
402,192,211900,1,0,0:0:0:0:
329,192,211976,1,0,0:0:0:0:
256,192,212051,1,0,0:0:0:0:
109,192,212051,1,0,0:0:0:0:
475,192,212051,1,0,0:0:0:0:
182,192,212126,1,0,0:0:0:0:
109,192,212202,1,0,0:0:0:0:
36,192,212202,1,0,0:0:0:0:
402,192,212202,1,0,0:0:0:0:
329,192,212277,1,0,0:0:0:0:
256,192,212353,1,0,0:0:0:0:
182,192,212353,1,0,0:0:0:0:
475,192,212353,1,0,0:0:0:0:
36,192,212428,1,0,0:0:0:0:
109,192,212503,1,0,0:0:0:0:
329,192,212503,1,0,0:0:0:0:
475,192,212503,1,0,0:0:0:0:
182,192,212654,1,0,0:0:0:0:
402,192,212654,1,0,0:0:0:0:
36,192,212654,1,0,0:0:0:0:
256,192,212729,1,0,0:0:0:0:
109,192,212805,1,0,0:0:0:0:
329,192,212805,1,0,0:0:0:0:
475,192,212805,1,0,0:0:0:0:
256,192,212956,1,0,0:0:0:0:
182,192,213031,1,0,0:0:0:0:
256,192,213182,1,0,0:0:0:0:
402,192,213257,1,0,0:0:0:0:
256,192,213408,1,0,0:0:0:0:
182,192,213483,1,0,0:0:0:0:
475,192,213559,1,0,0:0:0:0:
329,192,213634,1,0,0:0:0:0:
109,192,213709,1,0,0:0:0:0:
182,192,213785,1,0,0:0:0:0:
329,192,213860,1,0,0:0:0:0:
256,192,214011,1,0,0:0:0:0:
109,192,214011,1,0,0:0:0:0:
36,192,214011,1,0,0:0:0:0:
329,192,214312,1,0,0:0:0:0:
475,192,214312,1,0,0:0:0:0:
36,192,214312,1,0,0:0:0:0:
256,192,214388,1,0,0:0:0:0:
182,192,214463,1,0,0:0:0:0:
109,192,214538,1,0,0:0:0:0:
402,192,214614,1,0,0:0:0:0:
475,192,214614,1,0,0:0:0:0:
36,192,214614,1,0,0:0:0:0:
329,192,214689,1,0,0:0:0:0:
109,192,214765,1,0,0:0:0:0:
182,192,214840,1,0,0:0:0:0:
256,192,214915,1,0,0:0:0:0:
402,192,214915,1,0,0:0:0:0:
36,192,214915,1,0,0:0:0:0:
475,192,214991,1,0,0:0:0:0:
329,192,215066,1,0,0:0:0:0:
182,192,215141,1,0,0:0:0:0:
256,192,215217,1,0,0:0:0:0:
36,192,215217,1,0,0:0:0:0:
475,192,215217,1,0,0:0:0:0:
402,192,215292,1,0,0:0:0:0:
109,192,215368,1,0,0:0:0:0:
329,192,215443,1,0,0:0:0:0:
182,192,215518,1,0,0:0:0:0:
36,192,215518,1,0,0:0:0:0:
402,192,215518,1,0,0:0:0:0:
256,192,215594,1,0,0:0:0:0:
329,192,215669,1,0,0:0:0:0:
402,192,215745,1,0,0:0:0:0:
36,192,215820,1,0,0:0:0:0:
475,192,215820,1,0,0:0:0:0:
256,192,215820,1,0,0:0:0:0:
109,192,215895,1,0,0:0:0:0:
182,192,215971,1,0,0:0:0:0:
329,192,216046,1,0,0:0:0:0:
256,192,216121,1,0,0:0:0:0:
109,192,216121,1,0,0:0:0:0:
36,192,216121,1,0,0:0:0:0:
402,192,216197,1,0,0:0:0:0:
329,192,216272,1,0,0:0:0:0:
182,192,216348,1,0,0:0:0:0:
256,192,216423,1,0,0:0:0:0:
475,192,216423,1,0,0:0:0:0:
402,192,216423,1,0,0:0:0:0:
182,192,216574,1,0,0:0:0:0:
402,192,216649,1,0,0:0:0:0:
109,192,216724,1,0,0:0:0:0:
36,192,216724,1,0,0:0:0:0:
256,192,216724,1,0,0:0:0:0:
329,192,216800,1,0,0:0:0:0:
402,192,216875,1,0,0:0:0:0:
256,192,217026,1,0,0:0:0:0:
182,192,217026,1,0,0:0:0:0:
36,192,217026,1,0,0:0:0:0:
402,192,217101,1,0,0:0:0:0:
109,192,217177,1,0,0:0:0:0:
256,192,217252,1,0,0:0:0:0:
329,192,217327,1,0,0:0:0:0:
475,192,217327,1,0,0:0:0:0:
402,192,217327,1,0,0:0:0:0:
182,192,217478,1,0,0:0:0:0:
329,192,217554,1,0,0:0:0:0:
182,192,217629,1,0,0:0:0:0:
36,192,217629,1,0,0:0:0:0:
109,192,217629,1,0,0:0:0:0:
402,192,217704,1,0,0:0:0:0:
256,192,217780,1,0,0:0:0:0:
109,192,217855,1,0,0:0:0:0:
182,192,217930,1,0,0:0:0:0:
329,192,217930,1,0,0:0:0:0:
36,192,217930,1,0,0:0:0:0:
402,192,218006,1,0,0:0:0:0:
256,192,218081,1,0,0:0:0:0:
182,192,218157,1,0,0:0:0:0:
329,192,218232,1,0,0:0:0:0:
109,192,218232,1,0,0:0:0:0:
475,192,218232,1,0,0:0:0:0:
402,192,218307,1,0,0:0:0:0:
256,192,218383,1,0,0:0:0:0:
109,192,218458,1,0,0:0:0:0:
182,192,218533,1,0,0:0:0:0:
329,192,218533,1,0,0:0:0:0:
36,192,218533,1,0,0:0:0:0:
402,192,218609,1,0,0:0:0:0:
182,192,218684,1,0,0:0:0:0:
256,192,218722,1,0,0:0:0:0:
329,192,218760,1,0,0:0:0:0:
402,192,218797,1,0,0:0:0:0:
475,192,218835,1,0,0:0:0:0:
36,192,218835,1,0,0:0:0:0:
109,192,218835,1,0,0:0:0:0:
329,192,218986,1,0,0:0:0:0:
182,192,218986,1,0,0:0:0:0:
256,192,219061,1,0,0:0:0:0:
402,192,219136,1,0,0:0:0:0:
109,192,219136,1,0,0:0:0:0:
36,192,219136,1,0,0:0:0:0:
182,192,219212,1,0,0:0:0:0:
329,192,219287,1,0,0:0:0:0:
256,192,219438,1,0,0:0:0:0:
109,192,219438,1,0,0:0:0:0:
475,192,219438,1,0,0:0:0:0:
402,192,219513,1,0,0:0:0:0:
329,192,219589,1,0,0:0:0:0:
182,192,219664,1,0,0:0:0:0:
256,192,219739,1,0,0:0:0:0:
402,192,219739,1,0,0:0:0:0:
475,192,219739,1,0,0:0:0:0:
109,192,219815,1,0,0:0:0:0:
329,192,219890,1,0,0:0:0:0:
182,192,219890,1,0,0:0:0:0:
109,192,220041,1,0,0:0:0:0:
36,192,220041,1,0,0:0:0:0:
402,192,220041,1,0,0:0:0:0:
329,192,220192,1,0,0:0:0:0:
182,192,220267,1,0,0:0:0:0:
402,192,220342,1,0,0:0:0:0:
109,192,220342,1,0,0:0:0:0:
475,192,220342,1,0,0:0:0:0:
329,192,220418,1,0,0:0:0:0:
256,192,220493,1,0,0:0:0:0:
182,192,220569,1,0,0:0:0:0:
329,192,220644,1,0,0:0:0:0:
109,192,220644,1,0,0:0:0:0:
36,192,220644,1,0,0:0:0:0:
402,192,220719,1,0,0:0:0:0:
475,192,220795,1,0,0:0:0:0:
182,192,220870,1,0,0:0:0:0:
256,192,220946,1,0,0:0:0:0:
402,192,220946,1,0,0:0:0:0:
36,192,220946,1,0,0:0:0:0:
109,192,221021,1,0,0:0:0:0:
329,192,221096,1,0,0:0:0:0:
182,192,221172,1,0,0:0:0:0:
402,192,221247,1,0,0:0:0:0:
475,192,221247,1,0,0:0:0:0:
36,192,221247,1,0,0:0:0:0:
329,192,221322,1,0,0:0:0:0:
182,192,221398,1,0,0:0:0:0:
256,192,221473,1,0,0:0:0:0:
402,192,221549,1,0,0:0:0:0:
109,192,221549,1,0,0:0:0:0:
36,192,221549,1,0,0:0:0:0:
329,192,221624,1,0,0:0:0:0:
256,192,221699,1,0,0:0:0:0:
182,192,221775,1,0,0:0:0:0:
329,192,221850,1,0,0:0:0:0:
402,192,221850,1,0,0:0:0:0:
475,192,221850,1,0,0:0:0:0:
109,192,221925,1,0,0:0:0:0:
182,192,222001,1,0,0:0:0:0:
256,192,222076,1,0,0:0:0:0:
182,192,222152,1,0,0:0:0:0:
109,192,222152,1,0,0:0:0:0:
36,192,222152,1,0,0:0:0:0:
329,192,222302,1,0,0:0:0:0:
402,192,222378,1,0,0:0:0:0:
475,192,222453,1,0,0:0:0:0:
329,192,222453,1,0,0:0:0:0:
109,192,222453,1,0,0:0:0:0:
182,192,222604,1,0,0:0:0:0:
256,192,222679,1,0,0:0:0:0:
109,192,222755,1,0,0:0:0:0:
402,192,222755,1,0,0:0:0:0:
475,192,222755,1,0,0:0:0:0:
182,192,222905,1,0,0:0:0:0:
256,192,222981,1,0,0:0:0:0:
329,192,223056,1,0,0:0:0:0:
36,192,223056,1,0,0:0:0:0:
109,192,223056,1,0,0:0:0:0:
475,192,223207,1,0,0:0:0:0:
182,192,223207,1,0,0:0:0:0:
402,192,223282,1,0,0:0:0:0:
109,192,223282,1,0,0:0:0:0:
329,192,223358,1,0,0:0:0:0:
36,192,223358,1,0,0:0:0:0:
402,192,223433,1,0,0:0:0:0:
109,192,223433,1,0,0:0:0:0:
182,192,223508,1,0,0:0:0:0:
475,192,223508,1,0,0:0:0:0:
402,192,223584,1,0,0:0:0:0:
109,192,223584,1,0,0:0:0:0:
329,192,223659,1,0,0:0:0:0:
36,192,223659,1,0,0:0:0:0:
256,192,223659,1,0,0:0:0:0:
182,192,223810,1,0,0:0:0:0:
329,192,223885,1,0,0:0:0:0:
109,192,223961,1,0,0:0:0:0:
402,192,223961,1,0,0:0:0:0:
475,192,223961,1,0,0:0:0:0:
256,192,224036,1,0,0:0:0:0:
182,192,224111,1,0,0:0:0:0:
329,192,224262,1,0,0:0:0:0:
109,192,224262,1,0,0:0:0:0:
256,192,224262,1,0,0:0:0:0:
182,192,224337,1,0,0:0:0:0:
402,192,224413,1,0,0:0:0:0:
475,192,224488,1,0,0:0:0:0:
109,192,224564,1,0,0:0:0:0:
36,192,224564,1,0,0:0:0:0:
329,192,224564,1,0,0:0:0:0:
182,192,224639,1,0,0:0:0:0:
256,192,224714,1,0,0:0:0:0:
402,192,224865,1,0,0:0:0:0:
475,192,224865,1,0,0:0:0:0:
182,192,224865,1,0,0:0:0:0:
36,192,224940,1,0,0:0:0:0:
329,192,225016,1,0,0:0:0:0:
109,192,225016,1,0,0:0:0:0:
256,192,225091,1,0,0:0:0:0:
182,192,225167,1,0,0:0:0:0:
36,192,225167,1,0,0:0:0:0:
402,192,225167,1,0,0:0:0:0:
329,192,225242,1,0,0:0:0:0:
256,192,225317,1,0,0:0:0:0:
109,192,225317,1,0,0:0:0:0:
182,192,225393,1,0,0:0:0:0:
329,192,225468,1,0,0:0:0:0:
402,192,225468,1,0,0:0:0:0:
475,192,225468,1,0,0:0:0:0:
256,192,225543,1,0,0:0:0:0:
182,192,225619,1,0,0:0:0:0:
109,192,225694,1,0,0:0:0:0:
329,192,225770,1,0,0:0:0:0:
256,192,225770,1,0,0:0:0:0:
36,192,225770,1,0,0:0:0:0:
182,192,225845,1,0,0:0:0:0:
402,192,225920,1,0,0:0:0:0:
109,192,225920,1,0,0:0:0:0:
329,192,225996,1,0,0:0:0:0:
182,192,225996,1,0,0:0:0:0:
256,192,226071,1,0,0:0:0:0:
475,192,226071,1,0,0:0:0:0:
36,192,226071,1,0,0:0:0:0:
182,192,226222,1,0,0:0:0:0:
256,192,226297,1,0,0:0:0:0:
329,192,226373,1,0,0:0:0:0:
475,192,226373,1,0,0:0:0:0:
109,192,226373,1,0,0:0:0:0:
182,192,226448,1,0,0:0:0:0:
402,192,226523,1,0,0:0:0:0:
256,192,226674,1,0,0:0:0:0:
109,192,226674,1,0,0:0:0:0:
36,192,226674,1,0,0:0:0:0:
329,192,226750,1,0,0:0:0:0:
182,192,226825,1,0,0:0:0:0:
109,192,226900,1,0,0:0:0:0:
256,192,226976,1,0,0:0:0:0:
475,192,226976,1,0,0:0:0:0:
402,192,226976,1,0,0:0:0:0:
182,192,227051,1,0,0:0:0:0:
329,192,227126,1,0,0:0:0:0:
109,192,227202,1,0,0:0:0:0:
182,192,227277,1,0,0:0:0:0:
402,192,227277,1,0,0:0:0:0:
475,192,227277,1,0,0:0:0:0:
256,192,227428,1,0,0:0:0:0:
182,192,227503,1,0,0:0:0:0:
109,192,227579,1,0,0:0:0:0:
36,192,227579,1,0,0:0:0:0:
329,192,227579,1,0,0:0:0:0:
256,192,227729,1,0,0:0:0:0:
475,192,227729,1,0,0:0:0:0:
329,192,227880,1,0,0:0:0:0:
109,192,227880,1,0,0:0:0:0:
402,192,227880,1,0,0:0:0:0:
256,192,227956,1,0,0:0:0:0:
182,192,228031,1,0,0:0:0:0:
109,192,228106,1,0,0:0:0:0:
256,192,228182,1,0,0:0:0:0:
402,192,228182,1,0,0:0:0:0:
36,192,228182,1,0,0:0:0:0:
182,192,228257,1,0,0:0:0:0:
329,192,228332,1,0,0:0:0:0:
256,192,228408,1,0,0:0:0:0:
475,192,228483,1,0,0:0:0:0:
402,192,228483,1,0,0:0:0:0:
36,192,228483,1,0,0:0:0:0:
109,192,228634,1,0,0:0:0:0:
329,192,228634,1,0,0:0:0:0:
182,192,228634,1,0,0:0:0:0:
256,192,228785,1,0,0:0:0:0:
475,192,228785,1,0,0:0:0:0:
36,192,228785,1,0,0:0:0:0:
109,192,228935,1,0,0:0:0:0:
329,192,228935,1,0,0:0:0:0:
402,192,228935,1,0,0:0:0:0:
182,192,229086,1,0,0:0:0:0:
256,192,229086,1,0,0:0:0:0:
475,192,229086,1,0,0:0:0:0:
329,192,229162,1,0,0:0:0:0:
109,192,229237,1,0,0:0:0:0:
36,192,229237,1,0,0:0:0:0:
402,192,229237,1,0,0:0:0:0:
256,192,229388,1,0,0:0:0:0:
182,192,229388,1,0,0:0:0:0:
475,192,229388,1,0,0:0:0:0:
36,192,229538,1,0,0:0:0:0:
329,192,229538,1,0,0:0:0:0:
402,192,229538,1,0,0:0:0:0:
256,192,229689,1,0,0:0:0:0:
109,192,229689,1,0,0:0:0:0:
475,192,229689,1,0,0:0:0:0:
182,192,229840,1,0,0:0:0:0:
402,192,229840,1,0,0:0:0:0:
36,192,229840,1,0,0:0:0:0:
329,192,229991,1,0,0:0:0:0:
109,192,229991,1,0,0:0:0:0:
475,192,229991,1,0,0:0:0:0:
256,192,230141,1,0,0:0:0:0:
402,192,230141,1,0,0:0:0:0:
36,192,230141,1,0,0:0:0:0:
182,192,230292,1,0,0:0:0:0:
329,192,230292,1,0,0:0:0:0:
109,192,230292,1,0,0:0:0:0:
256,192,230443,1,0,0:0:0:0:
402,192,230443,1,0,0:0:0:0:
475,192,230443,1,0,0:0:0:0:
182,192,230594,1,0,0:0:0:0:
36,192,230594,1,0,0:0:0:0:
329,192,230594,1,0,0:0:0:0:
109,192,230745,1,0,0:0:0:0:
402,192,230745,1,0,0:0:0:0:
475,192,230745,1,0,0:0:0:0:
475,192,230895,1,0,0:0:0:0:
36,192,230895,1,0,0:0:0:0:
256,192,230895,1,0,0:0:0:0:
402,192,230971,1,0,0:0:0:0:
109,192,230971,1,0,0:0:0:0:
182,192,231046,1,0,0:0:0:0:
329,192,231046,1,0,0:0:0:0:
402,192,231121,1,0,0:0:0:0:
109,192,231121,1,0,0:0:0:0:
36,192,231197,1,0,0:0:0:0:
475,192,231197,1,0,0:0:0:0:
109,192,231272,1,0,0:0:0:0:
402,192,231272,1,0,0:0:0:0:
36,192,231348,1,0,0:0:0:0:
475,192,231348,1,0,0:0:0:0:
402,192,231423,1,0,0:0:0:0:
109,192,231423,1,0,0:0:0:0:
329,192,231498,1,0,0:0:0:0:
182,192,231498,1,0,0:0:0:0:
109,192,231574,1,0,0:0:0:0:
402,192,231574,1,0,0:0:0:0:
36,192,231649,1,0,0:0:0:0:
475,192,231649,1,0,0:0:0:0:
109,192,231724,1,0,0:0:0:0:
402,192,231724,1,0,0:0:0:0:
182,192,231800,1,0,0:0:0:0:
329,192,231800,1,0,0:0:0:0:
36,192,231875,1,0,0:0:0:0:
475,192,231875,1,0,0:0:0:0:
109,192,231951,1,0,0:0:0:0:
402,192,231951,1,0,0:0:0:0:
182,192,232026,1,0,0:0:0:0:
329,192,232026,1,0,0:0:0:0:
256,192,232101,1,0,0:0:0:0:
109,192,232252,1,0,0:0:0:0:
329,192,232327,1,0,0:0:0:0:
182,192,232478,1,0,0:0:0:0:
402,192,232554,1,0,0:0:0:0:
256,192,232704,1,0,0:0:0:0:
329,192,232780,1,0,0:0:0:0:
109,192,232855,1,0,0:0:0:0:
182,192,232855,1,0,0:0:0:0:
402,192,232855,1,0,0:0:0:0:
329,192,233006,1,0,0:0:0:0:
256,192,233006,1,0,0:0:0:0:
36,192,233006,1,0,0:0:0:0:
182,192,233157,1,0,0:0:0:0:
402,192,233157,1,0,0:0:0:0:
329,192,233307,1,0,0:0:0:0:
36,192,233307,1,0,0:0:0:0:
475,192,233307,1,0,0:0:0:0:
256,192,233458,1,0,0:0:0:0:
182,192,233533,1,0,0:0:0:0:
329,192,233609,1,0,0:0:0:0:
109,192,233609,1,0,0:0:0:0:
36,192,233609,1,0,0:0:0:0:
402,192,233760,1,0,0:0:0:0:
182,192,233760,1,0,0:0:0:0:
475,192,233835,1,0,0:0:0:0:
256,192,233835,1,0,0:0:0:0:
109,192,233910,1,0,0:0:0:0:
36,192,233910,1,0,0:0:0:0:
329,192,233910,1,0,0:0:0:0:
256,192,234061,1,0,0:0:0:0:
329,192,234212,1,0,0:0:0:0:
475,192,234212,1,0,0:0:0:0:
109,192,234212,1,0,0:0:0:0:
182,192,234363,1,0,0:0:0:0:
256,192,234513,1,0,0:0:0:0:
475,192,234513,1,0,0:0:0:0:
36,192,234513,1,0,0:0:0:0:
402,192,234664,1,0,0:0:0:0:
182,192,234664,1,0,0:0:0:0:
329,192,234815,1,0,0:0:0:0:
109,192,234815,1,0,0:0:0:0:
36,192,234815,1,0,0:0:0:0:
182,192,234966,1,0,0:0:0:0:
475,192,234966,1,0,0:0:0:0:
402,192,235116,1,0,0:0:0:0:
256,192,235116,1,0,0:0:0:0:
109,192,235116,1,0,0:0:0:0:
329,192,235267,1,0,0:0:0:0:
36,192,235267,1,0,0:0:0:0:
109,192,235418,1,0,0:0:0:0:
475,192,235418,1,0,0:0:0:0:
182,192,235418,1,0,0:0:0:0:
256,192,235569,1,0,0:0:0:0:
402,192,235569,1,0,0:0:0:0:
329,192,235719,1,0,0:0:0:0:
36,192,235719,1,0,0:0:0:0:
182,192,235719,1,0,0:0:0:0:
109,192,235870,1,0,0:0:0:0:
402,192,235870,1,0,0:0:0:0:
475,192,236021,1,0,0:0:0:0:
36,192,236021,1,0,0:0:0:0:
256,192,236021,1,0,0:0:0:0:
109,192,236096,1,0,0:0:0:0:
402,192,236096,1,0,0:0:0:0:
329,192,236172,1,0,0:0:0:0:
182,192,236172,1,0,0:0:0:0:
36,192,236322,1,0,0:0:0:0:
256,192,236322,1,0,0:0:0:0:
475,192,236322,1,0,0:0:0:0:
402,192,236473,1,0,0:0:0:0:
182,192,236473,1,0,0:0:0:0:
329,192,236624,1,0,0:0:0:0:
109,192,236624,1,0,0:0:0:0:
36,192,236624,1,0,0:0:0:0:
256,192,236775,1,0,0:0:0:0:
475,192,236775,1,0,0:0:0:0:
329,192,236850,1,0,0:0:0:0:
402,192,236925,1,0,0:0:0:0:
109,192,236925,1,0,0:0:0:0:
182,192,236925,1,0,0:0:0:0:
256,192,237076,1,0,0:0:0:0:
475,192,237076,1,0,0:0:0:0:
402,192,237227,1,0,0:0:0:0:
329,192,237227,1,0,0:0:0:0:
109,192,237227,1,0,0:0:0:0:
182,192,237378,1,0,0:0:0:0:
36,192,237378,1,0,0:0:0:0:
256,192,237453,1,0,0:0:0:0:
109,192,237453,1,0,0:0:0:0:
329,192,237528,1,0,0:0:0:0:
475,192,237528,1,0,0:0:0:0:
182,192,237528,1,0,0:0:0:0:
402,192,237679,1,0,0:0:0:0:
109,192,237679,1,0,0:0:0:0:
329,192,237755,1,0,0:0:0:0:
182,192,237755,1,0,0:0:0:0:
256,192,237830,1,0,0:0:0:0:
475,192,237830,1,0,0:0:0:0:
36,192,237830,1,0,0:0:0:0:
109,192,237981,1,0,0:0:0:0:
329,192,237981,1,0,0:0:0:0:
182,192,238131,1,0,0:0:0:0:
402,192,238131,1,0,0:0:0:0:
475,192,238131,1,0,0:0:0:0:
329,192,238207,1,0,0:0:0:0:
256,192,238282,1,0,0:0:0:0:
182,192,238358,1,0,0:0:0:0:
36,192,238433,1,0,0:0:0:0:
475,192,238433,1,0,0:0:0:0:
329,192,238433,1,0,0:0:0:0:
109,192,238508,1,0,0:0:0:0:
402,192,238508,1,0,0:0:0:0:
182,192,238584,1,0,0:0:0:0:
329,192,238584,1,0,0:0:0:0:
256,192,238734,1,0,0:0:0:0:
36,192,238734,1,0,0:0:0:0:
402,192,238734,1,0,0:0:0:0:
182,192,238885,1,0,0:0:0:0:
475,192,238885,1,0,0:0:0:0:
402,192,238961,1,0,0:0:0:0:
256,192,238961,1,0,0:0:0:0:
329,192,239036,1,0,0:0:0:0:
109,192,239036,1,0,0:0:0:0:
36,192,239036,1,0,0:0:0:0:
182,192,239187,1,0,0:0:0:0:
256,192,239337,1,0,0:0:0:0:
402,192,239337,1,0,0:0:0:0:
475,192,239337,1,0,0:0:0:0:
329,192,239488,1,0,0:0:0:0:
109,192,239488,1,0,0:0:0:0:
182,192,239639,1,0,0:0:0:0:
402,192,239639,1,0,0:0:0:0:
36,192,239639,1,0,0:0:0:0:
256,192,239790,1,0,0:0:0:0:
475,192,239790,1,0,0:0:0:0:
402,192,239865,1,0,0:0:0:0:
329,192,239940,1,0,0:0:0:0:
36,192,239940,1,0,0:0:0:0:
109,192,239940,1,0,0:0:0:0:
182,192,240091,1,0,0:0:0:0:
329,192,240091,1,0,0:0:0:0:
109,192,240167,1,0,0:0:0:0:
402,192,240167,1,0,0:0:0:0:
256,192,240242,1,0,0:0:0:0:
475,192,240242,1,0,0:0:0:0:
36,192,240242,1,0,0:0:0:0:
329,192,240393,1,0,0:0:0:0:
109,192,240393,1,0,0:0:0:0:
182,192,240468,1,0,0:0:0:0:
256,192,240543,1,0,0:0:0:0:
475,192,240543,1,0,0:0:0:0:
402,192,240543,1,0,0:0:0:0:
329,192,240694,1,0,0:0:0:0:
36,192,240694,1,0,0:0:0:0:
109,192,240845,1,0,0:0:0:0:
182,192,240845,1,0,0:0:0:0:
402,192,240845,1,0,0:0:0:0:
329,192,240996,1,0,0:0:0:0:
36,192,240996,1,0,0:0:0:0:
109,192,241147,1,0,0:0:0:0:
256,192,241147,1,0,0:0:0:0:
475,192,241147,1,0,0:0:0:0:
402,192,241297,1,0,0:0:0:0:
182,192,241448,1,0,0:0:0:0:
36,192,241448,1,0,0:0:0:0:
475,192,241448,1,0,0:0:0:0:
402,192,241599,1,0,0:0:0:0:
109,192,241599,1,0,0:0:0:0:
182,192,241750,1,0,0:0:0:0:
329,192,241750,1,0,0:0:0:0:
475,192,241750,1,0,0:0:0:0:
402,192,241900,1,0,0:0:0:0:
182,192,242051,1,0,0:0:0:0:
36,192,242051,1,0,0:0:0:0:
329,192,242051,1,0,0:0:0:0:
109,192,242202,1,0,0:0:0:0:
256,192,242202,1,0,0:0:0:0:
182,192,242353,1,0,0:0:0:0:
329,192,242353,1,0,0:0:0:0:
475,192,242353,1,0,0:0:0:0:
256,192,242503,1,0,0:0:0:0:
182,192,242579,1,0,0:0:0:0:
36,192,242654,1,0,0:0:0:0:
109,192,242654,1,0,0:0:0:0:
475,192,242654,1,0,0:0:0:0:
402,192,242729,1,0,0:0:0:0:
182,192,242805,1,0,0:0:0:0:
256,192,242880,1,0,0:0:0:0:
329,192,242956,1,0,0:0:0:0:
402,192,242956,1,0,0:0:0:0:
36,192,242956,1,0,0:0:0:0:
256,192,243106,1,0,0:0:0:0:
182,192,243182,1,0,0:0:0:0:
109,192,243257,1,0,0:0:0:0:
36,192,243257,1,0,0:0:0:0:
475,192,243257,1,0,0:0:0:0:
329,192,243408,1,0,0:0:0:0:
182,192,243408,1,0,0:0:0:0:
256,192,243483,1,0,0:0:0:0:
402,192,243559,1,0,0:0:0:0:
475,192,243559,1,0,0:0:0:0:
109,192,243559,1,0,0:0:0:0:
329,192,243709,1,0,0:0:0:0:
109,192,243860,1,0,0:0:0:0:
36,192,243860,1,0,0:0:0:0:
402,192,243860,1,0,0:0:0:0:
182,192,244011,1,0,0:0:0:0:
329,192,244011,1,0,0:0:0:0:
475,192,244162,1,0,0:0:0:0:
36,192,244162,1,0,0:0:0:0:
256,192,244162,1,0,0:0:0:0:
109,192,244312,1,0,0:0:0:0:
402,192,244312,1,0,0:0:0:0:
182,192,244463,1,0,0:0:0:0:
329,192,244463,1,0,0:0:0:0:
475,192,244463,1,0,0:0:0:0:
402,192,244614,1,0,0:0:0:0:
36,192,244614,1,0,0:0:0:0:
109,192,244765,1,0,0:0:0:0:
256,192,244765,1,0,0:0:0:0:
475,192,244765,1,0,0:0:0:0:
402,192,244915,1,0,0:0:0:0:
182,192,244915,1,0,0:0:0:0:
329,192,244991,1,0,0:0:0:0:
256,192,245066,1,0,0:0:0:0:
36,192,245066,1,0,0:0:0:0:
475,192,245066,1,0,0:0:0:0:
475,192,245217,1,0,0:0:0:0:
402,192,245255,1,0,0:0:0:0:
329,192,245292,1,0,0:0:0:0:
256,192,245330,1,0,0:0:0:0:
182,192,245368,1,0,0:0:0:0:
109,192,245368,1,0,0:0:0:0:
36,192,245368,1,0,0:0:0:0:
475,192,245518,1,0,0:0:0:0:
329,192,245518,1,0,0:0:0:0:
182,192,245669,1,0,0:0:0:0:
402,192,245669,1,0,0:0:0:0:
36,192,245669,1,0,0:0:0:0:
475,192,245745,1,0,0:0:0:0:
109,192,245745,1,0,0:0:0:0:
182,192,245820,1,0,0:0:0:0:
402,192,245820,1,0,0:0:0:0:
329,192,245971,1,0,0:0:0:0:
256,192,245971,1,0,0:0:0:0:
36,192,245971,1,0,0:0:0:0:
182,192,246121,1,0,0:0:0:0:
402,192,246272,1,0,0:0:0:0:
109,192,246272,1,0,0:0:0:0:
475,192,246272,1,0,0:0:0:0:
329,192,246423,1,0,0:0:0:0:
182,192,246423,1,0,0:0:0:0:
256,192,246574,1,0,0:0:0:0:
36,192,246574,1,0,0:0:0:0:
475,192,246574,1,0,0:0:0:0:
109,192,246724,1,0,0:0:0:0:
329,192,246724,1,0,0:0:0:0:
182,192,246875,1,0,0:0:0:0:
402,192,246875,1,0,0:0:0:0:
475,192,246875,1,0,0:0:0:0:
329,192,247026,1,0,0:0:0:0:
36,192,247026,1,0,0:0:0:0:
182,192,247177,1,0,0:0:0:0:
402,192,247177,1,0,0:0:0:0:
36,192,247177,1,0,0:0:0:0:
329,192,247327,1,0,0:0:0:0:
109,192,247327,1,0,0:0:0:0:
256,192,247403,1,0,0:0:0:0:
36,192,247403,1,0,0:0:0:0:
109,192,247478,1,0,0:0:0:0:
402,192,247478,1,0,0:0:0:0:
475,192,247478,1,0,0:0:0:0:
182,192,247629,1,0,0:0:0:0:
256,192,247780,1,0,0:0:0:0:
36,192,247780,1,0,0:0:0:0:
475,192,247780,1,0,0:0:0:0:
402,192,247855,1,0,0:0:0:0:
329,192,247930,1,0,0:0:0:0:
109,192,248006,1,0,0:0:0:0:
182,192,248081,1,0,0:0:0:0:
256,192,248157,1,0,0:0:0:0:
329,192,248232,1,0,0:0:0:0:
402,192,248307,1,0,0:0:0:0:
36,192,248383,1,0,0:0:0:0:
109,192,248458,1,0,0:0:0:0:
182,192,248533,1,0,0:0:0:0:
402,192,248609,1,0,0:0:0:0:
329,192,248684,1,0,0:0:0:0:
256,192,248760,1,0,0:0:0:0:
182,192,248835,1,0,0:0:0:0:
109,192,248910,1,0,0:0:0:0:
36,192,248986,1,0,0:0:0:0:
475,192,248986,1,0,0:0:0:0:
402,192,249061,1,0,0:0:0:0:
182,192,249136,1,0,0:0:0:0:
256,192,249212,1,0,0:0:0:0:
329,192,249287,1,0,0:0:0:0:
402,192,249363,1,0,0:0:0:0:
475,192,249438,1,0,0:0:0:0:
109,192,249438,1,0,0:0:0:0:
182,192,249513,1,0,0:0:0:0:
402,192,249589,1,0,0:0:0:0:
329,192,249664,1,0,0:0:0:0:
256,192,249739,1,0,0:0:0:0:
182,192,249815,1,0,0:0:0:0:
109,192,249890,1,0,0:0:0:0:
256,192,249966,1,0,0:0:0:0:
329,192,250041,1,0,0:0:0:0:
402,192,250116,1,0,0:0:0:0:
475,192,250192,1,0,0:0:0:0:
182,192,250192,1,0,0:0:0:0:
36,192,250192,1,0,0:0:0:0:
402,192,250229,1,0,0:0:0:0:
329,192,250267,1,0,0:0:0:0:
256,192,250305,1,0,0:0:0:0:
182,192,250342,1,0,0:0:0:0:
109,192,250380,1,0,0:0:0:0:
36,192,250418,1,0,0:0:0:0:
475,192,250456,1,0,0:0:0:0:
402,192,250493,1,0,0:0:0:0:
329,192,250531,1,0,0:0:0:0:
256,192,250569,1,0,0:0:0:0:
182,192,250606,1,0,0:0:0:0:
109,192,250644,1,0,0:0:0:0:
36,192,250682,1,0,0:0:0:0:
475,192,250719,1,0,0:0:0:0:
402,192,250757,1,0,0:0:0:0:
329,192,250795,1,0,0:0:0:0:
256,192,250832,1,0,0:0:0:0:
182,192,250870,1,0,0:0:0:0:
109,192,250908,1,0,0:0:0:0:
36,192,250946,1,0,0:0:0:0:
475,192,250983,1,0,0:0:0:0:
402,192,251021,1,0,0:0:0:0:
329,192,251059,1,0,0:0:0:0:
256,192,251096,1,0,0:0:0:0:
36,192,251096,1,0,0:0:0:0:
182,192,251096,1,0,0:0:0:0:
329,192,251172,1,0,0:0:0:0:
475,192,251172,1,0,0:0:0:0:
109,192,251172,1,0,0:0:0:0:
402,192,251247,1,0,0:0:0:0:
182,192,251247,1,0,0:0:0:0:
36,192,251247,1,0,0:0:0:0:
329,192,251322,1,0,0:0:0:0:
109,192,251322,1,0,0:0:0:0:
475,192,251322,1,0,0:0:0:0:
256,192,251398,1,0,0:0:0:0:
402,192,251398,1,0,0:0:0:0:
182,192,251398,1,0,0:0:0:0:
329,192,251624,1,0,0:0:0:0:
182,192,251850,1,0,0:0:0:0:
256,192,251925,1,0,0:0:0:0:
329,192,252001,1,0,0:0:0:0:
109,192,252076,1,0,0:0:0:0:
182,192,252189,1,0,0:0:0:0:
256,192,252265,1,0,0:0:0:0:
329,192,252378,1,0,0:0:0:0:
402,192,252453,1,0,0:0:0:0:
256,192,252604,1,0,0:0:0:0:
475,192,252604,1,0,0:0:0:0:
36,192,252604,1,0,0:0:0:0:
182,192,252755,1,0,0:0:0:0:
109,192,252905,1,0,0:0:0:0:
329,192,253056,1,0,0:0:0:0:
256,192,253207,1,0,0:0:0:0:
182,192,253358,1,0,0:0:0:0:
329,192,253508,1,0,0:0:0:0:
402,192,253659,1,0,0:0:0:0:
475,192,253810,1,0,0:0:0:0:
182,192,253961,1,0,0:0:0:0:
256,192,254111,1,0,0:0:0:0:
329,192,254262,1,0,0:0:0:0:
402,192,254413,1,0,0:0:0:0:
475,192,254564,1,0,0:0:0:0:
256,192,254714,1,0,0:0:0:0:
36,192,254865,1,0,0:0:0:0:
109,192,254940,1,0,0:0:0:0:
182,192,255016,1,0,0:0:0:0:
329,192,255167,1,0,0:0:0:0:
256,192,255317,1,0,0:0:0:0:
402,192,255468,1,0,0:0:0:0:
475,192,255619,1,0,0:0:0:0:
256,192,255770,1,0,0:0:0:0:
182,192,255920,1,0,0:0:0:0:
402,192,256071,1,0,0:0:0:0:
329,192,256147,1,0,0:0:0:0:
256,192,256222,1,0,0:0:0:0:
109,192,256373,1,0,0:0:0:0:
182,192,256523,1,0,0:0:0:0:
329,192,256674,1,0,0:0:0:0:
402,192,256825,1,0,0:0:0:0:
475,192,256976,1,0,0:0:0:0:
182,192,257126,1,0,0:0:0:0:
256,192,257277,1,0,0:0:0:0:
329,192,257428,1,0,0:0:0:0:
109,192,257579,1,0,0:0:0:0:
182,192,257729,1,0,0:0:0:0:
329,192,257880,1,0,0:0:0:0:
256,192,258031,1,0,0:0:0:0:
182,192,258182,1,0,0:0:0:0:
402,192,258332,1,0,0:0:0:0:
329,192,258483,1,0,0:0:0:0:
256,192,258634,1,0,0:0:0:0:
109,192,258935,1,0,0:0:0:0:
182,192,259086,1,0,0:0:0:0:
256,192,259237,1,0,0:0:0:0:
402,192,259388,1,0,0:0:0:0:
329,192,259538,1,0,0:0:0:0:
256,192,259689,1,0,0:0:0:0:
182,192,259840,1,0,0:0:0:0:
109,192,259991,1,0,0:0:0:0:
36,192,260141,1,0,0:0:0:0:
329,192,260292,1,0,0:0:0:0:
402,192,260443,1,0,0:0:0:0:
475,192,260594,1,0,0:0:0:0:
109,192,260745,1,0,0:0:0:0:
182,192,260895,1,0,0:0:0:0:
475,192,261046,1,0,0:0:0:0:
402,192,261197,1,0,0:0:0:0:
329,192,261348,1,0,0:0:0:0:
256,192,261498,1,0,0:0:0:0:
36,192,261649,1,0,0:0:0:0:
109,192,261724,1,0,0:0:0:0:
329,192,261800,1,0,0:0:0:0:
256,192,261875,1,0,0:0:0:0:
182,192,261951,1,0,0:0:0:0:
256,192,262026,1,0,0:0:0:0:
329,192,262101,1,0,0:0:0:0:
402,192,262177,1,0,0:0:0:0:
36,192,262252,1,0,0:0:0:0:
109,192,262327,1,0,0:0:0:0:
182,192,262403,1,0,0:0:0:0:
402,192,262478,1,0,0:0:0:0:
329,192,262554,1,0,0:0:0:0:
182,192,262704,1,0,0:0:0:0:
109,192,262855,1,0,0:0:0:0:
256,192,263006,1,0,0:0:0:0:
402,192,263157,1,0,0:0:0:0:
182,192,263307,1,0,0:0:0:0:
36,192,263383,1,0,0:0:0:0:
109,192,263420,1,0,0:0:0:0:
182,192,263458,1,0,0:0:0:0:
329,192,263609,1,0,0:0:0:0:
256,192,263760,1,0,0:0:0:0:
182,192,263910,1,0,0:0:0:0:
109,192,264061,1,0,0:0:0:0:
329,192,264212,1,0,0:0:0:0:
402,192,264363,1,0,0:0:0:0:
256,192,264513,1,0,0:0:0:0:
182,192,264589,1,0,0:0:0:0:
109,192,264664,1,0,0:0:0:0:
329,192,264815,1,0,0:0:0:0:
402,192,264966,1,0,0:0:0:0:
182,192,265116,1,0,0:0:0:0:
256,192,265267,1,0,0:0:0:0:
109,192,265418,1,0,0:0:0:0:
36,192,265569,1,0,0:0:0:0:
402,192,265719,1,0,0:0:0:0:
329,192,265795,1,0,0:0:0:0:
256,192,265870,1,0,0:0:0:0:
182,192,266021,1,0,0:0:0:0:
36,192,266172,1,0,0:0:0:0:
109,192,266322,1,0,0:0:0:0:
329,192,266473,1,0,0:0:0:0:
256,192,266624,1,0,0:0:0:0:
182,192,266775,1,0,0:0:0:0:
402,192,266925,1,0,0:0:0:0:
109,192,267076,1,0,0:0:0:0:
182,192,267227,1,0,0:0:0:0:
329,192,267378,1,0,0:0:0:0:
402,192,267528,1,0,0:0:0:0:
109,192,267679,1,0,0:0:0:0:
182,192,267830,1,0,0:0:0:0:
256,192,267981,1,0,0:0:0:0:
402,192,268131,1,0,0:0:0:0:
475,192,268282,1,0,0:0:0:0:
36,192,268433,1,0,0:0:0:0:
182,192,268584,1,0,0:0:0:0:
109,192,268734,1,0,0:0:0:0:
329,192,268885,1,0,0:0:0:0:
256,192,269036,1,0,0:0:0:0:
182,192,269187,1,0,0:0:0:0:
109,192,269337,1,0,0:0:0:0:
402,192,269488,1,0,0:0:0:0:
256,192,269790,1,0,0:0:0:0:
182,192,269940,1,0,0:0:0:0:
329,192,270091,1,0,0:0:0:0:
256,192,270393,1,0,0:0:0:0:
182,192,270694,1,0,0:0:0:0:
256,192,270845,5,0,0:0:0:0:
402,192,270996,1,0,0:0:0:0:
256,192,271297,1,0,0:0:0:0:
182,192,271599,1,0,0:0:0:0:
475,192,271900,5,0,0:0:0:0:
256,192,272353,1,0,0:0:0:0:
182,192,272956,1,0,0:0:0:0:
256,192,273031,1,0,0:0:0:0:
329,192,273106,1,0,0:0:0:0:
182,192,273559,1,0,0:0:0:0:
402,192,274162,1,0,0:0:0:0:
256,192,274237,1,0,0:0:0:0:
109,192,274312,1,0,0:0:0:0:
329,192,274765,1,0,0:0:0:0:
182,192,275368,1,0,0:0:0:0:
329,192,275443,1,0,0:0:0:0:
475,192,275518,1,0,0:0:0:0:
256,192,275971,1,0,0:0:0:0:
329,192,276423,1,0,0:0:0:0:
182,192,276724,1,0,0:0:0:0:
329,192,277177,1,0,0:0:0:0:
182,192,277629,1,0,0:0:0:0:
256,192,277780,1,0,0:0:0:0:
329,192,277930,1,0,0:0:0:0:
182,192,278383,1,0,0:0:0:0:
329,192,278835,1,0,0:0:0:0:
182,192,278986,1,0,0:0:0:0:
36,192,279136,1,0,0:0:0:0:
329,192,279589,1,0,0:0:0:0:
256,192,280041,1,0,0:0:0:0:
182,192,280493,1,0,0:0:0:0:
109,192,280946,1,0,0:0:0:0:
329,192,281398,1,0,0:0:0:0:
182,192,281850,1,0,0:0:0:0:
329,192,282302,1,0,0:0:0:0:
256,192,282755,1,0,0:0:0:0:
182,192,283207,1,0,0:0:0:0:
329,192,283659,1,0,0:0:0:0:
182,192,284111,1,0,0:0:0:0:
256,192,284564,1,0,0:0:0:0:
329,192,285016,1,0,0:0:0:0:
256,192,285468,1,0,0:0:0:0:
182,192,285920,1,0,0:0:0:0:
402,192,286373,1,0,0:0:0:0:
