osu file format v14

[General]
AudioFilename: audio.mp3
AudioLeadIn: 0
PreviewTime: 116170
Countdown: 0
SampleSet: Normal
StackLeniency: 0.7
Mode: 3
LetterboxInBreaks: 0
SpecialStyle: 0
WidescreenStoryboard: 0

[Editor]
DistanceSpacing: 0.6
BeatDivisor: 4
GridSize: 32
TimelineZoom: 1.9

[Metadata]
Title:NUCLEAR-STAR
TitleUnicode:NUCLEAR-STAR
Artist:Camellia
ArtistUnicode:かめりあ
Creator:BringoBrango
Version:SUPER-NOVA
Source:osu!
Tags:supernova hybrid LN jumpstream fa featured artist crystallized electronic instrumental Masaya Oya 大箭将也 cametek かめるかめりあ kamelcamellia コミックマーケット comic market comiket 89 C89 CTCD-012
BeatmapID:2990331
BeatmapSetID:1454619

[Difficulty]
HPDrainRate:9
CircleSize:4
OverallDifficulty:7.8
ApproachRate:5
SliderMultiplier:1.4
SliderTickRate:1

[Events]
//Background and Video events
0,0,"black hole.jpg",0,0
//Break Periods
//Storyboard Layer 0 (Background)
//Storyboard Layer 1 (Fail)
//Storyboard Layer 2 (Pass)
//Storyboard Layer 3 (Foreground)
//Storyboard Layer 4 (Overlay)
//Storyboard Sound Samples

[TimingPoints]
492,301.507537688442,4,1,1,65,1,0
194662,-100,4,1,1,65,0,1
233255,-100,4,1,1,65,0,0

[HitObjects]
320,192,16170,5,0,0:0:0:0:
320,192,16321,1,0,0:0:0:0:
64,192,16471,1,0,0:0:0:0:
64,192,16622,1,0,0:0:0:0:
448,192,16773,1,0,0:0:0:0:
448,192,16924,1,0,0:0:0:0:
192,192,17074,1,0,0:0:0:0:
192,192,17225,1,0,0:0:0:0:
320,192,17376,1,0,0:0:0:0:
320,192,17527,1,0,0:0:0:0:
64,192,17677,1,0,0:0:0:0:
64,192,17828,1,0,0:0:0:0:
448,192,17979,1,0,0:0:0:0:
448,192,18130,1,0,0:0:0:0:
448,192,18280,1,0,0:0:0:0:
192,192,18431,1,0,0:0:0:0:
192,192,18582,1,0,0:0:0:0:
192,192,18733,1,0,0:0:0:0:
192,192,18883,1,0,0:0:0:0:
192,192,19034,1,0,0:0:0:0:
320,192,19185,1,0,0:0:0:0:
320,192,19336,1,0,0:0:0:0:
320,192,19486,1,0,0:0:0:0:
320,192,19637,1,0,0:0:0:0:
320,192,19788,128,0,20089:0:0:0:0:
64,192,19939,1,0,0:0:0:0:
64,192,20089,1,0,0:0:0:0:
64,192,20240,1,0,0:0:0:0:
64,192,20391,128,0,20466:0:0:0:0:
64,192,20542,128,0,20617:0:0:0:0:
64,192,20693,128,0,20768:0:0:0:0:
64,192,20843,128,0,20937:0:0:0:0:
192,192,20994,1,0,0:0:0:0:
64,192,20994,1,0,0:0:0:0:
448,192,20994,1,0,0:0:0:0:
448,192,21145,1,0,0:0:0:0:
192,192,21296,1,0,0:0:0:0:
448,192,21296,1,0,0:0:0:0:
320,192,21446,1,0,0:0:0:0:
64,192,21522,1,0,0:0:0:0:
320,192,21597,1,0,0:0:0:0:
448,192,21672,1,0,0:0:0:0:
320,192,21748,1,0,0:0:0:0:
192,192,21899,1,0,0:0:0:0:
448,192,22049,1,0,0:0:0:0:
192,192,22100,1,0,0:0:0:0:
320,192,22150,1,0,0:0:0:0:
64,192,22200,1,0,0:0:0:0:
64,192,22351,1,0,0:0:0:0:
320,192,22502,1,0,0:0:0:0:
64,192,22502,1,0,0:0:0:0:
192,192,22652,1,0,0:0:0:0:
448,192,22728,1,0,0:0:0:0:
192,192,22803,1,0,0:0:0:0:
64,192,22878,1,0,0:0:0:0:
192,192,22954,1,0,0:0:0:0:
448,192,23105,1,0,0:0:0:0:
320,192,23105,1,0,0:0:0:0:
64,192,23255,1,0,0:0:0:0:
192,192,23306,1,0,0:0:0:0:
320,192,23356,1,0,0:0:0:0:
448,192,23406,1,0,0:0:0:0:
448,192,23557,1,0,0:0:0:0:
64,192,23708,1,0,0:0:0:0:
448,192,23708,1,0,0:0:0:0:
320,192,23858,1,0,0:0:0:0:
192,192,23934,1,0,0:0:0:0:
320,192,24009,1,0,0:0:0:0:
448,192,24084,1,0,0:0:0:0:
320,192,24160,1,0,0:0:0:0:
192,192,24311,1,0,0:0:0:0:
448,192,24411,1,0,0:0:0:0:
64,192,24512,1,0,0:0:0:0:
192,192,24612,1,0,0:0:0:0:
192,192,24763,1,0,0:0:0:0:
320,192,24914,1,0,0:0:0:0:
192,192,24914,1,0,0:0:0:0:
64,192,25064,1,0,0:0:0:0:
448,192,25140,1,0,0:0:0:0:
320,192,25215,1,0,0:0:0:0:
64,192,25215,1,0,0:0:0:0:
64,192,25366,1,0,0:0:0:0:
320,192,25441,1,0,0:0:0:0:
192,192,25517,1,0,0:0:0:0:
448,192,25517,1,0,0:0:0:0:
192,192,25667,1,0,0:0:0:0:
448,192,25818,1,0,0:0:0:0:
448,192,25969,1,0,0:0:0:0:
64,192,26120,1,0,0:0:0:0:
320,192,26120,1,0,0:0:0:0:
448,192,26270,1,0,0:0:0:0:
192,192,26346,1,0,0:0:0:0:
448,192,26421,1,0,0:0:0:0:
320,192,26497,1,0,0:0:0:0:
448,192,26572,1,0,0:0:0:0:
192,192,26723,1,0,0:0:0:0:
448,192,26873,1,0,0:0:0:0:
320,192,26873,1,0,0:0:0:0:
64,192,27024,1,0,0:0:0:0:
64,192,27175,1,0,0:0:0:0:
448,192,27326,1,0,0:0:0:0:
192,192,27326,1,0,0:0:0:0:
64,192,27476,1,0,0:0:0:0:
320,192,27552,1,0,0:0:0:0:
64,192,27627,1,0,0:0:0:0:
192,192,27703,1,0,0:0:0:0:
64,192,27778,1,0,0:0:0:0:
320,192,27929,1,0,0:0:0:0:
448,192,27929,1,0,0:0:0:0:
192,192,28079,1,0,0:0:0:0:
448,192,28230,1,0,0:0:0:0:
448,192,28381,1,0,0:0:0:0:
64,192,28532,1,0,0:0:0:0:
320,192,28532,1,0,0:0:0:0:
448,192,28682,1,0,0:0:0:0:
192,192,28758,1,0,0:0:0:0:
448,192,28833,1,0,0:0:0:0:
64,192,28909,1,0,0:0:0:0:
320,192,28984,1,0,0:0:0:0:
448,192,29135,1,0,0:0:0:0:
192,192,29285,1,0,0:0:0:0:
448,192,29285,1,0,0:0:0:0:
320,192,29361,1,0,0:0:0:0:
448,192,29436,1,0,0:0:0:0:
64,192,29587,1,0,0:0:0:0:
192,192,29662,1,0,0:0:0:0:
448,192,29738,1,0,0:0:0:0:
320,192,29738,1,0,0:0:0:0:
64,192,29888,1,0,0:0:0:0:
192,192,29964,1,0,0:0:0:0:
320,192,30039,1,0,0:0:0:0:
64,192,30115,1,0,0:0:0:0:
320,192,30190,1,0,0:0:0:0:
192,192,30265,1,0,0:0:0:0:
64,192,30341,1,0,0:0:0:0:
320,192,30416,1,0,0:0:0:0:
64,192,30491,1,0,0:0:0:0:
192,192,30567,1,0,0:0:0:0:
448,192,30642,1,0,0:0:0:0:
448,192,30793,1,0,0:0:0:0:
192,192,30944,1,0,0:0:0:0:
448,192,30944,1,0,0:0:0:0:
320,192,31095,1,0,0:0:0:0:
64,192,31170,1,0,0:0:0:0:
320,192,31245,1,0,0:0:0:0:
448,192,31321,1,0,0:0:0:0:
320,192,31396,1,0,0:0:0:0:
192,192,31547,1,0,0:0:0:0:
448,192,31698,1,0,0:0:0:0:
192,192,31748,1,0,0:0:0:0:
320,192,31798,1,0,0:0:0:0:
64,192,31848,1,0,0:0:0:0:
64,192,31999,1,0,0:0:0:0:
320,192,32150,1,0,0:0:0:0:
64,192,32150,1,0,0:0:0:0:
192,192,32301,1,0,0:0:0:0:
448,192,32376,1,0,0:0:0:0:
192,192,32451,1,0,0:0:0:0:
64,192,32527,1,0,0:0:0:0:
192,192,32602,1,0,0:0:0:0:
448,192,32753,1,0,0:0:0:0:
320,192,32753,1,0,0:0:0:0:
64,192,32904,1,0,0:0:0:0:
192,192,32954,1,0,0:0:0:0:
320,192,33004,1,0,0:0:0:0:
448,192,33054,1,0,0:0:0:0:
448,192,33205,1,0,0:0:0:0:
64,192,33356,1,0,0:0:0:0:
448,192,33356,1,0,0:0:0:0:
320,192,33507,1,0,0:0:0:0:
192,192,33582,1,0,0:0:0:0:
64,192,33657,1,0,0:0:0:0:
320,192,33657,1,0,0:0:0:0:
448,192,33733,1,0,0:0:0:0:
320,192,33808,1,0,0:0:0:0:
64,192,33959,1,0,0:0:0:0:
192,192,33959,1,0,0:0:0:0:
448,192,34059,1,0,0:0:0:0:
64,192,34160,1,0,0:0:0:0:
320,192,34260,1,0,0:0:0:0:
192,192,34260,1,0,0:0:0:0:
192,192,34411,1,0,0:0:0:0:
320,192,34562,1,0,0:0:0:0:
192,192,34562,1,0,0:0:0:0:
64,192,34713,1,0,0:0:0:0:
448,192,34788,1,0,0:0:0:0:
320,192,34863,1,0,0:0:0:0:
64,192,34863,1,0,0:0:0:0:
64,192,35014,1,0,0:0:0:0:
320,192,35089,1,0,0:0:0:0:
192,192,35165,1,0,0:0:0:0:
448,192,35165,1,0,0:0:0:0:
192,192,35316,1,0,0:0:0:0:
320,192,35466,1,0,0:0:0:0:
448,192,35466,1,0,0:0:0:0:
448,192,35617,1,0,0:0:0:0:
64,192,35768,1,0,0:0:0:0:
320,192,35768,1,0,0:0:0:0:
448,192,35919,1,0,0:0:0:0:
192,192,35994,1,0,0:0:0:0:
64,192,36069,1,0,0:0:0:0:
448,192,36069,1,0,0:0:0:0:
320,192,36145,1,0,0:0:0:0:
448,192,36220,1,0,0:0:0:0:
320,192,36371,1,0,0:0:0:0:
192,192,36371,1,0,0:0:0:0:
448,192,36522,1,0,0:0:0:0:
320,192,36522,1,0,0:0:0:0:
192,192,36672,1,0,0:0:0:0:
64,192,36672,1,0,0:0:0:0:
64,192,36823,1,0,0:0:0:0:
448,192,36974,1,0,0:0:0:0:
192,192,36974,1,0,0:0:0:0:
64,192,37125,1,0,0:0:0:0:
320,192,37200,1,0,0:0:0:0:
448,192,37275,1,0,0:0:0:0:
64,192,37275,1,0,0:0:0:0:
192,192,37351,1,0,0:0:0:0:
64,192,37426,1,0,0:0:0:0:
320,192,37577,1,0,0:0:0:0:
448,192,37577,1,0,0:0:0:0:
192,192,37728,1,0,0:0:0:0:
320,192,37878,1,0,0:0:0:0:
64,192,37878,1,0,0:0:0:0:
320,192,38029,1,0,0:0:0:0:
192,192,38180,1,0,0:0:0:0:
320,192,38180,1,0,0:0:0:0:
448,192,38331,1,0,0:0:0:0:
64,192,38406,1,0,0:0:0:0:
192,192,38481,1,0,0:0:0:0:
448,192,38481,1,0,0:0:0:0:
320,192,38557,1,0,0:0:0:0:
448,192,38632,1,0,0:0:0:0:
64,192,38783,1,0,0:0:0:0:
192,192,38783,1,0,0:0:0:0:
320,192,38934,1,0,0:0:0:0:
192,192,38934,1,0,0:0:0:0:
64,192,39084,1,0,0:0:0:0:
192,192,39084,1,0,0:0:0:0:
448,192,39235,1,0,0:0:0:0:
64,192,39687,1,0,0:0:0:0:
320,192,39989,1,0,0:0:0:0:
64,192,40027,1,0,0:0:0:0:
448,192,40064,1,0,0:0:0:0:
192,192,40102,1,0,0:0:0:0:
320,192,40140,128,0,40290:0:0:0:0:
448,192,40290,128,0,40366:0:0:0:0:
64,192,40290,1,0,0:0:0:0:
192,192,40290,1,0,0:0:0:0:
320,192,40366,1,0,0:0:0:0:
448,192,40441,1,0,0:0:0:0:
64,192,40592,1,0,0:0:0:0:
448,192,40592,1,0,0:0:0:0:
320,192,40743,128,0,40818:0:0:0:0:
448,192,40818,1,0,0:0:0:0:
192,192,40894,1,0,0:0:0:0:
320,192,40894,1,0,0:0:0:0:
64,192,40969,1,0,0:0:0:0:
320,192,41044,1,0,0:0:0:0:
320,192,41195,1,0,0:0:0:0:
448,192,41195,1,0,0:0:0:0:
64,192,41346,1,0,0:0:0:0:
192,192,41396,1,0,0:0:0:0:
320,192,41446,1,0,0:0:0:0:
448,192,41497,1,0,0:0:0:0:
64,192,41497,128,0,41572:0:0:0:0:
192,192,41572,1,0,0:0:0:0:
64,192,41647,1,0,0:0:0:0:
320,192,41798,1,0,0:0:0:0:
64,192,41798,1,0,0:0:0:0:
192,192,41949,128,0,42024:0:0:0:0:
64,192,42024,1,0,0:0:0:0:
320,192,42100,1,0,0:0:0:0:
192,192,42100,1,0,0:0:0:0:
448,192,42175,1,0,0:0:0:0:
192,192,42250,1,0,0:0:0:0:
64,192,42401,1,0,0:0:0:0:
192,192,42401,1,0,0:0:0:0:
320,192,42552,1,0,0:0:0:0:
448,192,42602,1,0,0:0:0:0:
64,192,42652,1,0,0:0:0:0:
320,192,42703,128,0,42778:0:0:0:0:
192,192,42703,1,0,0:0:0:0:
448,192,42778,1,0,0:0:0:0:
320,192,42853,128,0,42929:0:0:0:0:
64,192,43004,1,0,0:0:0:0:
320,192,43004,1,0,0:0:0:0:
448,192,43155,128,0,43230:0:0:0:0:
320,192,43230,1,0,0:0:0:0:
448,192,43306,128,0,43381:0:0:0:0:
64,192,43306,1,0,0:0:0:0:
192,192,43381,1,0,0:0:0:0:
448,192,43456,1,0,0:0:0:0:
320,192,43607,1,0,0:0:0:0:
448,192,43607,1,0,0:0:0:0:
64,192,43708,1,0,0:0:0:0:
320,192,43808,1,0,0:0:0:0:
448,192,43909,1,0,0:0:0:0:
192,192,43909,128,0,43984:0:0:0:0:
64,192,43984,1,0,0:0:0:0:
192,192,44059,1,0,0:0:0:0:
320,192,44210,1,0,0:0:0:0:
192,192,44210,1,0,0:0:0:0:
64,192,44361,128,0,44436:0:0:0:0:
192,192,44436,1,0,0:0:0:0:
448,192,44512,1,0,0:0:0:0:
64,192,44512,1,0,0:0:0:0:
320,192,44587,1,0,0:0:0:0:
64,192,44662,1,0,0:0:0:0:
192,192,44813,128,0,44888:0:0:0:0:
320,192,44813,1,0,0:0:0:0:
448,192,44888,1,0,0:0:0:0:
192,192,44964,1,0,0:0:0:0:
448,192,45115,128,0,45190:0:0:0:0:
320,192,45115,1,0,0:0:0:0:
64,192,45190,1,0,0:0:0:0:
448,192,45265,1,0,0:0:0:0:
320,192,45416,1,0,0:0:0:0:
192,192,45416,1,0,0:0:0:0:
448,192,45567,128,0,45642:0:0:0:0:
64,192,45642,1,0,0:0:0:0:
320,192,45718,1,0,0:0:0:0:
448,192,45718,1,0,0:0:0:0:
192,192,45793,1,0,0:0:0:0:
64,192,45868,1,0,0:0:0:0:
448,192,46019,128,0,46095:0:0:0:0:
64,192,46019,1,0,0:0:0:0:
320,192,46170,128,0,46245:0:0:0:0:
448,192,46170,1,0,0:0:0:0:
64,192,46321,128,0,46396:0:0:0:0:
192,192,46321,1,0,0:0:0:0:
448,192,46396,1,0,0:0:0:0:
64,192,46471,1,0,0:0:0:0:
192,192,46622,1,0,0:0:0:0:
320,192,46622,1,0,0:0:0:0:
64,192,46773,128,0,46848:0:0:0:0:
448,192,46848,1,0,0:0:0:0:
192,192,46924,1,0,0:0:0:0:
64,192,46924,1,0,0:0:0:0:
320,192,46999,1,0,0:0:0:0:
448,192,47074,1,0,0:0:0:0:
64,192,47225,128,0,47301:0:0:0:0:
448,192,47225,1,0,0:0:0:0:
192,192,47376,128,0,47451:0:0:0:0:
64,192,47376,1,0,0:0:0:0:
448,192,47527,128,0,47602:0:0:0:0:
320,192,47527,1,0,0:0:0:0:
64,192,47602,1,0,0:0:0:0:
448,192,47677,1,0,0:0:0:0:
192,192,47828,1,0,0:0:0:0:
320,192,47828,1,0,0:0:0:0:
448,192,47979,128,0,48054:0:0:0:0:
64,192,48054,1,0,0:0:0:0:
448,192,48130,1,0,0:0:0:0:
320,192,48130,1,0,0:0:0:0:
192,192,48205,1,0,0:0:0:0:
64,192,48280,1,0,0:0:0:0:
448,192,48431,128,0,48507:0:0:0:0:
320,192,48431,1,0,0:0:0:0:
64,192,48507,1,0,0:0:0:0:
448,192,48582,1,0,0:0:0:0:
320,192,48657,1,0,0:0:0:0:
64,192,48733,1,0,0:0:0:0:
192,192,48733,1,0,0:0:0:0:
448,192,48883,128,0,48959:0:0:0:0:
320,192,48959,1,0,0:0:0:0:
64,192,49034,1,0,0:0:0:0:
192,192,49034,1,0,0:0:0:0:
192,192,49185,1,0,0:0:0:0:
320,192,49260,1,0,0:0:0:0:
448,192,49336,128,0,49411:0:0:0:0:
64,192,49336,1,0,0:0:0:0:
192,192,49486,1,0,0:0:0:0:
320,192,49562,1,0,0:0:0:0:
64,192,49637,1,0,0:0:0:0:
448,192,49637,1,0,0:0:0:0:
192,192,49713,1,0,0:0:0:0:
448,192,49788,128,0,49863:0:0:0:0:
320,192,49863,1,0,0:0:0:0:
64,192,49939,1,0,0:0:0:0:
192,192,49939,1,0,0:0:0:0:
64,192,50089,1,0,0:0:0:0:
192,192,50089,1,0,0:0:0:0:
448,192,50240,1,0,0:0:0:0:
64,192,50240,1,0,0:0:0:0:
192,192,50391,1,0,0:0:0:0:
320,192,50391,1,0,0:0:0:0:
192,192,50542,1,0,0:0:0:0:
320,192,50542,1,0,0:0:0:0:
64,192,50693,1,0,0:0:0:0:
448,192,50693,1,0,0:0:0:0:
448,192,50843,1,0,0:0:0:0:
320,192,50843,1,0,0:0:0:0:
320,192,50994,1,0,0:0:0:0:
64,192,50994,1,0,0:0:0:0:
448,192,51145,1,0,0:0:0:0:
320,192,51145,1,0,0:0:0:0:
448,192,51296,1,0,0:0:0:0:
192,192,51296,1,0,0:0:0:0:
64,192,51446,1,0,0:0:0:0:
192,192,51446,1,0,0:0:0:0:
64,192,51597,1,0,0:0:0:0:
192,192,51597,1,0,0:0:0:0:
64,192,51748,1,0,0:0:0:0:
448,192,51748,1,0,0:0:0:0:
448,192,51899,1,0,0:0:0:0:
320,192,51899,1,0,0:0:0:0:
64,192,52049,1,0,0:0:0:0:
320,192,52049,1,0,0:0:0:0:
448,192,52200,1,0,0:0:0:0:
192,192,52200,1,0,0:0:0:0:
64,192,52351,1,0,0:0:0:0:
192,192,52351,1,0,0:0:0:0:
64,192,52502,1,0,0:0:0:0:
320,192,52502,1,0,0:0:0:0:
448,192,52652,1,0,0:0:0:0:
320,192,52652,1,0,0:0:0:0:
320,192,52803,1,0,0:0:0:0:
448,192,52803,1,0,0:0:0:0:
448,192,52954,1,0,0:0:0:0:
64,192,52954,1,0,0:0:0:0:
192,192,53105,1,0,0:0:0:0:
320,192,53105,1,0,0:0:0:0:
320,192,53255,1,0,0:0:0:0:
192,192,53255,1,0,0:0:0:0:
448,192,53406,1,0,0:0:0:0:
64,192,53406,1,0,0:0:0:0:
64,192,53557,1,0,0:0:0:0:
192,192,53557,1,0,0:0:0:0:
320,192,53708,1,0,0:0:0:0:
64,192,53708,1,0,0:0:0:0:
448,192,53858,1,0,0:0:0:0:
320,192,53858,1,0,0:0:0:0:
320,192,54009,1,0,0:0:0:0:
448,192,54009,1,0,0:0:0:0:
192,192,54160,1,0,0:0:0:0:
448,192,54160,1,0,0:0:0:0:
64,192,54311,1,0,0:0:0:0:
192,192,54311,1,0,0:0:0:0:
64,192,54461,1,0,0:0:0:0:
320,192,54461,1,0,0:0:0:0:
448,192,54612,1,0,0:0:0:0:
192,192,54612,1,0,0:0:0:0:
448,192,54763,1,0,0:0:0:0:
320,192,54763,1,0,0:0:0:0:
192,192,54838,1,0,0:0:0:0:
320,192,54914,1,0,0:0:0:0:
64,192,54914,1,0,0:0:0:0:
448,192,54989,1,0,0:0:0:0:
64,192,55064,1,0,0:0:0:0:
192,192,55064,1,0,0:0:0:0:
320,192,55140,1,0,0:0:0:0:
64,192,55215,1,0,0:0:0:0:
192,192,55215,1,0,0:0:0:0:
448,192,55290,1,0,0:0:0:0:
192,192,55366,1,0,0:0:0:0:
320,192,55366,1,0,0:0:0:0:
64,192,55441,1,0,0:0:0:0:
320,192,55517,1,0,0:0:0:0:
192,192,55592,1,0,0:0:0:0:
448,192,55667,1,0,0:0:0:0:
64,192,55667,1,0,0:0:0:0:
192,192,55743,1,0,0:0:0:0:
448,192,55818,1,0,0:0:0:0:
320,192,55894,1,0,0:0:0:0:
448,192,55969,1,0,0:0:0:0:
64,192,56044,1,0,0:0:0:0:
192,192,56120,1,0,0:0:0:0:
64,192,56195,1,0,0:0:0:0:
320,192,56270,1,0,0:0:0:0:
64,192,56346,1,0,0:0:0:0:
448,192,56421,1,0,0:0:0:0:
192,192,56497,1,0,0:0:0:0:
64,192,56572,1,0,0:0:0:0:
320,192,56622,1,0,0:0:0:0:
192,192,56672,1,0,0:0:0:0:
448,192,56723,1,0,0:0:0:0:
320,192,56773,1,0,0:0:0:0:
64,192,56823,1,0,0:0:0:0:
192,192,56873,1,0,0:0:0:0:
320,192,56911,1,0,0:0:0:0:
448,192,56949,1,0,0:0:0:0:
64,192,56986,1,0,0:0:0:0:
192,192,57024,1,0,0:0:0:0:
320,192,57062,1,0,0:0:0:0:
64,192,57100,1,0,0:0:0:0:
192,192,57137,1,0,0:0:0:0:
448,192,57175,128,0,58079:0:0:0:0:
320,192,57401,128,0,58230:0:0:0:0:
192,192,57627,128,0,58532:0:0:0:0:
64,192,57929,128,0,58381:0:0:0:0:
448,192,58682,128,0,59059:0:0:0:0:
192,192,58758,1,0,0:0:0:0:
320,192,58833,128,0,58909:0:0:0:0:
64,192,58909,1,0,0:0:0:0:
320,192,58984,128,0,59059:0:0:0:0:
64,192,59059,1,0,0:0:0:0:
320,192,59135,1,0,0:0:0:0:
448,192,59135,1,0,0:0:0:0:
192,192,59285,1,0,0:0:0:0:
64,192,59285,128,0,59436:0:0:0:0:
448,192,59285,1,0,0:0:0:0:
192,192,59436,1,0,0:0:0:0:
320,192,59436,1,0,0:0:0:0:
448,192,59436,1,0,0:0:0:0:
64,192,59587,1,0,0:0:0:0:
320,192,59587,1,0,0:0:0:0:
448,192,59662,1,0,0:0:0:0:
64,192,59738,1,0,0:0:0:0:
192,192,59788,1,0,0:0:0:0:
320,192,59838,1,0,0:0:0:0:
192,192,59888,1,0,0:0:0:0:
448,192,59888,1,0,0:0:0:0:
64,192,59949,1,0,0:0:0:0:
448,192,60009,1,0,0:0:0:0:
64,192,60069,1,0,0:0:0:0:
448,192,60130,1,0,0:0:0:0:
192,192,60190,1,0,0:0:0:0:
320,192,60190,1,0,0:0:0:0:
64,192,60265,1,0,0:0:0:0:
320,192,60341,1,0,0:0:0:0:
448,192,60391,1,0,0:0:0:0:
192,192,60441,1,0,0:0:0:0:
448,192,60491,1,0,0:0:0:0:
64,192,60491,1,0,0:0:0:0:
320,192,60552,1,0,0:0:0:0:
64,192,60612,1,0,0:0:0:0:
320,192,60672,1,0,0:0:0:0:
64,192,60733,1,0,0:0:0:0:
448,192,60793,1,0,0:0:0:0:
192,192,60793,1,0,0:0:0:0:
320,192,60868,1,0,0:0:0:0:
192,192,60944,1,0,0:0:0:0:
64,192,60994,1,0,0:0:0:0:
448,192,61044,1,0,0:0:0:0:
64,192,61095,1,0,0:0:0:0:
320,192,61095,1,0,0:0:0:0:
192,192,61155,1,0,0:0:0:0:
320,192,61215,1,0,0:0:0:0:
192,192,61275,1,0,0:0:0:0:
448,192,61336,1,0,0:0:0:0:
64,192,61396,1,0,0:0:0:0:
320,192,61396,1,0,0:0:0:0:
192,192,61471,1,0,0:0:0:0:
320,192,61547,1,0,0:0:0:0:
448,192,61597,1,0,0:0:0:0:
64,192,61647,1,0,0:0:0:0:
448,192,61698,1,0,0:0:0:0:
192,192,61698,1,0,0:0:0:0:
320,192,61758,1,0,0:0:0:0:
192,192,61818,1,0,0:0:0:0:
320,192,61878,1,0,0:0:0:0:
64,192,61939,1,0,0:0:0:0:
448,192,61999,1,0,0:0:0:0:
192,192,61999,1,0,0:0:0:0:
320,192,62074,1,0,0:0:0:0:
64,192,62150,1,0,0:0:0:0:
448,192,62200,1,0,0:0:0:0:
192,192,62250,1,0,0:0:0:0:
448,192,62301,1,0,0:0:0:0:
64,192,62301,1,0,0:0:0:0:
320,192,62361,1,0,0:0:0:0:
64,192,62421,1,0,0:0:0:0:
448,192,62481,1,0,0:0:0:0:
192,192,62542,1,0,0:0:0:0:
64,192,62602,1,0,0:0:0:0:
320,192,62602,1,0,0:0:0:0:
448,192,62677,1,0,0:0:0:0:
192,192,62753,1,0,0:0:0:0:
320,192,62803,1,0,0:0:0:0:
64,192,62853,1,0,0:0:0:0:
192,192,62904,1,0,0:0:0:0:
320,192,62904,1,0,0:0:0:0:
448,192,62964,1,0,0:0:0:0:
192,192,63024,1,0,0:0:0:0:
320,192,63084,1,0,0:0:0:0:
64,192,63145,1,0,0:0:0:0:
448,192,63205,1,0,0:0:0:0:
192,192,63205,1,0,0:0:0:0:
320,192,63280,1,0,0:0:0:0:
64,192,63356,1,0,0:0:0:0:
192,192,63406,1,0,0:0:0:0:
448,192,63456,1,0,0:0:0:0:
192,192,63507,1,0,0:0:0:0:
320,192,63507,1,0,0:0:0:0:
64,192,63567,1,0,0:0:0:0:
320,192,63627,1,0,0:0:0:0:
448,192,63687,1,0,0:0:0:0:
64,192,63748,1,0,0:0:0:0:
192,192,63808,1,0,0:0:0:0:
320,192,63808,1,0,0:0:0:0:
192,192,63959,1,0,0:0:0:0:
448,192,63959,128,0,64260:0:0:0:0:
64,192,64110,1,0,0:0:0:0:
320,192,64110,128,0,64260:0:0:0:0:
192,192,64260,1,0,0:0:0:0:
64,192,64411,1,0,0:0:0:0:
192,192,64411,1,0,0:0:0:0:
448,192,64486,1,0,0:0:0:0:
320,192,64562,1,0,0:0:0:0:
192,192,64612,1,0,0:0:0:0:
64,192,64662,1,0,0:0:0:0:
320,192,64713,1,0,0:0:0:0:
448,192,64713,1,0,0:0:0:0:
64,192,64773,1,0,0:0:0:0:
448,192,64833,1,0,0:0:0:0:
192,192,64894,1,0,0:0:0:0:
320,192,64954,1,0,0:0:0:0:
64,192,65014,1,0,0:0:0:0:
448,192,65014,1,0,0:0:0:0:
192,192,65089,1,0,0:0:0:0:
320,192,65165,1,0,0:0:0:0:
64,192,65215,1,0,0:0:0:0:
320,192,65265,1,0,0:0:0:0:
192,192,65316,1,0,0:0:0:0:
448,192,65316,1,0,0:0:0:0:
64,192,65376,1,0,0:0:0:0:
320,192,65436,1,0,0:0:0:0:
64,192,65497,1,0,0:0:0:0:
448,192,65557,1,0,0:0:0:0:
192,192,65617,1,0,0:0:0:0:
320,192,65617,1,0,0:0:0:0:
64,192,65693,1,0,0:0:0:0:
448,192,65768,1,0,0:0:0:0:
192,192,65818,1,0,0:0:0:0:
448,192,65868,1,0,0:0:0:0:
64,192,65919,1,0,0:0:0:0:
320,192,65919,1,0,0:0:0:0:
192,192,65979,1,0,0:0:0:0:
448,192,66039,1,0,0:0:0:0:
192,192,66100,1,0,0:0:0:0:
320,192,66160,1,0,0:0:0:0:
64,192,66220,1,0,0:0:0:0:
448,192,66220,1,0,0:0:0:0:
192,192,66296,1,0,0:0:0:0:
320,192,66371,1,0,0:0:0:0:
448,192,66421,1,0,0:0:0:0:
192,192,66471,1,0,0:0:0:0:
64,192,66522,1,0,0:0:0:0:
448,192,66522,1,0,0:0:0:0:
320,192,66582,1,0,0:0:0:0:
64,192,66642,1,0,0:0:0:0:
192,192,66703,1,0,0:0:0:0:
320,192,66763,1,0,0:0:0:0:
64,192,66823,1,0,0:0:0:0:
448,192,66823,1,0,0:0:0:0:
192,192,66899,1,0,0:0:0:0:
320,192,66974,1,0,0:0:0:0:
448,192,67024,1,0,0:0:0:0:
320,192,67074,1,0,0:0:0:0:
64,192,67125,1,0,0:0:0:0:
192,192,67125,1,0,0:0:0:0:
448,192,67185,1,0,0:0:0:0:
320,192,67245,1,0,0:0:0:0:
64,192,67306,1,0,0:0:0:0:
192,192,67366,1,0,0:0:0:0:
448,192,67426,1,0,0:0:0:0:
64,192,67426,1,0,0:0:0:0:
320,192,67502,1,0,0:0:0:0:
448,192,67577,1,0,0:0:0:0:
192,192,67627,1,0,0:0:0:0:
320,192,67677,1,0,0:0:0:0:
64,192,67728,1,0,0:0:0:0:
192,192,67728,1,0,0:0:0:0:
448,192,67788,1,0,0:0:0:0:
64,192,67848,1,0,0:0:0:0:
320,192,67909,1,0,0:0:0:0:
192,192,67969,1,0,0:0:0:0:
448,192,68029,1,0,0:0:0:0:
320,192,68029,1,0,0:0:0:0:
64,192,68105,1,0,0:0:0:0:
192,192,68180,128,0,68331:0:0:0:0:
448,192,68331,128,0,68481:0:0:0:0:
64,192,68331,1,0,0:0:0:0:
320,192,68331,1,0,0:0:0:0:
192,192,68481,1,0,0:0:0:0:
320,192,68481,1,0,0:0:0:0:
64,192,68632,1,0,0:0:0:0:
320,192,68632,1,0,0:0:0:0:
448,192,68632,1,0,0:0:0:0:
192,192,68632,1,0,0:0:0:0:
64,192,68783,1,0,0:0:0:0:
192,192,68783,1,0,0:0:0:0:
448,192,68783,1,0,0:0:0:0:
320,192,68934,1,0,0:0:0:0:
448,192,69009,1,0,0:0:0:0:
192,192,69084,1,0,0:0:0:0:
320,192,69160,1,0,0:0:0:0:
448,192,69235,1,0,0:0:0:0:
64,192,69235,1,0,0:0:0:0:
192,192,69311,1,0,0:0:0:0:
448,192,69386,1,0,0:0:0:0:
320,192,69436,1,0,0:0:0:0:
192,192,69486,1,0,0:0:0:0:
448,192,69537,1,0,0:0:0:0:
64,192,69537,1,0,0:0:0:0:
320,192,69597,1,0,0:0:0:0:
64,192,69657,1,0,0:0:0:0:
320,192,69718,1,0,0:0:0:0:
64,192,69778,1,0,0:0:0:0:
192,192,69838,1,0,0:0:0:0:
448,192,69838,1,0,0:0:0:0:
320,192,69914,1,0,0:0:0:0:
192,192,69989,1,0,0:0:0:0:
64,192,70039,1,0,0:0:0:0:
320,192,70089,1,0,0:0:0:0:
192,192,70140,1,0,0:0:0:0:
448,192,70140,1,0,0:0:0:0:
64,192,70200,1,0,0:0:0:0:
448,192,70260,1,0,0:0:0:0:
64,192,70321,1,0,0:0:0:0:
448,192,70381,1,0,0:0:0:0:
192,192,70441,1,0,0:0:0:0:
320,192,70441,1,0,0:0:0:0:
64,192,70517,1,0,0:0:0:0:
320,192,70592,1,0,0:0:0:0:
448,192,70642,1,0,0:0:0:0:
64,192,70693,1,0,0:0:0:0:
192,192,70743,1,0,0:0:0:0:
320,192,70743,1,0,0:0:0:0:
448,192,70803,1,0,0:0:0:0:
192,192,70863,1,0,0:0:0:0:
448,192,70924,1,0,0:0:0:0:
192,192,70984,1,0,0:0:0:0:
64,192,71044,1,0,0:0:0:0:
320,192,71044,1,0,0:0:0:0:
448,192,71120,1,0,0:0:0:0:
64,192,71195,1,0,0:0:0:0:
192,192,71245,1,0,0:0:0:0:
448,192,71296,1,0,0:0:0:0:
64,192,71346,1,0,0:0:0:0:
320,192,71346,1,0,0:0:0:0:
192,192,71406,1,0,0:0:0:0:
320,192,71466,1,0,0:0:0:0:
192,192,71527,1,0,0:0:0:0:
320,192,71587,1,0,0:0:0:0:
64,192,71647,1,0,0:0:0:0:
448,192,71647,1,0,0:0:0:0:
192,192,71723,1,0,0:0:0:0:
448,192,71798,1,0,0:0:0:0:
320,192,71848,1,0,0:0:0:0:
192,192,71899,1,0,0:0:0:0:
448,192,71949,1,0,0:0:0:0:
64,192,71949,1,0,0:0:0:0:
320,192,72009,1,0,0:0:0:0:
64,192,72069,1,0,0:0:0:0:
320,192,72130,1,0,0:0:0:0:
192,192,72190,1,0,0:0:0:0:
448,192,72250,1,0,0:0:0:0:
64,192,72250,1,0,0:0:0:0:
320,192,72326,1,0,0:0:0:0:
64,192,72401,1,0,0:0:0:0:
192,192,72451,1,0,0:0:0:0:
320,192,72502,1,0,0:0:0:0:
192,192,72552,1,0,0:0:0:0:
448,192,72552,1,0,0:0:0:0:
64,192,72612,1,0,0:0:0:0:
448,192,72672,1,0,0:0:0:0:
64,192,72733,1,0,0:0:0:0:
320,192,72793,1,0,0:0:0:0:
192,192,72853,1,0,0:0:0:0:
448,192,72853,1,0,0:0:0:0:
64,192,72929,1,0,0:0:0:0:
448,192,73004,1,0,0:0:0:0:
320,192,73054,1,0,0:0:0:0:
64,192,73105,1,0,0:0:0:0:
320,192,73155,1,0,0:0:0:0:
192,192,73155,1,0,0:0:0:0:
448,192,73215,1,0,0:0:0:0:
192,192,73275,1,0,0:0:0:0:
64,192,73336,1,0,0:0:0:0:
448,192,73396,1,0,0:0:0:0:
64,192,73456,1,0,0:0:0:0:
320,192,73456,1,0,0:0:0:0:
320,192,73607,128,0,73758:0:0:0:0:
448,192,73758,128,0,73909:0:0:0:0:
192,192,73758,1,0,0:0:0:0:
64,192,73909,1,0,0:0:0:0:
320,192,74059,1,0,0:0:0:0:
448,192,74059,1,0,0:0:0:0:
192,192,74135,1,0,0:0:0:0:
320,192,74210,1,0,0:0:0:0:
448,192,74260,1,0,0:0:0:0:
64,192,74311,1,0,0:0:0:0:
448,192,74361,1,0,0:0:0:0:
320,192,74361,1,0,0:0:0:0:
192,192,74436,1,0,0:0:0:0:
320,192,74512,1,0,0:0:0:0:
64,192,74562,1,0,0:0:0:0:
448,192,74612,1,0,0:0:0:0:
64,192,74662,1,0,0:0:0:0:
192,192,74662,1,0,0:0:0:0:
448,192,74738,1,0,0:0:0:0:
192,192,74813,1,0,0:0:0:0:
64,192,74863,1,0,0:0:0:0:
320,192,74914,1,0,0:0:0:0:
64,192,74964,1,0,0:0:0:0:
192,192,74964,1,0,0:0:0:0:
448,192,75039,1,0,0:0:0:0:
192,192,75115,1,0,0:0:0:0:
320,192,75165,1,0,0:0:0:0:
64,192,75215,1,0,0:0:0:0:
448,192,75265,1,0,0:0:0:0:
320,192,75265,1,0,0:0:0:0:
64,192,75341,1,0,0:0:0:0:
448,192,75416,1,0,0:0:0:0:
320,192,75466,1,0,0:0:0:0:
192,192,75517,1,0,0:0:0:0:
448,192,75567,1,0,0:0:0:0:
320,192,75567,1,0,0:0:0:0:
64,192,75642,1,0,0:0:0:0:
448,192,75718,1,0,0:0:0:0:
192,192,75768,1,0,0:0:0:0:
320,192,75818,1,0,0:0:0:0:
64,192,75868,1,0,0:0:0:0:
192,192,75868,1,0,0:0:0:0:
448,192,75944,1,0,0:0:0:0:
64,192,76019,1,0,0:0:0:0:
320,192,76019,1,0,0:0:0:0:
448,192,76095,1,0,0:0:0:0:
64,192,76170,1,0,0:0:0:0:
192,192,76170,1,0,0:0:0:0:
320,192,76245,1,0,0:0:0:0:
448,192,76321,1,0,0:0:0:0:
192,192,76321,1,0,0:0:0:0:
64,192,76396,1,0,0:0:0:0:
448,192,76471,1,0,0:0:0:0:
320,192,76471,1,0,0:0:0:0:
192,192,76547,1,0,0:0:0:0:
320,192,76622,1,0,0:0:0:0:
192,192,76698,5,0,0:0:0:0:
64,192,76773,1,0,0:0:0:0:
448,192,76848,1,0,0:0:0:0:
64,192,76924,1,0,0:0:0:0:
448,192,76999,1,0,0:0:0:0:
192,192,77074,1,0,0:0:0:0:
192,192,77150,1,0,0:0:0:0:
320,192,77225,1,0,0:0:0:0:
320,192,77301,1,0,0:0:0:0:
64,192,77376,1,0,0:0:0:0:
64,192,77451,1,0,0:0:0:0:
448,192,77527,1,0,0:0:0:0:
448,192,77602,1,0,0:0:0:0:
64,192,77677,1,0,0:0:0:0:
192,192,77677,1,0,0:0:0:0:
320,192,77878,5,0,0:0:0:0:
448,192,77904,128,0,77979:0:0:0:0:
192,192,78079,1,0,0:0:0:0:
64,192,78105,128,0,78180:0:0:0:0:
320,192,78280,1,0,0:0:0:0:
448,192,78306,128,0,78381:0:0:0:0:
192,192,78481,1,0,0:0:0:0:
64,192,78507,128,0,78582:0:0:0:0:
320,192,78557,128,0,78607:0:0:0:0:
320,192,78682,1,0,0:0:0:0:
448,192,78708,128,0,78808:0:0:0:0:
448,192,78883,1,0,0:0:0:0:
64,192,78883,1,0,0:0:0:0:
192,192,78959,1,0,0:0:0:0:
64,192,79034,1,0,0:0:0:0:
320,192,79084,1,0,0:0:0:0:
448,192,79135,1,0,0:0:0:0:
64,192,79185,1,0,0:0:0:0:
192,192,79185,1,0,0:0:0:0:
448,192,79245,1,0,0:0:0:0:
192,192,79306,1,0,0:0:0:0:
320,192,79366,1,0,0:0:0:0:
448,192,79426,1,0,0:0:0:0:
64,192,79486,1,0,0:0:0:0:
320,192,79486,1,0,0:0:0:0:
192,192,79562,1,0,0:0:0:0:
64,192,79637,1,0,0:0:0:0:
320,192,79687,1,0,0:0:0:0:
448,192,79738,1,0,0:0:0:0:
64,192,79788,1,0,0:0:0:0:
192,192,79788,1,0,0:0:0:0:
448,192,79848,1,0,0:0:0:0:
192,192,79909,1,0,0:0:0:0:
320,192,79969,1,0,0:0:0:0:
64,192,80029,1,0,0:0:0:0:
448,192,80089,1,0,0:0:0:0:
192,192,80089,1,0,0:0:0:0:
320,192,80165,1,0,0:0:0:0:
448,192,80240,1,0,0:0:0:0:
64,192,80290,1,0,0:0:0:0:
192,192,80341,1,0,0:0:0:0:
320,192,80391,1,0,0:0:0:0:
448,192,80391,1,0,0:0:0:0:
192,192,80451,1,0,0:0:0:0:
320,192,80512,1,0,0:0:0:0:
64,192,80572,1,0,0:0:0:0:
192,192,80632,1,0,0:0:0:0:
448,192,80693,1,0,0:0:0:0:
64,192,80693,1,0,0:0:0:0:
320,192,80768,1,0,0:0:0:0:
448,192,80843,1,0,0:0:0:0:
64,192,80894,1,0,0:0:0:0:
192,192,80944,1,0,0:0:0:0:
320,192,80994,1,0,0:0:0:0:
448,192,80994,1,0,0:0:0:0:
192,192,81054,1,0,0:0:0:0:
320,192,81115,1,0,0:0:0:0:
64,192,81175,1,0,0:0:0:0:
448,192,81235,1,0,0:0:0:0:
192,192,81296,1,0,0:0:0:0:
320,192,81296,1,0,0:0:0:0:
64,192,81371,1,0,0:0:0:0:
192,192,81446,1,0,0:0:0:0:
448,192,81497,1,0,0:0:0:0:
320,192,81547,1,0,0:0:0:0:
64,192,81597,1,0,0:0:0:0:
192,192,81597,1,0,0:0:0:0:
320,192,81657,1,0,0:0:0:0:
64,192,81718,1,0,0:0:0:0:
448,192,81778,1,0,0:0:0:0:
320,192,81838,1,0,0:0:0:0:
192,192,81899,1,0,0:0:0:0:
448,192,81899,1,0,0:0:0:0:
64,192,81974,1,0,0:0:0:0:
192,192,82049,1,0,0:0:0:0:
448,192,82100,1,0,0:0:0:0:
320,192,82150,1,0,0:0:0:0:
64,192,82200,1,0,0:0:0:0:
192,192,82200,1,0,0:0:0:0:
320,192,82260,1,0,0:0:0:0:
64,192,82321,1,0,0:0:0:0:
448,192,82381,1,0,0:0:0:0:
192,192,82441,1,0,0:0:0:0:
64,192,82502,1,0,0:0:0:0:
320,192,82502,1,0,0:0:0:0:
448,192,82577,1,0,0:0:0:0:
320,192,82652,1,0,0:0:0:0:
192,192,82703,1,0,0:0:0:0:
64,192,82753,1,0,0:0:0:0:
448,192,82803,1,0,0:0:0:0:
320,192,82803,1,0,0:0:0:0:
64,192,82863,1,0,0:0:0:0:
448,192,82924,1,0,0:0:0:0:
192,192,82984,1,0,0:0:0:0:
64,192,83044,1,0,0:0:0:0:
320,192,83105,1,0,0:0:0:0:
192,192,83105,1,0,0:0:0:0:
448,192,83180,1,0,0:0:0:0:
192,192,83255,1,0,0:0:0:0:
320,192,83255,1,0,0:0:0:0:
448,192,83406,128,0,83481:0:0:0:0:
320,192,83406,128,0,83481:0:0:0:0:
64,192,83406,1,0,0:0:0:0:
192,192,83481,1,0,0:0:0:0:
64,192,83557,1,0,0:0:0:0:
64,192,83708,1,0,0:0:0:0:
320,192,83708,1,0,0:0:0:0:
448,192,83783,1,0,0:0:0:0:
320,192,83858,1,0,0:0:0:0:
192,192,83909,1,0,0:0:0:0:
64,192,83959,1,0,0:0:0:0:
320,192,84009,1,0,0:0:0:0:
448,192,84009,1,0,0:0:0:0:
64,192,84069,1,0,0:0:0:0:
192,192,84130,1,0,0:0:0:0:
320,192,84190,1,0,0:0:0:0:
448,192,84250,1,0,0:0:0:0:
192,192,84311,1,0,0:0:0:0:
320,192,84311,1,0,0:0:0:0:
448,192,84386,1,0,0:0:0:0:
64,192,84461,1,0,0:0:0:0:
192,192,84512,1,0,0:0:0:0:
320,192,84562,1,0,0:0:0:0:
64,192,84612,1,0,0:0:0:0:
448,192,84612,1,0,0:0:0:0:
192,192,84672,1,0,0:0:0:0:
64,192,84733,1,0,0:0:0:0:
448,192,84793,1,0,0:0:0:0:
192,192,84853,1,0,0:0:0:0:
64,192,84914,1,0,0:0:0:0:
320,192,84914,1,0,0:0:0:0:
448,192,84989,1,0,0:0:0:0:
320,192,85064,1,0,0:0:0:0:
192,192,85115,1,0,0:0:0:0:
64,192,85165,1,0,0:0:0:0:
320,192,85215,1,0,0:0:0:0:
448,192,85215,1,0,0:0:0:0:
64,192,85275,1,0,0:0:0:0:
192,192,85336,1,0,0:0:0:0:
320,192,85396,1,0,0:0:0:0:
448,192,85456,1,0,0:0:0:0:
192,192,85517,1,0,0:0:0:0:
320,192,85517,1,0,0:0:0:0:
448,192,85592,1,0,0:0:0:0:
64,192,85667,1,0,0:0:0:0:
192,192,85718,1,0,0:0:0:0:
320,192,85768,1,0,0:0:0:0:
64,192,85818,1,0,0:0:0:0:
448,192,85818,1,0,0:0:0:0:
192,192,85878,1,0,0:0:0:0:
64,192,85939,1,0,0:0:0:0:
448,192,85999,1,0,0:0:0:0:
192,192,86059,1,0,0:0:0:0:
320,192,86120,1,0,0:0:0:0:
64,192,86120,1,0,0:0:0:0:
448,192,86195,1,0,0:0:0:0:
320,192,86270,1,0,0:0:0:0:
192,192,86321,1,0,0:0:0:0:
64,192,86371,1,0,0:0:0:0:
448,192,86421,1,0,0:0:0:0:
320,192,86421,1,0,0:0:0:0:
64,192,86481,1,0,0:0:0:0:
192,192,86542,1,0,0:0:0:0:
320,192,86602,1,0,0:0:0:0:
448,192,86662,1,0,0:0:0:0:
320,192,86723,1,0,0:0:0:0:
192,192,86723,1,0,0:0:0:0:
448,192,86798,1,0,0:0:0:0:
64,192,86873,1,0,0:0:0:0:
320,192,86924,1,0,0:0:0:0:
192,192,86974,1,0,0:0:0:0:
64,192,87024,1,0,0:0:0:0:
448,192,87024,1,0,0:0:0:0:
320,192,87084,1,0,0:0:0:0:
192,192,87145,1,0,0:0:0:0:
320,192,87205,1,0,0:0:0:0:
192,192,87265,1,0,0:0:0:0:
64,192,87326,1,0,0:0:0:0:
448,192,87326,1,0,0:0:0:0:
448,192,87476,1,0,0:0:0:0:
320,192,87552,1,0,0:0:0:0:
192,192,87627,1,0,0:0:0:0:
448,192,87778,1,0,0:0:0:0:
320,192,87853,1,0,0:0:0:0:
192,192,87929,1,0,0:0:0:0:
448,192,88004,1,0,0:0:0:0:
192,192,88079,1,0,0:0:0:0:
320,192,88155,1,0,0:0:0:0:
448,192,88230,1,0,0:0:0:0:
64,192,88306,1,0,0:0:0:0:
192,192,88381,1,0,0:0:0:0:
320,192,88456,1,0,0:0:0:0:
64,192,88532,1,0,0:0:0:0:
448,192,88532,1,0,0:0:0:0:
192,192,88682,128,0,88833:0:0:0:0:
448,192,88833,1,0,0:0:0:0:
64,192,88833,1,0,0:0:0:0:
320,192,88894,1,0,0:0:0:0:
448,192,88954,1,0,0:0:0:0:
192,192,89014,1,0,0:0:0:0:
320,192,89074,1,0,0:0:0:0:
64,192,89135,1,0,0:0:0:0:
448,192,89135,1,0,0:0:0:0:
192,192,89210,1,0,0:0:0:0:
64,192,89285,1,0,0:0:0:0:
320,192,89336,1,0,0:0:0:0:
448,192,89386,1,0,0:0:0:0:
64,192,89436,1,0,0:0:0:0:
320,192,89436,1,0,0:0:0:0:
192,192,89497,1,0,0:0:0:0:
448,192,89557,1,0,0:0:0:0:
192,192,89617,1,0,0:0:0:0:
320,192,89677,1,0,0:0:0:0:
448,192,89738,1,0,0:0:0:0:
64,192,89738,1,0,0:0:0:0:
192,192,89813,1,0,0:0:0:0:
64,192,89888,1,0,0:0:0:0:
448,192,89939,1,0,0:0:0:0:
320,192,89989,1,0,0:0:0:0:
192,192,90039,1,0,0:0:0:0:
448,192,90039,1,0,0:0:0:0:
64,192,90100,1,0,0:0:0:0:
320,192,90160,1,0,0:0:0:0:
192,192,90220,1,0,0:0:0:0:
320,192,90280,1,0,0:0:0:0:
64,192,90341,1,0,0:0:0:0:
448,192,90341,1,0,0:0:0:0:
192,192,90416,1,0,0:0:0:0:
64,192,90491,1,0,0:0:0:0:
320,192,90542,1,0,0:0:0:0:
448,192,90592,1,0,0:0:0:0:
64,192,90642,1,0,0:0:0:0:
192,192,90642,1,0,0:0:0:0:
448,192,90703,1,0,0:0:0:0:
320,192,90763,1,0,0:0:0:0:
192,192,90823,1,0,0:0:0:0:
64,192,90883,1,0,0:0:0:0:
192,192,90944,1,0,0:0:0:0:
448,192,90944,1,0,0:0:0:0:
320,192,91019,1,0,0:0:0:0:
64,192,91095,1,0,0:0:0:0:
320,192,91145,1,0,0:0:0:0:
192,192,91195,1,0,0:0:0:0:
64,192,91245,1,0,0:0:0:0:
448,192,91245,1,0,0:0:0:0:
320,192,91306,1,0,0:0:0:0:
448,192,91366,1,0,0:0:0:0:
192,192,91426,1,0,0:0:0:0:
320,192,91486,1,0,0:0:0:0:
64,192,91547,1,0,0:0:0:0:
448,192,91547,1,0,0:0:0:0:
192,192,91622,1,0,0:0:0:0:
64,192,91698,1,0,0:0:0:0:
320,192,91748,1,0,0:0:0:0:
448,192,91798,1,0,0:0:0:0:
320,192,91848,1,0,0:0:0:0:
64,192,91848,1,0,0:0:0:0:
192,192,91909,1,0,0:0:0:0:
448,192,91969,1,0,0:0:0:0:
192,192,92029,1,0,0:0:0:0:
320,192,92089,1,0,0:0:0:0:
64,192,92150,1,0,0:0:0:0:
448,192,92150,1,0,0:0:0:0:
192,192,92225,1,0,0:0:0:0:
64,192,92301,1,0,0:0:0:0:
320,192,92351,1,0,0:0:0:0:
448,192,92401,1,0,0:0:0:0:
320,192,92451,128,0,92602:0:0:0:0:
192,192,92451,128,0,92602:0:0:0:0:
64,192,92602,1,0,0:0:0:0:
192,192,92753,1,0,0:0:0:0:
320,192,92753,1,0,0:0:0:0:
448,192,92828,1,0,0:0:0:0:
320,192,92828,1,0,0:0:0:0:
64,192,92904,1,0,0:0:0:0:
192,192,92904,1,0,0:0:0:0:
448,192,92979,1,0,0:0:0:0:
64,192,92979,1,0,0:0:0:0:
320,192,93054,128,0,93130:0:0:0:0:
192,192,93054,128,0,93130:0:0:0:0:
64,192,93205,1,0,0:0:0:0:
448,192,93205,1,0,0:0:0:0:
320,192,93356,1,0,0:0:0:0:
448,192,93356,1,0,0:0:0:0:
192,192,93431,1,0,0:0:0:0:
448,192,93507,1,0,0:0:0:0:
320,192,93557,1,0,0:0:0:0:
192,192,93607,1,0,0:0:0:0:
448,192,93657,1,0,0:0:0:0:
320,192,93657,1,0,0:0:0:0:
64,192,93733,1,0,0:0:0:0:
192,192,93808,1,0,0:0:0:0:
64,192,93858,1,0,0:0:0:0:
448,192,93909,1,0,0:0:0:0:
320,192,93959,1,0,0:0:0:0:
192,192,93959,1,0,0:0:0:0:
64,192,94034,1,0,0:0:0:0:
320,192,94110,1,0,0:0:0:0:
448,192,94160,1,0,0:0:0:0:
320,192,94210,1,0,0:0:0:0:
64,192,94260,1,0,0:0:0:0:
192,192,94260,1,0,0:0:0:0:
448,192,94336,1,0,0:0:0:0:
64,192,94411,1,0,0:0:0:0:
192,192,94461,1,0,0:0:0:0:
320,192,94512,1,0,0:0:0:0:
192,192,94562,1,0,0:0:0:0:
64,192,94562,1,0,0:0:0:0:
448,192,94637,1,0,0:0:0:0:
320,192,94713,1,0,0:0:0:0:
448,192,94763,1,0,0:0:0:0:
64,192,94813,1,0,0:0:0:0:
320,192,94863,1,0,0:0:0:0:
448,192,94863,1,0,0:0:0:0:
192,192,94939,1,0,0:0:0:0:
64,192,95014,1,0,0:0:0:0:
192,192,95064,1,0,0:0:0:0:
320,192,95115,1,0,0:0:0:0:
64,192,95165,1,0,0:0:0:0:
448,192,95165,1,0,0:0:0:0:
320,192,95240,1,0,0:0:0:0:
64,192,95316,1,0,0:0:0:0:
192,192,95316,1,0,0:0:0:0:
448,192,95391,1,0,0:0:0:0:
192,192,95466,1,0,0:0:0:0:
320,192,95466,1,0,0:0:0:0:
448,192,95542,1,0,0:0:0:0:
64,192,95617,1,0,0:0:0:0:
192,192,95617,1,0,0:0:0:0:
320,192,95768,1,0,0:0:0:0:
448,192,95768,1,0,0:0:0:0:
192,192,95843,1,0,0:0:0:0:
320,192,95894,1,0,0:0:0:0:
448,192,95944,1,0,0:0:0:0:
64,192,95994,1,0,0:0:0:0:
192,192,95994,1,0,0:0:0:0:
448,192,96069,1,0,0:0:0:0:
320,192,96120,1,0,0:0:0:0:
192,192,96170,1,0,0:0:0:0:
448,192,96220,1,0,0:0:0:0:
64,192,96220,1,0,0:0:0:0:
192,192,96371,1,0,0:0:0:0:
64,192,96371,1,0,0:0:0:0:
320,192,96446,1,0,0:0:0:0:
192,192,96497,1,0,0:0:0:0:
64,192,96547,1,0,0:0:0:0:
320,192,96597,1,0,0:0:0:0:
448,192,96597,1,0,0:0:0:0:
64,192,96672,1,0,0:0:0:0:
192,192,96723,1,0,0:0:0:0:
320,192,96773,1,0,0:0:0:0:
448,192,96823,1,0,0:0:0:0:
64,192,96823,1,0,0:0:0:0:
448,192,96974,1,0,0:0:0:0:
320,192,96974,1,0,0:0:0:0:
192,192,97049,1,0,0:0:0:0:
320,192,97100,1,0,0:0:0:0:
448,192,97150,1,0,0:0:0:0:
64,192,97200,1,0,0:0:0:0:
192,192,97200,1,0,0:0:0:0:
448,192,97275,1,0,0:0:0:0:
64,192,97351,1,0,0:0:0:0:
320,192,97351,1,0,0:0:0:0:
64,192,97426,1,0,0:0:0:0:
192,192,97426,1,0,0:0:0:0:
448,192,97502,1,0,0:0:0:0:
64,192,97577,1,0,0:0:0:0:
448,192,97577,128,0,97878:0:0:0:0:
192,192,97652,1,0,0:0:0:0:
320,192,97728,128,0,97929:0:0:0:0:
192,192,97878,128,0,97979:0:0:0:0:
64,192,97929,128,0,98029:0:0:0:0:
448,192,97979,1,0,0:0:0:0:
320,192,98029,1,0,0:0:0:0:
192,192,98079,1,0,0:0:0:0:
64,192,98130,1,0,0:0:0:0:
448,192,98180,128,0,98406:0:0:0:0:
320,192,98180,128,0,98255:0:0:0:0:
192,192,98331,1,0,0:0:0:0:
448,192,98481,1,0,0:0:0:0:
192,192,98481,1,0,0:0:0:0:
320,192,98481,1,0,0:0:0:0:
448,192,98632,128,0,98858:0:0:0:0:
64,192,98708,1,0,0:0:0:0:
192,192,98783,1,0,0:0:0:0:
320,192,98783,128,0,98858:0:0:0:0:
64,192,98934,1,0,0:0:0:0:
448,192,99084,1,0,0:0:0:0:
192,192,99084,1,0,0:0:0:0:
64,192,99084,1,0,0:0:0:0:
320,192,99235,1,0,0:0:0:0:
192,192,99285,1,0,0:0:0:0:
448,192,99336,1,0,0:0:0:0:
320,192,99386,128,0,99461:0:0:0:0:
64,192,99386,128,0,99612:0:0:0:0:
192,192,99537,1,0,0:0:0:0:
64,192,99687,1,0,0:0:0:0:
320,192,99687,1,0,0:0:0:0:
192,192,99687,1,0,0:0:0:0:
64,192,99838,128,0,100064:0:0:0:0:
192,192,99914,1,0,0:0:0:0:
448,192,99989,1,0,0:0:0:0:
320,192,99989,128,0,100064:0:0:0:0:
192,192,100140,1,0,0:0:0:0:
448,192,100290,1,0,0:0:0:0:
320,192,100290,1,0,0:0:0:0:
192,192,100290,1,0,0:0:0:0:
64,192,100441,1,0,0:0:0:0:
320,192,100491,1,0,0:0:0:0:
448,192,100542,1,0,0:0:0:0:
64,192,100592,128,0,100818:0:0:0:0:
192,192,100592,128,0,100667:0:0:0:0:
320,192,100743,128,0,100818:0:0:0:0:
64,192,100894,1,0,0:0:0:0:
320,192,100894,1,0,0:0:0:0:
192,192,100894,1,0,0:0:0:0:
64,192,101044,128,0,101270:0:0:0:0:
448,192,101120,1,0,0:0:0:0:
320,192,101195,128,0,101270:0:0:0:0:
192,192,101195,128,0,101270:0:0:0:0:
448,192,101346,1,0,0:0:0:0:
64,192,101497,1,0,0:0:0:0:
320,192,101497,1,0,0:0:0:0:
448,192,101497,1,0,0:0:0:0:
192,192,101597,1,0,0:0:0:0:
64,192,101647,1,0,0:0:0:0:
320,192,101698,1,0,0:0:0:0:
192,192,101798,128,0,102024:0:0:0:0:
448,192,101798,128,0,101873:0:0:0:0:
64,192,101949,1,0,0:0:0:0:
448,192,102100,1,0,0:0:0:0:
192,192,102100,1,0,0:0:0:0:
320,192,102100,1,0,0:0:0:0:
192,192,102250,128,0,102476:0:0:0:0:
64,192,102326,1,0,0:0:0:0:
448,192,102401,128,0,102476:0:0:0:0:
320,192,102401,1,0,0:0:0:0:
64,192,102552,1,0,0:0:0:0:
448,192,102703,128,0,102929:0:0:0:0:
192,192,102703,128,0,102778:0:0:0:0:
64,192,102703,1,0,0:0:0:0:
320,192,102853,1,0,0:0:0:0:
448,192,103004,128,0,103079:0:0:0:0:
320,192,103004,128,0,103230:0:0:0:0:
448,192,103155,1,0,0:0:0:0:
64,192,103306,1,0,0:0:0:0:
192,192,103306,1,0,0:0:0:0:
320,192,103306,1,0,0:0:0:0:
320,192,103456,128,0,103682:0:0:0:0:
64,192,103532,1,0,0:0:0:0:
192,192,103607,1,0,0:0:0:0:
448,192,103607,128,0,103682:0:0:0:0:
448,192,103758,1,0,0:0:0:0:
320,192,103909,128,0,104059:0:0:0:0:
64,192,103909,1,0,0:0:0:0:
192,192,103909,1,0,0:0:0:0:
192,192,104059,128,0,104135:0:0:0:0:
64,192,104210,128,0,104285:0:0:0:0:
192,192,104210,128,0,104436:0:0:0:0:
64,192,104361,1,0,0:0:0:0:
448,192,104512,1,0,0:0:0:0:
320,192,104512,1,0,0:0:0:0:
192,192,104512,1,0,0:0:0:0:
192,192,104662,128,0,104888:0:0:0:0:
448,192,104738,1,0,0:0:0:0:
320,192,104813,1,0,0:0:0:0:
64,192,104813,128,0,104888:0:0:0:0:
64,192,104964,1,0,0:0:0:0:
192,192,105115,128,0,105265:0:0:0:0:
448,192,105115,1,0,0:0:0:0:
320,192,105115,1,0,0:0:0:0:
320,192,105265,128,0,105341:0:0:0:0:
320,192,105416,128,0,105642:0:0:0:0:
448,192,105416,128,0,105491:0:0:0:0:
448,192,105567,1,0,0:0:0:0:
320,192,105718,1,0,0:0:0:0:
192,192,105718,1,0,0:0:0:0:
64,192,105718,1,0,0:0:0:0:
320,192,105868,128,0,106095:0:0:0:0:
64,192,105944,1,0,0:0:0:0:
448,192,106019,128,0,106095:0:0:0:0:
192,192,106019,1,0,0:0:0:0:
448,192,106170,1,0,0:0:0:0:
192,192,106321,1,0,0:0:0:0:
320,192,106321,128,0,106396:0:0:0:0:
448,192,106321,128,0,106547:0:0:0:0:
320,192,106471,1,0,0:0:0:0:
64,192,106622,1,0,0:0:0:0:
192,192,106622,1,0,0:0:0:0:
448,192,106773,128,0,106999:0:0:0:0:
320,192,106924,128,0,106999:0:0:0:0:
64,192,106924,1,0,0:0:0:0:
192,192,106924,1,0,0:0:0:0:
320,192,107074,1,0,0:0:0:0:
192,192,107150,1,0,0:0:0:0:
448,192,107225,128,0,107301:0:0:0:0:
64,192,107225,1,0,0:0:0:0:
448,192,107376,1,0,0:0:0:0:
320,192,107451,1,0,0:0:0:0:
64,192,107527,1,0,0:0:0:0:
192,192,107527,1,0,0:0:0:0:
320,192,107602,1,0,0:0:0:0:
448,192,107677,128,0,107753:0:0:0:0:
192,192,107753,1,0,0:0:0:0:
320,192,107828,1,0,0:0:0:0:
448,192,107828,1,0,0:0:0:0:
448,192,107979,1,0,0:0:0:0:
320,192,107979,1,0,0:0:0:0:
448,192,108130,128,0,108205:0:0:0:0:
64,192,108130,1,0,0:0:0:0:
320,192,108280,1,0,0:0:0:0:
192,192,108280,1,0,0:0:0:0:
320,192,108431,1,0,0:0:0:0:
192,192,108431,1,0,0:0:0:0:
448,192,108582,1,0,0:0:0:0:
64,192,108582,1,0,0:0:0:0:
64,192,108733,1,0,0:0:0:0:
192,192,108733,1,0,0:0:0:0:
192,192,108883,1,0,0:0:0:0:
448,192,108883,1,0,0:0:0:0:
64,192,109034,1,0,0:0:0:0:
192,192,109034,1,0,0:0:0:0:
64,192,109185,1,0,0:0:0:0:
320,192,109185,1,0,0:0:0:0:
448,192,109336,1,0,0:0:0:0:
320,192,109336,1,0,0:0:0:0:
448,192,109486,1,0,0:0:0:0:
320,192,109486,1,0,0:0:0:0:
448,192,109637,1,0,0:0:0:0:
64,192,109637,1,0,0:0:0:0:
64,192,109788,1,0,0:0:0:0:
192,192,109788,1,0,0:0:0:0:
448,192,109939,1,0,0:0:0:0:
192,192,109939,1,0,0:0:0:0:
64,192,110089,1,0,0:0:0:0:
320,192,110089,1,0,0:0:0:0:
448,192,110240,1,0,0:0:0:0:
320,192,110240,1,0,0:0:0:0:
448,192,110391,1,0,0:0:0:0:
192,192,110391,1,0,0:0:0:0:
64,192,110542,1,0,0:0:0:0:
192,192,110542,1,0,0:0:0:0:
192,192,110693,1,0,0:0:0:0:
64,192,110693,1,0,0:0:0:0:
64,192,110843,1,0,0:0:0:0:
448,192,110843,1,0,0:0:0:0:
320,192,110994,1,0,0:0:0:0:
192,192,110994,1,0,0:0:0:0:
192,192,111145,1,0,0:0:0:0:
320,192,111145,1,0,0:0:0:0:
64,192,111296,1,0,0:0:0:0:
448,192,111296,1,0,0:0:0:0:
448,192,111446,1,0,0:0:0:0:
320,192,111446,1,0,0:0:0:0:
192,192,111597,1,0,0:0:0:0:
448,192,111597,1,0,0:0:0:0:
64,192,111748,1,0,0:0:0:0:
192,192,111748,1,0,0:0:0:0:
192,192,111899,1,0,0:0:0:0:
64,192,111899,1,0,0:0:0:0:
320,192,112049,1,0,0:0:0:0:
64,192,112049,1,0,0:0:0:0:
448,192,112200,1,0,0:0:0:0:
320,192,112200,1,0,0:0:0:0:
448,192,112351,1,0,0:0:0:0:
192,192,112351,1,0,0:0:0:0:
64,192,112502,1,0,0:0:0:0:
320,192,112502,1,0,0:0:0:0:
64,192,112652,1,0,0:0:0:0:
192,192,112652,1,0,0:0:0:0:
320,192,112728,1,0,0:0:0:0:
192,192,112803,1,0,0:0:0:0:
448,192,112803,1,0,0:0:0:0:
64,192,112878,1,0,0:0:0:0:
448,192,112954,1,0,0:0:0:0:
320,192,112954,1,0,0:0:0:0:
192,192,113029,1,0,0:0:0:0:
64,192,113105,1,0,0:0:0:0:
320,192,113105,1,0,0:0:0:0:
448,192,113180,1,0,0:0:0:0:
320,192,113255,1,0,0:0:0:0:
192,192,113255,1,0,0:0:0:0:
64,192,113331,1,0,0:0:0:0:
192,192,113406,1,0,0:0:0:0:
320,192,113481,1,0,0:0:0:0:
448,192,113557,1,0,0:0:0:0:
64,192,113557,1,0,0:0:0:0:
192,192,113632,1,0,0:0:0:0:
448,192,113708,1,0,0:0:0:0:
320,192,113783,1,0,0:0:0:0:
448,192,113858,1,0,0:0:0:0:
64,192,113934,1,0,0:0:0:0:
192,192,114009,1,0,0:0:0:0:
64,192,114084,1,0,0:0:0:0:
320,192,114160,1,0,0:0:0:0:
64,192,114235,1,0,0:0:0:0:
448,192,114311,1,0,0:0:0:0:
320,192,114386,1,0,0:0:0:0:
64,192,114461,1,0,0:0:0:0:
192,192,114537,1,0,0:0:0:0:
320,192,114612,1,0,0:0:0:0:
448,192,114687,1,0,0:0:0:0:
64,192,114763,1,0,0:0:0:0:
192,192,114838,1,0,0:0:0:0:
320,192,114914,1,0,0:0:0:0:
64,192,114989,1,0,0:0:0:0:
192,192,115064,128,0,115215:0:0:0:0:
320,192,115064,128,0,115215:0:0:0:0:
448,192,115064,1,0,0:0:0:0:
64,192,115215,1,0,0:0:0:0:
448,192,115215,1,0,0:0:0:0:
320,192,115366,128,0,115517:0:0:0:0:
192,192,115366,1,0,0:0:0:0:
64,192,115366,128,0,115517:0:0:0:0:
448,192,115517,1,0,0:0:0:0:
192,192,115517,1,0,0:0:0:0:
64,192,115667,128,0,115818:0:0:0:0:
320,192,115667,1,0,0:0:0:0:
448,192,115667,128,0,115818:0:0:0:0:
192,192,115818,1,0,0:0:0:0:
320,192,115818,1,0,0:0:0:0:
448,192,115969,128,0,116120:0:0:0:0:
64,192,115969,1,0,0:0:0:0:
192,192,115969,128,0,116120:0:0:0:0:
320,192,116120,1,0,0:0:0:0:
64,192,116120,1,0,0:0:0:0:
448,192,116270,5,0,0:0:0:0:
320,192,116270,1,0,0:0:0:0:
64,192,117326,128,0,117552:0:0:0:0:
192,192,117326,128,0,117476:0:0:0:0:
448,192,117476,128,0,117627:0:0:0:0:
320,192,117476,128,0,117602:0:0:0:0:
192,192,117577,1,0,0:0:0:0:
64,192,117627,1,0,0:0:0:0:
320,192,117677,1,0,0:0:0:0:
192,192,117711,1,0,0:0:0:0:
64,192,117744,1,0,0:0:0:0:
448,192,117778,1,0,0:0:0:0:
320,192,117828,1,0,0:0:0:0:
192,192,117878,1,0,0:0:0:0:
64,192,117929,1,0,0:0:0:0:
448,192,117979,1,0,0:0:0:0:
320,192,118029,1,0,0:0:0:0:
192,192,118079,1,0,0:0:0:0:
64,192,118079,1,0,0:0:0:0:
320,192,118230,1,0,0:0:0:0:
448,192,118268,1,0,0:0:0:0:
64,192,118306,128,0,118532:0:0:0:0:
192,192,118331,128,0,118481:0:0:0:0:
320,192,118356,128,0,118431:0:0:0:0:
448,192,118381,1,0,0:0:0:0:
192,192,118682,1,0,0:0:0:0:
320,192,118682,1,0,0:0:0:0:
64,192,118720,1,0,0:0:0:0:
448,192,118758,128,0,118984:0:0:0:0:
320,192,118783,128,0,118934:0:0:0:0:
192,192,118808,128,0,118883:0:0:0:0:
64,192,118833,1,0,0:0:0:0:
320,192,119135,1,0,0:0:0:0:
448,192,119172,1,0,0:0:0:0:
64,192,119210,128,0,119336:0:0:0:0:
192,192,119210,128,0,119336:0:0:0:0:
448,192,119285,1,0,0:0:0:0:
320,192,119285,128,0,119336:0:0:0:0:
192,192,119587,1,0,0:0:0:0:
64,192,119625,1,0,0:0:0:0:
448,192,119662,128,0,119888:0:0:0:0:
320,192,119687,128,0,119838:0:0:0:0:
192,192,119713,128,0,119788:0:0:0:0:
64,192,119738,1,0,0:0:0:0:
64,192,119888,1,0,0:0:0:0:
192,192,119888,1,0,0:0:0:0:
448,192,119964,1,0,0:0:0:0:
192,192,120039,1,0,0:0:0:0:
320,192,120089,1,0,0:0:0:0:
64,192,120140,1,0,0:0:0:0:
192,192,120190,128,0,120290:0:0:0:0:
448,192,120215,128,0,120290:0:0:0:0:
64,192,120341,1,0,0:0:0:0:
192,192,120391,128,0,120491:0:0:0:0:
320,192,120416,128,0,120491:0:0:0:0:
448,192,120491,1,0,0:0:0:0:
64,192,120491,1,0,0:0:0:0:
448,192,120567,1,0,0:0:0:0:
448,192,120642,1,0,0:0:0:0:
320,192,120718,1,0,0:0:0:0:
64,192,120793,1,0,0:0:0:0:
64,192,120868,1,0,0:0:0:0:
64,192,120944,1,0,0:0:0:0:
192,192,121019,1,0,0:0:0:0:
448,192,121095,1,0,0:0:0:0:
448,192,121245,1,0,0:0:0:0:
448,192,121321,1,0,0:0:0:0:
64,192,121396,1,0,0:0:0:0:
192,192,121396,1,0,0:0:0:0:
448,192,121471,1,0,0:0:0:0:
448,192,121547,1,0,0:0:0:0:
448,192,121698,1,0,0:0:0:0:
192,192,121698,1,0,0:0:0:0:
64,192,121773,1,0,0:0:0:0:
64,192,121848,1,0,0:0:0:0:
64,192,121924,1,0,0:0:0:0:
320,192,121999,1,0,0:0:0:0:
192,192,122049,1,0,0:0:0:0:
320,192,122100,1,0,0:0:0:0:
448,192,122150,1,0,0:0:0:0:
64,192,122225,1,0,0:0:0:0:
448,192,122301,1,0,0:0:0:0:
192,192,122301,1,0,0:0:0:0:
320,192,122376,1,0,0:0:0:0:
192,192,122451,1,0,0:0:0:0:
64,192,122502,1,0,0:0:0:0:
448,192,122535,1,0,0:0:0:0:
320,192,122569,1,0,0:0:0:0:
192,192,122602,1,0,0:0:0:0:
64,192,122636,1,0,0:0:0:0:
320,192,122703,1,0,0:0:0:0:
448,192,122753,1,0,0:0:0:0:
64,192,122803,1,0,0:0:0:0:
192,192,122853,1,0,0:0:0:0:
320,192,122904,1,0,0:0:0:0:
448,192,122904,1,0,0:0:0:0:
192,192,123054,1,0,0:0:0:0:
64,192,123092,1,0,0:0:0:0:
448,192,123130,128,0,123356:0:0:0:0:
320,192,123155,128,0,123306:0:0:0:0:
192,192,123180,128,0,123255:0:0:0:0:
64,192,123205,1,0,0:0:0:0:
192,192,123507,1,0,0:0:0:0:
320,192,123507,1,0,0:0:0:0:
448,192,123544,1,0,0:0:0:0:
64,192,123582,128,0,123808:0:0:0:0:
192,192,123607,128,0,123758:0:0:0:0:
320,192,123632,128,0,123708:0:0:0:0:
448,192,123657,1,0,0:0:0:0:
192,192,123959,1,0,0:0:0:0:
64,192,123997,1,0,0:0:0:0:
448,192,124034,128,0,124160:0:0:0:0:
320,192,124034,128,0,124160:0:0:0:0:
64,192,124110,1,0,0:0:0:0:
192,192,124110,128,0,124160:0:0:0:0:
320,192,124411,1,0,0:0:0:0:
448,192,124449,1,0,0:0:0:0:
64,192,124486,128,0,124713:0:0:0:0:
192,192,124512,128,0,124662:0:0:0:0:
320,192,124537,128,0,124612:0:0:0:0:
448,192,124562,1,0,0:0:0:0:
448,192,124713,1,0,0:0:0:0:
320,192,124713,1,0,0:0:0:0:
64,192,124788,1,0,0:0:0:0:
192,192,124838,1,0,0:0:0:0:
320,192,124888,1,0,0:0:0:0:
448,192,124939,1,0,0:0:0:0:
64,192,124989,128,0,125115:0:0:0:0:
192,192,125014,1,0,0:0:0:0:
448,192,125039,128,0,125165:0:0:0:0:
320,192,125089,1,0,0:0:0:0:
192,192,125140,1,0,0:0:0:0:
320,192,125190,1,0,0:0:0:0:
192,192,125240,1,0,0:0:0:0:
448,192,125316,1,0,0:0:0:0:
320,192,125316,1,0,0:0:0:0:
64,192,125316,1,0,0:0:0:0:
64,192,125466,128,0,125542:0:0:0:0:
192,192,125504,128,0,125561:0:0:0:0:
64,192,125617,128,0,125693:0:0:0:0:
192,192,125655,128,0,125711:0:0:0:0:
64,192,125768,128,0,125843:0:0:0:0:
192,192,125806,128,0,125862:0:0:0:0:
448,192,125919,1,0,0:0:0:0:
320,192,125969,1,0,0:0:0:0:
448,192,126019,1,0,0:0:0:0:
64,192,126069,1,0,0:0:0:0:
192,192,126120,1,0,0:0:0:0:
64,192,126170,1,0,0:0:0:0:
448,192,126220,128,0,126277:0:0:0:0:
320,192,126220,128,0,126296:0:0:0:0:
448,192,126371,128,0,126446:0:0:0:0:
320,192,126390,128,0,126446:0:0:0:0:
64,192,126522,1,0,0:0:0:0:
448,192,126522,128,0,126647:0:0:0:0:
192,192,126522,128,0,126597:0:0:0:0:
320,192,126622,1,0,0:0:0:0:
64,192,126672,1,0,0:0:0:0:
192,192,126723,1,0,0:0:0:0:
448,192,126773,1,0,0:0:0:0:
64,192,126823,1,0,0:0:0:0:
320,192,126873,1,0,0:0:0:0:
448,192,126924,1,0,0:0:0:0:
192,192,126974,128,0,127125:0:0:0:0:
64,192,127049,128,0,127200:0:0:0:0:
448,192,127125,128,0,127275:0:0:0:0:
320,192,127125,128,0,127250:0:0:0:0:
192,192,127225,1,0,0:0:0:0:
64,192,127275,1,0,0:0:0:0:
320,192,127326,1,0,0:0:0:0:
192,192,127359,1,0,0:0:0:0:
64,192,127388,1,0,0:0:0:0:
448,192,127426,1,0,0:0:0:0:
320,192,127476,1,0,0:0:0:0:
192,192,127527,1,0,0:0:0:0:
64,192,127577,1,0,0:0:0:0:
448,192,127627,1,0,0:0:0:0:
320,192,127677,1,0,0:0:0:0:
192,192,127728,1,0,0:0:0:0:
64,192,127728,1,0,0:0:0:0:
320,192,127878,1,0,0:0:0:0:
448,192,127916,1,0,0:0:0:0:
64,192,127954,128,0,128180:0:0:0:0:
192,192,127979,128,0,128130:0:0:0:0:
320,192,128004,128,0,128079:0:0:0:0:
448,192,128029,1,0,0:0:0:0:
320,192,128331,1,0,0:0:0:0:
192,192,128331,1,0,0:0:0:0:
64,192,128368,1,0,0:0:0:0:
448,192,128406,128,0,128632:0:0:0:0:
320,192,128431,128,0,128582:0:0:0:0:
192,192,128456,128,0,128532:0:0:0:0:
64,192,128481,1,0,0:0:0:0:
320,192,128783,1,0,0:0:0:0:
448,192,128821,1,0,0:0:0:0:
64,192,128858,128,0,128984:0:0:0:0:
192,192,128858,128,0,128984:0:0:0:0:
448,192,128934,1,0,0:0:0:0:
320,192,128934,128,0,128984:0:0:0:0:
192,192,129235,1,0,0:0:0:0:
64,192,129273,1,0,0:0:0:0:
448,192,129311,128,0,129537:0:0:0:0:
320,192,129336,128,0,129486:0:0:0:0:
192,192,129361,128,0,129436:0:0:0:0:
64,192,129386,1,0,0:0:0:0:
64,192,129537,1,0,0:0:0:0:
192,192,129537,1,0,0:0:0:0:
448,192,129612,1,0,0:0:0:0:
192,192,129687,1,0,0:0:0:0:
320,192,129738,1,0,0:0:0:0:
64,192,129788,1,0,0:0:0:0:
192,192,129838,128,0,129939:0:0:0:0:
448,192,129863,128,0,129939:0:0:0:0:
64,192,129989,1,0,0:0:0:0:
192,192,130039,128,0,130140:0:0:0:0:
320,192,130064,128,0,130140:0:0:0:0:
448,192,130140,1,0,0:0:0:0:
64,192,130140,1,0,0:0:0:0:
448,192,130215,1,0,0:0:0:0:
448,192,130290,1,0,0:0:0:0:
320,192,130366,1,0,0:0:0:0:
64,192,130441,1,0,0:0:0:0:
64,192,130517,1,0,0:0:0:0:
64,192,130592,1,0,0:0:0:0:
192,192,130667,1,0,0:0:0:0:
448,192,130743,1,0,0:0:0:0:
448,192,130894,1,0,0:0:0:0:
448,192,130969,1,0,0:0:0:0:
64,192,131044,1,0,0:0:0:0:
192,192,131044,1,0,0:0:0:0:
448,192,131120,1,0,0:0:0:0:
448,192,131195,1,0,0:0:0:0:
448,192,131346,1,0,0:0:0:0:
192,192,131346,1,0,0:0:0:0:
64,192,131421,1,0,0:0:0:0:
64,192,131497,1,0,0:0:0:0:
64,192,131572,1,0,0:0:0:0:
320,192,131647,1,0,0:0:0:0:
192,192,131698,1,0,0:0:0:0:
320,192,131748,1,0,0:0:0:0:
448,192,131798,1,0,0:0:0:0:
64,192,131873,1,0,0:0:0:0:
448,192,131949,1,0,0:0:0:0:
192,192,131949,1,0,0:0:0:0:
320,192,131999,1,0,0:0:0:0:
64,192,132049,1,0,0:0:0:0:
192,192,132100,1,0,0:0:0:0:
320,192,132175,1,0,0:0:0:0:
448,192,132250,1,0,0:0:0:0:
192,192,132250,1,0,0:0:0:0:
64,192,132326,1,0,0:0:0:0:
448,192,132401,1,0,0:0:0:0:
320,192,132451,1,0,0:0:0:0:
448,192,132502,1,0,0:0:0:0:
192,192,132552,1,0,0:0:0:0:
64,192,132552,1,0,0:0:0:0:
448,192,132703,1,0,0:0:0:0:
320,192,132740,1,0,0:0:0:0:
64,192,132778,128,0,132904:0:0:0:0:
192,192,132816,128,0,132904:0:0:0:0:
320,192,132853,128,0,132904:0:0:0:0:
448,192,132853,1,0,0:0:0:0:
192,192,133004,1,0,0:0:0:0:
64,192,133155,1,0,0:0:0:0:
320,192,133155,1,0,0:0:0:0:
448,192,133193,1,0,0:0:0:0:
192,192,133230,128,0,133331:0:0:0:0:
64,192,133255,128,0,133381:0:0:0:0:
448,192,133280,128,0,133456:0:0:0:0:
320,192,133306,1,0,0:0:0:0:
64,192,133456,1,0,0:0:0:0:
192,192,133456,1,0,0:0:0:0:
320,192,133607,1,0,0:0:0:0:
448,192,133645,1,0,0:0:0:0:
192,192,133682,1,0,0:0:0:0:
64,192,133720,128,0,133871:0:0:0:0:
320,192,133758,128,0,133808:0:0:0:0:
448,192,133758,128,0,133808:0:0:0:0:
192,192,133833,1,0,0:0:0:0:
448,192,133909,1,0,0:0:0:0:
192,192,134059,1,0,0:0:0:0:
64,192,134059,1,0,0:0:0:0:
448,192,134097,1,0,0:0:0:0:
320,192,134135,128,0,134311:0:0:0:0:
64,192,134160,1,0,0:0:0:0:
192,192,134185,128,0,134260:0:0:0:0:
448,192,134210,128,0,134361:0:0:0:0:
64,192,134361,1,0,0:0:0:0:
192,192,134361,1,0,0:0:0:0:
192,192,134512,128,0,134587:0:0:0:0:
64,192,134537,128,0,134612:0:0:0:0:
192,192,134662,1,0,0:0:0:0:
448,192,134662,1,0,0:0:0:0:
320,192,134662,1,0,0:0:0:0:
192,192,134813,128,0,134914:0:0:0:0:
320,192,134813,128,0,134888:0:0:0:0:
64,192,134964,1,0,0:0:0:0:
320,192,134964,1,0,0:0:0:0:
448,192,134964,1,0,0:0:0:0:
320,192,135115,128,0,135215:0:0:0:0:
448,192,135115,128,0,135190:0:0:0:0:
448,192,135265,1,0,0:0:0:0:
192,192,135265,1,0,0:0:0:0:
192,192,135341,1,0,0:0:0:0:
64,192,135341,1,0,0:0:0:0:
320,192,135416,1,0,0:0:0:0:
448,192,135416,1,0,0:0:0:0:
64,192,135491,1,0,0:0:0:0:
320,192,135567,128,0,135793:0:0:0:0:
192,192,135567,1,0,0:0:0:0:
320,192,136321,128,0,136471:0:0:0:0:
448,192,136471,128,0,136547:0:0:0:0:
64,192,136622,128,0,136773:0:0:0:0:
448,192,136773,128,0,136924:0:0:0:0:
320,192,136773,128,0,136899:0:0:0:0:
192,192,136873,1,0,0:0:0:0:
64,192,136924,1,0,0:0:0:0:
320,192,136974,1,0,0:0:0:0:
192,192,137007,1,0,0:0:0:0:
64,192,137041,1,0,0:0:0:0:
448,192,137074,1,0,0:0:0:0:
320,192,137125,1,0,0:0:0:0:
192,192,137175,1,0,0:0:0:0:
64,192,137225,1,0,0:0:0:0:
320,192,137301,1,0,0:0:0:0:
448,192,137301,1,0,0:0:0:0:
448,192,137376,128,0,137451:0:0:0:0:
192,192,137376,1,0,0:0:0:0:
64,192,137527,128,0,137602:0:0:0:0:
64,192,137677,1,0,0:0:0:0:
320,192,137677,1,0,0:0:0:0:
448,192,137753,1,0,0:0:0:0:
320,192,137828,1,0,0:0:0:0:
192,192,137878,1,0,0:0:0:0:
64,192,137929,1,0,0:0:0:0:
448,192,137979,1,0,0:0:0:0:
192,192,138012,1,0,0:0:0:0:
320,192,138046,1,0,0:0:0:0:
64,192,138079,1,0,0:0:0:0:
448,192,138130,1,0,0:0:0:0:
192,192,138180,1,0,0:0:0:0:
320,192,138230,1,0,0:0:0:0:
448,192,138280,1,0,0:0:0:0:
64,192,138331,1,0,0:0:0:0:
192,192,138381,1,0,0:0:0:0:
320,192,138431,1,0,0:0:0:0:
64,192,138507,1,0,0:0:0:0:
448,192,138582,128,0,138708:0:0:0:0:
192,192,138582,128,0,138638:0:0:0:0:
192,192,138733,128,0,138858:0:0:0:0:
64,192,138733,128,0,138789:0:0:0:0:
320,192,138883,128,0,138940:0:0:0:0:
64,192,138909,128,0,139034:0:0:0:0:
448,192,139034,128,0,139091:0:0:0:0:
320,192,139059,128,0,139185:0:0:0:0:
192,192,139185,1,0,0:0:0:0:
64,192,139185,1,0,0:0:0:0:
448,192,139260,1,0,0:0:0:0:
192,192,139336,1,0,0:0:0:0:
320,192,139386,1,0,0:0:0:0:
64,192,139436,1,0,0:0:0:0:
192,192,139486,128,0,139587:0:0:0:0:
448,192,139512,128,0,139587:0:0:0:0:
64,192,139637,1,0,0:0:0:0:
192,192,139687,128,0,139788:0:0:0:0:
320,192,139713,1,0,0:0:0:0:
320,192,139788,128,0,139863:0:0:0:0:
448,192,139788,1,0,0:0:0:0:
64,192,139939,128,0,140014:0:0:0:0:
64,192,140089,1,0,0:0:0:0:
448,192,140089,128,0,140165:0:0:0:0:
64,192,140165,128,0,140391:0:0:0:0:
448,192,140240,128,0,140316:0:0:0:0:
320,192,140265,128,0,140316:0:0:0:0:
192,192,140391,1,0,0:0:0:0:
448,192,140391,128,0,140466:0:0:0:0:
192,192,140542,1,0,0:0:0:0:
448,192,140542,128,0,140617:0:0:0:0:
320,192,140567,128,0,140617:0:0:0:0:
64,192,140693,1,0,0:0:0:0:
448,192,140693,128,0,140768:0:0:0:0:
64,192,140768,128,0,140994:0:0:0:0:
448,192,140843,128,0,140919:0:0:0:0:
320,192,140868,128,0,140919:0:0:0:0:
192,192,140994,1,0,0:0:0:0:
448,192,140994,128,0,141069:0:0:0:0:
320,192,140994,128,0,141095:0:0:0:0:
192,192,141095,1,0,0:0:0:0:
64,192,141128,1,0,0:0:0:0:
448,192,141162,1,0,0:0:0:0:
320,192,141195,1,0,0:0:0:0:
64,192,141245,128,0,141346:0:0:0:0:
320,192,141296,128,0,141421:0:0:0:0:
448,192,141371,128,0,141522:0:0:0:0:
64,192,141446,128,0,141597:0:0:0:0:
192,192,141597,1,0,0:0:0:0:
448,192,141597,1,0,0:0:0:0:
320,192,141672,1,0,0:0:0:0:
192,192,141748,1,0,0:0:0:0:
64,192,141798,1,0,0:0:0:0:
448,192,141832,1,0,0:0:0:0:
320,192,141865,1,0,0:0:0:0:
192,192,141899,1,0,0:0:0:0:
64,192,141932,1,0,0:0:0:0:
320,192,141999,1,0,0:0:0:0:
448,192,142049,1,0,0:0:0:0:
64,192,142125,1,0,0:0:0:0:
192,192,142125,1,0,0:0:0:0:
64,192,142200,128,0,142275:0:0:0:0:
448,192,142200,1,0,0:0:0:0:
320,192,142351,128,0,142426:0:0:0:0:
320,192,142502,1,0,0:0:0:0:
64,192,142502,1,0,0:0:0:0:
192,192,142577,1,0,0:0:0:0:
64,192,142652,1,0,0:0:0:0:
448,192,142703,1,0,0:0:0:0:
320,192,142753,1,0,0:0:0:0:
192,192,142803,1,0,0:0:0:0:
448,192,142837,1,0,0:0:0:0:
64,192,142870,1,0,0:0:0:0:
320,192,142904,1,0,0:0:0:0:
192,192,142954,1,0,0:0:0:0:
448,192,143004,1,0,0:0:0:0:
64,192,143054,1,0,0:0:0:0:
192,192,143105,1,0,0:0:0:0:
320,192,143155,1,0,0:0:0:0:
448,192,143205,1,0,0:0:0:0:
64,192,143255,1,0,0:0:0:0:
320,192,143331,1,0,0:0:0:0:
448,192,143406,128,0,143532:0:0:0:0:
192,192,143406,128,0,143463:0:0:0:0:
192,192,143557,128,0,143682:0:0:0:0:
64,192,143557,128,0,143613:0:0:0:0:
320,192,143708,128,0,143764:0:0:0:0:
64,192,143733,128,0,143858:0:0:0:0:
448,192,143858,128,0,143915:0:0:0:0:
320,192,143883,128,0,144009:0:0:0:0:
192,192,144009,1,0,0:0:0:0:
64,192,144009,1,0,0:0:0:0:
448,192,144084,1,0,0:0:0:0:
320,192,144135,1,0,0:0:0:0:
192,192,144185,1,0,0:0:0:0:
64,192,144235,1,0,0:0:0:0:
448,192,144285,128,0,144411:0:0:0:0:
320,192,144311,1,0,0:0:0:0:
64,192,144336,128,0,144461:0:0:0:0:
192,192,144386,1,0,0:0:0:0:
320,192,144436,1,0,0:0:0:0:
192,192,144486,1,0,0:0:0:0:
448,192,144537,1,0,0:0:0:0:
320,192,144537,1,0,0:0:0:0:
64,192,144612,128,0,144706:0:0:0:0:
192,192,144612,128,0,144669:0:0:0:0:
448,192,144687,128,0,144763:0:0:0:0:
448,192,144838,128,0,144895:0:0:0:0:
320,192,144876,128,0,144951:0:0:0:0:
64,192,144914,1,0,0:0:0:0:
192,192,144914,1,0,0:0:0:0:
320,192,145064,128,0,145121:0:0:0:0:
448,192,145102,128,0,145177:0:0:0:0:
192,192,145215,128,0,145272:0:0:0:0:
320,192,145253,128,0,145328:0:0:0:0:
320,192,145441,128,0,145517:0:0:0:0:
192,192,145479,128,0,145535:0:0:0:0:
64,192,145517,1,0,0:0:0:0:
448,192,145517,1,0,0:0:0:0:
192,192,145667,128,0,145743:0:0:0:0:
320,192,145705,128,0,145762:0:0:0:0:
448,192,145818,128,0,146120:0:0:0:0:
64,192,145818,1,0,0:0:0:0:
192,192,145818,1,0,0:0:0:0:
64,192,145969,1,0,0:0:0:0:
192,192,146044,1,0,0:0:0:0:
320,192,146120,1,0,0:0:0:0:
64,192,146270,1,0,0:0:0:0:
192,192,146346,1,0,0:0:0:0:
320,192,146421,128,0,146547:0:0:0:0:
448,192,146421,128,0,146572:0:0:0:0:
192,192,146522,1,0,0:0:0:0:
64,192,146572,1,0,0:0:0:0:
320,192,146622,1,0,0:0:0:0:
192,192,146656,1,0,0:0:0:0:
64,192,146689,1,0,0:0:0:0:
320,192,146723,1,0,0:0:0:0:
448,192,146723,1,0,0:0:0:0:
64,192,146823,1,0,0:0:0:0:
192,192,146873,1,0,0:0:0:0:
448,192,146924,1,0,0:0:0:0:
320,192,146974,1,0,0:0:0:0:
448,192,147024,128,0,147100:0:0:0:0:
64,192,147175,128,0,147250:0:0:0:0:
192,192,147175,1,0,0:0:0:0:
64,192,147326,1,0,0:0:0:0:
320,192,147326,1,0,0:0:0:0:
448,192,147401,1,0,0:0:0:0:
320,192,147476,1,0,0:0:0:0:
192,192,147527,1,0,0:0:0:0:
64,192,147577,1,0,0:0:0:0:
192,192,147627,1,0,0:0:0:0:
448,192,147627,1,0,0:0:0:0:
320,192,147677,1,0,0:0:0:0:
64,192,147728,1,0,0:0:0:0:
448,192,147778,1,0,0:0:0:0:
192,192,147828,1,0,0:0:0:0:
320,192,147878,1,0,0:0:0:0:
64,192,147929,1,0,0:0:0:0:
448,192,147929,1,0,0:0:0:0:
192,192,148004,1,0,0:0:0:0:
320,192,148079,1,0,0:0:0:0:
64,192,148155,1,0,0:0:0:0:
192,192,148230,128,0,148287:0:0:0:0:
448,192,148255,128,0,148381:0:0:0:0:
192,192,148381,128,0,148507:0:0:0:0:
64,192,148381,128,0,148437:0:0:0:0:
320,192,148532,128,0,148588:0:0:0:0:
64,192,148532,128,0,148657:0:0:0:0:
448,192,148682,128,0,148739:0:0:0:0:
320,192,148708,128,0,148833:0:0:0:0:
192,192,148833,1,0,0:0:0:0:
64,192,148833,1,0,0:0:0:0:
448,192,148909,1,0,0:0:0:0:
192,192,148984,1,0,0:0:0:0:
320,192,149034,1,0,0:0:0:0:
64,192,149084,1,0,0:0:0:0:
448,192,149135,128,0,149210:0:0:0:0:
192,192,149135,128,0,149235:0:0:0:0:
448,192,149285,1,0,0:0:0:0:
320,192,149336,128,0,149436:0:0:0:0:
192,192,149361,128,0,149436:0:0:0:0:
64,192,149436,128,0,149512:0:0:0:0:
192,192,149587,128,0,149662:0:0:0:0:
64,192,149587,1,0,0:0:0:0:
192,192,149738,1,0,0:0:0:0:
448,192,149738,128,0,149813:0:0:0:0:
192,192,149813,128,0,149964:0:0:0:0:
320,192,149888,128,0,149964:0:0:0:0:
448,192,149888,128,0,149939:0:0:0:0:
64,192,150039,1,0,0:0:0:0:
448,192,150039,128,0,150115:0:0:0:0:
64,192,150190,1,0,0:0:0:0:
320,192,150190,128,0,150265:0:0:0:0:
448,192,150190,128,0,150240:0:0:0:0:
192,192,150341,1,0,0:0:0:0:
448,192,150341,128,0,150416:0:0:0:0:
192,192,150416,128,0,150567:0:0:0:0:
320,192,150491,128,0,150567:0:0:0:0:
448,192,150491,128,0,150542:0:0:0:0:
64,192,150642,1,0,0:0:0:0:
320,192,150680,128,0,150831:0:0:0:0:
448,192,150718,128,0,150868:0:0:0:0:
64,192,150793,128,0,150969:0:0:0:0:
192,192,150793,1,0,0:0:0:0:
192,192,150944,128,0,150994:0:0:0:0:
448,192,150944,1,0,0:0:0:0:
320,192,151019,128,0,151170:0:0:0:0:
64,192,151095,128,0,151245:0:0:0:0:
448,192,151245,1,0,0:0:0:0:
192,192,151245,1,0,0:0:0:0:
320,192,151296,1,0,0:0:0:0:
64,192,151346,1,0,0:0:0:0:
192,192,151396,1,0,0:0:0:0:
320,192,151471,1,0,0:0:0:0:
448,192,151547,1,0,0:0:0:0:
192,192,151547,1,0,0:0:0:0:
64,192,151622,1,0,0:0:0:0:
448,192,151698,1,0,0:0:0:0:
320,192,151748,1,0,0:0:0:0:
448,192,151798,1,0,0:0:0:0:
192,192,151848,1,0,0:0:0:0:
64,192,151848,1,0,0:0:0:0:
320,192,151999,1,0,0:0:0:0:
448,192,152037,1,0,0:0:0:0:
64,192,152074,128,0,152200:0:0:0:0:
192,192,152112,128,0,152200:0:0:0:0:
320,192,152150,128,0,152200:0:0:0:0:
448,192,152150,1,0,0:0:0:0:
192,192,152301,1,0,0:0:0:0:
64,192,152451,1,0,0:0:0:0:
320,192,152451,1,0,0:0:0:0:
448,192,152489,1,0,0:0:0:0:
192,192,152527,128,0,152627:0:0:0:0:
64,192,152564,128,0,152627:0:0:0:0:
448,192,152577,128,0,152627:0:0:0:0:
320,192,152602,1,0,0:0:0:0:
64,192,152753,1,0,0:0:0:0:
192,192,152753,1,0,0:0:0:0:
320,192,152904,1,0,0:0:0:0:
448,192,152941,1,0,0:0:0:0:
192,192,152979,1,0,0:0:0:0:
64,192,153017,128,0,153105:0:0:0:0:
320,192,153054,128,0,153105:0:0:0:0:
448,192,153054,128,0,153105:0:0:0:0:
192,192,153130,1,0,0:0:0:0:
448,192,153205,1,0,0:0:0:0:
192,192,153356,1,0,0:0:0:0:
64,192,153356,1,0,0:0:0:0:
448,192,153394,1,0,0:0:0:0:
320,192,153431,128,0,153557:0:0:0:0:
64,192,153456,1,0,0:0:0:0:
192,192,153481,128,0,153557:0:0:0:0:
448,192,153507,128,0,153557:0:0:0:0:
320,192,153657,1,0,0:0:0:0:
64,192,153657,1,0,0:0:0:0:
192,192,153657,1,0,0:0:0:0:
192,192,153808,128,0,153883:0:0:0:0:
64,192,153833,128,0,153909:0:0:0:0:
192,192,153959,1,0,0:0:0:0:
448,192,153959,1,0,0:0:0:0:
320,192,153959,1,0,0:0:0:0:
320,192,154110,128,0,154185:0:0:0:0:
192,192,154135,128,0,154210:0:0:0:0:
64,192,154260,1,0,0:0:0:0:
320,192,154260,1,0,0:0:0:0:
448,192,154260,1,0,0:0:0:0:
448,192,154411,128,0,154486:0:0:0:0:
320,192,154436,128,0,154512:0:0:0:0:
64,192,154562,1,0,0:0:0:0:
448,192,154562,1,0,0:0:0:0:
192,192,154562,1,0,0:0:0:0:
320,192,154637,1,0,0:0:0:0:
448,192,154713,128,0,154788:0:0:0:0:
64,192,154738,128,0,154813:0:0:0:0:
192,192,154863,128,0,155089:0:0:0:0:
64,192,154863,1,0,0:0:0:0:
192,192,155165,1,0,0:0:0:0:
320,192,155203,1,0,0:0:0:0:
448,192,155240,1,0,0:0:0:0:
64,192,155278,1,0,0:0:0:0:
192,192,155316,1,0,0:0:0:0:
320,192,155353,1,0,0:0:0:0:
448,192,155391,1,0,0:0:0:0:
64,192,155441,128,0,155517:0:0:0:0:
192,192,155491,1,0,0:0:0:0:
320,192,155542,1,0,0:0:0:0:
64,192,155592,1,0,0:0:0:0:
192,192,155642,128,0,155718:0:0:0:0:
448,192,155693,1,0,0:0:0:0:
320,192,155768,128,0,155843:0:0:0:0:
64,192,155843,1,0,0:0:0:0:
448,192,155919,128,0,155994:0:0:0:0:
192,192,155994,1,0,0:0:0:0:
448,192,156069,1,0,0:0:0:0:
320,192,156069,1,0,0:0:0:0:
448,192,156371,1,0,0:0:0:0:
192,192,156522,1,0,0:0:0:0:
192,192,156823,1,0,0:0:0:0:
320,192,156974,1,0,0:0:0:0:
64,192,156974,1,0,0:0:0:0:
320,192,158079,1,0,0:0:0:0:
192,192,158280,1,0,0:0:0:0:
448,192,158481,1,0,0:0:0:0:
64,192,158481,1,0,0:0:0:0:
448,192,158783,1,0,0:0:0:0:
320,192,158934,1,0,0:0:0:0:
320,192,159235,1,0,0:0:0:0:
192,192,159386,1,0,0:0:0:0:
448,192,159386,1,0,0:0:0:0:
64,192,160491,1,0,0:0:0:0:
192,192,160693,1,0,0:0:0:0:
320,192,160894,1,0,0:0:0:0:
448,192,160894,1,0,0:0:0:0:
448,192,161195,1,0,0:0:0:0:
64,192,161346,1,0,0:0:0:0:
64,192,161647,1,0,0:0:0:0:
192,192,161798,1,0,0:0:0:0:
320,192,161798,1,0,0:0:0:0:
64,192,162904,1,0,0:0:0:0:
320,192,163105,1,0,0:0:0:0:
192,192,163306,1,0,0:0:0:0:
448,192,163306,1,0,0:0:0:0:
192,192,163607,1,0,0:0:0:0:
448,192,163758,1,0,0:0:0:0:
448,192,164059,1,0,0:0:0:0:
320,192,164135,1,0,0:0:0:0:
64,192,164210,1,0,0:0:0:0:
192,192,164210,1,0,0:0:0:0:
448,192,164361,1,0,0:0:0:0:
320,192,164436,1,0,0:0:0:0:
192,192,164512,1,0,0:0:0:0:
448,192,164662,1,0,0:0:0:0:
320,192,164738,1,0,0:0:0:0:
192,192,164813,1,0,0:0:0:0:
448,192,164888,1,0,0:0:0:0:
64,192,164964,1,0,0:0:0:0:
192,192,165039,1,0,0:0:0:0:
320,192,165115,1,0,0:0:0:0:
64,192,165190,1,0,0:0:0:0:
448,192,165265,1,0,0:0:0:0:
320,192,165341,1,0,0:0:0:0:
192,192,165416,1,0,0:0:0:0:
448,192,165491,1,0,0:0:0:0:
64,192,165567,1,0,0:0:0:0:
192,192,165642,1,0,0:0:0:0:
320,192,165718,128,0,165793:0:0:0:0:
448,192,165718,1,0,0:0:0:0:
448,192,166019,128,0,166095:0:0:0:0:
192,192,166170,128,0,166245:0:0:0:0:
192,192,166471,128,0,166547:0:0:0:0:
64,192,166622,128,0,166698:0:0:0:0:
320,192,166622,1,0,0:0:0:0:
320,192,167728,128,0,167803:0:0:0:0:
192,192,167929,128,0,168004:0:0:0:0:
64,192,168130,128,0,168205:0:0:0:0:
448,192,168130,1,0,0:0:0:0:
448,192,168431,128,0,168507:0:0:0:0:
320,192,168582,128,0,168657:0:0:0:0:
320,192,168883,128,0,168959:0:0:0:0:
192,192,169034,128,0,169562:0:0:0:0:
448,192,169034,1,0,0:0:0:0:
64,192,170140,128,0,170215:0:0:0:0:
192,192,170341,128,0,170542:0:0:0:0:
320,192,170542,128,0,170617:0:0:0:0:
448,192,170542,1,0,0:0:0:0:
448,192,170843,128,0,170919:0:0:0:0:
64,192,170994,128,0,171069:0:0:0:0:
64,192,171296,128,0,171371:0:0:0:0:
320,192,171446,128,0,171974:0:0:0:0:
192,192,171446,1,0,0:0:0:0:
64,192,172552,128,0,172627:0:0:0:0:
320,192,172753,128,0,172954:0:0:0:0:
448,192,172954,128,0,173029:0:0:0:0:
192,192,172954,1,0,0:0:0:0:
192,192,173255,128,0,173331:0:0:0:0:
320,192,173406,128,0,173481:0:0:0:0:
320,192,173708,128,0,173783:0:0:0:0:
448,192,173858,128,0,174386:0:0:0:0:
64,192,173858,1,0,0:0:0:0:
64,192,174160,1,0,0:0:0:0:
192,192,174235,1,0,0:0:0:0:
320,192,174311,1,0,0:0:0:0:
64,192,174461,1,0,0:0:0:0:
192,192,174537,1,0,0:0:0:0:
320,192,174612,1,0,0:0:0:0:
448,192,174687,1,0,0:0:0:0:
64,192,174763,128,0,174838:0:0:0:0:
320,192,174838,1,0,0:0:0:0:
192,192,174914,128,0,174989:0:0:0:0:
64,192,174989,1,0,0:0:0:0:
320,192,175064,128,0,175140:0:0:0:0:
192,192,175140,1,0,0:0:0:0:
448,192,175215,128,0,175290:0:0:0:0:
320,192,175290,1,0,0:0:0:0:
64,192,175366,128,0,175441:0:0:0:0:
192,192,175366,1,0,0:0:0:0:
64,192,175517,1,0,0:0:0:0:
448,192,175667,1,0,0:0:0:0:
64,192,175667,1,0,0:0:0:0:
192,192,175818,128,0,175894:0:0:0:0:
320,192,175969,1,0,0:0:0:0:
192,192,175969,1,0,0:0:0:0:
192,192,176120,1,0,0:0:0:0:
192,192,176270,1,0,0:0:0:0:
64,192,176270,1,0,0:0:0:0:
320,192,176421,1,0,0:0:0:0:
192,192,176471,1,0,0:0:0:0:
64,192,176522,1,0,0:0:0:0:
320,192,176572,1,0,0:0:0:0:
448,192,176572,128,0,176647:0:0:0:0:
448,192,176723,1,0,0:0:0:0:
192,192,176873,1,0,0:0:0:0:
448,192,176873,1,0,0:0:0:0:
320,192,177024,128,0,177100:0:0:0:0:
192,192,177175,1,0,0:0:0:0:
320,192,177175,1,0,0:0:0:0:
320,192,177326,1,0,0:0:0:0:
448,192,177476,1,0,0:0:0:0:
320,192,177476,1,0,0:0:0:0:
64,192,177627,1,0,0:0:0:0:
448,192,177677,1,0,0:0:0:0:
320,192,177728,1,0,0:0:0:0:
64,192,177778,1,0,0:0:0:0:
192,192,177778,128,0,177853:0:0:0:0:
192,192,177929,128,0,178004:0:0:0:0:
448,192,178079,1,0,0:0:0:0:
192,192,178079,1,0,0:0:0:0:
64,192,178230,128,0,178306:0:0:0:0:
64,192,178381,128,0,178456:0:0:0:0:
448,192,178381,1,0,0:0:0:0:
64,192,178532,1,0,0:0:0:0:
192,192,178682,1,0,0:0:0:0:
64,192,178682,1,0,0:0:0:0:
448,192,178783,1,0,0:0:0:0:
192,192,178883,1,0,0:0:0:0:
64,192,178984,1,0,0:0:0:0:
320,192,178984,128,0,179059:0:0:0:0:
320,192,179135,1,0,0:0:0:0:
192,192,179285,1,0,0:0:0:0:
320,192,179285,1,0,0:0:0:0:
448,192,179436,128,0,179512:0:0:0:0:
64,192,179587,1,0,0:0:0:0:
448,192,179587,1,0,0:0:0:0:
448,192,179738,1,0,0:0:0:0:
320,192,179888,128,0,179964:0:0:0:0:
192,192,179888,1,0,0:0:0:0:
320,192,180039,1,0,0:0:0:0:
64,192,180190,128,0,180265:0:0:0:0:
192,192,180190,1,0,0:0:0:0:
64,192,180341,1,0,0:0:0:0:
192,192,180491,1,0,0:0:0:0:
320,192,180491,1,0,0:0:0:0:
64,192,180642,128,0,180718:0:0:0:0:
192,192,180793,1,0,0:0:0:0:
64,192,180793,1,0,0:0:0:0:
448,192,180944,1,0,0:0:0:0:
64,192,181095,128,0,181170:0:0:0:0:
448,192,181095,1,0,0:0:0:0:
192,192,181245,128,0,181321:0:0:0:0:
64,192,181245,1,0,0:0:0:0:
448,192,181396,128,0,181471:0:0:0:0:
320,192,181396,1,0,0:0:0:0:
448,192,181547,1,0,0:0:0:0:
320,192,181698,1,0,0:0:0:0:
192,192,181698,1,0,0:0:0:0:
448,192,181848,128,0,181924:0:0:0:0:
320,192,181999,1,0,0:0:0:0:
448,192,181999,1,0,0:0:0:0:
64,192,182150,1,0,0:0:0:0:
448,192,182301,128,0,182376:0:0:0:0:
64,192,182301,1,0,0:0:0:0:
320,192,182451,128,0,182527:0:0:0:0:
448,192,182451,1,0,0:0:0:0:
64,192,182602,128,0,182677:0:0:0:0:
192,192,182602,1,0,0:0:0:0:
64,192,182753,1,0,0:0:0:0:
320,192,182904,1,0,0:0:0:0:
192,192,182904,1,0,0:0:0:0:
64,192,183054,128,0,183130:0:0:0:0:
64,192,183205,1,0,0:0:0:0:
192,192,183205,1,0,0:0:0:0:
320,192,183356,1,0,0:0:0:0:
448,192,183431,1,0,0:0:0:0:
64,192,183507,128,0,183582:0:0:0:0:
192,192,183507,1,0,0:0:0:0:
320,192,183657,1,0,0:0:0:0:
448,192,183733,1,0,0:0:0:0:
64,192,183808,1,0,0:0:0:0:
192,192,183808,1,0,0:0:0:0:
64,192,183959,128,0,184034:0:0:0:0:
320,192,184034,1,0,0:0:0:0:
448,192,184110,1,0,0:0:0:0:
192,192,184185,1,0,0:0:0:0:
320,192,184260,1,0,0:0:0:0:
448,192,184336,1,0,0:0:0:0:
64,192,184411,1,0,0:0:0:0:
192,192,184486,1,0,0:0:0:0:
64,192,184562,1,0,0:0:0:0:
320,192,184637,1,0,0:0:0:0:
448,192,184713,1,0,0:0:0:0:
192,192,184788,1,0,0:0:0:0:
448,192,184863,1,0,0:0:0:0:
320,192,184939,1,0,0:0:0:0:
64,192,185014,1,0,0:0:0:0:
192,192,185014,1,0,0:0:0:0:
64,192,185165,1,0,0:0:0:0:
192,192,185165,1,0,0:0:0:0:
320,192,185240,1,0,0:0:0:0:
448,192,185316,1,0,0:0:0:0:
64,192,185316,1,0,0:0:0:0:
192,192,185466,1,0,0:0:0:0:
320,192,185466,1,0,0:0:0:0:
64,192,185542,1,0,0:0:0:0:
320,192,185617,1,0,0:0:0:0:
448,192,185617,1,0,0:0:0:0:
192,192,185768,1,0,0:0:0:0:
448,192,185768,1,0,0:0:0:0:
448,192,185919,1,0,0:0:0:0:
320,192,185919,1,0,0:0:0:0:
448,192,186069,1,0,0:0:0:0:
192,192,186069,1,0,0:0:0:0:
320,192,186220,1,0,0:0:0:0:
64,192,186220,1,0,0:0:0:0:
64,192,186371,1,0,0:0:0:0:
320,192,186371,1,0,0:0:0:0:
448,192,186446,1,0,0:0:0:0:
64,192,186522,1,0,0:0:0:0:
192,192,186522,1,0,0:0:0:0:
320,192,186672,1,0,0:0:0:0:
448,192,186672,1,0,0:0:0:0:
64,192,186748,1,0,0:0:0:0:
320,192,186823,1,0,0:0:0:0:
192,192,186823,1,0,0:0:0:0:
64,192,186974,1,0,0:0:0:0:
192,192,186974,1,0,0:0:0:0:
320,192,187125,1,0,0:0:0:0:
192,192,187125,1,0,0:0:0:0:
64,192,187275,1,0,0:0:0:0:
192,192,187275,1,0,0:0:0:0:
448,192,187426,1,0,0:0:0:0:
320,192,187426,1,0,0:0:0:0:
448,192,187577,1,0,0:0:0:0:
320,192,187577,1,0,0:0:0:0:
192,192,187652,1,0,0:0:0:0:
64,192,187728,1,0,0:0:0:0:
448,192,187728,1,0,0:0:0:0:
320,192,187878,1,0,0:0:0:0:
192,192,187878,1,0,0:0:0:0:
448,192,187954,1,0,0:0:0:0:
192,192,188029,1,0,0:0:0:0:
64,192,188029,1,0,0:0:0:0:
320,192,188180,1,0,0:0:0:0:
64,192,188180,1,0,0:0:0:0:
64,192,188331,1,0,0:0:0:0:
192,192,188331,1,0,0:0:0:0:
64,192,188481,1,0,0:0:0:0:
320,192,188481,1,0,0:0:0:0:
192,192,188632,1,0,0:0:0:0:
448,192,188632,1,0,0:0:0:0:
448,192,188783,1,0,0:0:0:0:
192,192,188783,1,0,0:0:0:0:
64,192,188858,1,0,0:0:0:0:
448,192,188934,1,0,0:0:0:0:
320,192,188934,1,0,0:0:0:0:
192,192,189084,1,0,0:0:0:0:
64,192,189084,1,0,0:0:0:0:
448,192,189160,1,0,0:0:0:0:
192,192,189235,1,0,0:0:0:0:
320,192,189235,1,0,0:0:0:0:
448,192,189386,1,0,0:0:0:0:
320,192,189386,1,0,0:0:0:0:
192,192,189537,1,0,0:0:0:0:
320,192,189537,1,0,0:0:0:0:
448,192,189687,1,0,0:0:0:0:
320,192,189687,1,0,0:0:0:0:
64,192,189838,1,0,0:0:0:0:
192,192,189838,1,0,0:0:0:0:
448,192,189914,1,0,0:0:0:0:
64,192,189989,1,0,0:0:0:0:
192,192,190064,1,0,0:0:0:0:
320,192,190140,1,0,0:0:0:0:
64,192,190140,1,0,0:0:0:0:
448,192,190215,1,0,0:0:0:0:
192,192,190290,1,0,0:0:0:0:
448,192,190366,1,0,0:0:0:0:
320,192,190441,1,0,0:0:0:0:
64,192,190517,1,0,0:0:0:0:
320,192,190592,1,0,0:0:0:0:
192,192,190667,1,0,0:0:0:0:
64,192,190743,1,0,0:0:0:0:
192,192,190818,1,0,0:0:0:0:
448,192,190894,1,0,0:0:0:0:
320,192,190969,1,0,0:0:0:0:
448,192,191044,1,0,0:0:0:0:
192,192,191120,1,0,0:0:0:0:
320,192,191195,1,0,0:0:0:0:
64,192,191270,1,0,0:0:0:0:
448,192,191346,1,0,0:0:0:0:
64,192,191421,1,0,0:0:0:0:
320,192,191497,1,0,0:0:0:0:
192,192,191572,1,0,0:0:0:0:
320,192,191647,1,0,0:0:0:0:
448,192,191698,1,0,0:0:0:0:
192,192,191748,1,0,0:0:0:0:
320,192,191798,1,0,0:0:0:0:
64,192,191848,1,0,0:0:0:0:
192,192,191899,1,0,0:0:0:0:
448,192,191949,1,0,0:0:0:0:
320,192,191986,1,0,0:0:0:0:
64,192,192062,1,0,0:0:0:0:
448,192,192100,1,0,0:0:0:0:
192,192,192137,1,0,0:0:0:0:
64,192,192175,1,0,0:0:0:0:
320,192,192213,1,0,0:0:0:0:
448,192,192250,128,0,193155:0:0:0:0:
320,192,192476,128,0,193306:0:0:0:0:
192,192,192703,128,0,193607:0:0:0:0:
64,192,193004,128,0,193456:0:0:0:0:
448,192,193758,128,0,194135:0:0:0:0:
192,192,193833,1,0,0:0:0:0:
320,192,193909,128,0,193984:0:0:0:0:
64,192,193984,1,0,0:0:0:0:
320,192,194059,128,0,194135:0:0:0:0:
64,192,194135,1,0,0:0:0:0:
320,192,194210,1,0,0:0:0:0:
448,192,194210,1,0,0:0:0:0:
192,192,194361,1,0,0:0:0:0:
64,192,194361,128,0,194512:0:0:0:0:
448,192,194361,1,0,0:0:0:0:
192,192,194512,1,0,0:0:0:0:
320,192,194512,1,0,0:0:0:0:
448,192,194512,1,0,0:0:0:0:
64,192,194662,128,0,194888:0:0:0:0:
320,192,194662,128,0,194813:0:0:0:0:
192,192,194813,128,0,194888:0:0:0:0:
448,192,194888,128,0,194964:0:0:0:0:
192,192,194964,128,0,195115:0:0:0:0:
64,192,194964,128,0,195265:0:0:0:0:
320,192,195039,128,0,195115:0:0:0:0:
448,192,195115,128,0,195265:0:0:0:0:
320,192,195265,128,0,195416:0:0:0:0:
192,192,195265,128,0,195491:0:0:0:0:
64,192,195341,128,0,195416:0:0:0:0:
448,192,195416,128,0,195491:0:0:0:0:
448,192,195567,128,0,195868:0:0:0:0:
192,192,195567,128,0,195718:0:0:0:0:
320,192,195642,128,0,195718:0:0:0:0:
64,192,195718,128,0,195868:0:0:0:0:
320,192,195868,128,0,196095:0:0:0:0:
192,192,195868,128,0,196019:0:0:0:0:
448,192,196019,128,0,196095:0:0:0:0:
64,192,196095,128,0,196170:0:0:0:0:
448,192,196170,128,0,196471:0:0:0:0:
320,192,196170,128,0,196321:0:0:0:0:
64,192,196245,128,0,196321:0:0:0:0:
192,192,196321,128,0,196396:0:0:0:0:
320,192,196396,128,0,196471:0:0:0:0:
192,192,196471,128,0,196698:0:0:0:0:
64,192,196471,128,0,196698:0:0:0:0:
448,192,196547,128,0,196622:0:0:0:0:
448,192,196698,128,0,196773:0:0:0:0:
192,192,196773,128,0,196924:0:0:0:0:
64,192,196773,128,0,197074:0:0:0:0:
320,192,196848,128,0,196924:0:0:0:0:
448,192,196924,128,0,196999:0:0:0:0:
192,192,196999,128,0,197074:0:0:0:0:
448,192,197074,128,0,197225:0:0:0:0:
320,192,197074,128,0,197301:0:0:0:0:
64,192,197225,128,0,197301:0:0:0:0:
448,192,197301,128,0,197376:0:0:0:0:
64,192,197376,128,0,197677:0:0:0:0:
320,192,197376,128,0,197527:0:0:0:0:
192,192,197451,128,0,197527:0:0:0:0:
448,192,197527,128,0,197677:0:0:0:0:
320,192,197677,128,0,197904:0:0:0:0:
192,192,197677,128,0,197904:0:0:0:0:
64,192,197753,128,0,197828:0:0:0:0:
64,192,197904,128,0,197979:0:0:0:0:
192,192,197979,128,0,198280:0:0:0:0:
320,192,197979,128,0,198130:0:0:0:0:
448,192,198054,128,0,198130:0:0:0:0:
64,192,198130,128,0,198205:0:0:0:0:
448,192,198205,128,0,198280:0:0:0:0:
320,192,198280,128,0,198431:0:0:0:0:
64,192,198280,128,0,198507:0:0:0:0:
192,192,198431,128,0,198507:0:0:0:0:
448,192,198507,128,0,198582:0:0:0:0:
64,192,198582,128,0,198883:0:0:0:0:
192,192,198582,128,0,198733:0:0:0:0:
448,192,198657,128,0,198733:0:0:0:0:
320,192,198733,128,0,198883:0:0:0:0:
448,192,198883,128,0,199110:0:0:0:0:
192,192,198883,128,0,198959:0:0:0:0:
64,192,198959,128,0,199034:0:0:0:0:
320,192,199034,128,0,199110:0:0:0:0:
192,192,199110,128,0,199185:0:0:0:0:
320,192,199185,128,0,199336:0:0:0:0:
448,192,199185,128,0,199260:0:0:0:0:
64,192,199260,128,0,199336:0:0:0:0:
192,192,199336,128,0,199486:0:0:0:0:
448,192,199411,128,0,199486:0:0:0:0:
64,192,199486,128,0,199713:0:0:0:0:
320,192,199486,128,0,199637:0:0:0:0:
192,192,199637,128,0,199713:0:0:0:0:
448,192,199713,128,0,199788:0:0:0:0:
192,192,199788,128,0,199939:0:0:0:0:
64,192,199788,128,0,200089:0:0:0:0:
320,192,199863,128,0,199939:0:0:0:0:
448,192,199939,128,0,200089:0:0:0:0:
320,192,200089,128,0,200240:0:0:0:0:
192,192,200089,128,0,200316:0:0:0:0:
64,192,200165,128,0,200240:0:0:0:0:
448,192,200240,128,0,200316:0:0:0:0:
448,192,200391,128,0,200693:0:0:0:0:
192,192,200391,128,0,200542:0:0:0:0:
320,192,200466,128,0,200542:0:0:0:0:
64,192,200542,128,0,200693:0:0:0:0:
320,192,200693,128,0,200919:0:0:0:0:
192,192,200693,128,0,200843:0:0:0:0:
448,192,200843,128,0,200919:0:0:0:0:
64,192,200919,128,0,200994:0:0:0:0:
448,192,200994,128,0,201296:0:0:0:0:
320,192,200994,128,0,201145:0:0:0:0:
64,192,201069,128,0,201145:0:0:0:0:
192,192,201145,128,0,201220:0:0:0:0:
320,192,201220,128,0,201296:0:0:0:0:
192,192,201296,128,0,201522:0:0:0:0:
64,192,201296,128,0,201522:0:0:0:0:
448,192,201371,128,0,201446:0:0:0:0:
448,192,201522,128,0,201597:0:0:0:0:
192,192,201597,128,0,201748:0:0:0:0:
64,192,201597,128,0,201899:0:0:0:0:
320,192,201672,128,0,201748:0:0:0:0:
448,192,201748,128,0,201823:0:0:0:0:
192,192,201823,128,0,201899:0:0:0:0:
320,192,201899,128,0,202049:0:0:0:0:
448,192,201899,128,0,202125:0:0:0:0:
64,192,202049,128,0,202125:0:0:0:0:
320,192,202125,128,0,202200:0:0:0:0:
64,192,202200,128,0,202351:0:0:0:0:
448,192,202200,128,0,202351:0:0:0:0:
192,192,202275,128,0,202351:0:0:0:0:
320,192,202351,128,0,202502:0:0:0:0:
64,192,202426,128,0,202502:0:0:0:0:
448,192,202502,128,0,202728:0:0:0:0:
192,192,202502,128,0,202577:0:0:0:0:
320,192,202577,128,0,202728:0:0:0:0:
192,192,202652,128,0,202728:0:0:0:0:
64,192,202728,128,0,202878:0:0:0:0:
320,192,202803,128,0,202878:0:0:0:0:
448,192,202803,128,0,202878:0:0:0:0:
192,192,202878,128,0,203029:0:0:0:0:
448,192,202954,128,0,203029:0:0:0:0:
320,192,203029,128,0,203180:0:0:0:0:
64,192,203105,128,0,203331:0:0:0:0:
448,192,203105,128,0,203180:0:0:0:0:
192,192,203255,128,0,203331:0:0:0:0:
320,192,203331,128,0,203406:0:0:0:0:
192,192,203406,128,0,203557:0:0:0:0:
64,192,203406,128,0,203708:0:0:0:0:
320,192,203481,128,0,203557:0:0:0:0:
448,192,203557,128,0,203632:0:0:0:0:
192,192,203632,128,0,203708:0:0:0:0:
448,192,203708,128,0,203934:0:0:0:0:
320,192,203708,128,0,203858:0:0:0:0:
64,192,203858,128,0,203934:0:0:0:0:
192,192,203934,128,0,204009:0:0:0:0:
64,192,204009,128,0,204160:0:0:0:0:
448,192,204009,128,0,204084:0:0:0:0:
320,192,204160,1,0,0:0:0:0:
448,192,204160,1,0,0:0:0:0:
192,192,204235,1,0,0:0:0:0:
320,192,204311,128,0,204461:0:0:0:0:
448,192,204311,128,0,204461:0:0:0:0:
64,192,204461,128,0,204537:0:0:0:0:
320,192,204537,128,0,204612:0:0:0:0:
448,192,204612,128,0,204838:0:0:0:0:
192,192,204612,128,0,204687:0:0:0:0:
64,192,204687,128,0,204838:0:0:0:0:
192,192,204763,128,0,204838:0:0:0:0:
192,192,204914,128,0,205064:0:0:0:0:
320,192,204914,128,0,204989:0:0:0:0:
448,192,204989,128,0,205064:0:0:0:0:
320,192,205064,128,0,205140:0:0:0:0:
64,192,205215,128,0,205290:0:0:0:0:
448,192,205215,128,0,205517:0:0:0:0:
192,192,205290,128,0,205441:0:0:0:0:
64,192,205366,128,0,205441:0:0:0:0:
320,192,205517,128,0,205667:0:0:0:0:
64,192,205517,128,0,205592:0:0:0:0:
64,192,205667,128,0,205743:0:0:0:0:
320,192,205743,128,0,205818:0:0:0:0:
192,192,205818,128,0,205894:0:0:0:0:
64,192,205818,128,0,205969:0:0:0:0:
448,192,205894,128,0,205969:0:0:0:0:
320,192,205969,128,0,206044:0:0:0:0:
448,192,206044,128,0,206120:0:0:0:0:
64,192,206120,128,0,206270:0:0:0:0:
192,192,206120,128,0,206270:0:0:0:0:
320,192,206195,128,0,206270:0:0:0:0:
320,192,206346,128,0,206421:0:0:0:0:
192,192,206421,128,0,206572:0:0:0:0:
448,192,206421,128,0,206572:0:0:0:0:
64,192,206497,128,0,206572:0:0:0:0:
320,192,206572,128,0,206647:0:0:0:0:
64,192,206647,128,0,206723:0:0:0:0:
192,192,206723,128,0,206873:0:0:0:0:
320,192,206723,128,0,206873:0:0:0:0:
64,192,206873,128,0,206949:0:0:0:0:
320,192,206949,128,0,207024:0:0:0:0:
64,192,207024,128,0,207250:0:0:0:0:
448,192,207024,128,0,207100:0:0:0:0:
192,192,207100,128,0,207250:0:0:0:0:
448,192,207175,128,0,207250:0:0:0:0:
320,192,207326,128,0,207401:0:0:0:0:
448,192,207326,128,0,207476:0:0:0:0:
192,192,207401,128,0,207476:0:0:0:0:
192,192,207552,128,0,207627:0:0:0:0:
64,192,207627,128,0,207778:0:0:0:0:
320,192,207627,128,0,207703:0:0:0:0:
448,192,207703,128,0,207853:0:0:0:0:
320,192,207778,128,0,207853:0:0:0:0:
64,192,207853,128,0,207929:0:0:0:0:
192,192,207929,128,0,208079:0:0:0:0:
320,192,207929,128,0,208004:0:0:0:0:
320,192,208079,128,0,208155:0:0:0:0:
192,192,208155,128,0,208230:0:0:0:0:
448,192,208230,128,0,208306:0:0:0:0:
320,192,208230,128,0,208381:0:0:0:0:
64,192,208306,128,0,208456:0:0:0:0:
192,192,208381,128,0,208456:0:0:0:0:
64,192,208532,1,0,0:0:0:0:
192,192,208532,1,0,0:0:0:0:
320,192,208682,1,0,0:0:0:0:
448,192,208758,1,0,0:0:0:0:
192,192,208833,1,0,0:0:0:0:
320,192,208833,1,0,0:0:0:0:
192,192,208909,1,0,0:0:0:0:
64,192,208984,1,0,0:0:0:0:
320,192,209059,1,0,0:0:0:0:
64,192,209135,128,0,209361:0:0:0:0:
448,192,209135,128,0,209210:0:0:0:0:
192,192,209210,128,0,209285:0:0:0:0:
448,192,209285,128,0,209361:0:0:0:0:
320,192,209361,128,0,209436:0:0:0:0:
192,192,209436,128,0,209587:0:0:0:0:
448,192,209436,128,0,209512:0:0:0:0:
64,192,209512,128,0,209738:0:0:0:0:
448,192,209587,128,0,209738:0:0:0:0:
192,192,209738,128,0,209888:0:0:0:0:
320,192,209738,1,0,0:0:0:0:
448,192,209813,1,0,0:0:0:0:
320,192,209888,128,0,209964:0:0:0:0:
64,192,209888,1,0,0:0:0:0:
192,192,209964,1,0,0:0:0:0:
320,192,210039,128,0,210190:0:0:0:0:
64,192,210039,1,0,0:0:0:0:
448,192,210115,1,0,0:0:0:0:
192,192,210190,128,0,210265:0:0:0:0:
64,192,210190,1,0,0:0:0:0:
192,192,210341,128,0,210491:0:0:0:0:
448,192,210341,128,0,210416:0:0:0:0:
448,192,210491,128,0,210567:0:0:0:0:
192,192,210567,128,0,210642:0:0:0:0:
320,192,210642,128,0,210718:0:0:0:0:
448,192,210642,128,0,210793:0:0:0:0:
64,192,210718,128,0,210793:0:0:0:0:
320,192,210793,128,0,210944:0:0:0:0:
64,192,210868,128,0,210944:0:0:0:0:
448,192,210944,1,0,0:0:0:0:
192,192,210944,128,0,211095:0:0:0:0:
448,192,211019,1,0,0:0:0:0:
64,192,211095,1,0,0:0:0:0:
320,192,211095,1,0,0:0:0:0:
448,192,211245,1,0,0:0:0:0:
192,192,211245,1,0,0:0:0:0:
64,192,211245,128,0,211396:0:0:0:0:
320,192,211396,1,0,0:0:0:0:
192,192,211396,1,0,0:0:0:0:
448,192,211547,1,0,0:0:0:0:
192,192,211547,1,0,0:0:0:0:
64,192,211547,128,0,211698:0:0:0:0:
320,192,211698,1,0,0:0:0:0:
192,192,211698,1,0,0:0:0:0:
448,192,211848,128,0,211999:0:0:0:0:
320,192,211848,1,0,0:0:0:0:
64,192,211848,1,0,0:0:0:0:
320,192,211999,1,0,0:0:0:0:
192,192,211999,1,0,0:0:0:0:
448,192,212150,1,0,0:0:0:0:
64,192,212150,1,0,0:0:0:0:
192,192,212150,128,0,212301:0:0:0:0:
320,192,212301,1,0,0:0:0:0:
64,192,212301,1,0,0:0:0:0:
192,192,212451,1,0,0:0:0:0:
448,192,212451,1,0,0:0:0:0:
320,192,212451,128,0,212602:0:0:0:0:
64,192,212602,1,0,0:0:0:0:
448,192,212602,1,0,0:0:0:0:
64,192,212753,128,0,213657:0:0:0:0:
192,192,212753,1,0,0:0:0:0:
448,192,212979,128,0,213883:0:0:0:0:
320,192,213205,128,0,213808:0:0:0:0:
192,192,213431,128,0,213733:0:0:0:0:
64,192,213959,128,0,214185:0:0:0:0:
192,192,213959,1,0,0:0:0:0:
448,192,214110,1,0,0:0:0:0:
320,192,214185,1,0,0:0:0:0:
64,192,214260,128,0,214788:0:0:0:0:
192,192,214260,128,0,214486:0:0:0:0:
320,192,214336,128,0,214411:0:0:0:0:
448,192,214411,128,0,214486:0:0:0:0:
192,192,214562,128,0,214637:0:0:0:0:
448,192,214562,128,0,214637:0:0:0:0:
320,192,214637,128,0,214713:0:0:0:0:
192,192,214713,128,0,215165:0:0:0:0:
64,192,214863,128,0,214939:0:0:0:0:
448,192,214863,128,0,214939:0:0:0:0:
320,192,214939,128,0,215014:0:0:0:0:
64,192,215014,128,0,215089:0:0:0:0:
448,192,215165,128,0,215391:0:0:0:0:
320,192,215165,128,0,215240:0:0:0:0:
320,192,215316,128,0,215391:0:0:0:0:
192,192,215391,128,0,215466:0:0:0:0:
320,192,215466,128,0,215693:0:0:0:0:
448,192,215466,128,0,215617:0:0:0:0:
192,192,215542,128,0,215617:0:0:0:0:
64,192,215617,128,0,215693:0:0:0:0:
448,192,215693,128,0,215768:0:0:0:0:
320,192,215768,128,0,215994:0:0:0:0:
64,192,215768,128,0,215843:0:0:0:0:
448,192,215843,128,0,215994:0:0:0:0:
192,192,215994,128,0,216069:0:0:0:0:
448,192,216069,128,0,216296:0:0:0:0:
320,192,216069,128,0,216220:0:0:0:0:
192,192,216145,128,0,216220:0:0:0:0:
64,192,216220,128,0,216296:0:0:0:0:
320,192,216296,128,0,216371:0:0:0:0:
64,192,216371,128,0,216597:0:0:0:0:
192,192,216371,128,0,216522:0:0:0:0:
448,192,216522,128,0,216597:0:0:0:0:
192,192,216597,128,0,216748:0:0:0:0:
64,192,216672,128,0,217200:0:0:0:0:
448,192,216672,128,0,216748:0:0:0:0:
320,192,216748,128,0,216823:0:0:0:0:
192,192,216823,128,0,216899:0:0:0:0:
320,192,216974,128,0,217049:0:0:0:0:
192,192,216974,128,0,217200:0:0:0:0:
448,192,217049,128,0,217125:0:0:0:0:
448,192,217200,128,0,217275:0:0:0:0:
192,192,217275,128,0,217426:0:0:0:0:
64,192,217275,128,0,217351:0:0:0:0:
320,192,217351,128,0,217426:0:0:0:0:
64,192,217426,128,0,217502:0:0:0:0:
192,192,217502,128,0,217577:0:0:0:0:
448,192,217577,128,0,217652:0:0:0:0:
320,192,217577,128,0,217803:0:0:0:0:
448,192,217728,128,0,217803:0:0:0:0:
64,192,217803,128,0,217878:0:0:0:0:
448,192,217878,128,0,218105:0:0:0:0:
320,192,217878,128,0,218029:0:0:0:0:
64,192,217954,128,0,218029:0:0:0:0:
192,192,218029,128,0,218105:0:0:0:0:
320,192,218180,128,0,218331:0:0:0:0:
192,192,218180,128,0,218481:0:0:0:0:
448,192,218255,128,0,218331:0:0:0:0:
64,192,218331,128,0,218406:0:0:0:0:
320,192,218406,128,0,218632:0:0:0:0:
448,192,218481,128,0,218557:0:0:0:0:
64,192,218481,128,0,218557:0:0:0:0:
192,192,218557,128,0,218708:0:0:0:0:
448,192,218632,128,0,218708:0:0:0:0:
320,192,218708,128,0,218783:0:0:0:0:
192,192,218783,128,0,219009:0:0:0:0:
64,192,218783,128,0,219009:0:0:0:0:
320,192,218934,128,0,219009:0:0:0:0:
448,192,219009,128,0,219084:0:0:0:0:
64,192,219084,128,0,219612:0:0:0:0:
192,192,219084,128,0,219311:0:0:0:0:
448,192,219160,128,0,219235:0:0:0:0:
320,192,219235,128,0,219311:0:0:0:0:
192,192,219386,128,0,219461:0:0:0:0:
320,192,219386,128,0,219461:0:0:0:0:
448,192,219461,128,0,219537:0:0:0:0:
192,192,219537,128,0,219989:0:0:0:0:
64,192,219687,128,0,219763:0:0:0:0:
320,192,219687,128,0,219763:0:0:0:0:
448,192,219763,128,0,219838:0:0:0:0:
64,192,219838,128,0,219914:0:0:0:0:
448,192,219989,128,0,220215:0:0:0:0:
320,192,219989,128,0,220064:0:0:0:0:
320,192,220140,128,0,220215:0:0:0:0:
192,192,220215,128,0,220290:0:0:0:0:
320,192,220290,128,0,220517:0:0:0:0:
448,192,220290,128,0,220441:0:0:0:0:
192,192,220366,128,0,220441:0:0:0:0:
64,192,220441,128,0,220517:0:0:0:0:
448,192,220517,128,0,220592:0:0:0:0:
320,192,220592,128,0,220818:0:0:0:0:
64,192,220592,128,0,220667:0:0:0:0:
448,192,220667,128,0,220818:0:0:0:0:
192,192,220818,128,0,220894:0:0:0:0:
448,192,220894,128,0,221044:0:0:0:0:
320,192,220894,128,0,221120:0:0:0:0:
192,192,220969,128,0,221044:0:0:0:0:
64,192,221044,128,0,221120:0:0:0:0:
448,192,221120,128,0,221195:0:0:0:0:
320,192,221195,128,0,221346:0:0:0:0:
64,192,221195,128,0,221421:0:0:0:0:
448,192,221346,128,0,221421:0:0:0:0:
320,192,221421,128,0,221497:0:0:0:0:
448,192,221497,128,0,221572:0:0:0:0:
64,192,221497,128,0,221647:0:0:0:0:
320,192,221572,128,0,221723:0:0:0:0:
192,192,221647,128,0,221723:0:0:0:0:
64,192,221723,128,0,221949:0:0:0:0:
320,192,221798,128,0,222024:0:0:0:0:
192,192,221798,128,0,221873:0:0:0:0:
448,192,221873,128,0,221949:0:0:0:0:
192,192,221949,128,0,222024:0:0:0:0:
64,192,222024,128,0,222100:0:0:0:0:
320,192,222100,128,0,222250:0:0:0:0:
448,192,222100,128,0,222175:0:0:0:0:
64,192,222175,128,0,222401:0:0:0:0:
192,192,222250,128,0,222326:0:0:0:0:
320,192,222326,128,0,222401:0:0:0:0:
192,192,222401,128,0,222627:0:0:0:0:
448,192,222401,128,0,222778:0:0:0:0:
64,192,222552,128,0,222627:0:0:0:0:
320,192,222627,128,0,222703:0:0:0:0:
192,192,222703,128,0,222929:0:0:0:0:
64,192,222703,128,0,222778:0:0:0:0:
320,192,222778,128,0,222853:0:0:0:0:
448,192,222853,128,0,222929:0:0:0:0:
64,192,222929,128,0,223004:0:0:0:0:
448,192,223004,128,0,223079:0:0:0:0:
192,192,223004,128,0,223079:0:0:0:0:
192,192,223155,1,0,0:0:0:0:
320,192,223155,1,0,0:0:0:0:
448,192,223230,1,0,0:0:0:0:
320,192,223230,1,0,0:0:0:0:
192,192,223306,1,0,0:0:0:0:
64,192,223306,1,0,0:0:0:0:
448,192,223381,1,0,0:0:0:0:
64,192,223456,1,0,0:0:0:0:
320,192,223456,1,0,0:0:0:0:
192,192,223532,1,0,0:0:0:0:
448,192,223607,128,0,223682:0:0:0:0:
320,192,223607,128,0,223833:0:0:0:0:
448,192,223758,128,0,223833:0:0:0:0:
64,192,223833,128,0,223984:0:0:0:0:
320,192,223909,128,0,223984:0:0:0:0:
448,192,223909,128,0,224210:0:0:0:0:
192,192,223984,128,0,224059:0:0:0:0:
320,192,224059,128,0,224135:0:0:0:0:
192,192,224210,128,0,224285:0:0:0:0:
64,192,224210,128,0,224436:0:0:0:0:
448,192,224285,128,0,224587:0:0:0:0:
192,192,224361,128,0,224436:0:0:0:0:
192,192,224512,128,0,224738:0:0:0:0:
64,192,224512,128,0,224587:0:0:0:0:
320,192,224587,128,0,224662:0:0:0:0:
64,192,224662,128,0,224813:0:0:0:0:
320,192,224813,128,0,225039:0:0:0:0:
448,192,224813,128,0,224888:0:0:0:0:
448,192,224964,128,0,225039:0:0:0:0:
64,192,225039,128,0,225115:0:0:0:0:
320,192,225115,128,0,225265:0:0:0:0:
448,192,225115,128,0,225341:0:0:0:0:
64,192,225190,128,0,225341:0:0:0:0:
192,192,225265,128,0,225341:0:0:0:0:
320,192,225341,128,0,225491:0:0:0:0:
64,192,225416,128,0,225642:0:0:0:0:
192,192,225416,128,0,225642:0:0:0:0:
448,192,225491,128,0,225567:0:0:0:0:
448,192,225642,128,0,225793:0:0:0:0:
64,192,225718,128,0,225793:0:0:0:0:
192,192,225718,128,0,225868:0:0:0:0:
320,192,225793,128,0,225868:0:0:0:0:
64,192,225868,128,0,225944:0:0:0:0:
192,192,225944,128,0,226019:0:0:0:0:
320,192,226019,128,0,226095:0:0:0:0:
448,192,226019,128,0,226245:0:0:0:0:
320,192,226170,128,0,226245:0:0:0:0:
64,192,226245,128,0,226396:0:0:0:0:
448,192,226321,128,0,226396:0:0:0:0:
320,192,226321,128,0,226622:0:0:0:0:
192,192,226396,128,0,226471:0:0:0:0:
448,192,226471,128,0,226547:0:0:0:0:
64,192,226622,128,0,226848:0:0:0:0:
192,192,226622,128,0,226848:0:0:0:0:
320,192,226698,128,0,226773:0:0:0:0:
320,192,226848,128,0,226999:0:0:0:0:
192,192,226924,128,0,227074:0:0:0:0:
64,192,226924,128,0,226999:0:0:0:0:
448,192,226999,128,0,227074:0:0:0:0:
64,192,227074,128,0,227150:0:0:0:0:
192,192,227150,128,0,227301:0:0:0:0:
448,192,227225,128,0,227451:0:0:0:0:
320,192,227225,128,0,227451:0:0:0:0:
192,192,227376,128,0,227527:0:0:0:0:
64,192,227451,128,0,227527:0:0:0:0:
448,192,227527,128,0,227753:0:0:0:0:
320,192,227527,128,0,227677:0:0:0:0:
64,192,227602,128,0,227753:0:0:0:0:
192,192,227677,128,0,227753:0:0:0:0:
192,192,227828,128,0,228054:0:0:0:0:
64,192,227828,128,0,227904:0:0:0:0:
320,192,227904,128,0,228130:0:0:0:0:
64,192,227979,128,0,228054:0:0:0:0:
448,192,228054,128,0,228130:0:0:0:0:
64,192,228130,128,0,228356:0:0:0:0:
192,192,228130,128,0,228205:0:0:0:0:
448,192,228205,128,0,228431:0:0:0:0:
192,192,228280,128,0,228356:0:0:0:0:
320,192,228356,128,0,228431:0:0:0:0:
64,192,228431,128,0,228507:0:0:0:0:
192,192,228431,128,0,228883:0:0:0:0:
448,192,228507,128,0,228582:0:0:0:0:
64,192,228582,128,0,228883:0:0:0:0:
320,192,228582,1,0,0:0:0:0:
448,192,228733,1,0,0:0:0:0:
320,192,228733,1,0,0:0:0:0:
320,192,228883,128,0,228959:0:0:0:0:
448,192,228883,128,0,229336:0:0:0:0:
192,192,228959,128,0,229034:0:0:0:0:
320,192,229034,128,0,229336:0:0:0:0:
64,192,229034,1,0,0:0:0:0:
64,192,229185,1,0,0:0:0:0:
192,192,229185,1,0,0:0:0:0:
64,192,229336,128,0,229411:0:0:0:0:
192,192,229336,128,0,229637:0:0:0:0:
448,192,229411,128,0,229486:0:0:0:0:
64,192,229486,128,0,229637:0:0:0:0:
320,192,229486,1,0,0:0:0:0:
448,192,229637,128,0,229713:0:0:0:0:
320,192,229637,128,0,230089:0:0:0:0:
64,192,229713,128,0,229788:0:0:0:0:
448,192,229788,128,0,230089:0:0:0:0:
192,192,229788,1,0,0:0:0:0:
64,192,229939,1,0,0:0:0:0:
192,192,229939,1,0,0:0:0:0:
192,192,230089,128,0,230165:0:0:0:0:
64,192,230089,128,0,230542:0:0:0:0:
320,192,230165,128,0,230240:0:0:0:0:
192,192,230240,128,0,230542:0:0:0:0:
448,192,230240,1,0,0:0:0:0:
448,192,230391,1,0,0:0:0:0:
320,192,230391,1,0,0:0:0:0:
320,192,230542,128,0,230617:0:0:0:0:
448,192,230542,1,0,0:0:0:0:
64,192,230617,128,0,230693:0:0:0:0:
192,192,230693,128,0,230768:0:0:0:0:
448,192,230693,1,0,0:0:0:0:
320,192,230768,128,0,230843:0:0:0:0:
64,192,230843,1,0,0:0:0:0:
192,192,230843,1,0,0:0:0:0:
448,192,230919,1,0,0:0:0:0:
192,192,230994,1,0,0:0:0:0:
320,192,230994,1,0,0:0:0:0:
64,192,231069,1,0,0:0:0:0:
448,192,231145,1,0,0:0:0:0:
320,192,231145,1,0,0:0:0:0:
64,192,231220,1,0,0:0:0:0:
448,192,231296,1,0,0:0:0:0:
192,192,231296,1,0,0:0:0:0:
320,192,231371,1,0,0:0:0:0:
64,192,231446,1,0,0:0:0:0:
448,192,231446,1,0,0:0:0:0:
192,192,231522,1,0,0:0:0:0:
320,192,231597,1,0,0:0:0:0:
64,192,231597,1,0,0:0:0:0:
192,192,231672,1,0,0:0:0:0:
320,192,231748,1,0,0:0:0:0:
448,192,231748,1,0,0:0:0:0:
64,192,231823,1,0,0:0:0:0:
448,192,231899,1,0,0:0:0:0:
192,192,231899,1,0,0:0:0:0:
320,192,231974,1,0,0:0:0:0:
192,192,232049,128,0,232200:0:0:0:0:
448,192,232049,1,0,0:0:0:0:
448,192,232275,128,0,232426:0:0:0:0:
320,192,232502,128,0,232652:0:0:0:0:
192,192,232728,128,0,232803:0:0:0:0:
448,192,232803,1,0,0:0:0:0:
320,192,232803,1,0,0:0:0:0:
320,192,232954,1,0,0:0:0:0:
192,192,232954,1,0,0:0:0:0:
64,192,232954,128,0,233105:0:0:0:0:
192,192,233105,1,0,0:0:0:0:
448,192,233105,1,0,0:0:0:0:
320,192,233105,1,0,0:0:0:0:
64,192,233255,1,0,0:0:0:0:
448,192,233255,1,0,0:0:0:0:
320,192,233293,1,0,0:0:0:0:
192,192,233331,1,0,0:0:0:0:
64,192,233406,1,0,0:0:0:0:
448,192,233557,1,0,0:0:0:0:
320,192,233557,1,0,0:0:0:0:
64,192,233632,1,0,0:0:0:0:
448,192,233708,1,0,0:0:0:0:
64,192,233783,1,0,0:0:0:0:
448,192,233858,1,0,0:0:0:0:
320,192,233858,1,0,0:0:0:0:
448,192,234009,1,0,0:0:0:0:
320,192,234028,1,0,0:0:0:0:
64,192,234160,1,0,0:0:0:0:
192,192,234160,1,0,0:0:0:0:
64,192,234311,1,0,0:0:0:0:
192,192,234329,1,0,0:0:0:0:
448,192,234461,1,0,0:0:0:0:
192,192,234461,1,0,0:0:0:0:
448,192,234612,1,0,0:0:0:0:
192,192,234631,1,0,0:0:0:0:
448,192,234763,1,0,0:0:0:0:
64,192,234763,1,0,0:0:0:0:
320,192,234801,1,0,0:0:0:0:
192,192,234838,1,0,0:0:0:0:
64,192,234914,1,0,0:0:0:0:
64,192,235064,1,0,0:0:0:0:
448,192,235064,1,0,0:0:0:0:
192,192,235102,1,0,0:0:0:0:
320,192,235140,1,0,0:0:0:0:
192,192,235290,1,0,0:0:0:0:
320,192,235328,1,0,0:0:0:0:
64,192,235366,1,0,0:0:0:0:
448,192,235366,1,0,0:0:0:0:
448,192,235517,1,0,0:0:0:0:
64,192,235554,1,0,0:0:0:0:
192,192,235592,1,0,0:0:0:0:
320,192,235667,1,0,0:0:0:0:
448,192,235667,1,0,0:0:0:0:
192,192,235705,1,0,0:0:0:0:
64,192,235743,1,0,0:0:0:0:
320,192,235818,1,0,0:0:0:0:
64,192,235969,1,0,0:0:0:0:
192,192,235969,1,0,0:0:0:0:
320,192,236044,1,0,0:0:0:0:
192,192,236120,1,0,0:0:0:0:
320,192,236195,1,0,0:0:0:0:
64,192,236270,1,0,0:0:0:0:
448,192,236270,1,0,0:0:0:0:
64,192,236421,1,0,0:0:0:0:
192,192,236440,1,0,0:0:0:0:
64,192,236572,1,0,0:0:0:0:
448,192,236572,1,0,0:0:0:0:
448,192,236723,1,0,0:0:0:0:
320,192,236741,1,0,0:0:0:0:
64,192,236873,1,0,0:0:0:0:
320,192,236873,1,0,0:0:0:0:
64,192,237024,1,0,0:0:0:0:
320,192,237043,1,0,0:0:0:0:
64,192,237175,1,0,0:0:0:0:
192,192,237175,1,0,0:0:0:0:
448,192,237213,1,0,0:0:0:0:
320,192,237250,1,0,0:0:0:0:
192,192,237326,1,0,0:0:0:0:
192,192,237476,1,0,0:0:0:0:
320,192,237476,1,0,0:0:0:0:
64,192,237514,1,0,0:0:0:0:
448,192,237552,1,0,0:0:0:0:
64,192,237703,1,0,0:0:0:0:
448,192,237740,1,0,0:0:0:0:
192,192,237778,1,0,0:0:0:0:
320,192,237778,1,0,0:0:0:0:
320,192,237929,1,0,0:0:0:0:
448,192,237966,1,0,0:0:0:0:
192,192,238004,1,0,0:0:0:0:
64,192,238079,1,0,0:0:0:0:
448,192,238079,1,0,0:0:0:0:
320,192,238117,1,0,0:0:0:0:
192,192,238155,1,0,0:0:0:0:
64,192,238230,1,0,0:0:0:0:
448,192,238381,1,0,0:0:0:0:
320,192,238381,1,0,0:0:0:0:
192,192,238456,1,0,0:0:0:0:
448,192,238532,1,0,0:0:0:0:
192,192,238607,1,0,0:0:0:0:
448,192,238682,1,0,0:0:0:0:
320,192,238682,1,0,0:0:0:0:
320,192,238833,1,0,0:0:0:0:
448,192,238852,1,0,0:0:0:0:
64,192,238984,1,0,0:0:0:0:
192,192,238984,1,0,0:0:0:0:
64,192,239135,1,0,0:0:0:0:
192,192,239154,1,0,0:0:0:0:
64,192,239285,1,0,0:0:0:0:
320,192,239285,1,0,0:0:0:0:
320,192,239436,1,0,0:0:0:0:
64,192,239455,1,0,0:0:0:0:
64,192,239587,1,0,0:0:0:0:
448,192,239587,1,0,0:0:0:0:
192,192,239625,1,0,0:0:0:0:
320,192,239662,1,0,0:0:0:0:
448,192,239738,1,0,0:0:0:0:
448,192,239888,1,0,0:0:0:0:
64,192,239888,1,0,0:0:0:0:
320,192,239926,1,0,0:0:0:0:
192,192,239964,1,0,0:0:0:0:
320,192,240115,1,0,0:0:0:0:
192,192,240152,1,0,0:0:0:0:
448,192,240190,1,0,0:0:0:0:
64,192,240190,1,0,0:0:0:0:
64,192,240341,1,0,0:0:0:0:
448,192,240378,1,0,0:0:0:0:
320,192,240416,1,0,0:0:0:0:
64,192,240491,1,0,0:0:0:0:
192,192,240491,1,0,0:0:0:0:
320,192,240567,1,0,0:0:0:0:
448,192,240642,1,0,0:0:0:0:
192,192,240693,1,0,0:0:0:0:
448,192,240743,1,0,0:0:0:0:
64,192,240793,1,0,0:0:0:0:
320,192,240793,1,0,0:0:0:0:
192,192,240868,1,0,0:0:0:0:
448,192,240944,1,0,0:0:0:0:
64,192,240994,1,0,0:0:0:0:
448,192,241044,1,0,0:0:0:0:
192,192,241095,1,0,0:0:0:0:
320,192,241095,1,0,0:0:0:0:
192,192,241245,1,0,0:0:0:0:
320,192,241264,1,0,0:0:0:0:
64,192,241396,1,0,0:0:0:0:
320,192,241396,1,0,0:0:0:0:
448,192,241446,1,0,0:0:0:0:
192,192,241497,1,0,0:0:0:0:
320,192,241547,1,0,0:0:0:0:
64,192,241622,1,0,0:0:0:0:
448,192,241698,1,0,0:0:0:0:
192,192,241698,1,0,0:0:0:0:
64,192,241758,1,0,0:0:0:0:
320,192,241818,1,0,0:0:0:0:
192,192,241878,1,0,0:0:0:0:
448,192,241939,1,0,0:0:0:0:
320,192,241999,1,0,0:0:0:0:
64,192,241999,1,0,0:0:0:0:
448,192,242049,1,0,0:0:0:0:
64,192,242150,1,0,0:0:0:0:
192,192,242200,1,0,0:0:0:0:
64,192,242301,1,0,0:0:0:0:
448,192,242301,1,0,0:0:0:0:
320,192,242376,1,0,0:0:0:0:
192,192,242451,1,0,0:0:0:0:
64,192,242527,1,0,0:0:0:0:
448,192,242602,1,0,0:0:0:0:
320,192,242602,1,0,0:0:0:0:
64,192,242677,1,0,0:0:0:0:
192,192,242753,1,0,0:0:0:0:
320,192,242828,1,0,0:0:0:0:
448,192,242904,1,0,0:0:0:0:
64,192,242904,1,0,0:0:0:0:
192,192,242941,1,0,0:0:0:0:
320,192,242979,1,0,0:0:0:0:
448,192,243054,1,0,0:0:0:0:
64,192,243205,1,0,0:0:0:0:
192,192,243205,1,0,0:0:0:0:
448,192,243280,1,0,0:0:0:0:
64,192,243356,1,0,0:0:0:0:
448,192,243431,1,0,0:0:0:0:
64,192,243507,1,0,0:0:0:0:
192,192,243507,1,0,0:0:0:0:
64,192,243657,1,0,0:0:0:0:
192,192,243676,1,0,0:0:0:0:
448,192,243808,1,0,0:0:0:0:
320,192,243808,1,0,0:0:0:0:
448,192,243959,1,0,0:0:0:0:
320,192,243978,1,0,0:0:0:0:
64,192,244110,1,0,0:0:0:0:
320,192,244110,1,0,0:0:0:0:
64,192,244260,1,0,0:0:0:0:
320,192,244279,1,0,0:0:0:0:
64,192,244411,1,0,0:0:0:0:
448,192,244411,1,0,0:0:0:0:
192,192,244449,1,0,0:0:0:0:
320,192,244486,1,0,0:0:0:0:
448,192,244562,1,0,0:0:0:0:
448,192,244713,1,0,0:0:0:0:
64,192,244713,1,0,0:0:0:0:
320,192,244750,1,0,0:0:0:0:
192,192,244788,1,0,0:0:0:0:
320,192,244939,1,0,0:0:0:0:
192,192,244976,1,0,0:0:0:0:
448,192,245014,1,0,0:0:0:0:
64,192,245014,1,0,0:0:0:0:
64,192,245165,1,0,0:0:0:0:
448,192,245203,1,0,0:0:0:0:
320,192,245240,1,0,0:0:0:0:
192,192,245316,1,0,0:0:0:0:
64,192,245316,1,0,0:0:0:0:
320,192,245353,1,0,0:0:0:0:
448,192,245391,1,0,0:0:0:0:
192,192,245466,1,0,0:0:0:0:
448,192,245617,1,0,0:0:0:0:
320,192,245617,1,0,0:0:0:0:
192,192,245693,1,0,0:0:0:0:
320,192,245768,1,0,0:0:0:0:
192,192,245843,1,0,0:0:0:0:
448,192,245919,1,0,0:0:0:0:
64,192,245919,1,0,0:0:0:0:
448,192,246069,1,0,0:0:0:0:
320,192,246088,1,0,0:0:0:0:
448,192,246220,1,0,0:0:0:0:
64,192,246220,1,0,0:0:0:0:
64,192,246371,1,0,0:0:0:0:
192,192,246390,1,0,0:0:0:0:
448,192,246522,1,0,0:0:0:0:
192,192,246522,1,0,0:0:0:0:
448,192,246672,1,0,0:0:0:0:
192,192,246691,1,0,0:0:0:0:
448,192,246823,1,0,0:0:0:0:
320,192,246823,1,0,0:0:0:0:
64,192,246861,1,0,0:0:0:0:
192,192,246899,1,0,0:0:0:0:
320,192,246974,1,0,0:0:0:0:
320,192,247125,1,0,0:0:0:0:
192,192,247125,1,0,0:0:0:0:
448,192,247162,1,0,0:0:0:0:
64,192,247200,1,0,0:0:0:0:
448,192,247351,1,0,0:0:0:0:
64,192,247388,1,0,0:0:0:0:
320,192,247426,1,0,0:0:0:0:
192,192,247426,1,0,0:0:0:0:
192,192,247577,1,0,0:0:0:0:
64,192,247615,1,0,0:0:0:0:
320,192,247652,1,0,0:0:0:0:
448,192,247728,1,0,0:0:0:0:
64,192,247728,1,0,0:0:0:0:
192,192,247765,1,0,0:0:0:0:
320,192,247803,1,0,0:0:0:0:
448,192,247878,1,0,0:0:0:0:
192,192,247954,1,0,0:0:0:0:
64,192,248029,1,0,0:0:0:0:
320,192,248105,1,0,0:0:0:0:
64,192,248180,1,0,0:0:0:0:
320,192,248255,1,0,0:0:0:0:
192,192,248331,1,0,0:0:0:0:
64,192,248406,1,0,0:0:0:0:
448,192,248481,1,0,0:0:0:0:
192,192,248557,1,0,0:0:0:0:
448,192,248632,1,0,0:0:0:0:
320,192,248708,1,0,0:0:0:0:
64,192,248783,1,0,0:0:0:0:
192,192,248858,1,0,0:0:0:0:
64,192,248934,1,0,0:0:0:0:
320,192,249009,1,0,0:0:0:0:
64,192,249084,1,0,0:0:0:0:
192,192,249160,1,0,0:0:0:0:
448,192,249235,1,0,0:0:0:0:
320,192,249311,1,0,0:0:0:0:
448,192,249386,1,0,0:0:0:0:
192,192,249461,1,0,0:0:0:0:
320,192,249537,1,0,0:0:0:0:
448,192,249612,1,0,0:0:0:0:
320,192,249687,1,0,0:0:0:0:
64,192,249763,1,0,0:0:0:0:
192,192,249838,1,0,0:0:0:0:
64,192,249914,1,0,0:0:0:0:
320,192,249989,1,0,0:0:0:0:
448,192,250064,1,0,0:0:0:0:
192,192,250140,1,0,0:0:0:0:
320,192,250140,1,0,0:0:0:0:
64,192,250190,1,0,0:0:0:0:
448,192,250240,1,0,0:0:0:0:
192,192,250290,1,0,0:0:0:0:
320,192,250341,1,0,0:0:0:0:
64,192,250391,1,0,0:0:0:0:
448,192,250441,1,0,0:0:0:0:
320,192,250491,1,0,0:0:0:0:
192,192,250542,1,0,0:0:0:0:
64,192,250592,1,0,0:0:0:0:
448,192,250642,1,0,0:0:0:0:
64,192,250693,1,0,0:0:0:0:
320,192,250743,1,0,0:0:0:0:
448,192,250793,1,0,0:0:0:0:
192,192,250843,1,0,0:0:0:0:
320,192,250894,1,0,0:0:0:0:
64,192,250944,1,0,0:0:0:0:
192,192,250994,1,0,0:0:0:0:
448,192,251044,1,0,0:0:0:0:
320,192,251044,1,0,0:0:0:0:
64,192,251120,1,0,0:0:0:0:
448,192,251120,1,0,0:0:0:0:
192,192,251195,1,0,0:0:0:0:
320,192,251195,1,0,0:0:0:0:
64,192,251270,1,0,0:0:0:0:
448,192,251346,1,0,0:0:0:0:
320,192,251346,1,0,0:0:0:0:
448,192,252552,128,0,252627:0:0:0:0:
320,192,252552,1,0,0:0:0:0:
448,192,252703,1,0,0:0:0:0:
64,192,252853,1,0,0:0:0:0:
448,192,253004,128,0,253079:0:0:0:0:
320,192,253079,1,0,0:0:0:0:
448,192,253155,1,0,0:0:0:0:
64,192,253230,1,0,0:0:0:0:
320,192,253306,1,0,0:0:0:0:
192,192,253456,1,0,0:0:0:0:
448,192,253607,1,0,0:0:0:0:
320,192,253657,1,0,0:0:0:0:
64,192,253708,1,0,0:0:0:0:
192,192,253758,128,0,253833:0:0:0:0:
192,192,253909,1,0,0:0:0:0:
448,192,254059,1,0,0:0:0:0:
192,192,254210,128,0,254285:0:0:0:0:
64,192,254285,1,0,0:0:0:0:
192,192,254361,1,0,0:0:0:0:
320,192,254436,1,0,0:0:0:0:
64,192,254512,1,0,0:0:0:0:
448,192,254662,1,0,0:0:0:0:
192,192,254813,1,0,0:0:0:0:
320,192,254863,1,0,0:0:0:0:
448,192,254914,1,0,0:0:0:0:
64,192,254964,128,0,255039:0:0:0:0:
64,192,255115,128,0,255190:0:0:0:0:
320,192,255265,1,0,0:0:0:0:
64,192,255416,128,0,255491:0:0:0:0:
192,192,255491,1,0,0:0:0:0:
64,192,255567,128,0,255642:0:0:0:0:
320,192,255642,1,0,0:0:0:0:
192,192,255718,1,0,0:0:0:0:
448,192,255868,1,0,0:0:0:0:
64,192,255969,1,0,0:0:0:0:
192,192,256069,1,0,0:0:0:0:
320,192,256170,128,0,256245:0:0:0:0:
320,192,256321,1,0,0:0:0:0:
448,192,256471,1,0,0:0:0:0:
320,192,256622,128,0,256698:0:0:0:0:
448,192,256698,1,0,0:0:0:0:
320,192,256773,1,0,0:0:0:0:
64,192,256924,1,0,0:0:0:0:
192,192,257074,128,0,257150:0:0:0:0:
192,192,257225,1,0,0:0:0:0:
448,192,257376,128,0,257451:0:0:0:0:
448,192,257527,1,0,0:0:0:0:
192,192,257677,1,0,0:0:0:0:
448,192,257828,128,0,257904:0:0:0:0:
320,192,257904,1,0,0:0:0:0:
448,192,257979,1,0,0:0:0:0:
64,192,258054,1,0,0:0:0:0:
320,192,258130,1,0,0:0:0:0:
192,192,258280,128,0,258356:0:0:0:0:
192,192,258431,128,0,258582:0:0:0:0:
64,192,258582,128,0,258657:0:0:0:0:
64,192,258733,1,0,0:0:0:0:
320,192,258883,1,0,0:0:0:0:
64,192,259034,128,0,259110:0:0:0:0:
192,192,259110,1,0,0:0:0:0:
64,192,259185,1,0,0:0:0:0:
448,192,259260,1,0,0:0:0:0:
192,192,259336,1,0,0:0:0:0:
320,192,259486,128,0,259562:0:0:0:0:
320,192,259637,128,0,259788:0:0:0:0:
448,192,259788,128,0,259863:0:0:0:0:
448,192,259939,1,0,0:0:0:0:
192,192,260089,1,0,0:0:0:0:
448,192,260240,128,0,260316:0:0:0:0:
320,192,260316,1,0,0:0:0:0:
448,192,260391,1,0,0:0:0:0:
64,192,260466,1,0,0:0:0:0:
320,192,260542,1,0,0:0:0:0:
448,192,260693,128,0,260768:0:0:0:0:
448,192,260843,1,0,0:0:0:0:
448,192,260994,1,0,0:0:0:0:
192,192,261145,1,0,0:0:0:0:
320,192,261296,1,0,0:0:0:0:
448,192,261446,1,0,0:0:0:0:
320,192,261522,1,0,0:0:0:0:
64,192,261597,1,0,0:0:0:0:
192,192,261748,1,0,0:0:0:0:
320,192,261899,1,0,0:0:0:0:
448,192,262049,1,0,0:0:0:0:
64,192,262200,128,0,262275:0:0:0:0:
64,192,262351,1,0,0:0:0:0:
448,192,262502,1,0,0:0:0:0:
64,192,262652,128,0,262728:0:0:0:0:
192,192,262728,1,0,0:0:0:0:
64,192,262803,1,0,0:0:0:0:
448,192,262878,1,0,0:0:0:0:
192,192,262954,1,0,0:0:0:0:
320,192,263105,1,0,0:0:0:0:
64,192,263255,1,0,0:0:0:0:
192,192,263306,1,0,0:0:0:0:
448,192,263356,1,0,0:0:0:0:
320,192,263406,128,0,263481:0:0:0:0:
320,192,263557,1,0,0:0:0:0:
64,192,263708,1,0,0:0:0:0:
320,192,263858,128,0,263934:0:0:0:0:
448,192,263934,1,0,0:0:0:0:
320,192,264009,1,0,0:0:0:0:
192,192,264084,1,0,0:0:0:0:
448,192,264160,1,0,0:0:0:0:
64,192,264311,1,0,0:0:0:0:
320,192,264461,1,0,0:0:0:0:
192,192,264512,1,0,0:0:0:0:
64,192,264562,1,0,0:0:0:0:
448,192,264612,128,0,264687:0:0:0:0:
448,192,264763,128,0,264838:0:0:0:0:
192,192,264914,1,0,0:0:0:0:
448,192,265064,128,0,265140:0:0:0:0:
320,192,265140,1,0,0:0:0:0:
448,192,265215,128,0,265290:0:0:0:0:
192,192,265290,1,0,0:0:0:0:
320,192,265366,1,0,0:0:0:0:
64,192,265517,1,0,0:0:0:0:
448,192,265617,1,0,0:0:0:0:
320,192,265718,1,0,0:0:0:0:
192,192,265818,128,0,265894:0:0:0:0:
192,192,265969,1,0,0:0:0:0:
64,192,266120,1,0,0:0:0:0:
192,192,266270,128,0,266346:0:0:0:0:
64,192,266346,1,0,0:0:0:0:
192,192,266421,1,0,0:0:0:0:
448,192,266572,1,0,0:0:0:0:
320,192,266723,128,0,266798:0:0:0:0:
320,192,266873,1,0,0:0:0:0:
64,192,267024,128,0,267100:0:0:0:0:
64,192,267175,1,0,0:0:0:0:
320,192,267326,1,0,0:0:0:0:
64,192,267476,128,0,267552:0:0:0:0:
192,192,267552,1,0,0:0:0:0:
64,192,267627,1,0,0:0:0:0:
448,192,267703,1,0,0:0:0:0:
192,192,267778,1,0,0:0:0:0:
320,192,267929,128,0,268004:0:0:0:0:
320,192,268079,128,0,268230:0:0:0:0:
448,192,268230,128,0,268306:0:0:0:0:
448,192,268381,1,0,0:0:0:0:
192,192,268532,1,0,0:0:0:0:
448,192,268682,128,0,268758:0:0:0:0:
320,192,268758,1,0,0:0:0:0:
448,192,268833,1,0,0:0:0:0:
64,192,268909,1,0,0:0:0:0:
320,192,268984,1,0,0:0:0:0:
192,192,269135,128,0,269210:0:0:0:0:
192,192,269285,128,0,269436:0:0:0:0:
320,192,269436,128,0,269512:0:0:0:0:
320,192,269587,128,0,270265:0:0:0:0:
64,192,269738,1,0,0:0:0:0:
448,192,269888,128,0,269964:0:0:0:0:
192,192,269964,1,0,0:0:0:0:
448,192,270039,128,0,270567:0:0:0:0:
192,192,270115,1,0,0:0:0:0:
64,192,270190,1,0,0:0:0:0:
320,192,270341,128,0,270416:0:0:0:0:
320,192,270491,128,0,271019:0:0:0:0:
448,192,270642,128,0,271095:0:0:0:0:
192,192,270793,128,0,270868:0:0:0:0:
192,192,270944,128,0,271798:0:0:0:0:
320,192,271095,128,0,271396:0:0:0:0:
448,192,271170,128,0,271471:0:0:0:0:
64,192,271245,128,0,271321:0:0:0:0:
64,192,271396,128,0,271899:0:0:0:0:
320,192,271471,128,0,271698:0:0:0:0:
448,192,271547,128,0,271597:0:0:0:0:
448,192,271698,1,0,0:0:0:0:
320,192,271848,128,0,272150:0:0:0:0:
320,192,272301,128,0,272602:0:0:0:0:
320,192,272904,1,0,0:0:0:0:
448,192,272954,1,0,0:0:0:0:
64,192,273004,1,0,0:0:0:0:
192,192,273054,128,0,273356:0:0:0:0:
192,192,273507,128,0,273808:0:0:0:0:
192,192,274110,1,0,0:0:0:0:
320,192,274160,1,0,0:0:0:0:
448,192,274210,1,0,0:0:0:0:
64,192,274260,128,0,274562:0:0:0:0:
64,192,274713,128,0,275014:0:0:0:0:
320,192,275265,1,0,0:0:0:0:
448,192,275366,1,0,0:0:0:0:
192,192,275466,128,0,275768:0:0:0:0:
192,192,275919,128,0,276220:0:0:0:0:
320,192,276371,128,0,276672:0:0:0:0:
448,192,276672,128,0,276974:0:0:0:0:
448,192,277125,128,0,277426:0:0:0:0:
192,192,277577,128,0,277728:0:0:0:0:
320,192,277728,128,0,277878:0:0:0:0:
64,192,277878,128,0,278180:0:0:0:0:
64,192,278331,128,0,278632:0:0:0:0:
320,192,278783,128,0,278934:0:0:0:0:
192,192,278934,128,0,279084:0:0:0:0:
448,192,279084,128,0,279386:0:0:0:0:
448,192,279537,128,0,279838:0:0:0:0:
448,192,279989,128,0,280517:0:0:0:0:
192,192,280441,128,0,281421:0:0:0:0:
320,192,280894,128,0,281421:0:0:0:0:
64,192,281346,128,0,282024:0:0:0:0:
448,192,281798,128,0,282929:0:0:0:0:
192,192,282250,128,0,282929:0:0:0:0:
320,192,282703,128,0,283833:0:0:0:0:
64,192,283155,128,0,283833:0:0:0:0:
448,192,283607,128,0,285341:0:0:0:0:
192,192,284059,128,0,285341:0:0:0:0:
320,192,284512,128,0,285341:0:0:0:0:
64,192,284964,128,0,286245:0:0:0:0:
64,192,286396,128,0,287753:0:0:0:0:
64,192,287904,128,0,288657:0:0:0:0:
64,192,288808,128,0,290165:0:0:0:0:
192,192,290316,128,0,291069:0:0:0:0:
64,192,290316,128,0,290994:0:0:0:0:
320,192,290994,128,0,291145:0:0:0:0:
448,192,291069,128,0,291145:0:0:0:0:
