osu file format v14

[General]
AudioFilename: audio.mp3
AudioLeadIn: 0
PreviewTime: -1
Countdown: 0
SampleSet: Soft
StackLeniency: 0.2
Mode: 0
LetterboxInBreaks: 0
WidescreenStoryboard: 0

[Editor]
Bookmarks: 57233,98238,156127,214318,252610
DistanceSpacing: 1
BeatDivisor: 4
GridSize: 8
TimelineZoom: 3.299999

[Metadata]
Title:NUCLEAR-STAR
TitleUnicode:NUCLEAR-STAR
Artist:Camellia
ArtistUnicode:かめりあ
Creator:Aelith
Version:Irradiation Flux
Source:
Tags:camellia nuclear star aelith kuro fuyusaki grim vanillasandvich vanilla sandvich grim rapper
BeatmapID:1586680
BeatmapSetID:753642

[Difficulty]
HPDrainRate:6.5
CircleSize:4
OverallDifficulty:8
ApproachRate:9.3
SliderMultiplier:2.14
SliderTickRate:1

[Events]
//Background and Video events
0,0,"into_the_distance_by_seraphzer0-d5ipobv.jpg",0,0
//Break Periods
//Storyboard Layer 0 (Background)
//Storyboard Layer 1 (Fail)
//Storyboard Layer 2 (Pass)
//Storyboard Layer 3 (Foreground)
//Storyboard Sound Samples

[TimingPoints]
550,301.507537688442,4,1,0,100,1,0
550,301.507537688442,4,1,0,100,1,0
21052,-125,4,1,0,70,0,0
21052,-125,4,1,0,70,0,0
23313,-76.9230769230769,4,1,0,70,0,0
23313,-76.9230769230769,4,1,0,70,0,0
23464,-125,4,1,0,70,0,0
23464,-125,4,1,0,70,0,0
24519,-76.9230769230769,4,1,0,70,0,0
24519,-76.9230769230769,4,1,0,70,0,0
24670,-125,4,1,0,70,0,0
24670,-125,4,1,0,70,0,0
25122,-200,4,1,0,70,0,0
25575,-333.333333333333,4,1,0,70,0,0
25876,-153.846153846154,4,1,0,70,0,0
25876,-153.846153846154,4,1,0,70,0,0
27007,-153.846153846154,4,1,0,70,0,0
27007,-153.846153846154,4,1,0,70,0,0
28740,-250,4,1,0,70,0,0
29193,-333.333333333333,4,1,0,70,0,0
31756,-76.9230769230769,4,1,0,70,0,0
31756,-76.9230769230769,4,1,0,70,0,0
31906,-153.846153846153,4,1,0,70,0,0
32359,-153.846153846153,4,1,0,70,0,0
32962,-153.846153846153,4,1,0,70,0,0
32962,-153.846153846153,4,1,0,70,0,0
33565,-333.333333333333,4,1,0,70,0,0
34017,-100,4,1,0,70,0,0
34318,-100,4,1,0,70,0,0
34921,-333.333333333333,4,1,0,70,0,0
35524,-100,4,1,0,70,0,0
35524,-100,4,1,0,70,0,0
36429,-153.846153846153,4,1,0,70,0,0
36429,-153.846153846153,4,1,0,70,0,0
36730,-100,4,1,0,70,0,0
37183,-333.333333333333,4,1,0,70,0,0
37936,-76.9230769230769,4,1,0,70,0,0
37936,-76.9230769230769,4,1,0,70,0,0
38389,-333.333333333333,4,1,0,70,0,0
38841,-100,4,1,0,70,0,0
39293,-100,4,1,0,70,0,0
40348,-100,4,1,0,70,0,0
42761,-90.9090909090909,4,1,0,70,0,0
42761,-90.9090909090909,4,1,0,70,0,0
43967,-83.3333333333333,4,1,0,70,0,0
44871,-125,4,1,0,70,0,0
45173,-76.9230769230769,4,1,0,70,0,0
45173,-76.9230769230769,4,1,0,70,0,0
46379,-71.4285714285714,4,1,0,70,0,0
46379,-71.4285714285714,4,1,0,70,0,0
47585,-66.6666666666667,4,1,0,70,0,0
49997,-133.333333333333,4,1,0,70,0,0
54737,-100,4,1,0,70,0,0
56630,-50,4,1,0,70,0,0
59645,-80,4,1,0,70,0,0
65675,-80,4,1,0,70,0,0
66580,-66.6666666666667,4,1,0,70,0,0
66881,-57.1428571428571,4,1,0,70,0,0
67786,-50,4,1,0,70,0,0
68087,-80,4,1,0,70,0,0
97635,-58.8235294117647,4,1,0,70,0,0
97635,-58.8235294117647,4,1,0,70,0,0
98163,-100,4,1,0,70,0,0
98238,-100,4,2,0,70,0,0
116328,-200,4,2,0,70,0,0
117384,-100,4,2,0,70,0,0
117534,-66.6666666666667,4,2,0,70,0,0
118137,-133.333333333333,4,2,0,70,0,0
118288,-100,4,2,0,70,0,0
119645,-66.6666666666667,4,2,0,70,0,0
120248,-133.333333333333,4,2,0,70,0,0
121756,-100,4,2,0,70,0,0
122057,-66.6666666666667,4,2,0,70,0,0
122962,-166.666666666667,4,2,0,70,0,0
123112,-133.333333333333,4,2,0,70,0,0
123565,-100,4,2,0,70,0,0
124168,-83.3333333333333,4,2,0,70,0,0
124469,-66.6666666666667,4,2,0,70,0,0
124771,-55.5555555555556,4,2,0,70,0,0
125374,-153.846153846154,4,2,0,70,0,0
125675,-100,4,2,0,70,0,0
125977,-66.6666666666667,4,2,0,70,0,0
127786,-125,4,2,0,70,0,0
127936,-100,4,2,0,70,0,0
128992,-83.3333333333333,4,2,0,70,0,0
129293,-66.6666666666667,4,2,0,70,0,0
129595,-55.5555555555556,4,2,0,70,0,0
129896,-133.333333333333,4,2,0,70,0,0
131404,-100,4,2,0,70,0,0
131705,-66.6666666666667,4,2,0,70,0,0
132007,-76.9230769230769,4,2,0,70,0,0
134570,-100,4,2,0,70,0,0
134720,-71.4285714285714,4,2,0,70,0,0
134871,-90.9090909090909,4,2,0,70,0,0
135022,-66.6666666666667,4,2,0,70,0,0
135173,-83.3333333333333,4,2,0,70,0,0
135625,-133.333333333333,4,2,0,70,0,0
136379,-100,4,2,0,70,0,0
136831,-66.6666666666667,4,2,0,70,0,0
138941,-100,4,2,0,70,0,0
139243,-66.6666666666667,4,2,0,70,0,0
141052,-66.6666666666667,4,2,0,70,0,0
143163,-66.6666666666667,4,2,0,70,0,0
143766,-100,4,2,0,70,0,0
144067,-66.6666666666667,4,2,0,70,0,0
144369,-200,4,2,0,70,0,0
144670,-83.3333333333333,4,2,0,70,0,0
144921,-55.5555555555556,4,2,0,70,0,0
145273,-83.3333333333333,4,2,0,70,0,0
145524,-55.5555555555556,4,2,0,70,0,0
145876,-200,4,2,0,70,0,0
146178,-133.333333333333,4,2,0,70,0,0
146479,-66.6666666666667,4,2,0,70,0,0
149343,-100,4,2,0,70,0,0
149494,-66.6666666666667,4,2,0,70,0,0
156127,-153.846153846153,4,2,0,60,0,0
173916,-100,4,2,0,60,0,0
185072,-83.3333333333333,4,3,0,60,0,0
194419,-58.8235294117647,4,3,0,60,0,0
194720,-71.4285714285714,4,3,0,60,0,0
203163,-58.8235294117647,4,3,0,60,0,0
203313,-71.4285714285714,4,3,0,60,0,0
204067,-83.3333333333333,4,3,0,60,0,0
204369,-58.8235294117647,4,3,0,60,0,0
205876,-83.3333333333333,4,3,0,60,0,0
206178,-58.8235294117647,4,3,0,60,0,0
208288,-83.3333333333333,4,3,0,60,0,0
208590,-58.8235294117647,4,3,0,60,0,0
209796,-71.4285714285714,4,3,0,60,0,0
210399,-58.8235294117647,4,3,0,60,0,0
212811,-133.333333333333,4,3,0,60,0,0
214318,-71.4285714285714,4,3,0,60,0,1
223213,-71.4285714285714,4,1,0,70,0,0
223665,-71.4285714285714,4,1,0,70,0,1
232107,-100,4,1,0,70,0,0
232861,-83.3333333333333,4,1,0,70,0,0
251404,-1000,4,1,0,70,0,0
252610,-100,4,1,0,70,0,0

[HitObjects]
64,192,21052,6,0,L|234:207,1,171.2
215,136,21504,2,0,P|173:239|284:259,1,256.8
440,256,22107,1,0,0:0:0:0:
408,240,22183,1,0,0:0:0:0:
384,216,22258,2,0,P|383:133|451:88,1,171.2
456,175,22710,2,0,B|372:179|312:144|312:144|320:184|280:248,1,256.8
216,320,23313,6,0,L|146:326,1,69.5499968162538
45,302,23464,2,0,L|215:319,1,171.2
121,197,23916,2,0,P|48:288|146:326,1,256.8
190,203,24519,6,0,L|120:196,1,69.5499968162538
224,80,24670,2,0,B|298:126|298:126|322:206,1,171.2
312,48,25122,2,0,B|358:77|358:77|373:126,1,107
408,24,25575,2,0,B|421:32|421:32|425:47,1,32.0999990203858
369,257,25876,6,0,P|350:191|372:126,1,139.099993632508
235,118,26328,2,0,B|307:110|307:110|371:126,1,139.099993632508
448,208,26781,1,0,0:0:0:0:
304,240,26931,1,0,0:0:0:0:
264,320,27082,6,0,P|212:275|195:208,1,139.099993632508
75,276,27534,2,0,B|131:230|131:230|193:208,1,139.099993632508
304,240,27987,1,0,0:0:0:0:
240,344,28137,1,0,0:0:0:0:
160,224,28288,6,0,L|167:85,1,139.099993632508
240,168,28740,2,0,L|244:82,1,85.6
320,120,29193,2,0,L|321:83,1,32.0999990203858
400,96,29494,1,0,0:0:0:0:
472,144,29645,1,0,0:0:0:0:
472,160,29796,1,0,0:0:0:0:
472,176,29946,1,0,0:0:0:0:
320,208,30097,5,0,0:0:0:0:
200,144,30248,1,0,0:0:0:0:
200,128,30399,1,0,0:0:0:0:
200,112,30549,1,0,0:0:0:0:
56,200,30700,2,0,L|88:272,1,64.1999980407715
208,328,31153,2,0,P|176:336|144:352,1,64.1999980407715
56,112,31605,1,0,0:0:0:0:
199,188,31756,1,0,0:0:0:0:
199,188,31831,1,0,0:0:0:0:
199,188,31906,2,0,B|208:104|304:64,1,139.099993632508
392,56,32359,6,0,P|472:104|464:216,1,208.649990448761
378,263,32962,5,0,0:0:0:0:
378,263,33037,1,0,0:0:0:0:
378,263,33112,2,0,B|320:328|232:304,1,139.099993632508
344,168,33565,1,0,0:0:0:0:
176,264,33715,1,0,0:0:0:0:
208,176,33866,6,0,P|224:144|224:136,1,32.0999990203858
96,136,34168,1,0,0:0:0:0:
96,136,34243,1,0,0:0:0:0:
96,136,34318,2,0,B|144:40|144:40|288:64,1,214
344,240,34771,1,0,0:0:0:0:
248,328,34921,2,0,L|216:336,1,32.0999990203858
384,96,35223,1,0,0:0:0:0:
384,96,35374,1,0,0:0:0:0:
384,96,35524,2,0,B|480:160|480:160|448:288,1,214
464,344,35977,6,0,L|344:344,1,107
312,232,36278,5,0,0:0:0:0:
200,344,36429,1,0,0:0:0:0:
56,296,36580,1,0,0:0:0:0:
72,168,36730,2,0,B|79:37|228:49,1,214
184,152,37183,2,0,L|200:216,1,64.1999980407715
304,136,37635,2,0,L|312:176,1,32.0999990203858
384,216,37936,2,0,B|400:282|448:360|472:352|472:320|379:307|248:310,1,278.199987265015
64,72,38389,2,0,L|104:128,1,64.1999980407715
216,112,38841,6,0,B|240:176|272:200|272:200|312:176|336:96,1,214
297,321,39293,2,0,P|396:320|401:204,1,214
297,321,39745,2,0,P|198:320|193:204,1,214
415,70,40348,6,0,B|459:188|459:188|400:266,1,214
320,272,40801,2,0,B|209:278|209:278|80:112,1,321
232,64,41404,1,0,0:0:0:0:
232,64,41479,1,0,0:0:0:0:
232,64,41555,2,0,B|401:100|473:3|360:75|400:168|456:216,2,321
326,302,42610,1,0,0:0:0:0:
326,302,42685,1,0,0:0:0:0:
326,302,42761,2,0,B|208:320|208:320|120:176|184:128|296:144,2,353.100010775757
240,56,43816,5,0,0:0:0:0:
240,56,43892,1,0,0:0:0:0:
240,56,43967,2,0,B|359:15|440:32|440:32|440:135|520:128,2,320.999990203858
480,272,44871,2,0,P|480:320|424:360,1,85.6
376,288,45173,2,0,B|240:320|240:320|192:240|264:200|320:240|352:216|336:160|336:88,2,417.299980897523
228,83,46228,1,0,0:0:0:0:
228,83,46303,1,0,0:0:0:0:
228,83,46379,2,0,B|444:121|444:121|343:224,1,299.599990856934
304,296,46831,2,0,B|86:326|86:326|150:203,1,299.599990856934
288,48,47283,5,0,0:0:0:0:
456,304,47434,1,0,0:0:0:0:
236,233,47585,2,0,B|156:153|244:121|252:65|124:73|124:73|68:185|116:305,5,481.500018367768
384,144,49997,6,0,P|416:183|408:232,1,80.2500030612947
304,200,50298,2,0,P|344:236|344:280,1,80.2500030612947
224,256,50599,2,0,P|255:280|264:328,1,80.2500030612947
136,264,50901,2,0,P|154:302|200:336,1,80.2500030612947
136,144,51203,2,0,P|109:195|104:232,1,80.2500030612947
376,144,51504,2,0,P|400:180|400:224,1,80.2500030612947
263,188,51806,2,0,P|237:218|248:256,1,80.2500030612947
392,320,52107,2,0,P|426:291|423:253,1,80.2500030612947
448,200,52410,5,0,0:0:0:0:
152,48,52560,1,0,0:0:0:0:
96,328,52711,1,0,0:0:0:0:
304,64,52862,1,0,0:0:0:0:
328,328,53013,1,0,0:0:0:0:
448,128,53163,1,0,0:0:0:0:
224,40,53314,1,0,0:0:0:0:
192,320,53465,1,0,0:0:0:0:
272,160,53616,5,0,0:0:0:0:
112,32,53766,1,0,0:0:0:0:
432,72,53917,1,0,0:0:0:0:
336,312,54068,1,0,0:0:0:0:
248,56,54219,1,0,0:0:0:0:
136,272,54369,1,0,0:0:0:0:
344,36,54520,1,0,0:0:0:0:
408,224,54671,1,0,0:0:0:0:
448,112,54822,6,0,L|392:112,1,53.5
208,120,54972,2,0,L|272:120,1,53.5
448,192,55123,2,0,L|392:192,1,53.5
216,192,55274,2,0,L|272:192,1,53.5
240,320,55425,1,0,0:0:0:0:
240,320,55500,1,0,0:0:0:0:
240,320,55575,2,0,L|288:272,1,53.5
400,328,55726,1,0,0:0:0:0:
400,328,55801,1,0,0:0:0:0:
400,328,55877,2,0,L|376:264,1,53.5
320,240,56028,5,0,0:0:0:0:
280,200,56103,1,0,0:0:0:0:
232,200,56178,1,0,0:0:0:0:
184,208,56254,1,0,0:0:0:0:
144,184,56329,1,0,0:0:0:0:
128,152,56404,1,0,0:0:0:0:
144,112,56480,1,0,0:0:0:0:
184,88,56555,1,0,0:0:0:0:
248,88,56630,6,0,L|288:48,18,53.5
256,192,57384,12,0,59043,0:0:0:0:
416,40,59343,5,0,0:0:0:0:
256,80,59494,1,0,0:0:0:0:
256,80,59645,6,0,P|192:88|128:48,1,133.75
72,120,59946,2,0,B|48:176|48:176|88:264,1,133.75
184,336,60248,1,0,0:0:0:0:
400,320,60398,1,0,0:0:0:0:
456,168,60549,2,0,P|398:130|328:126,1,133.75
368,208,60851,5,0,0:0:0:0:
424,48,61001,1,0,0:0:0:0:
312,64,61153,2,0,B|248:32|248:32|168:32,1,133.75
416,216,61454,2,0,B|448:160|448:160|392:120|392:120|416:96,1,133.75
288,200,61756,2,0,B|256:248|256:248|272:288|272:288|240:336,1,133.75
160,120,62057,6,0,P|102:131|64:192,1,133.75
112,336,62358,2,0,P|173:302|208:240,1,133.75
320,104,62660,1,0,0:0:0:0:
360,128,62810,1,0,0:0:0:0:
368,280,62961,1,0,0:0:0:0:
328,264,63111,1,0,0:0:0:0:
280,184,63263,2,0,B|232:160|232:160|192:192|192:192|112:176,1,133.75
56,144,63564,2,0,P|98:65|144:48,1,133.75
232,64,63866,1,0,0:0:0:0:
424,128,64017,2,0,B|384:176|384:176|368:256,2,133.75
72,312,64469,6,0,L|96:176,1,133.75
152,72,64770,2,0,L|288:56,1,133.75
376,128,65072,2,0,L|392:272,1,133.75
296,296,65373,2,0,L|200:176,1,133.75
240,56,65675,5,0,0:0:0:0:
56,48,65826,1,0,0:0:0:0:
56,208,65976,2,0,L|168:320,1,133.75
320,344,66278,5,0,0:0:0:0:
464,184,66429,1,0,0:0:0:0:
408,80,66580,2,0,P|336:48|264:96,1,160.500006122589
184,176,66881,5,0,0:0:0:0:
144,320,67032,1,0,0:0:0:0:
56,144,67182,1,0,0:0:0:0:
256,48,67333,5,0,0:0:0:0:
256,48,67408,1,0,0:0:0:0:
256,48,67484,1,0,0:0:0:0:
464,164,67635,1,0,0:0:0:0:
448,288,67786,2,0,B|408:344|408:344|264:296,1,214
176,280,68087,2,0,P|144:224|160:152,1,133.75
216,40,68388,1,0,0:0:0:0:
344,248,68539,1,0,0:0:0:0:
448,152,68690,2,0,P|432:76|344:76,1,168.75
272,64,68992,2,0,B|216:75|216:75|148:136,1,133.75
128,232,69293,6,0,L|240:328,1,133.75
304,336,69595,2,0,B|384:320|384:320|424:256,1,133.75
408,200,69896,1,0,0:0:0:0:
272,32,70047,1,0,0:0:0:0:
432,48,70197,1,0,0:0:0:0:
256,184,70348,1,0,0:0:0:0:
208,280,70499,2,0,P|152:256|120:192,1,133.75
308,44,70800,2,0,L|312:184,1,133.75
316,264,71102,1,0,0:0:0:0:
72,288,71253,1,0,0:0:0:0:
160,112,71403,1,0,0:0:0:0:
272,352,71554,1,0,0:0:0:0:
456,40,71705,6,0,B|472:104|472:104|440:184,1,133.75
384,304,72006,1,0,0:0:0:0:
280,112,72157,1,0,0:0:0:0:
80,216,72308,6,0,B|111:273|111:273|189:310,1,133.75
320,328,72609,1,0,0:0:0:0:
376,144,72760,1,0,0:0:0:0:
256,56,72911,6,0,B|194:107|194:107|168:168,1,133.75
96,304,73212,2,0,B|184:308|184:308|228:288,1,133.75
256,192,73514,1,0,0:0:0:0:
256,88,73665,1,0,0:0:0:0:
256,304,73815,1,0,0:0:0:0:
88,72,73966,1,0,0:0:0:0:
92,76,74117,6,0,L|104:216,1,133.75
400,176,74418,2,0,L|384:32,1,133.75
160,256,74720,2,0,L|176:120,1,133.75
344,156,75022,2,0,L|336:296,1,133.75
64,316,75323,6,0,P|36:252|48:192,1,133.75
448,316,75624,2,0,P|476:252|472:184,1,133.75
160,320,75926,1,0,0:0:0:0:
64,32,76077,1,0,0:0:0:0:
328,320,76228,1,0,0:0:0:0:
416,32,76378,1,0,0:0:0:0:
256,28,76529,5,0,0:0:0:0:
226,40,76604,1,0,0:0:0:0:
204,63,76679,1,0,0:0:0:0:
193,93,76755,1,0,0:0:0:0:
194,125,76830,1,0,0:0:0:0:
207,154,76905,1,0,0:0:0:0:
230,176,76981,1,0,0:0:0:0:
260,187,77056,1,0,0:0:0:0:
282,198,77132,5,0,0:0:0:0:
305,220,77208,1,0,0:0:0:0:
318,249,77283,1,0,0:0:0:0:
319,281,77358,1,0,0:0:0:0:
308,311,77434,1,0,0:0:0:0:
286,334,77509,1,0,0:0:0:0:
256,347,77584,2,0,L|184:320,2,66.875
80,312,77936,5,0,0:0:0:0:
384,104,78137,5,0,0:0:0:0:
424,336,78338,5,0,0:0:0:0:
96,72,78539,5,0,0:0:0:0:
496,124,78791,1,0,0:0:0:0:
496,124,78941,6,0,B|428:108|428:108|504:192|456:296,1,267.5
328,304,79544,2,0,P|336:152|222:106,1,267.5
208,256,79996,5,0,0:0:0:0:
208,256,80072,1,0,0:0:0:0:
208,256,80147,2,0,B|129:223|88:208|104:112|104:112|167:175,1,267.5
261,186,80599,1,0,0:0:0:0:
356,215,80750,2,0,B|368:91|368:91|256:192,1,267.5
128,288,81202,5,0,0:0:0:0:
128,288,81278,1,0,0:0:0:0:
128,288,81354,2,0,B|64:248|40:176|64:96|128:64,1,267.5
272,136,81805,1,0,0:0:0:0:
272,136,81956,2,0,P|352:200|232:288,1,267.5
144,280,82408,5,0,0:0:0:0:
144,280,82484,1,0,0:0:0:0:
144,280,82559,2,0,B|88:144|88:144|184:32,1,267.5
384,216,83011,1,0,0:0:0:0:
472,72,83162,1,0,0:0:0:0:
472,72,83313,1,0,0:0:0:0:
456,336,83464,2,0,B|408:312|408:312|344:352|344:352|288:328,1,133.75
296,124,83765,6,0,L|432:120,1,133.75
324,44,84067,1,0,0:0:0:0:
356,224,84217,6,0,L|496:216,1,133.75
384,144,84519,1,0,0:0:0:0:
268,328,84670,1,0,0:0:0:0:
288,156,84820,1,0,0:0:0:0:
127,181,84971,6,0,L|-8:168,2,133.75
184,88,85423,2,0,L|48:72,2,133.75
148,340,85876,1,0,0:0:0:0:
200,176,86026,1,0,0:0:0:0:
424,96,86177,5,0,0:0:0:0:
424,96,86328,1,0,0:0:0:0:
320,312,86479,1,0,0:0:0:0:
144,72,86629,5,0,0:0:0:0:
144,72,86780,1,0,0:0:0:0:
104,304,86931,1,0,0:0:0:0:
352,200,87082,5,0,0:0:0:0:
352,200,87233,1,0,0:0:0:0:
268,368,87384,1,0,0:0:0:0:
256,192,87534,12,0,88439,0:0:0:0:
464,80,88589,6,0,L|320:64,1,133.75
48,232,88891,2,0,L|152:120,1,133.75
200,272,89192,1,0,0:0:0:0:
480,216,89343,1,0,0:0:0:0:
372,160,89494,2,0,L|368:284,1,112.5
112,304,89795,6,0,P|95:224|182:146,1,200.625
240,184,90097,1,0,0:0:0:0:
336,336,90248,2,0,P|388:304|380:232,1,112.5
440,80,90549,1,0,0:0:0:0:
208,64,90700,1,0,0:0:0:0:
208,64,90851,1,0,0:0:0:0:
448,152,91002,2,0,B|416:200|416:200|456:272,1,133.75
240,152,91303,2,0,B|272:200|272:200|232:272,1,133.75
288,344,91604,1,0,0:0:0:0:
336,264,91755,1,0,0:0:0:0:
88,184,91906,2,0,P|56:120|96:56,1,133.75
160,40,92207,5,0,0:0:0:0:
392,128,92358,1,0,0:0:0:0:
392,128,92509,2,0,L|408:260,1,133.75
385,330,92810,1,0,0:0:0:0:
347,345,92885,1,0,0:0:0:0:
309,338,92960,1,0,0:0:0:0:
278,311,93036,1,0,0:0:0:0:
268,273,93111,1,0,0:0:0:0:
120,128,93263,1,0,0:0:0:0:
192,72,93414,2,0,B|248:32|248:32|312:48,1,133.75
440,96,93715,2,0,P|492:148|476:244,1,168.75
448,336,94016,1,0,0:0:0:0:
352,240,94167,1,0,0:0:0:0:
352,240,94318,2,0,P|366:167|336:120,1,133.75
264,112,94619,6,0,P|199:112|136:225,1,200.625
135,218,94921,2,0,P|72:263|88:324,1,133.75
208,336,95222,1,0,0:0:0:0:
352,128,95373,1,0,0:0:0:0:
368,336,95524,1,0,0:0:0:0:
160,144,95675,1,0,0:0:0:0:
64,232,95825,5,0,0:0:0:0:
336,48,96052,1,0,0:0:0:0:
448,304,96278,1,0,0:0:0:0:
80,144,96428,5,0,0:0:0:0:
448,144,96655,1,0,0:0:0:0:
144,312,96881,1,0,0:0:0:0:
240,48,97031,5,0,0:0:0:0:
292,320,97258,1,0,0:0:0:0:
376,280,97408,1,0,0:0:0:0:
376,280,97484,2,0,L|309:228,1,66.875
233,227,97635,2,0,B|251:284|252:371|188:383|28:361|47:295|122:183|245:140|272:28|135:10|88:7|49:24|20:55|32:144|80:160|112:192,1,636.650012143135
358,328,98238,6,0,P|426:333|410:265,1,160.5
333,308,98539,2,0,B|284:320|284:320|162:306,1,160.5
111,356,98841,6,0,P|126:333|134:308,1,53.5
146,148,98992,2,0,P|162:172|169:197,1,53.5
259,282,99142,2,0,L|385:270,1,107
476,225,99369,5,0,0:0:0:0:
489,242,99444,2,0,L|363:230,1,107
172,122,99745,2,0,B|221:82|221:82|254:200,1,160.5
166,222,100047,5,0,0:0:0:0:
173,233,100122,1,0,0:0:0:0:
182,243,100198,2,0,P|158:230|132:226,1,53.5
72,315,100348,2,0,P|63:287|50:266,1,53.5
189,72,100499,2,0,P|184:98|172:122,1,53.5
20,190,100650,6,0,P|89:163|131:225,1,160.5
194,300,100952,2,0,P|210:279|218:253,1,53.5
20,190,101102,1,0,0:0:0:0:
117,315,101253,5,0,0:0:0:0:
276,194,101404,1,0,0:0:0:0:
38,309,101555,5,0,0:0:0:0:
38,309,101655,2,0,P|14:281|6:247,1,71.3333333333333
36,120,101856,6,0,L|109:128,1,53.5
276,194,102007,2,0,L|199:181,1,53.5
24,141,102158,2,0,B|103:148|103:148|189:106,1,160.5
272,98,102459,6,0,L|261:161,1,53.5
191,326,102610,2,0,L|186:271,1,53.5
172,72,102761,1,0,0:0:0:0:
282,344,102911,1,0,0:0:0:0:
427,137,103062,6,0,B|387:142|361:180|361:180|372:231|408:248,1,160.5
481,292,103364,2,0,P|498:268|505:245,1,53.5
336,347,103514,2,0,L|251:343,1,53.5
292,141,103665,5,0,0:0:0:0:
51,194,103816,1,0,0:0:0:0:
292,141,103967,6,0,L|363:148,1,53.5
146,307,104117,2,0,L|142:253,1,53.5
52,40,104268,6,0,B|72:93|72:93|49:208,1,160.5
46,217,104570,1,0,0:0:0:0:
165,51,104720,6,0,L|230:57,1,53.5
319,63,104871,2,0,L|382:68,1,53.5
238,247,105022,1,0,0:0:0:0:
372,198,105173,6,0,P|346:190|319:193,1,53.5
194,341,105323,2,0,P|168:347|141:345,1,53.5
440,336,105474,6,0,B|475:293|475:293|465:165,1,160.5
463,162,105776,1,0,0:0:0:0:
243,27,105926,6,0,B|278:70|278:70|268:198,1,160.5
266,201,106228,1,0,0:0:0:0:
80,324,106379,6,0,P|62:258|96:233,1,107
242,339,106680,1,0,0:0:0:0:
266,201,106831,2,0,P|215:191|183:230,1,107
196,330,107057,5,0,0:0:0:0:
242,339,107132,2,0,P|263:322|275:299,1,53.5
385,280,107283,2,0,P|386:253|378:224,1,53.5
472,147,107434,2,0,L|406:134,1,53.5
334,54,107585,2,0,P|308:70|283:78,1,53.5
183,230,107735,2,0,L|174:175,1,53.5
50,78,107886,5,0,0:0:0:0:
55,108,108037,1,0,0:0:0:0:
31,224,108188,5,0,0:0:0:0:
26,194,108339,1,0,0:0:0:0:
0,310,108489,5,0,0:0:0:0:
119,285,108640,1,0,0:0:0:0:
5,340,108791,1,0,0:0:0:0:
114,255,108942,1,0,0:0:0:0:
220,335,109092,5,0,0:0:0:0:
243,315,109243,1,0,0:0:0:0:
394,334,109394,5,0,0:0:0:0:
371,314,109545,1,0,0:0:0:0:
219,165,109695,5,0,0:0:0:0:
360,182,109846,1,0,0:0:0:0:
239,188,109997,1,0,0:0:0:0:
380,159,110148,1,0,0:0:0:0:
195,50,110298,5,0,0:0:0:0:
204,78,110449,1,0,0:0:0:0:
132,263,110600,5,0,0:0:0:0:
141,235,110751,1,0,0:0:0:0:
112,80,110901,5,0,0:0:0:0:
224,250,111052,1,0,0:0:0:0:
121,108,111203,1,0,0:0:0:0:
233,222,111354,1,0,0:0:0:0:
379,109,111504,5,0,0:0:0:0:
398,113,111655,1,0,0:0:0:0:
388,195,111806,5,0,0:0:0:0:
407,199,111957,1,0,0:0:0:0:
301,162,112107,5,0,0:0:0:0:
234,248,112258,1,0,0:0:0:0:
282,166,112409,1,0,0:0:0:0:
215,252,112560,1,0,0:0:0:0:
396,338,112710,5,0,0:0:0:0:
411,339,112785,1,0,0:0:0:0:
427,336,112860,1,0,0:0:0:0:
441,328,112936,1,0,0:0:0:0:
453,318,113011,1,0,0:0:0:0:
462,304,113086,1,0,0:0:0:0:
467,289,113162,1,0,0:0:0:0:
467,273,113237,1,0,0:0:0:0:
463,257,113313,5,0,0:0:0:0:
439,244,113388,1,0,0:0:0:0:
414,235,113463,1,0,0:0:0:0:
387,231,113539,1,0,0:0:0:0:
361,232,113614,1,0,0:0:0:0:
334,238,113689,1,0,0:0:0:0:
310,248,113765,1,0,0:0:0:0:
287,262,113840,1,0,0:0:0:0:
267,280,113916,5,0,0:0:0:0:
237,302,113991,1,0,0:0:0:0:
201,310,114066,1,0,0:0:0:0:
164,304,114142,1,0,0:0:0:0:
133,284,114217,1,0,0:0:0:0:
111,254,114292,1,0,0:0:0:0:
103,218,114368,1,0,0:0:0:0:
109,181,114443,1,0,0:0:0:0:
128,150,114519,5,0,0:0:0:0:
136,164,114594,1,0,0:0:0:0:
142,178,114669,1,0,0:0:0:0:
148,193,114745,1,0,0:0:0:0:
153,209,114820,1,0,0:0:0:0:
157,224,114895,1,0,0:0:0:0:
160,240,114971,1,0,0:0:0:0:
163,256,115046,1,0,0:0:0:0:
164,272,115122,6,0,L|99:269,1,53.5
7,267,115273,1,0,0:0:0:0:
214,176,115424,6,0,L|166:200,1,53.5
14,282,115575,1,0,0:0:0:0:
158,82,115725,6,0,L|122:136,1,53.5
22,297,115876,1,0,0:0:0:0:
43,23,116027,6,0,L|40:76,1,53.5
31,312,116178,1,0,0:0:0:0:
264,229,116328,6,0,B|316:253|369:235|399:187|399:187|428:223|394:211|368:235|346:276|360:335|395:357,1,347.75
456,290,117384,6,0,L|510:293,1,53.5
218,133,117534,2,0,B|168:127|122:148|94:182|157:296|48:338|5:312|-26:253|-36:198|17:122|98:122|165:200|55:326|171:338|264:300,1,561.750021429063
305,350,118137,6,0,L|300:306,1,40.1250015306473
374,107,118288,2,0,L|368:53,1,53.5
452,172,118439,2,0,P|427:230|335:206,1,160.5
257,158,118740,6,0,P|252:184|257:210,1,53.5
130,364,118891,2,0,B|148:256|148:256|110:213,1,160.5
5,209,119193,5,0,0:0:0:0:
20,213,119268,2,0,L|16:185,1,26.75
100,206,119343,6,0,B|136:219|178:208|178:208|215:198|258:211,1,160.5
260,291,119645,2,0,B|216:275|180:288|180:288|138:299|90:293|72:254|83:208|110:200,1,240.750009183884
193,97,119946,6,0,B|233:144|233:144|191:262|191:262|179:197,1,240.750009183884
93,166,120248,6,0,L|101:214,1,40.1250015306473
22,226,120399,2,0,L|13:170,1,40.1250015306473
193,97,120549,5,0,0:0:0:0:
206,81,120625,1,0,0:0:0:0:
248,98,120700,5,0,0:0:0:0:
261,83,120776,1,0,0:0:0:0:
304,101,120851,5,0,0:0:0:0:
318,85,120927,1,0,0:0:0:0:
359,103,121002,5,0,0:0:0:0:
373,87,121078,1,0,0:0:0:0:
416,102,121153,5,0,0:0:0:0:
388,233,121303,5,0,0:0:0:0:
401,217,121379,1,0,0:0:0:0:
375,356,121529,5,0,0:0:0:0:
388,340,121605,1,0,0:0:0:0:
176,192,121756,6,0,P|151:180|125:181,1,53.5
234,79,121906,2,0,P|247:101|249:128,1,53.5
322,338,122057,2,0,B|356:275|356:275|228:302|228:302|180:289,1,240.750009183884
65,326,122359,6,0,B|86:355|165:384|215:261|124:227|78:251|78:251|75:190|136:200|128:105|99:49|99:49|152:72|164:127|127:147,1,561.750021429063
38,103,122962,2,0,P|41:123|37:147,1,32.0999990203858
264,235,123112,6,0,P|279:146|190:134,1,200.625007653237
140,135,123565,6,0,P|160:119|186:113,1,53.5
360,278,123715,2,0,B|331:278|331:278|324:285|324:285|318:278|318:278|202:278,1,160.5
127,331,124017,5,0,0:0:0:0:
112,324,124092,2,0,L|113:359,1,26.75
38,331,124168,6,0,B|21:222|21:222|102:236,1,192.599994122315
205,278,124469,2,0,B|293:293|293:293|277:176|277:176|268:224,1,240.750009183884
187,106,124771,6,0,B|184:68|184:68|250:33|250:33|270:209,1,288.899991183472
38,331,125072,2,0,B|79:314|79:314|130:374|130:374|249:351|249:351|244:293,1,288.899991183472
418,89,125374,6,0,L|383:93,1,34.7749984081269
411,185,125524,2,0,L|376:189,1,34.7749984081269
203,81,125675,6,0,L|257:87,1,53.5
157,170,125826,2,0,L|211:176,1,53.5
375,303,125977,6,0,B|395:303|395:303|385:325,6,40.1250015306473
361,338,126278,6,0,B|333:308|333:308|361:281,1,80.2500030612947
471,281,126429,2,0,B|499:311|499:311|470:337,1,80.2500030612947
158,171,126580,6,0,L|172:273,1,80.2500030612947
179,331,126730,2,0,L|169:251,1,80.2500030612947
347,132,126881,6,0,B|376:110|417:102|417:102|483:111|501:142|501:142|464:176|425:139,1,240.750009183884
247,59,127183,6,0,B|213:51|213:51|144:79|173:200|268:177|268:177|223:214|194:322|318:295|296:366|238:406|206:408|164:383|167:337|185:326,1,561.750021429063
96,312,127786,6,0,L|103:265,1,42.8
64,103,127936,2,0,B|-12:57|-12:57|17:233,1,267.5
6,320,128389,2,0,L|13:267,1,53.5
253,121,128539,2,0,B|248:171|248:171|256:176|256:176|247:179|247:179|238:273,1,160.5
323,336,128841,5,0,0:0:0:0:
338,329,128916,2,0,L|330:363,1,35.6666666666667
416,336,128992,6,0,P|455:265|374:255,1,192.599994122315
237,267,129293,2,0,B|195:277|168:242|166:197|199:155|245:158|276:192|276:192|310:175|339:179,1,240.750009183884
481,178,129595,6,0,B|497:128|492:95|466:58|466:58|436:72|406:72|406:72|386:60|355:55|355:55|339:71|307:76,1,288.899991183472
226,81,129896,6,0,L|231:39,1,40.1250015306473
141,36,130047,2,0,L|135:75,1,40.1250015306473
118,303,130198,5,0,0:0:0:0:
99,294,130274,1,0,0:0:0:0:
102,249,130349,5,0,0:0:0:0:
84,241,130425,1,0,0:0:0:0:
89,195,130500,5,0,0:0:0:0:
70,187,130576,1,0,0:0:0:0:
75,142,130651,5,0,0:0:0:0:
55,133,130727,1,0,0:0:0:0:
57,88,130802,5,0,0:0:0:0:
230,104,130952,5,0,0:0:0:0:
209,95,131028,1,0,0:0:0:0:
401,105,131177,5,0,0:0:0:0:
380,96,131253,1,0,0:0:0:0:
168,275,131404,6,0,P|188:258|214:253,1,53.5
293,355,131555,2,0,P|271:338|245:334,1,53.5
418,94,131705,2,0,B|447:117|451:157|451:157|399:243|399:243|416:275|407:311,1,240.750009183884
293,355,132007,6,0,L|286:273,1,69.5499968162538
270,126,132158,2,0,L|277:208,1,69.5499968162538
283,356,132308,6,0,L|276:274,1,69.5499968162538
260,126,132459,2,0,L|267:208,1,69.5499968162538
180,363,132610,5,0,0:0:0:0:
157,131,132761,1,0,0:0:0:0:
180,363,132911,5,0,0:0:0:0:
157,131,133062,1,0,0:0:0:0:
46,163,133213,6,0,B|80:181|80:181|72:211,1,69.5499968162538
345,238,133364,2,0,B|311:220|311:220|318:189,1,69.5499968162538
16,120,133514,6,0,B|27:156|27:156|0:173,1,69.5499968162538
389,225,133665,2,0,B|362:241|362:241|373:278,1,69.5499968162538
150,275,133816,5,0,0:0:0:0:
77,281,133891,1,0,0:0:0:0:
3,286,133967,1,0,0:0:0:0:
215,336,134117,6,0,B|241:312|241:312|281:334,1,69.5499968162538
296,104,134268,1,0,0:0:0:0:
295,347,134419,6,0,L|368:332,1,69.5499968162538
158,172,134570,1,0,0:0:0:0:
335,255,134720,6,0,L|415:237,1,74.8999977142335
130,149,134871,1,0,0:0:0:0:
372,163,135022,6,0,L|455:145,1,80.2500030612947
103,132,135173,1,0,0:0:0:0:
444,336,135323,5,0,0:0:0:0:
363,333,135398,1,0,0:0:0:0:
280,328,135473,1,0,0:0:0:0:
198,324,135549,1,0,0:0:0:0:
113,317,135625,6,0,P|97:280|97:240,1,80.2500030612947
97,239,135851,2,0,P|112:275|112:315,1,80.2500030612947
198,324,136077,6,0,L|301:329,1,80.2500030612947
363,333,136303,1,0,0:0:0:0:
373,334,136379,6,0,P|398:323|416:303,1,53.5
321,124,136529,2,0,P|296:134|278:154,1,53.5
348,253,136680,2,0,L|348:189,1,53.5
133,340,136831,6,0,B|74:367|28:361|-36:330|-69:221|-51:131|105:87|172:177|172:177|156:267,1,561.750021429063
159,249,137434,6,0,P|198:234|236:244,1,80.2500030612947
371,248,137585,2,0,P|409:257|445:241,1,80.2500030612947
91,35,137735,6,0,L|102:114,1,80.2500030612947
388,85,137886,2,0,L|399:164,1,80.2500030612947
264,360,138037,6,0,B|234:246|234:246|304:145,1,240.750009183884
400,165,138338,2,0,P|441:280|341:344,1,240.750009183884
264,360,138640,6,0,L|244:282,1,80.2500030612947
114,261,138791,2,0,L|134:339,1,80.2500030612947
304,143,138941,6,0,L|318:91,1,53.5
225,56,139092,2,0,L|212:108,1,53.5
30,257,139243,6,0,B|-8:235|-8:235|58:224|58:224|128:244|128:244|183:230,1,240.750009183884
259,202,139544,2,0,P|275:236|256:269,1,80.2500030612947
27,123,139695,5,0,0:0:0:0:
24,111,139771,1,0,0:0:0:0:
106,96,139846,6,0,L|206:101,1,80.2500030612947
111,332,139997,2,0,L|192:325,1,80.2500030612947
422,222,140147,6,0,P|390:207|395:239,1,80.2500030612947
418,217,140298,2,0,P|381:213|397:241,1,80.2500030612947
408,209,140449,2,0,P|372:218|396:239,1,80.2500030612947
397,204,140600,2,0,P|366:224|396:236,1,80.2500030612947
385,205,140751,2,0,P|363:234|396:235,1,80.2500030612947
374,209,140901,2,0,P|364:244|394:233,1,80.2500030612947
387,323,141052,6,0,P|426:317|453:289,1,80.2500030612947
378,120,141203,2,0,P|338:125|311:153,1,80.2500030612947
155,342,141354,6,0,B|193:334|193:334|224:354|224:354|242:237|242:237|208:194,1,240.750009183884
50,221,141655,6,0,B|61:197|54:171|54:171|23:151|4:99|16:47|62:18|117:15|169:38|174:105|174:105|319:86|319:86|249:47,1,561.750021429063
267,57,142258,6,0,L|274:136,1,80.2500030612947
291,314,142409,2,0,L|283:234,1,80.2500030612947
398,78,142560,6,0,L|477:86,1,80.2500030612947
507,312,142710,2,0,L|427:303,1,80.2500030612947
91,167,142861,6,0,B|138:132|138:132|110:311,1,240.750009183884
45,241,143163,2,0,B|153:234|153:234|167:243|167:243|282:234,1,240.750009183884
283,234,143464,6,0,L|291:314,1,80.2500030612947
267,57,143615,2,0,L|274:136,1,80.2500030612947
130,105,143766,6,0,L|190:107,1,53.5
360,112,143917,2,0,L|430:114,1,53.5
156,189,144067,6,0,B|55:120|55:120|59:242,1,240.750009183884
86,334,144369,6,0,L|183:327,1,80.25
252,320,144670,6,0,P|312:342|249:356,1,171.199994775391
211,325,144921,2,0,P|256:384|238:315,1,192.599994122315
364,272,145122,2,0,P|328:240|281:233,1,96.2999970611573
47,308,145273,6,0,P|-14:280|47:265,1,171.199994775391
88,296,145524,2,0,P|50:234|72:307,1,192.599994122315
166,327,145725,2,0,P|178:281|171:234,1,96.2999970611573
39,65,145876,6,0,L|47:102,3,26.75
147,99,146178,2,0,L|136:137,1,40.1250015306473
170,23,146328,2,0,L|159:61,1,40.1250015306473
40,186,146479,6,0,B|149:178|149:178|142:191|142:191|261:183,1,240.750009183884
345,218,146781,2,0,P|412:156|294:132,1,240.750009183884
157,62,147082,6,0,P|181:93|217:109,1,80.2500030612947
292,280,147233,2,0,P|276:316|245:341,1,80.2500030612947
141,220,147384,2,0,P|180:225|217:210,1,80.2500030612947
392,280,147535,2,0,P|407:317|402:357,1,80.2500030612947
40,371,147685,6,0,P|64:264|168:291,1,240.750009183884
306,360,147987,2,0,B|343:300|343:300|337:185|337:185|286:240,1,240.750009183884
168,291,148288,6,0,B|196:275|196:275|243:281,1,80.2500030612947
467,289,148439,2,0,B|439:273|439:273|391:279,1,80.2500030612947
235,54,148590,2,0,P|220:90|233:126,1,80.2500030612947,0|0,2:0|2:0,2:0:0:0:
407,127,148740,2,0,P|420:90|407:54,1,80.2500030612947,0|0,2:0|2:0,2:0:0:0:
22,25,148891,6,0,B|48:66|48:66|39:160|39:160|44:166|44:166|32:163|32:163|37:170|37:170|30:239,1,240.750009183884
66,342,149193,2,0,L|145:335,1,80.2500030612947
233,126,149343,2,0,L|156:117,1,53.5
179,119,149494,6,0,L|281:110,1,80.2500030612947
435,344,149645,2,0,L|355:336,1,80.2500030612947
30,238,149795,6,0,P|62:223|57:255,1,80.2500030612947
34,233,149946,2,0,P|71:229|55:257,1,80.2500030612947
44,225,150097,2,0,P|80:234|56:255,1,80.2500030612947
55,220,150248,2,0,P|86:240|56:252,1,80.2500030612947
67,221,150399,2,0,P|89:250|56:251,1,80.2500030612947
78,225,150549,2,0,P|88:260|58:249,1,80.2500030612947
97,144,150700,6,0,P|128:131|151:182,1,80.2500030612947
105,347,150851,2,0,P|74:360|51:309,1,80.2500030612947
203,90,151002,6,0,P|204:194|300:145,1,240.750009183884
389,157,151303,6,0,L|383:76,1,80.2500030612947
403,324,151454,2,0,L|397:243,1,80.2500030612947
402,157,151605,6,0,L|396:76,1,80.2500030612947
416,324,151756,2,0,L|410:243,1,80.2500030612947
93,293,151906,5,0,0:0:0:0:
302,283,152057,1,0,0:0:0:0:
93,293,152208,5,0,0:0:0:0:
302,283,152359,1,0,0:0:0:0:
217,353,152509,6,0,P|216:316|174:292,1,80.2500030612947
396,76,152660,2,0,P|363:94|364:142,1,80.2500030612947
93,293,152811,6,0,P|125:274|124:226,1,80.2500030612947
411,210,152962,2,0,P|378:192|343:208,1,80.2500030612947
36,63,153112,5,0,0:0:0:0:
41,135,153187,1,0,0:0:0:0:
46,207,153262,1,0,0:0:0:0:
218,96,153414,6,0,P|188:72|187:33,1,80.2500030612947
9,299,153565,1,0,0:0:0:0:
315,72,153715,6,0,L|407:76,1,80.2500030612947
36,63,153866,1,0,0:0:0:0:
349,165,154017,6,0,L|441:169,1,80.2500030612947
42,46,154168,1,0,0:0:0:0:
392,259,154318,6,0,L|484:263,1,80.2500030612947
48,30,154469,1,0,0:0:0:0:
432,353,154620,6,0,L|524:357,1,80.2500030612947
55,13,154771,1,0,0:0:0:0:
315,242,154921,6,0,L|308:289,15,40.1250015306473
257,178,155524,6,0,L|253:138,16,35.6666666666667
144,148,156127,5,0,0:0:0:0:
77,90,156429,5,0,0:0:0:0:
77,90,156580,1,0,0:0:0:0:
70,2,156881,5,0,0:0:0:0:
70,2,157032,2,0,B|130:73|82:151|82:151|130:137|183:164|183:164|135:236|191:306,1,417.299980897523,0|0,0:3|0:3,0:3:0:0:
326,316,158087,2,0,P|306:268|271:231,1,104.324995224381,0|0,0:3|0:3,0:3:0:0:
203,165,158539,5,0,0:3:0:0:
192,80,158840,5,0,0:3:0:0:
192,80,158991,1,0,0:3:0:0:
254,18,159293,5,0,0:3:0:0:
254,18,159444,2,0,B|303:92|278:182|220:209|162:176|136:106|188:57|284:60|336:151,1,417.299980897523,0|0,0:3|0:3,0:3:0:0:
160,231,160499,2,0,P|121:195|102:147,1,104.324995224381,0|0,0:3|0:3,0:3:0:0:
109,60,160952,5,0,0:0:0:0:
175,2,161253,5,0,0:0:0:0:
175,2,161404,1,0,0:0:0:0:
260,7,161706,5,0,0:0:0:0:
260,7,161856,2,0,B|202:73|193:137|196:224|319:267|355:199|369:102|254:80,1,417.299980897523,0|0,0:0|0:0,0:0:0:0:
137,203,162911,2,0,P|168:244|210:275,1,104.324995224381,0|0,0:0|0:0,0:0:0:0:
291,304,163364,5,0,0:0:0:0:
367,266,163666,5,0,0:0:0:0:
367,266,163816,1,0,0:0:0:0:
398,180,164118,5,0,0:0:0:0:
398,180,164268,1,0,0:0:0:0:
398,180,164419,5,0,0:0:0:0:
393,174,164570,1,0,0:0:0:0:
396,167,164720,1,0,0:0:0:0:
403,168,164871,1,0,0:0:0:0:
403,177,165022,1,0,0:0:0:0:
398,180,165173,5,0,0:0:0:0:
393,174,165324,1,0,0:0:0:0:
396,167,165474,1,0,0:0:0:0:
403,168,165625,1,0,0:0:0:0:
356,85,165776,1,0,0:0:0:0:
417,22,166076,5,0,0:0:0:0:
417,22,166228,1,0,0:0:0:0:
507,20,166529,5,0,0:0:0:0:
507,20,166680,2,0,B|430:73|356:19|356:19|366:68|335:118|335:118|268:65|193:114,1,417.299980897523,0|0,0:0|0:0,0:0:0:0:
171,249,167735,2,0,P|221:233|262:201,1,104.324995224381
308,128,168188,5,0,0:0:0:0:
392,108,168490,5,0,0:0:0:0:
392,108,168641,1,0,0:0:0:0:
465,152,168942,5,0,0:0:0:0:
465,152,169092,2,0,B|486:239|432:315|368:320|325:270|324:195|390:167|479:202|497:306,1,417.299980897523
303,322,170147,2,0,P|279:276|278:224,1,104.324995224381,0|0,0:0|0:0,0:0:0:0:
286,139,170600,5,0,0:0:0:0:
229,73,170902,5,0,0:0:0:0:
229,73,171053,1,0,0:0:0:0:
143,68,171354,5,0,0:0:0:0:
143,68,171504,2,0,B|80:129|65:191|61:280|179:333|222:267|243:172|131:140,1,417.299980897523,0|0,0:0|0:0,0:0:0:0:
0,233,172560,2,0,P|21:280|53:321,1,104.324995224381,0|0,0:0|0:0,0:0:0:0:
123,367,173012,5,0,0:0:0:0:
208,349,173314,5,0,0:0:0:0:
208,349,173465,1,0,0:0:0:0:
256,278,173766,5,0,3:0:0:0:
256,278,173916,2,0,L|246:134,1,107
240,64,174218,5,0,0:0:0:0:
248,171,174369,1,0,0:0:0:0:
279,76,174519,5,0,0:0:0:0:
208,158,174670,1,0,0:0:0:0:
297,113,174821,5,0,3:0:0:0:
190,121,174972,1,0,3:0:0:0:
284,152,175122,5,8,3:0:0:0:
203,82,175273,1,8,3:0:0:0:
248,171,175424,6,8,P|240:283|125:329,1,214
148,220,175876,1,8,0:0:0:0:
248,171,176027,2,8,P|240:283|125:329,1,214
0,384,176479,5,0,0:0:0:0:
0,384,176555,1,0,0:0:0:0:
0,384,176630,2,8,B|6:304|6:304|54:260|54:260|65:140,1,214
96,88,177082,1,8,0:0:0:0:
204,100,177233,2,8,P|259:29|172:4,1,214,8|8,0:0|0:0,3:0:0:0:
44,184,177685,5,0,0:0:0:0:
44,184,177761,1,0,0:0:0:0:
44,184,177836,2,8,B|97:165|145:192|145:192|194:225|247:201,1,214
332,136,178288,2,8,P|340:252|252:308,1,214
151,168,178740,5,0,0:0:0:0:
167,138,178841,2,0,P|200:110|231:98,1,71.3333333333333,0|0,0:0|0:0,0:0:0:0:
250,202,179042,2,8,L|36:188,1,214
52,276,179494,6,8,P|110:240|134:180,1,107
180,96,179796,1,0,0:0:0:0:
294,53,179946,2,8,P|352:89|376:149,1,107
444,264,180248,6,8,P|366:202|252:248,1,214
344,308,180700,1,8,0:0:0:0:
370,121,180851,2,8,P|341:77|294:53,1,107
208,78,181153,5,0,3:0:0:0:
147,143,181303,1,0,3:0:0:0:
126,229,181454,2,8,L|337:269,1,214,8|8,3:0|3:0,3:0:0:0:
147,143,181906,5,8,0:0:0:0:
126,229,182057,2,8,L|232:248,1,107,8|8,3:0|3:0,3:0:0:0:
336,268,182359,5,0,3:0:0:0:
397,203,182509,1,0,3:0:0:0:
418,117,182660,2,8,L|207:77,1,214,8|8,3:0|3:0,3:0:0:0:
397,203,183112,5,8,0:0:0:0:
418,117,183263,2,8,L|312:98,1,107,8|8,3:0|3:0,3:0:0:0:
126,229,183565,2,8,L|231:210,1,107,8|8,3:0|3:0,3:0:0:0:
368,296,183866,1,0,0:0:0:0:
256,192,184017,12,0,184921,0:0:0:0:
263,241,185072,6,0,P|274:212|270:172,1,64.1999980407715,0|0,3:0|3:0,3:0:0:0:
281,95,185223,2,0,P|253:83|213:88,1,64.1999980407715,0|0,3:0|3:0,3:0:0:0:
135,76,185374,2,0,P|125:106|129:145,1,64.1999980407715,0|0,3:0|3:0,3:0:0:0:
119,217,185524,2,0,P|148:228|188:225,1,64.1999980407715,0|0,3:0|3:0,3:0:0:0:
282,221,185675,6,0,P|286:191|271:153,1,64.1999980407715,0|0,3:0|3:0,3:0:0:0:
262,76,185826,2,0,P|232:72|194:87,1,64.1999980407715,0|0,3:0|3:0,3:0:0:0:
117,96,185977,2,0,P|114:127|128:163,1,64.1999980407715,0|0,3:0|3:0,3:0:0:0:
137,236,186127,2,0,P|168:239|206:226,1,64.1999980407715,0|0,3:0|3:0,3:0:0:0:
303,172,186278,6,0,P|291:143|260:117,1,64.1999980407715,0|0,3:0|3:0,3:0:0:0:
213,55,186429,2,0,P|185:67|160:99,1,64.1999980407715,0|0,3:0|3:0,3:0:0:0:
97,145,186580,2,0,P|110:174|141:198,1,64.1999980407715,0|0,3:0|3:0,3:0:0:0:
185,257,186730,2,0,P|213:244|239:213,1,64.1999980407715,0|0,3:0|3:0,3:0:0:0:
283,94,186881,6,0,P|254:83|214:87,1,64.1999980407715,0|0,3:0|3:0,3:0:0:0:
137,76,187032,2,0,P|126:104|130:144,1,64.1999980407715,0|0,3:0|3:0,3:0:0:0:
118,221,187183,2,0,P|148:232|187:228,1,64.1999980407715,0|0,3:0|3:0,3:0:0:0:
260,238,187333,2,0,P|270:209|267:169,1,64.1999980407715,0|0,3:0|3:0,3:0:0:0:
187,54,187484,6,0,P|163:73|146:110,1,64.1999980407715,0|0,0:0|0:0,0:0:0:0:
98,171,187635,2,0,P|117:195|154:211,1,64.1999980407715,0|0,0:0|0:0,0:0:0:0:
215,260,187786,2,0,P|239:240|255:204,1,64.1999980407715,0|0,0:0|0:0,0:0:0:0:
300,146,187936,2,0,P|280:122|244:105,1,64.1999980407715
119,93,188087,6,0,P|115:123|129:161,1,64.1999980407715,0|0,3:0|3:0,3:0:0:0:
164,277,188238,2,0,P|192:264|218:233,1,64.1999980407715,0|0,3:0|3:0,3:0:0:0:
300,146,188389,2,0,P|275:127|235:120,1,64.1999980407715,0|0,3:0|3:0,3:0:0:0:
88,197,188539,6,0,P|112:216|152:222,1,64.1999980407715,0|0,3:0|3:0,3:0:0:0:
270,250,188690,2,0,P|273:220|259:182,1,64.1999980407715,0|0,3:0|3:0,3:0:0:0:
224,67,188841,2,0,P|196:79|170:110,1,64.1999980407715,0|0,3:0|3:0,3:0:0:0:
163,276,188992,6,0,P|191:264|217:233,1,64.1999980407715,0|0,3:0|3:0,3:0:0:0:
300,145,189143,2,0,P|275:127|235:120,1,64.1999980407715,0|0,3:0|3:0,3:0:0:0:
118,93,189294,2,0,P|115:123|129:162,1,64.1999980407715,0|0,3:0|3:0,3:0:0:0:
269,251,189444,6,0,P|273:220|259:182,1,64.1999980407715,0|0,3:0|3:0,3:0:0:0:
224,66,189595,2,0,P|196:79|170:110,1,64.1999980407715,0|0,3:0|3:0,3:0:0:0:
88,197,189746,2,0,P|113:216|153:223,1,64.1999980407715,0|0,3:0|3:0,3:0:0:0:
300,145,189896,5,0,3:0:0:0:
270,130,189972,1,0,3:0:0:0:
239,124,190047,1,0,3:0:0:0:
206,127,190122,1,0,3:0:0:0:
175,137,190197,1,0,3:0:0:0:
147,156,190273,1,0,3:0:0:0:
124,181,190348,1,0,3:0:0:0:
109,211,190424,1,0,3:0:0:0:
101,244,190499,5,0,3:0:0:0:
110,276,190575,1,0,3:0:0:0:
134,299,190650,1,0,3:0:0:0:
165,306,190725,1,0,3:0:0:0:
196,297,190801,1,0,3:0:0:0:
219,273,190876,1,0,3:0:0:0:
226,244,190952,1,0,3:0:0:0:
216,215,191027,1,0,3:0:0:0:
193,196,191102,5,0,3:0:0:0:
189,167,191178,1,0,3:0:0:0:
206,143,191253,1,0,3:0:0:0:
237,139,191328,1,0,3:0:0:0:
260,158,191403,1,0,3:0:0:0:
264,187,191479,1,0,3:0:0:0:
245,210,191554,1,0,3:0:0:0:
216,215,191630,1,0,3:0:0:0:
191,196,191705,6,2,L|166:157,6,32.0999990203858,2|2|2|2|2|2|2,3:0|3:0|3:0|3:0|3:0|3:0|3:0,3:0:0:0:
311,197,192007,6,2,L|341:203,6,32.0999990203858,2|2|2|2|2|2|2,3:0|3:0|3:0|3:0|3:0|3:0|3:0,3:0:0:0:
243,298,192308,6,0,L|232:341,18,32.0999990203858,0|0|0|0|0|0|0|0|0|0|0|0|0|0|0|0|0|0|0,3:0|3:0|3:0|3:0|3:0|3:0|3:0|3:0|3:0|3:0|3:0|3:0|3:0|3:0|3:0|3:0|3:0|3:0|3:0,3:0:0:0:
317,257,193062,6,2,L|334:284,6,32.0999990203858,2|2|2|2|2|2|2,3:0|3:0|3:0|3:0|3:0|3:0|3:0,3:0:0:0:
403,195,193364,6,0,P|370:192|342:178,1,64.1999980407715
348,312,193514,2,0,P|326:287|317:257,1,64.1999980407715
235,327,193666,5,0,3:0:0:0:
219,288,193742,1,0,3:0:0:0:
216,246,193817,1,0,3:0:0:0:
223,208,193892,1,0,3:0:0:0:
229,168,193967,5,0,3:0:0:0:
225,126,194042,1,0,3:0:0:0:
211,88,194118,1,0,3:0:0:0:
186,55,194193,1,0,3:0:0:0:
153,29,194268,2,0,L|233:40,1,64.1999980407715,0|0,3:3|3:3,3:3:0:0:
251,46,194419,6,8,P|213:72|184:106,1,90.9500017347336,8|8,3:0|3:0,3:0:0:0:
247,255,194570,2,8,P|243:209|228:167,1,90.9500017347336,8|8,3:0|3:0,3:0:0:0:
28,111,194720,6,8,B|58:138|58:138|114:141|114:141|155:175,1,149.799995428467
220,212,194946,1,8,0:0:0:0:
223,157,195021,1,8,0:0:0:0:
187,116,195097,1,8,0:0:0:0:
132,112,195173,1,8,0:0:0:0:
89,148,195248,1,8,3:0:0:0:
83,204,195323,6,0,L|165:242,1,74.8999977142335
214,308,195474,2,0,L|300:277,1,74.8999977142335
73,222,195625,6,0,L|162:238,1,74.8999977142335
223,288,195776,2,0,L|298:235,1,74.8999977142335
375,228,195926,1,0,0:0:0:0:
312,152,196077,5,8,3:3:0:0:
312,152,196152,2,8,P|288:188|288:300,1,149.799995428467,8|8,0:3|0:3,0:3:0:0:
450,300,196378,1,0,0:3:0:0:
474,259,196454,1,0,3:3:0:0:
472,211,196529,2,8,P|452:172|428:150,1,74.8999977142335,8|8,0:3|0:3,0:3:0:0:
339,1,196680,5,0,0:3:0:0:
307,34,196756,1,0,0:3:0:0:
294,81,196831,2,8,P|300:132|340:176,1,74.8999977142335
249,244,196982,2,8,P|201:223|143:236,1,74.8999977142335
200,128,197132,1,8,0:0:0:0:
72,44,197283,5,2,0:0:0:0:
75,104,197359,1,2,0:0:0:0:
78,164,197434,1,2,0:0:0:0:
81,225,197509,1,2,0:0:0:0:
84,286,197585,2,2,L|88:370,1,74.8999977142335
308,288,197735,5,0,0:0:0:0:
308,288,197811,2,8,B|263:297|228:252|228:252|222:304|160:324,1,149.799995428467
316,184,198037,2,0,L|319:109,1,74.8999977142335
188,26,198188,5,0,0:0:0:0:
176,50,198263,1,0,0:0:0:0:
164,74,198338,2,0,B|48:82|48:82|112:134,1,149.799995428467
132,180,198565,2,0,L|206:174,1,74.8999977142335
88,264,198715,5,0,0:0:0:0:
65,272,198791,2,0,L|139:279,1,74.8999977142335
196,356,198941,5,2,0:0:0:0:
240,320,199017,1,2,0:0:0:0:
246,263,199092,1,2,0:0:0:0:
210,218,199168,5,2,0:0:0:0:
268,224,199243,1,2,0:0:0:0:
322,200,199318,1,2,0:0:0:0:
357,152,199394,1,2,0:0:0:0:
364,92,199469,1,2,0:0:0:0:
340,36,199544,6,2,L|152:52,1,149.799995428467
64,232,199771,1,8,3:0:0:0:
120,236,199846,1,8,3:0:0:0:
161,199,199922,1,8,3:0:0:0:
164,145,199998,1,8,3:0:0:0:
128,101,200073,1,8,3:0:0:0:
72,95,200148,6,0,L|34:177,1,74.8999977142335,0|0,3:0|3:0,3:0:0:0:
120,236,200298,2,0,L|157:318,1,74.8999977142335,0|0,3:0|3:0,3:0:0:0:
65,110,200449,6,0,L|49:200,1,74.8999977142335,0|0,3:0|3:0,3:0:0:0:
148,234,200599,2,0,L|205:304,1,74.8999977142335,0|0,3:0|3:0,3:0:0:0:
294,249,200751,1,0,0:0:0:0:
194,169,200901,5,0,3:3:0:0:
194,169,200976,2,0,B|183:248|183:248|203:314,1,149.799995428467,0|0,0:3|0:3,0:3:0:0:
396,293,201202,5,0,0:3:0:0:
408,247,201278,1,0,3:3:0:0:
394,201,201353,2,0,P|367:164|332:145,1,74.8999977142335,0|0,0:3|0:3,0:3:0:0:
204,315,201503,5,0,0:3:0:0:
238,348,201579,1,0,3:3:0:0:
285,359,201654,2,0,P|330:354|364:333,1,74.8999977142335,0|0,0:3|0:3,0:3:0:0:
294,249,201806,6,8,L|200:220,1,74.8999977142335
150,203,201957,1,8,0:0:0:0:
219,18,202107,5,2,3:0:0:0:
238,76,202183,1,2,3:0:0:0:
256,133,202258,1,2,3:0:0:0:
275,191,202333,1,2,3:0:0:0:
294,249,202409,2,2,L|319:329,1,74.8999977142335,2|2,3:0|3:0,3:0:0:0:
448,173,202560,5,0,0:0:0:0:
448,173,202636,2,8,B|400:232|400:232|424:312,1,149.799995428467
472,64,202861,6,8,L|398:80,1,74.8999977142335
348,319,203012,2,8,L|421:302,1,74.8999977142335
448,173,203163,2,8,B|416:177|416:177|387:193|387:193|346:196|346:196|306:215|306:215|276:214|276:214|275:215,1,181.900003469467
180,240,203389,5,0,0:0:0:0:
176,192,203464,1,0,0:0:0:0:
196,149,203539,1,0,0:0:0:0:
234,122,203615,2,0,L|308:106,1,74.8999977142335
448,173,203766,5,0,0:0:0:0:
452,221,203841,1,0,0:0:0:0:
432,264,203916,1,0,0:0:0:0:
394,291,203992,1,8,0:0:0:0:
316,344,204067,6,8,L|127:303,1,192.599994122315
33,281,204369,6,8,B|46:227|103:211|103:211|87:154|87:154|128:149|128:149|177:90|170:98,1,272.850005204201,8|8,0:0|0:0,3:0:0:0:
169,17,204670,6,2,P|123:33|96:67,1,90.9500017347336
258,135,204821,2,2,P|267:87|250:47,1,90.9500017347336,2|2,3:0|3:0,3:0:0:0:
170,98,204972,2,8,B|120:159|120:159|177:284|177:284|225:226,1,272.850005204201
272,171,205273,6,2,B|333:101,1,90.9500017347336,2|2,3:0|3:0,3:0:0:0:
438,128,205424,2,2,B|378:196,1,90.9500017347336,2|2,3:0|3:0,3:0:0:0:
260,332,205575,2,2,B|321:262,1,90.9500017347336,2|2,3:0|3:0,3:0:0:0:
426,289,205726,2,2,B|366:357,1,90.9500017347336,2|2,3:0|3:0,3:0:0:0:
272,171,205876,6,8,P|347:123|364:217,1,192.599994122315
260,332,206178,6,8,B|168:313|168:313|111:227|111:227|237:255,1,272.850005204201
363,277,206479,6,10,L|380:188,1,90.9500017347336
202,154,206630,2,10,L|184:244,1,90.9500017347336
260,332,206781,2,8,B|268:292|268:292|267:276|267:276|278:262|278:262|274:245|274:245|285:231|285:231|280:217|280:217|291:203|291:203|286:190|286:190|296:180|296:180|291:162|291:162|302:152|302:152|296:139|296:139|307:125|307:125|303:108|303:108|310:93|310:93|311:90,1,272.850005204201,8|8,3:0|3:0,3:0:0:0:
303,9,207082,6,2,P|261:24|236:61,1,90.9500017347336,10|2,0:0|0:0,0:0:0:0:
385,125,207233,2,2,P|392:78|371:37,1,90.9500017347336
310,90,207384,6,8,B|279:159|208:137|208:137|179:230|77:206,1,272.850005204201
0,180,207685,6,2,L|31:285,1,90.9500017347336
155,384,207836,2,2,L|130:297,1,90.9500017347336
114,114,207987,2,2,L|145:219,1,90.9500017347336
269,318,208138,2,2,L|244:231,1,90.9500017347336
253,134,208288,6,8,P|291:58|359:108,1,192.599994122315
419,270,208590,6,10,B|367:241|367:241|308:260|308:260|251:228,1,181.900003469467
124,349,208891,2,10,B|154:290|154:290|135:232|135:232|161:180,1,181.900003469467
317,117,209193,6,2,L|275:198,1,90.9500017347336,2|2,3:0|3:0,3:0:0:0:
161,184,209344,2,2,L|203:103,1,90.9500017347336,2|2,3:0|3:0,3:0:0:0:
317,117,209494,6,2,L|275:198,1,90.9500017347336,2|2,3:0|3:0,3:0:0:0:
161,184,209645,2,2,L|204:104,1,90.9500017347336,2|2,3:0|3:0,3:0:0:0:
336,176,209796,6,2,P|314:215|282:238,1,74.8999977142335
142,125,209946,2,2,P|163:85|195:62,1,74.8999977142335
358,229,210097,6,2,P|319:252|280:256,1,74.8999977142335,2|2,3:0|3:0,3:0:0:0:
120,72,210247,2,2,P|159:49|198:45,1,74.8999977142335,2|2,3:0|3:0,3:0:0:0:
314,67,210399,5,8,0:0:0:0:
388,174,210549,1,8,3:0:0:0:
364,301,210700,6,2,L|319:285,1,48.1499985305787,2|2,3:0|3:0,3:0:0:0:
324,313,210776,2,10,L|303:270,1,45.4750008673668,10|10,3:0|3:0,3:0:0:0:
285,292,210851,2,10,L|300:247,1,48.1499985305787,10|10,3:0|3:0,3:0:0:0:
223,84,211002,5,8,3:0:0:0:
269,91,211077,1,8,3:0:0:0:
305,115,211153,2,8,P|332:150|342:196,1,90.9500017347336,8|8,3:0|3:0,3:0:0:0:
191,354,211303,6,8,P|174:266|227:194,1,181.900003469467,8|8,3:0|3:0,3:0:0:0:
442,244,211605,2,8,P|373:301|285:291,1,181.900003469467,8|8,3:0|3:0,3:0:0:0:
223,84,211906,2,8,P|306:114|342:195,1,181.900003469467,8|8,3:0|3:0,3:0:0:0:
191,354,212208,2,8,P|174:266|227:194,1,181.900003469467
441,243,212509,5,0,0:0:0:0:
410,282,212585,1,0,0:0:0:0:
365,299,212660,1,0,0:0:0:0:
317,291,212735,1,0,0:0:0:0:
280,259,212811,6,8,L|262:208,1,40.1250015306473
203,148,212962,5,0,3:0:0:0:
197,134,213037,2,0,L|232:151,1,40.1250015306473,0|0,3:0|3:0,3:0:0:0:
331,187,213188,5,0,3:0:0:0:
344,192,213263,2,0,L|330:153,1,40.1250015306473,0|0,3:0|3:0,3:0:0:0:
272,84,213414,5,0,3:0:0:0:
231,54,213489,1,0,0:0:0:0:
184,49,213564,1,0,0:0:0:0:
139,69,213639,1,0,0:0:0:0:
108,109,213715,6,8,L|121:146,1,40.1250015306473,8|8,3:0|3:0,3:0:0:0:
215,202,213866,2,8,L|201:239,1,40.1250015306473,8|8,3:0|3:0,3:0:0:0:
80,342,214017,6,0,B|112:326|125:296|125:296|144:323|169:330,1,120.375004591942,0|0,3:0|3:0,3:0:0:0:
224,248,214318,6,0,P|151:260|82:232,1,149.799995428467
64,224,214544,1,0,0:0:0:0:
96,208,214619,1,0,0:0:0:0:
117,191,214694,1,0,0:0:0:0:
114,236,214770,1,0,0:0:0:0:
116,281,214845,1,0,0:0:0:0:
129,324,214921,2,0,P|163:337|200:340,1,74.8999977142335
117,191,215072,2,0,P|79:194|45:207,1,74.8999977142335
40,296,215223,5,0,0:0:0:0:
200,340,215374,1,0,0:0:0:0:
222,290,215449,1,0,0:0:0:0:
237,238,215524,1,0,0:0:0:0:
243,184,215600,1,0,0:0:0:0:
241,130,215675,1,0,0:0:0:0:
230,77,215750,1,0,0:0:0:0:
168,24,215826,5,0,0:0:0:0:
319,79,215901,2,0,P|394:79|461:48,1,149.799995428467
480,40,216127,1,0,0:0:0:0:
323,225,216278,1,0,0:0:0:0:
331,188,216353,1,0,0:0:0:0:
338,151,216428,1,0,0:0:0:0:
329,115,216504,1,0,0:0:0:0:
319,79,216579,1,0,0:0:0:0:
208,152,216730,5,0,0:0:0:0:
252,156,216805,1,0,0:0:0:0:
448,272,216881,1,0,0:0:0:0:
404,276,216956,1,0,0:0:0:0:
323,225,217032,1,0,0:0:0:0:
331,188,217107,1,0,0:0:0:0:
338,151,217182,1,0,0:0:0:0:
329,115,217258,1,0,0:0:0:0:
319,79,217333,2,0,P|264:39|223:93,1,149.799995428467
232,112,217560,5,0,0:0:0:0:
416,176,217635,2,0,L|489:161,1,74.8999977142335
296,272,217786,2,0,L|370:276,1,74.8999977142335
240,216,217936,2,0,P|216:283|261:340,1,149.799995428467
279,352,218163,1,0,0:0:0:0:
235,354,218238,1,0,0:0:0:0:
190,357,218313,1,0,0:0:0:0:
147,352,218389,1,0,0:0:0:0:
108,330,218464,1,0,0:0:0:0:
69,308,218539,5,0,0:0:0:0:
142,310,218614,1,0,0:0:0:0:
195,261,218689,1,0,0:0:0:0:
200,188,218765,1,0,0:0:0:0:
153,132,218840,5,0,0:0:0:0:
176,152,218916,1,0,0:0:0:0:
216,171,218991,1,0,0:0:0:0:
259,182,219066,1,0,0:0:0:0:
304,183,219142,2,0,P|339:170|366:145,1,74.8999977142335
440,216,219293,1,0,0:0:0:0:
288,32,219444,5,0,0:0:0:0:
286,50,219519,1,0,0:0:0:0:
285,69,219594,1,0,0:0:0:0:
283,88,219670,1,0,0:0:0:0:
360,248,219745,1,0,0:0:0:0:
361,262,219820,1,0,0:0:0:0:
362,277,219895,1,0,0:0:0:0:
363,292,219971,1,0,0:0:0:0:
279,352,220047,1,0,0:0:0:0:
80,224,220198,5,0,0:0:0:0:
124,228,220273,1,0,0:0:0:0:
208,176,220348,5,0,0:0:0:0:
252,171,220423,1,0,0:0:0:0:
328,224,220499,5,0,0:0:0:0:
372,229,220574,1,0,0:0:0:0:
416,216,220650,1,0,0:0:0:0:
336,144,220725,2,0,P|267:163|251:232,1,149.799995428467
330,296,220952,2,0,P|337:259|327:223,1,74.8999977142335
205,103,221102,2,0,P|197:139|207:175,1,74.8999977142335
280,56,221253,2,0,L|130:63,1,149.799995428467
56,40,221479,1,0,0:0:0:0:
144,248,221705,5,0,0:0:0:0:
156,212,221780,1,0,0:0:0:0:
153,175,221856,2,0,L|78:181,1,74.8999977142335
205,49,222007,2,0,L|279:55,1,74.8999977142335
280,280,222158,2,0,P|237:219|236:146,1,149.799995428467
248,128,222384,1,0,0:0:0:0:
272,112,222459,1,0,0:0:0:0:
318,275,222610,5,0,0:0:0:0:
280,280,222685,1,0,0:0:0:0:
200,248,222761,2,0,P|127:260|75:312,1,149.799995428467
72,344,222987,1,0,0:0:0:0:
80,368,223062,1,0,0:0:0:0:
208,344,223213,5,0,0:0:0:0:
248,352,223288,1,0,0:0:0:0:
280,280,223364,1,0,0:0:0:0:
318,275,223439,1,0,0:0:0:0:
336,200,223514,1,0,0:0:0:0:
371,185,223589,1,0,0:0:0:0:
416,192,223665,2,0,B|432:272|432:272|417:338,1,149.799995428467
192,264,223967,2,0,B|176:184|176:184|190:117,1,149.799995428467
400,312,224268,2,0,P|329:334|254:333,1,149.799995428467
96,128,224570,5,0,0:0:0:0:
168,360,224720,1,0,0:0:0:0:
344,232,224871,2,0,L|336:82,1,149.799995428467
80,216,225173,2,0,L|87:365,1,149.799995428467
408,184,225474,2,0,B|368:152|368:152|270:166,1,149.799995428467
328,319,225776,5,0,0:0:0:0:
356,251,225851,1,0,0:0:0:0:
356,176,225926,1,0,0:0:0:0:
328,107,226002,1,0,0:0:0:0:
264,64,226077,2,0,P|190:56|126:93,1,149.799995428467
320,280,226379,2,0,P|393:287|457:250,1,149.799995428467
168,176,226680,2,0,B|176:288|176:288|206:265,1,149.799995428467
384,232,226982,5,0,0:0:0:0:
96,272,227132,1,0,0:0:0:0:
264,64,227283,2,0,B|344:48|344:48|410:63,1,149.799995428467
242,269,227585,2,0,B|162:285|162:285|95:271,1,149.799995428467
162,65,227886,1,0,0:0:0:0:
177,113,227961,1,0,0:0:0:0:
179,163,228036,1,0,0:0:0:0:
168,211,228112,1,0,0:0:0:0:
136,184,228188,5,0,0:0:0:0:
209,199,228263,1,0,0:0:0:0:
282,203,228338,1,0,0:0:0:0:
357,192,228414,1,0,0:0:0:0:
424,152,228489,6,0,L|431:77,1,74.8999977142335
282,203,228640,2,0,L|289:277,1,74.8999977142335
440,320,228791,1,0,0:0:0:0:
232,352,228941,2,0,P|195:342|165:320,1,74.8999977142335
291,161,229092,2,0,P|327:170|357:192,1,74.8999977142335
328,360,229243,1,0,0:0:0:0:
176,192,229394,6,0,L|183:117,1,74.8999977142335
384,64,229544,1,0,0:0:0:0:
168,40,229695,2,0,L|95:58,1,74.8999977142335
128,256,229846,1,0,0:0:0:0:
344,240,229997,1,0,0:0:0:0:
152,344,230147,6,0,L|77:336,1,74.8999977142335
244,92,230298,2,0,L|318:99,1,74.8999977142335
384,312,230449,1,0,0:0:0:0:
192,248,230600,2,0,P|183:211|190:175,1,74.8999977142335
384,64,230751,2,0,P|392:100|385:136,1,74.8999977142335
144,104,230901,5,0,0:0:0:0:
214,83,230976,1,0,0:0:0:0:
283,110,231051,1,0,0:0:0:0:
321,173,231127,1,0,0:0:0:0:
313,246,231202,1,0,0:0:0:0:
262,299,231277,1,0,0:0:0:0:
189,310,231353,1,0,0:0:0:0:
125,274,231428,1,0,0:0:0:0:
214,83,231504,5,0,0:0:0:0:
283,110,231579,1,0,0:0:0:0:
321,173,231654,1,0,0:0:0:0:
313,246,231730,1,0,0:0:0:0:
262,299,231805,1,0,0:0:0:0:
189,310,231880,1,0,0:0:0:0:
125,274,231956,1,0,0:0:0:0:
106,197,232031,1,0,0:0:0:0:
184,216,232107,2,0,B|288:224|384:160|384:160|416:104|368:72|336:96|344:144|344:144|384:184|400:256|349:312,1,535
232,352,233012,5,0,0:0:0:0:
408,368,233163,1,0,0:0:0:0:
272,264,233313,2,0,L|144:279,1,128.399996081543
64,112,233615,1,0,0:0:0:0:
48,240,233766,1,0,0:0:0:0:
168,248,233916,1,0,0:0:0:0:
184,120,234067,5,0,0:0:0:0:
184,264,234218,1,0,0:0:0:0:
32,256,234368,1,0,0:0:0:0:
104,80,234519,2,0,B|112:152|112:152|92:204,1,128.399996081543
32,144,234821,5,0,0:0:0:0:
240,176,234972,1,0,0:0:0:0:
92,204,235122,1,0,0:0:0:0:
112,56,235273,1,0,0:0:0:0:
240,160,235424,2,0,P|249:222|223:280,1,128.399996081543
200,296,235650,1,0,0:0:0:0:
176,300,235725,2,0,L|48:315,1,128.399996081543
92,204,236027,5,0,0:0:0:0:
272,256,236178,1,0,0:0:0:0:
208,104,236328,1,0,0:0:0:0:
176,300,236479,1,0,0:0:0:0:
272,167,236630,2,0,P|334:159|392:185,1,128.399996081543
408,208,236856,1,0,0:0:0:0:
424,239,236931,6,0,P|457:185|465:122,1,128.399996081543
384,0,237233,1,0,0:0:0:0:
200,72,237384,2,0,L|328:64,1,128.399996081543
465,122,237685,1,0,0:0:0:0:
288,240,237836,2,0,B|256:168|280:96|280:96|304:112|300:133,1,192.599994122315
280,144,238137,2,0,P|217:159|154:154,1,128.399996081543
128,80,238439,5,0,0:0:0:0:
152,256,238590,1,0,0:0:0:0:
192,136,238740,1,0,0:0:0:0:
64,240,238891,1,0,0:0:0:0:
69,284,238966,1,0,0:0:0:0:
86,326,239042,2,0,B|197:312|197:312|268:350,1,192.599994122315
287,367,239343,2,0,P|271:307|299:251,1,128.399996081543
504,288,239645,5,0,0:0:0:0:
349,315,239796,1,0,0:0:0:0:
240,208,239946,1,0,0:0:0:0:
288,368,240097,1,0,0:0:0:0:
416,255,240248,2,0,P|434:194|423:132,1,128.399996081543
408,112,240474,1,0,0:0:0:0:
384,96,240549,2,0,L|255:103,1,128.399996081543
144,40,240851,6,0,L|207:46,1,64.1999980407715
120,136,241002,2,0,L|56:142,1,64.1999980407715
56,0,241153,2,0,L|62:63,1,64.1999980407715
192,192,241304,2,0,L|198:128,1,64.1999980407715
179,64,241454,2,0,L|191:191,1,128.399996081543
384,304,241756,2,0,L|396:176,1,128.399996081543
448,48,242057,2,0,L|441:111,1,64.1999980407715
312,240,242208,2,0,L|305:176,1,64.1999980407715
394,282,242359,6,0,P|301:155|248:304,1,385.199988244629
264,320,242886,1,0,0:0:0:0:
295,328,242962,2,0,P|358:315|419:334,1,128.399996081543
480,288,243263,1,0,0:0:0:0:
312,240,243414,1,0,0:0:0:0:
176,336,243565,2,0,L|48:320,1,128.399996081543
0,184,243866,1,0,0:0:0:0:
32,312,244017,1,0,0:0:0:0:
152,255,244168,2,0,P|167:194|157:131,1,128.399996081543
96,56,244469,5,0,0:0:0:0:
312,80,244620,1,0,0:0:0:0:
150,195,244771,2,0,L|157:131,1,64.1999980407715
230,297,244921,2,0,L|222:233,1,64.1999980407715
244,169,245072,2,0,L|229:297,1,128.399996081543
216,328,245298,1,0,0:0:0:0:
192,344,245374,2,0,P|128:352|67:335,1,128.399996081543
96,176,245675,5,0,0:0:0:0:
264,240,245826,2,0,L|391:224,1,128.399996081543
456,160,246127,1,0,0:0:0:0:
480,328,246278,1,0,0:0:0:0:
265,297,246429,1,0,0:0:0:0:
265,265,246504,1,0,0:0:0:0:
264,240,246580,2,0,L|248:112,1,128.399996081543
176,64,246881,5,0,0:0:0:0:
375,98,247032,2,0,L|247:112,1,128.399996081543
120,200,247333,1,0,0:0:0:0:
88,64,247484,1,0,0:0:0:0:
56,264,247635,1,0,0:0:0:0:
336,16,247786,5,0,0:0:0:0:
351,15,247861,1,0,0:0:0:0:
367,18,247936,1,0,0:0:0:0:
381,26,248012,1,0,0:0:0:0:
393,36,248087,1,0,0:0:0:0:
402,50,248162,1,0,0:0:0:0:
407,65,248238,1,0,0:0:0:0:
407,81,248313,1,0,0:0:0:0:
403,97,248389,5,0,0:0:0:0:
379,110,248464,1,0,0:0:0:0:
354,119,248539,1,0,0:0:0:0:
327,123,248615,1,0,0:0:0:0:
301,122,248690,1,0,0:0:0:0:
274,116,248765,1,0,0:0:0:0:
250,106,248841,1,0,0:0:0:0:
227,92,248916,1,0,0:0:0:0:
207,74,248992,5,0,0:0:0:0:
177,52,249067,1,0,0:0:0:0:
141,44,249142,1,0,0:0:0:0:
104,50,249218,1,0,0:0:0:0:
73,70,249293,1,0,0:0:0:0:
51,100,249368,1,0,0:0:0:0:
43,136,249444,1,0,0:0:0:0:
49,173,249519,1,0,0:0:0:0:
68,204,249595,5,0,0:0:0:0:
76,190,249670,5,0,0:0:0:0:
82,176,249745,1,0,0:0:0:0:
88,161,249821,1,0,0:0:0:0:
93,145,249896,1,0,0:0:0:0:
97,130,249971,1,0,0:0:0:0:
100,114,250047,1,0,0:0:0:0:
103,98,250122,1,0,0:0:0:0:
104,88,250198,6,0,L|96:56,1,32.0999990203858
128,80,250273,2,0,L|128:47,1,32.0999990203858
160,72,250348,2,0,L|160:39,1,32.0999990203858,0|0,0:0|0:0,0:0:0:0:
185,71,250423,2,0,L|194:39,1,32.0999990203858,0|0,0:0|0:0,0:0:0:0:
208,80,250499,6,0,L|208:112,1,32.0999990203858
233,81,250574,2,0,L|242:112,1,32.0999990203858
266,80,250649,2,0,L|275:111,1,32.0999990203858,0|0,0:0|0:0,0:0:0:0:
290,75,250724,2,0,L|306:103,1,32.0999990203858,0|0,0:0|0:0,0:0:0:0:
312,112,250801,6,0,L|344:104,1,32.0999990203858
320,136,250876,2,0,L|352:136,1,32.0999990203858
328,168,250951,2,0,L|360:168,1,32.0999990203858,0|0,0:0|0:0,0:0:0:0:
329,193,251026,2,0,L|360:202,1,32.0999990203858,0|0,0:0|0:0,0:0:0:0:
320,272,251102,1,0,0:0:0:0:
250,294,251177,1,0,0:0:0:0:
178,277,251252,1,0,0:0:0:0:
125,228,251328,1,0,0:0:0:0:
104,158,251404,2,0,P|109:121|129:90,1,74.9
160,80,252610,5,0,0:0:0:0:
