osu file format v14

[General]
AudioFilename: audio.mp3
AudioLeadIn: 0
PreviewTime: 192358
Countdown: 0
SampleSet: Normal
StackLeniency: 0.2
Mode: 0
LetterboxInBreaks: 0
WidescreenStoryboard: 1

[Editor]
Bookmarks: 21102,40398,50046,57283,59695,74167,78991,88639,98288,107936,116378,117584,132056,135675,136881,146529,151353,154971,156177,175474,185122,192358,194770,204418,209242,214067,223715,233363,243011,251453,252659,271956,279192,285222,291252
DistanceSpacing: 1
BeatDivisor: 4
GridSize: 16
TimelineZoom: 4.639998

[Metadata]
Title:NUCLEAR STAR
TitleUnicode:NUCLEAR STAR
Artist:Camellia
ArtistUnicode:かめりあ
Creator:NACO969
Version:Crystal Lattice
Source:
Tags:Electronic かめるかめりあ Crystallized Crystal Star Nuclear
BeatmapID:1265040
BeatmapSetID:598438

[Difficulty]
HPDrainRate:5.5
CircleSize:4
OverallDifficulty:9
ApproachRate:9.5
SliderMultiplier:1.8
SliderTickRate:1

[Events]
//Background and Video events
0,0,"CNS.PNG",0,0
//Break Periods
2,57407,59141
2,156377,162873
2,192482,194230
2,252859,261768
//Storyboard Layer 0 (Background)
//Storyboard Layer 1 (Fail)
//Storyboard Layer 2 (Pass)
//Storyboard Layer 3 (Foreground)
//Storyboard Sound Samples

[TimingPoints]
13866,301.507537688442,4,1,0,70,1,0
21102,-142.857142857143,4,1,0,70,0,0
37986,-166.666666666667,4,1,0,70,0,0
38438,-200,4,1,0,70,0,0
38891,-250,4,1,0,70,0,0
39343,-333,4,1,0,70,0,0
39795,-500,4,1,0,70,0,0
40097,-142.857142857143,4,1,0,70,0,0
40398,-111.111111111111,4,1,0,70,0,0
41453,-142.857142857143,4,1,0,70,0,0
41604,-111.111111111111,4,1,0,70,0,0
42659,-142.857142857143,4,1,0,70,0,0
42810,-111.111111111111,4,1,0,70,0,0
43865,-142.857142857143,4,1,0,70,0,0
44016,-111.111111111111,4,1,0,70,0,0
50046,-83.3333333333333,4,1,0,70,0,0
50348,-166.666666666667,4,1,0,70,0,0
51252,-76.9230769230769,4,1,0,70,0,0
51554,-166.666666666667,4,1,0,70,0,0
52458,-71.4285714285714,4,1,0,70,0,0
52760,-166.666666666667,4,1,0,70,0,0
53966,-71.4285714285714,4,1,0,70,0,0
56077,-142.857142857143,4,1,0,70,0,0
59695,-100,4,1,0,70,0,0
60147,-166.583291645823,4,1,0,70,0,0
60901,-100,4,1,0,70,0,0
61353,-166.583291645823,4,1,0,70,0,0
63313,-100,4,1,0,70,0,0
64217,-333.333333333333,4,1,0,70,0,0
64519,-90.9090909090909,4,1,0,70,0,0
64971,-200,4,1,0,70,0,0
65725,-90.9090909090909,4,1,0,70,0,0
66177,-200,4,1,0,70,0,0
67835,-62.5,4,1,0,70,0,0
68288,-166.666666666667,4,1,0,70,0,0
69343,-83.3333333333333,4,1,0,70,0,0
70549,-142.857142857143,4,1,0,70,0,0
71152,-83.3333333333333,4,1,0,70,0,0
72056,-142.857142857143,4,1,0,70,0,0
74167,-125,4,1,0,70,0,0
74469,-111.111111111111,4,1,0,70,0,0
74770,-90.9090909090909,4,1,0,70,0,0
75072,-76.9230769230769,4,1,0,70,0,0
75373,-66.6666666666667,4,1,0,70,0,0
75675,-58.8235294117647,4,1,0,70,0,0
77785,-83.3333333333333,4,1,0,70,0,0
78011,-83.3333333333333,4,1,0,0,0,0
78162,-125,4,1,0,70,0,0
78237,-125,4,1,0,0,0,0
78388,-250,4,1,0,70,0,0
78463,-250,4,1,0,0,0,0
78614,-83.3333333333333,4,1,0,70,0,0
78991,-76.9230769230769,4,1,0,70,0,0
79293,-100,4,1,0,70,0,0
79594,-142.857142857143,4,1,0,70,0,0
80499,-100,4,1,0,70,0,0
80800,-76.9230769230769,4,1,0,70,0,0
81252,-142.857142857143,4,1,0,70,0,0
82006,-76.9230769230769,4,1,0,70,0,0
82458,-142.857142857143,4,1,0,70,0,0
82911,-76.9230769230769,4,1,0,70,0,0
83212,-100,4,1,0,70,0,0
83514,-76.9230769230769,4,1,0,70,0,0
84569,-100,4,1,0,70,0,0
86529,-125,4,1,0,70,0,0
86830,-166.666666666667,4,1,0,70,0,0
87132,-249.812453113278,4,1,0,70,0,0
88639,-500,4,1,0,70,0,0
89242,-200,4,1,0,70,0,0
89318,-200,4,1,0,0,0,0
89393,-142.857142857143,4,1,0,70,0,0
89469,-142.857142857143,4,1,0,0,0,0
89544,-111.111111111111,4,1,0,70,0,0
89619,-111.111111111111,4,1,0,0,0,0
89695,-90.909090909091,4,1,0,70,0,0
89770,-90.909090909091,4,1,0,0,0,0
89845,-90.909090909091,4,1,0,70,0,0
91051,-125,4,1,0,70,0,0
91654,-142.857142857143,4,1,0,70,0,0
91730,-142.857142857143,4,1,0,0,0,0
91805,-111.111111111111,4,1,0,70,0,0
91881,-111.111111111111,4,1,0,0,0,0
91956,-90.909090909091,4,1,0,70,0,0
92031,-90.909090909091,4,1,0,0,0,0
92107,-76.9230769230769,4,1,0,70,0,0
92182,-76.9230769230769,4,1,0,0,0,0
92257,-100,4,1,0,70,0,0
93162,-166.666666666667,4,1,0,70,0,0
93463,-133.333333333333,4,1,0,70,0,0
93765,-100,4,1,0,70,0,0
94142,-100,4,1,0,0,0,0
94217,-80,4,1,0,70,0,0
94293,-80,4,1,0,0,0,0
94368,-66.6666666666667,4,1,0,70,0,0
94443,-66.6666666666667,4,1,0,0,0,0
94519,-57.1428571428571,4,1,0,70,0,0
94594,-57.1428571428571,4,1,0,0,0,0
94670,-66.6666666666667,4,1,0,70,0,0
97685,-249.812453113278,4,1,0,70,0,0
98288,-83.3333333333333,4,1,0,70,0,0
99343,-142.857142857143,4,1,0,70,0,0
99494,-83.3333333333333,4,1,0,70,0,0
100549,-142.857142857143,4,1,0,70,0,0
100700,-83.3333333333333,4,1,0,70,0,0
101755,-142.857142857143,4,1,0,70,0,0
101906,-83.3333333333333,4,1,0,70,0,0
103112,-100,4,1,0,70,0,0
103715,-125,4,1,0,70,0,0
104318,-166.666666666667,4,1,0,70,0,0
105524,-249.812453113278,4,1,0,70,0,0
106730,-500,4,1,0,70,0,0
107936,-66.6666666666667,4,1,0,70,0,0
115172,-142.857142857143,4,1,0,70,0,0
117584,-57.1428571428571,4,1,0,70,0,1
118262,-33.3333333333333,4,1,0,70,0,1
118338,-100,4,1,0,0,0,1
118639,-100,4,1,0,70,0,1
118790,-33.3333333333333,4,1,0,70,0,1
118865,-100,4,1,0,0,0,1
119167,-33.3333333333333,4,1,0,70,0,1
119242,-100,4,1,0,0,0,1
119695,-33.3333333333333,4,1,0,70,0,1
119795,-100,4,1,0,0,0,1
119996,-57.1428571428571,4,1,0,70,0,1
122107,-100,4,1,0,70,0,1
122408,-57.1428571428571,4,1,0,70,0,1
123087,-33.3333333333333,4,1,0,70,0,1
123162,-100,4,1,0,0,0,1
123463,-33.3333333333333,4,1,0,70,0,1
123690,-100,4,1,0,0,0,1
123991,-33.3333333333333,4,1,0,70,0,1
124067,-100,4,1,0,0,0,1
124519,-33.3333333333333,4,1,0,70,0,1
124619,-100,4,1,0,0,0,1
124820,-66.6666666666667,4,1,0,70,0,1
125122,-58.8235294117647,4,1,0,70,0,1
125574,-76.9230769230769,4,1,0,70,0,1
125649,-76.9230769230769,4,1,0,0,0,1
125725,-111.111111111111,4,1,0,70,0,1
125800,-111.111111111111,4,1,0,0,0,1
125876,-200,4,1,0,70,0,1
125951,-200,4,1,0,0,0,1
126026,-66.6666666666667,4,1,0,70,0,1
126629,-142.857142857143,4,1,0,70,0,1
127232,-57.1428571428571,4,1,0,70,0,1
127911,-40,4,1,0,70,0,1
127986,-100,4,1,0,0,0,1
128288,-40,4,1,0,70,0,1
128514,-100,4,1,0,0,0,1
128815,-40,4,1,0,70,0,1
128891,-100,4,1,0,0,0,1
129343,-40,4,1,0,70,0,1
129443,-100,4,1,0,0,0,1
129644,-57.1428571428571,4,1,0,70,0,1
131755,-100,4,1,0,70,0,1
132056,-57.1428571428571,4,1,0,70,0,1
132735,-25,4,1,0,70,0,1
132810,-100,4,1,0,0,0,1
133112,-25,4,1,0,70,0,1
133338,-100,4,1,0,0,0,1
133639,-25,4,1,0,70,0,1
133715,-100,4,1,0,0,0,1
134092,-25,4,1,0,70,0,1
134167,-100,4,1,0,0,0,1
134469,-66.6666666666667,4,1,0,70,0,1
136881,-62.5,4,1,0,70,0,1
137408,-100,4,1,0,70,0,1
137936,-64.5161290322581,4,1,0,70,0,1
138690,-66.6666666666667,4,1,0,70,0,1
138765,-66.6666666666667,4,1,0,0,0,1
138840,-83.3333333333333,4,1,0,70,0,1
138916,-83.3333333333333,4,1,0,0,0,1
138991,-111.111111111111,4,1,0,70,0,1
139067,-111.111111111111,4,1,0,0,0,1
139142,-166.666666666667,4,1,0,70,0,1
139217,-166.666666666667,4,1,0,0,0,1
139293,-58.8235294117647,4,1,0,70,0,1
140197,-142.857142857143,4,1,0,70,0,1
140348,-76.9230769230769,4,1,0,70,0,1
140499,-142.857142857143,4,1,0,70,0,1
140649,-71.4285714285714,4,1,0,70,0,1
140800,-142.857142857143,4,1,0,70,0,1
140951,-66.6666666666667,4,1,0,70,0,1
141102,-58.8235294117647,4,1,0,70,0,1
141705,-142.857142857143,4,1,0,70,0,1
142609,-58.8235294117647,4,1,0,70,0,1
143514,-200,4,1,0,70,0,1
143589,-100,4,1,0,0,0,1
143664,-125,4,1,0,70,0,1
143740,-100,4,1,0,0,0,1
143815,-90.9090909090909,4,1,0,70,0,1
143891,-100,4,1,0,0,0,1
143966,-71.4285714285714,4,1,0,70,0,1
144041,-100,4,1,0,0,0,1
144117,-142.857142857143,4,1,0,70,0,1
144720,-25,4,1,0,70,0,1
144795,-100,4,1,0,0,0,1
144946,-31.25,4,1,0,70,0,1
145021,-100,4,1,0,0,0,1
145172,-22.5,4,1,0,70,0,1
145247,-100,4,1,0,0,0,1
145323,-50,4,1,0,70,0,1
145474,-100,4,1,0,0,0,1
145549,-62.5,4,1,0,70,0,1
145700,-100,4,1,0,0,0,1
145775,-83.3333333333333,4,1,0,70,0,1
145926,-142.857142857143,4,1,0,70,0,1
146529,-55.5555555555556,4,1,0,70,0,1
147283,-66.6666666666667,4,1,0,70,0,1
148564,-100,4,1,0,0,0,1
148639,-100,4,1,0,70,0,1
148715,-100,4,1,0,0,0,1
148790,-200,4,1,0,70,0,1
148941,-58.8235294117647,4,1,0,70,0,1
149845,-66.6666666666667,4,1,0,70,0,1
149996,-133.333333333333,4,1,0,70,0,1
150147,-66.6666666666667,4,1,0,70,0,1
150298,-133.333333333333,4,1,0,70,0,1
150448,-66.6666666666667,4,1,0,70,0,1
150599,-133.333333333333,4,1,0,70,0,1
150750,-62.5,4,1,0,70,0,1
152710,-100,4,1,0,70,0,1
152785,-100,4,1,0,0,0,1
152860,-62.5,4,1,0,70,0,1
152936,-100,4,1,0,0,0,1
153011,-100,4,1,0,70,0,1
153087,-100,4,1,0,0,0,1
153162,-62.5,4,1,0,70,0,1
153237,-100,4,1,0,0,0,1
153313,-100,4,1,0,70,0,1
153388,-100,4,1,0,0,0,1
153463,-62.5,4,1,0,70,0,1
153539,-100,4,1,0,0,0,1
153614,-100,4,1,0,70,0,1
156177,-500,4,1,0,70,0,0
175474,-100,4,1,0,70,0,0
176529,-142.857142857143,4,1,0,70,0,0
176680,-100,4,1,0,70,0,0
177735,-142.857142857143,4,1,0,70,0,0
177886,-100,4,1,0,70,0,0
178941,-142.857142857143,4,1,0,70,0,0
179092,-100,4,1,0,70,0,0
180298,-125,4,1,0,70,0,0
180750,-166.666666666667,4,1,0,70,0,0
181504,-250,4,1,0,70,0,0
181956,-500,4,1,0,70,0,0
185122,-50,4,1,0,70,0,0
191152,-142.857142857143,4,1,0,70,0,0
194770,-57.1428571428571,4,1,0,70,0,1
195373,-66.6666666666667,4,1,0,70,0,1
195448,-100,4,1,0,0,0,1
195524,-76.9230769230769,4,1,0,70,0,1
195599,-100,4,1,0,0,0,1
195675,-90.9090909090909,4,1,0,70,0,1
195750,-100,4,1,0,0,0,1
195825,-111.111111111111,4,1,0,70,0,1
195901,-100,4,1,0,0,0,1
195976,-57.1428571428571,4,1,0,70,0,1
196579,-125,4,1,0,70,0,1
196730,-100,4,1,0,70,0,1
196881,-76.9230769230769,4,1,0,70,0,1
197031,-83.3333333333333,4,1,0,70,0,1
198388,-100,4,1,0,70,0,1
198539,-200,4,1,0,70,0,1
198690,-83.3333333333333,4,1,0,70,0,1
198840,-333,4,1,0,70,0,1
199594,-76.9230769230769,4,1,0,70,0,1
200197,-83.3333333333333,4,1,0,70,0,1
200273,-100,4,1,0,0,0,1
200348,-100,4,1,0,70,0,1
200423,-100,4,1,0,0,0,1
200499,-125,4,1,0,70,0,1
200574,-100,4,1,0,0,0,1
200649,-166.666666666667,4,1,0,70,0,1
200725,-100,4,1,0,0,0,1
200800,-62.5,4,1,0,70,0,1
201403,-71.4285714285714,4,1,0,70,0,1
201554,-90.9090909090909,4,1,0,70,0,1
201705,-125,4,1,0,70,0,1
203212,-55.5555555555556,4,1,0,70,0,1
203815,-76.9230769230769,4,1,0,70,0,1
203891,-100,4,1,0,0,0,1
203966,-76.9230769230769,4,1,0,70,0,1
204041,-100,4,1,0,0,0,1
204117,-76.9230769230769,4,1,0,70,0,1
204192,-100,4,1,0,0,0,1
204268,-76.9230769230769,4,1,0,70,0,1
204343,-100,4,1,0,0,0,1
204418,-76.9230769230769,4,1,0,70,0,1
205021,-100,4,1,0,70,0,1
205775,-76.9230769230769,4,1,0,70,0,1
206830,-90.9090909090909,4,1,0,70,0,1
207433,-76.9230769230769,4,1,0,70,0,1
208639,-62.5,4,1,0,70,0,1
212860,-62.5,4,1,0,70,0,0
213087,-76.9230769230769,4,1,0,70,0,0
213313,-100,4,1,0,70,0,0
213539,-142.857142857143,4,1,0,70,0,0
214067,-500,4,1,0,70,0,1
214670,-100,4,1,0,70,0,1
214745,-100,4,1,0,0,0,1
214820,-250,4,1,0,70,0,1
214896,-100,4,1,0,0,0,1
214971,-83.3333333333333,4,1,0,70,0,1
215046,-100,4,1,0,0,0,1
215122,-166.666666666667,4,1,0,70,0,1
215197,-100,4,1,0,0,0,1
215273,-62.5,4,1,0,70,0,1
215649,-100,4,1,0,70,0,1
215876,-83.3333333333333,4,1,0,70,0,1
216026,-71.4285714285714,4,1,0,70,0,1
216177,-62.5,4,1,0,70,0,1
217082,-66.6666666666667,4,1,0,70,0,1
217232,-80,4,1,0,70,0,1
217383,-100,4,1,0,70,0,1
217534,-133.333333333333,4,1,0,70,0,1
218288,-80,4,1,0,70,0,1
218325,-100,4,1,0,0,0,1
218363,-80,4,1,0,70,0,1
218401,-100,4,1,0,0,0,1
218438,-80,4,1,0,70,0,1
218476,-100,4,1,0,0,0,1
218514,-80,4,1,0,70,0,1
218551,-100,4,1,0,0,0,1
218589,-80,4,1,0,70,0,1
218627,-100,4,1,0,0,0,1
218664,-80,4,1,0,70,0,1
218702,-100,4,1,0,0,0,1
218740,-80,4,1,0,70,0,1
218778,-100,4,1,0,0,0,1
218815,-80,4,1,0,70,0,1
218853,-100,4,1,0,0,0,1
218891,-62.5,4,1,0,70,0,1
219494,-66.6666666666667,4,1,0,70,0,1
219569,-100,4,1,0,0,0,1
219644,-71.4285714285714,4,1,0,70,0,1
219720,-100,4,1,0,0,0,1
219795,-76.9230769230769,4,1,0,70,0,1
219871,-100,4,1,0,0,0,1
219946,-83.3333333333333,4,1,0,70,0,1
220021,-100,4,1,0,0,0,1
220097,-58.8235294117647,4,1,0,70,0,1
220700,-66.6666666666667,4,1,0,70,0,1
220850,-71.4285714285714,4,1,0,70,0,1
221001,-76.9230769230769,4,1,0,70,0,1
221604,-100,4,1,0,70,0,1
221906,-66.6666666666667,4,1,0,70,0,1
222810,-71.4285714285714,4,1,0,70,0,1
226127,-50,4,1,0,70,0,1
232157,-250,4,1,0,70,0,0
233363,-71.4285714285714,4,1,0,70,0,0
233740,-100,4,1,0,0,0,0
233815,-90.9090909090909,4,1,0,70,0,0
233891,-100,4,1,0,0,0,0
233966,-125,4,1,0,70,0,0
234041,-100,4,1,0,0,0,0
234117,-200,4,1,0,70,0,0
234192,-100,4,1,0,0,0,0
234268,-100,4,1,0,70,0,0
234569,-83.3333333333333,4,1,0,70,0,0
235172,-71.4285714285714,4,1,0,70,0,0
235323,-100,4,1,0,0,0,0
235398,-71.4285714285714,4,1,0,70,0,0
235474,-100,4,1,0,0,0,0
235549,-62.5,4,1,0,70,0,0
235624,-100,4,1,0,0,0,0
235775,-66.6666666666667,4,1,0,70,0,0
236077,-71.4285714285714,4,1,0,70,0,0
236152,-100,4,1,0,0,0,0
236227,-83.3333333333333,4,1,0,70,0,0
236303,-100,4,1,0,0,0,0
236378,-100,4,1,0,70,0,0
236453,-100,4,1,0,0,0,0
236529,-125,4,1,0,70,0,0
236604,-100,4,1,0,0,0,0
236680,-166.666666666667,4,1,0,70,0,0
236755,-100,4,1,0,0,0,0
236830,-83.3333333333333,4,1,0,70,0,0
237584,-71.4285714285714,4,1,0,70,0,0
237735,-100,4,1,0,0,0,0
237810,-66.6666666666667,4,1,0,70,0,0
237886,-100,4,1,0,0,0,0
237961,-58.8235294117647,4,1,0,70,0,0
238036,-100,4,1,0,0,0,0
238187,-55.5555555555556,4,1,0,70,0,0
238489,-166.666666666667,4,1,0,70,0,0
238564,-100,4,1,0,0,0,0
238639,-125,4,1,0,70,0,0
238715,-100,4,1,0,0,0,0
238790,-100,4,1,0,70,0,0
238865,-100,4,1,0,0,0,0
238941,-83.3333333333333,4,1,0,70,0,0
239016,-100,4,1,0,0,0,0
239092,-71.4285714285714,4,1,0,70,0,0
239167,-100,4,1,0,0,0,0
239242,-83.3333333333333,4,1,0,70,0,0
239996,-76.9230769230769,4,1,0,70,0,0
240147,-100,4,1,0,0,0,0
240222,-100,4,1,0,70,0,0
240298,-100,4,1,0,0,0,0
240373,-100,4,1,0,70,0,0
240448,-100,4,1,0,0,0,0
240599,-83.3333333333333,4,1,0,70,0,0
240901,-100,4,1,0,0,0,0
240976,-83.3333333333333,4,1,0,70,0,0
241127,-100,4,1,0,0,0,0
241202,-142.857142857143,4,1,0,70,0,0
241805,-71.4285714285714,4,1,0,70,0,0
243916,-100,4,1,0,70,0,0
244217,-83.3333333333333,4,1,0,70,0,0
245046,-125,4,1,0,70,0,0
245273,-83.3333333333333,4,1,0,70,0,0
246328,-100,4,1,0,70,0,0
246629,-83.3333333333333,4,1,0,70,0,0
247458,-100,4,1,0,70,0,0
250247,-142.857142857143,4,1,0,70,0,0
262308,-80,4,1,0,70,0,0
263363,-142.857142857143,4,1,0,70,0,0
263514,-95.2380952380952,4,1,0,70,0,0
264569,-142.857142857143,4,1,0,70,0,0
264720,-117.647058823529,4,1,0,70,0,0
265775,-142.857142857143,4,1,0,70,0,0
265926,-133.333333333333,4,1,0,70,0,0
267132,-100,4,1,0,70,0,0
269544,-125,4,1,0,70,0,0
269996,-166.666666666667,4,1,0,70,0,0
270448,-250,4,1,0,70,0,0
270901,-333,4,1,0,70,0,0
271353,-500,4,1,0,70,0,0
279644,-500,4,1,0,65,0,0
280097,-500,4,1,0,60,0,0
280549,-500,4,1,0,55,0,0
281001,-500,4,1,0,50,0,0
281453,-500,4,1,0,45,0,0
281906,-500,4,1,0,40,0,0
282358,-500,4,1,0,35,0,0
282810,-500,4,1,0,30,0,0
283262,-500,4,1,0,25,0,0
283715,-500,4,1,0,20,0,0
284167,-500,4,1,0,15,0,0
284619,-500,4,1,0,10,0,0
285072,-500,4,1,0,5,0,0
285222,-100,4,1,0,0,0,0

[HitObjects]
256,192,13866,12,0,20800,0:0:0:0:
480,64,21102,6,0,B|416:96|416:96|352:64|352:64|256:96|256:96|224:160|224:160|160:192,1,377.999988464356
80,336,22157,2,0,L|80:352,2,15.7499995193482
128,352,22308,2,0,B|189:334|189:334|229:356|229:356|290:338|290:338|312:299|312:299|343:290|343:290|365:250|365:250|426:233|426:233|448:256|448:256,1,377.999988464356
480,128,23363,6,0,L|480:112,2,15.7499995193482
448,128,23514,2,0,B|400:80|400:80|352:128|304:80|304:80|256:128|224:80|224:80|176:128|128:80|128:80,1,377.999988464356
48,208,24569,2,0,L|32:208,2,15.7499995193482
80,240,24720,2,0,B|112:240|160:192|160:192|208:240|208:240|208:288|288:336|288:336|336:256,1,377.999988464356
496,192,25775,1,0,0:0:0:0:
432,32,25926,2,0,P|384:48|368:64,1,62.9999980773926
192,64,26378,5,0,0:0:0:0:
64,192,26529,1,0,0:0:0:0:
128,320,26830,1,0,0:0:0:0:
320,128,26981,1,0,0:0:0:0:
320,320,27132,6,0,P|288:336|256:336,1,62.9999980773926
80,176,27584,2,0,P|96:144|128:128,1,62.9999980773926
480,208,28036,2,0,P|480:224|448:272,1,62.9999980773926
256,32,28338,2,0,P|240:32|192:48,1,62.9999980773926
160,288,28790,5,0,0:0:0:0:
400,288,28941,1,0,0:0:0:0:
80,288,29242,1,0,0:0:0:0:
336,288,29393,1,0,0:0:0:0:
400,176,29544,6,0,L|416:144,3,31.4999990386963
352,32,29845,2,0,L|336:64,3,31.4999990386963
224,128,30147,2,0,L|240:96,3,31.4999990386963
128,48,30448,2,0,L|112:80,3,31.4999990386963
80,112,30750,6,0,B|48:96|48:96|0:144|0:144|0:240|0:240|48:288|48:288|96:288|96:288|144:336|144:336,1,377.999988464356
224,224,31805,2,0,L|240:240,2,15.7499995193482
256,192,31956,2,0,B|368:176|400:48|256:-32|192:32|176:144|272:112,1,377.999988464356
416,48,33011,6,0,L|432:48,2,15.7499995193482
464,64,33162,2,0,B|512:112|512:112|464:165|512:165|512:213|512:213|464:261|416:261|416:213|416:213|384:224|384:224|384:288|384:288,1,393.749987983704
256,368,34217,2,0,L|240:368,2,15.7499995193482
208,352,34368,2,0,B|144:352|144:352|80:288|144:224|144:224|144:160|80:160|80:160|144:96|208:160|208:224,1,503.999984619141
320,304,35725,1,0,0:0:0:0:
480,128,36026,6,0,L|432:80,1,62.9999980773926
96,48,36479,2,0,L|144:96,1,62.9999980773926
128,304,36780,1,0,0:0:0:0:
288,160,36931,1,0,0:0:0:0:
80,352,37232,5,0,0:0:0:0:
240,208,37383,1,0,0:0:0:0:
448,32,37685,2,0,L|400:80,1,62.9999980773926
208,64,37986,6,0,L|160:96,1,53.9999983520508
400,288,38438,2,0,L|368:320,1,45
144,224,38891,2,0,L|112:240,1,36
384,336,39343,2,0,L|368:360,1,27.027027027027
96,320,39795,2,0,L|80:336,1,18
192,336,40097,6,0,L|208:352,6,15.7499995193482
240,336,40398,2,0,B|288:320|288:320|320:272|320:272|320:224|320:224|288:176|288:176|256:160|256:160|208:160|208:160|176:176|176:176|128:176|128:176|96:160|96:160|80:128|80:128|80:112|80:112|96:80|96:80,1,485.999985168458
256,32,41453,2,0,L|272:48,2,15.7499995193482
304,32,41604,2,0,B|336:32|432:112|400:144|368:112|400:80|432:48|464:80|464:80|480:144|432:192|384:192|384:192|336:192|272:144,1,485.999985168458
176,48,42659,6,0,L|160:48,2,15.7499995193482
128,32,42810,2,0,B|80:48|64:64|48:80|48:96|32:128|48:128|64:144|128:160|128:160|64:160|64:160|128:192|96:224|48:192|16:192|16:192|0:224|32:256,1,485.999985168458
160,352,43865,2,0,L|176:368,2,15.7499995193482
192,352,44016,2,0,B|240:304|240:304|240:256|240:256|288:192|288:192|320:192|320:192|352:160|352:160|352:96|352:96|288:32|288:32|224:64|224:64,1,485.999985168458
80,96,45072,1,0,0:0:0:0:
64,304,45222,6,0,P|112:336|144:336,1,80.9999975280763
427,147,45675,2,0,P|403:114|368:96,1,80.9999975280763
176,256,46127,1,0,0:0:0:0:
400,320,46278,1,0,0:0:0:0:
352,128,46428,6,0,L|368:48,1,80.9999975280763
112,112,46881,2,0,L|80:192,1,80.9999975280763
256,320,47333,1,0,0:0:0:0:
256,112,47484,1,0,0:0:0:0:
48,240,47634,6,0,L|128:240,1,80.9999975280763
448,144,48087,2,0,L|368:144,1,80.9999975280763
176,48,48539,1,0,0:0:0:0:
48,160,48690,1,0,0:0:0:0:
144,288,48840,6,0,L|128:336,3,40.4999987640381
272,240,49142,2,0,L|288:192,3,40.4999987640381
192,96,49443,2,0,L|208:48,3,40.4999987640381
384,64,49745,2,0,L|368:112,3,40.4999987640381
400,144,50046,6,0,P|416:176|416:272,1,107.999996704102
256,112,50348,2,0,P|272:128|304:144,1,53.9999983520508
352,304,50649,1,0,0:0:0:0:
128,336,50800,1,0,0:0:0:0:
288,240,50951,1,0,0:0:0:0:
48,288,51102,1,0,0:0:0:0:
32,144,51252,6,0,P|64:128|144:128,1,116.999994644165
304,16,51554,2,0,P|288:48|272:64,1,53.9999983520508
272,256,51855,1,0,0:0:0:0:
480,64,52006,1,0,0:0:0:0:
480,256,52157,1,0,0:0:0:0:
272,64,52308,1,0,0:0:0:0:
144,176,52458,6,0,P|112:160|80:80,1,125.999996154785
32,240,52760,2,0,P|48:272|64:288,1,53.9999983520508
224,320,53061,5,0,0:0:0:0:
224,96,53212,1,0,0:0:0:0:
336,352,53363,1,0,0:0:0:0:
336,128,53514,1,0,0:0:0:0:
112,192,53664,6,0,P|64:192|48:176,1,53.9999983520508
96,64,53966,2,0,P|149:32|209:44,1,125.999996154785
176,240,54268,5,0,0:0:0:0:
284,300,54418,1,0,0:0:0:0:
170,111,54569,1,0,0:0:0:0:
64,304,54720,1,0,0:0:0:0:
368,368,54871,5,0,0:0:0:0:
400,352,54946,1,0,0:0:0:0:
432,336,55021,1,0,0:0:0:0:
460,311,55097,1,0,0:0:0:0:
471,267,55172,5,0,0:0:0:0:
447,225,55247,1,0,0:0:0:0:
404,214,55323,1,0,0:0:0:0:
362,238,55398,1,0,0:0:0:0:
319,225,55474,5,0,0:0:0:0:
295,184,55549,1,0,0:0:0:0:
306,141,55624,1,0,0:0:0:0:
348,117,55700,1,0,0:0:0:0:
359,73,55775,5,0,0:0:0:0:
335,31,55850,1,0,0:0:0:0:
292,20,55926,1,0,0:0:0:0:
250,44,56001,1,0,0:0:0:0:
128,48,56077,6,0,L|112:64,6,15.7499995193482
80,144,56378,6,0,L|64:160,6,15.7499995193482
128,240,56680,6,0,L|112:256,6,15.7499995193482
80,336,56981,6,0,L|64:352,6,15.7499995193482
80,96,59695,6,0,B|176:48|176:48|224:48|224:48|224:80,1,180
384,160,60147,2,0,P|400:160|448:128,1,54.0270250539447
464,304,60448,2,0,P|480:320|480:352,1,54.0270250539447
256,192,60750,1,0,0:0:0:0:
96,336,60901,6,0,P|64:288|64:256,1,90
224,336,61202,1,0,0:0:0:0:
256,128,61353,2,0,P|288:96|288:96,2,27.0135125269723
448,320,61654,2,0,P|432:336|384:352,1,54.0270250539447
256,208,61956,5,0,0:0:0:0:
432,128,62107,1,0,0:0:0:0:
288,48,62257,1,0,0:0:0:0:
128,96,62408,1,0,0:0:0:0:
272,208,62559,5,0,0:0:0:0:
432,128,62710,1,0,0:0:0:0:
288,48,62860,1,0,0:0:0:0:
128,96,63011,2,0,L|96:32,1,54.0270250539447
64,272,63313,6,0,P|96:288|160:272,1,90
400,192,63614,2,0,P|352:192|304:208,1,90
448,320,63916,1,0,0:0:0:0:
448,320,63991,1,0,0:0:0:0:
448,320,64067,1,0,0:0:0:0:
240,352,64217,2,0,L|208:352,1,26.9999991760254
48,176,64519,6,0,B|80:128|128:128|128:128|128:80|176:80|176:80|192:64,1,198.000006042481
432,64,64971,2,0,P|448:64|480:80,1,45
272,48,65273,2,0,P|288:48|320:64,1,45
112,0,65574,1,0,0:0:0:0:
32,144,65725,6,0,P|80:144|128:176,1,99.0000030212403
112,320,66026,1,0,0:0:0:0:
240,160,66177,2,0,P|256:160|272:160,2,22.5
240,336,66479,1,0,0:0:0:0:
400,224,66629,2,0,P|416:208|432:192,1,45
368,32,66931,6,0,P|320:16|272:16,1,90
64,176,67383,2,0,L|80:160,5,22.5
112,160,67835,2,0,P|160:208|256:224,1,144
448,64,68137,1,0,0:0:0:0:
464,256,68288,5,0,0:0:0:0:
432,288,68363,1,0,0:0:0:0:
384,288,68438,1,0,0:0:0:0:
352,256,68514,1,0,0:0:0:0:
320,224,68589,5,0,0:0:0:0:
288,192,68664,1,0,0:0:0:0:
240,192,68740,1,0,0:0:0:0:
192,192,68815,1,0,0:0:0:0:
144,176,68891,5,0,0:0:0:0:
112,144,68966,1,0,0:0:0:0:
112,96,69041,1,0,0:0:0:0:
144,64,69117,1,0,0:0:0:0:
192,64,69192,1,0,0:0:0:0:
224,96,69268,1,0,0:0:0:0:
272,96,69343,6,0,P|320:80|384:96,1,107.999996704102
320,272,69644,2,0,P|288:288|208:272,1,107.999996704102
64,128,69946,1,0,0:0:0:0:
64,128,70021,1,0,0:0:0:0:
64,128,70097,1,0,0:0:0:0:
96,320,70247,1,0,0:0:0:0:
304,256,70398,1,0,0:0:0:0:
224,96,70549,6,0,L|256:64,2,31.4999990386963
464,192,70850,1,0,0:0:0:0:
352,32,71001,1,0,0:0:0:0:
144,64,71152,2,0,P|112:96|80:160,1,107.999996704102
256,288,71453,1,0,0:0:0:0:
256,96,71604,1,0,0:0:0:0:
464,96,71755,6,0,P|480:160|480:224,1,107.999996704102
256,96,72056,2,0,L|192:96,1,62.9999980773926
48,240,72358,1,0,0:0:0:0:
48,240,72433,1,0,0:0:0:0:
48,240,72509,1,0,0:0:0:0:
208,368,72659,1,0,0:0:0:0:
400,352,72810,1,0,0:0:0:0:
400,176,72961,5,0,0:0:0:0:
416,144,73036,1,0,0:0:0:0:
432,112,73112,1,0,0:0:0:0:
256,32,73262,2,0,L|208:80,1,62.9999980773926
48,192,73564,1,0,0:0:0:0:
80,240,73639,1,0,0:0:0:0:
112,288,73715,1,0,0:0:0:0:
336,288,73865,2,0,P|368:272|368:240,1,62.9999980773926
384,96,74167,6,0,B|400:80|400:80|352:64,1,72
208,336,74469,2,0,B|213:357|213:357|272:320,1,80.9999975280763
64,80,74770,2,0,B|42:74|42:74|64:160,1,99.0000030212403
384,96,75072,6,0,B|400:80|400:80|304:48,1,116.999994644165
275,350,75373,2,0,B|280:372|280:372|368:288,1,135.000005149842
108,129,75675,2,0,B|87:123|87:123|128:272,1,153.000002918243
448,272,75976,5,0,0:0:0:0:
368,96,76127,1,0,0:0:0:0:
320,320,76278,1,0,0:0:0:0:
176,128,76428,1,0,0:0:0:0:
192,336,76579,5,0,0:0:0:0:
144,336,76654,1,0,0:0:0:0:
112,304,76730,1,0,0:0:0:0:
112,256,76805,1,0,0:0:0:0:
144,224,76881,1,0,0:0:0:0:
192,224,76956,1,0,0:0:0:0:
224,256,77031,1,0,0:0:0:0:
224,304,77107,1,0,0:0:0:0:
256,336,77182,5,0,0:0:0:0:
304,336,77257,1,0,0:0:0:0:
336,304,77333,1,0,0:0:0:0:
336,256,77408,1,0,0:0:0:0:
304,224,77484,1,0,0:0:0:0:
304,176,77559,1,0,0:0:0:0:
336,144,77634,1,0,0:0:0:0:
384,144,77710,1,0,0:0:0:0:
416,176,77785,5,0,0:0:0:0:
224,16,77936,6,0,L|256:80,1,53.9999983520508
144,112,78162,2,0,L|176:128,1,36
96,224,78388,2,0,L|116:224,1,18
80,352,78614,2,0,B|256:352|256:352|256:352,1,161.999995056153
272,176,78991,6,0,P|320:144|368:176,1,116.999994644165
192,112,79293,2,0,P|192:64|240:48,1,90
128,176,79594,2,0,P|80:176|64:160,1,62.9999980773926
208,240,79896,1,0,0:0:0:0:
368,304,80046,6,0,L|384:320,2,15.7499995193482
400,272,80197,2,0,P|432:256|448:224,1,62.9999980773926
304,160,80499,2,0,P|320:128|304:64,1,90
144,160,80800,2,0,P|128:128|64:80,1,116.999994644165
32,272,81102,1,0,0:0:0:0:
176,352,81252,6,0,L|192:352,2,15.7499995193482
144,320,81403,1,0,0:0:0:0:
336,288,81554,1,0,0:0:0:0:
112,240,81705,1,0,0:0:0:0:
336,192,81855,1,0,0:0:0:0:
64,160,82006,6,0,P|64:128|128:80,1,116.999994644165
256,32,82308,1,0,0:0:0:0:
256,208,82458,2,0,L|256:224,2,15.7499995193482
256,272,82609,1,0,0:0:0:0:
448,144,82760,5,0,0:0:0:0:
192,64,82911,2,0,P|144:96|112:160,1,116.999994644165
288,176,83212,2,0,L|336:176,2,45
400,304,83514,2,0,P|448:288|480:224,1,116.999994644165
352,48,83815,5,0,0:0:0:0:
176,208,83966,1,0,0:0:0:0:
176,48,84117,1,0,0:0:0:0:
352,208,84268,1,0,0:0:0:0:
352,208,84343,1,0,0:0:0:0:
352,208,84418,1,0,0:0:0:0:
176,48,84569,6,0,P|128:64|96:96,2,90
400,112,85021,1,0,0:0:0:0:
320,304,85172,1,0,0:0:0:0:
192,144,85323,1,0,0:0:0:0:
192,144,85398,1,0,0:0:0:0:
192,144,85474,1,0,0:0:0:0:
128,320,85624,5,0,0:0:0:0:
320,176,85775,2,0,L|400:128,2,90
176,48,86227,6,0,P|96:64|80:80,1,90
160,176,86529,2,0,P|128:192|112:224,1,72
256,272,86830,2,0,P|256:304|272:320,1,53.9999983520508
384,224,87132,2,0,P|400:224|416:208,1,36.0270268668958
320,48,87433,5,0,0:0:0:0:
192,192,87584,1,0,0:0:0:0:
48,96,87735,5,0,0:0:0:0:
80,64,87810,1,0,0:0:0:0:
128,64,87886,1,0,0:0:0:0:
160,96,87961,1,0,0:0:0:0:
160,144,88036,5,0,0:0:0:0:
128,176,88112,1,0,0:0:0:0:
112,224,88187,1,0,0:0:0:0:
128,272,88262,1,0,0:0:0:0:
176,288,88338,5,0,0:0:0:0:
224,272,88413,1,0,0:0:0:0:
240,224,88489,1,0,0:0:0:0:
224,176,88564,1,0,0:0:0:0:
192,144,88639,6,0,L|176:128,1,18
288,32,88941,1,0,0:0:0:0:
464,208,89092,1,0,0:0:0:0:
304,320,89242,6,0,P|304:336|304:352,1,22.5
240,288,89393,2,0,L|256:320,1,33.75
176,272,89544,2,0,L|208:304,1,40.4999987640381
112,272,89695,2,0,L|176:304,1,49.5000015106202
48,288,89845,1,0,0:0:0:0:
32,144,89996,5,0,0:0:0:0:
32,112,90072,1,0,0:0:0:0:
32,80,90147,1,0,0:0:0:0:
208,64,90298,1,0,0:0:0:0:
416,176,90448,1,0,0:0:0:0:
208,64,90599,1,0,0:0:0:0:
416,176,90750,1,0,0:0:0:0:
208,64,90901,1,0,0:0:0:0:
320,352,91051,6,0,P|288:336|256:304,1,72
64,192,91353,1,0,0:0:0:0:
208,64,91504,1,0,0:0:0:0:
464,96,91654,2,0,L|432:96,1,31.4999990386963
464,160,91805,2,0,L|416:144,1,40.4999987640381
464,224,91956,2,0,L|400:192,1,49.5000015106202
464,288,92107,2,0,L|400:224,1,58.4999973220826
464,352,92257,1,0,0:0:0:0:
256,320,92408,5,0,0:0:0:0:
224,304,92484,1,0,0:0:0:0:
192,288,92559,2,0,B|175:279|175:279|144:288|144:288|112:272|112:272|112:240|112:240|96:208,1,135
112,176,92860,5,0,0:0:0:0:
176,160,92936,1,0,0:0:0:0:
240,144,93011,1,0,0:0:0:0:
304,128,93087,1,0,0:0:0:0:
288,64,93162,2,0,B|304:32|304:32|320:48,1,53.9999983520508
464,224,93463,6,0,B|448:256|448:256|432:224,1,67.5000025749208
256,352,93765,2,0,B|240:304|240:304|208:352,1,90
80,128,94067,2,0,P|96:96|112:80,1,45
144,112,94217,2,0,P|160:80|192:64,1,56.25
208,96,94368,2,0,P|224:64|272:48,1,67.5000025749208
272,80,94519,2,0,P|320:48|368:48,1,78.7500007510185
336,112,94670,5,0,0:0:0:0:
400,320,94820,1,0,0:0:0:0:
400,320,94896,1,0,0:0:0:0:
400,320,94971,1,0,0:0:0:0:
64,256,95122,1,0,0:0:0:0:
304,272,95273,1,0,0:0:0:0:
64,256,95423,5,0,0:0:0:0:
304,272,95574,1,0,0:0:0:0:
64,256,95725,1,0,0:0:0:0:
192,112,95876,1,0,0:0:0:0:
448,48,96026,5,0,0:0:0:0:
464,96,96102,1,0,0:0:0:0:
480,144,96177,1,0,0:0:0:0:
288,48,96328,1,0,0:0:0:0:
352,208,96479,5,0,0:0:0:0:
176,96,96629,1,0,0:0:0:0:
192,144,96705,1,0,0:0:0:0:
208,192,96780,1,0,0:0:0:0:
256,336,96931,1,0,0:0:0:0:
96,240,97082,5,0,0:0:0:0:
32,64,97232,1,0,0:0:0:0:
192,48,97383,1,0,0:0:0:0:
240,64,97458,1,0,0:0:0:0:
272,96,97534,1,0,0:0:0:0:
320,112,97609,1,0,0:0:0:0:
368,128,97685,6,0,P|384:144|336:144,1,117.087837317411
192,144,98288,6,0,P|32:159|238:216,1,647.99998022461
464,272,99343,2,0,L|480:272,2,15.7499995193482
480,224,99494,2,0,B|480:160|480:160|416:64|416:64|368:112|368:112|400:176|400:176|368:192|368:192|320:192|320:192|272:112|272:112|320:48|320:48|240:48|240:48,1,647.99998022461
32,160,100549,2,0,L|48:176,2,15.7499995193482
32,208,100700,6,0,B|32:272|80:304|80:304|80:368|144:336|144:336|144:272|208:272|208:336|208:336|256:304|256:304|304:336|304:336|304:384|368:384|368:336|368:336|368:272|416:240|416:240|432:224,1,647.99998022461
256,224,101755,2,0,L|240:240,2,15.7499995193482
256,176,101906,2,0,B|304:160|304:160|304:96|304:32|304:32|256:32|208:32|208:32|208:112|208:112|400:112|448:80|448:80|480:128|480:128,1,647.99998022461
464,208,102961,1,0,0:0:0:0:
256,352,103112,6,0,P|224:336|192:288,1,90
128,96,103413,1,0,0:0:0:0:
304,208,103564,1,0,0:0:0:0:
448,32,103715,2,0,P|416:64|384:80,1,72
480,144,104016,5,0,0:0:0:0:
448,320,104167,1,0,0:0:0:0:
304,160,104318,2,0,P|288:144|256:128,1,53.9999983520508
160,352,104619,2,0,P|128:336|112:320,1,53.9999983520508
176,112,104921,2,0,P|160:96|128:80,1,53.9999983520508
32,160,105222,5,0,0:0:0:0:
176,320,105373,1,0,0:0:0:0:
416,288,105524,2,0,L|432:256,1,36.0270268668958
304,144,105825,2,0,L|288:112,1,36.0270268668958
464,64,106127,2,0,L|480:32,1,36.0270268668958
304,32,106428,1,0,0:0:0:0:
144,64,106579,1,0,0:0:0:0:
24,200,106730,6,0,L|40:208,1,18
224,352,107031,2,0,L|208:344,1,18
224,136,107333,2,0,L|240:144,1,18
448,288,107634,2,0,L|432:280,1,18
448,112,107936,6,0,B|416:96|352:64|352:64|320:64,1,135.000005149842
80,272,108237,2,0,B|160:336|160:336|208:336,1,135.000005149842
192,112,108539,1,0,0:0:0:0:
336,256,108690,1,0,0:0:0:0:
256,48,108840,1,0,0:0:0:0:
256,288,108991,1,0,0:0:0:0:
320,112,109142,6,0,P|368:96|464:112,1,135.000005149842
192,240,109443,2,0,P|160:256|64:240,1,135.000005149842
64,48,109745,1,0,0:0:0:0:
256,48,109896,1,0,0:0:0:0:
256,288,110046,1,0,0:0:0:0:
448,288,110197,1,0,0:0:0:0:
256,288,110348,5,0,0:0:0:0:
160,192,110499,1,0,0:0:0:0:
256,96,110649,1,0,0:0:0:0:
352,192,110800,1,0,0:0:0:0:
160,288,110951,5,0,0:0:0:0:
160,96,111102,1,0,0:0:0:0:
352,96,111252,1,0,0:0:0:0:
352,288,111403,1,0,0:0:0:0:
96,192,111554,5,0,0:0:0:0:
256,352,111705,1,0,0:0:0:0:
416,192,111855,1,0,0:0:0:0:
256,32,112006,1,0,0:0:0:0:
128,320,112157,5,0,0:0:0:0:
384,320,112308,1,0,0:0:0:0:
384,64,112458,1,0,0:0:0:0:
128,64,112609,1,0,0:0:0:0:
208,336,112760,5,0,0:0:0:0:
160,336,112835,1,0,0:0:0:0:
128,304,112911,1,0,0:0:0:0:
128,256,112986,1,0,0:0:0:0:
160,224,113061,5,0,0:0:0:0:
208,224,113137,1,0,0:0:0:0:
240,192,113212,1,0,0:0:0:0:
240,144,113288,1,0,0:0:0:0:
208,112,113363,5,0,0:0:0:0:
160,112,113438,1,0,0:0:0:0:
128,144,113514,1,0,0:0:0:0:
128,192,113589,1,0,0:0:0:0:
160,224,113664,5,0,0:0:0:0:
208,224,113740,1,0,0:0:0:0:
256,240,113815,1,0,0:0:0:0:
288,272,113891,1,0,0:0:0:0:
336,272,113966,5,0,0:0:0:0:
368,240,114041,1,0,0:0:0:0:
368,192,114117,1,0,0:0:0:0:
336,160,114192,1,0,0:0:0:0:
288,160,114268,5,0,0:0:0:0:
256,128,114343,1,0,0:0:0:0:
256,80,114418,1,0,0:0:0:0:
288,48,114494,1,0,0:0:0:0:
336,48,114569,5,0,0:0:0:0:
368,80,114644,1,0,0:0:0:0:
368,128,114720,1,0,0:0:0:0:
336,160,114795,1,0,0:0:0:0:
288,160,114871,5,0,0:0:0:0:
256,128,114946,1,0,0:0:0:0:
208,112,115021,1,0,0:0:0:0:
160,128,115097,1,0,0:0:0:0:
128,160,115172,6,0,L|128:176,6,15.7499995193482
64,208,115474,6,0,L|80:224,6,15.7499995193482
32,288,115775,6,0,L|48:288,6,15.7499995193482
64,368,116077,6,0,L|80:352,6,15.7499995193482
128,48,117584,6,0,B|160:64|160:64|224:64|224:64|496:27|496:27|496:43|496:43|480:91|480:91|432:123,1,472.500004506111
352,240,118187,1,0,0:0:0:0:
304,240,118288,2,0,B|281:260|287:293|287:293|259:281|236:303|236:303|231:268|211:255|211:255|235:243|247:214|247:214|268:236|304:240|304:240,1,270
80,96,118639,1,0,0:0:0:0:
57,73,118790,2,0,B|29:53|0:76|0:76|1:46|-26:33|-26:33|-2:23|9:-8|9:-8|25:12|59:11|59:11|37:39|57:73|57:73,1,270
80,336,119217,2,0,B|79:300|44:289|44:289|68:274|64:243|64:243|86:258|118:249|118:249|112:274|132:301|132:301|97:299|80:336|80:336,1,270
320,48,119695,2,0,B|304:80|268:75|268:75|285:100|268:125|268:125|293:121|319:142|319:142|324:117|353:100|353:100|320:88|320:48|320:48,1,270.000010299683
480,224,119996,6,0,B|448:256|448:256|432:240|432:240|432:272|432:272|416:256|416:256|416:288|416:288|400:272|400:272|400:304|400:304|368:336|352:352|336:368|320:368|304:368|288:352|272:336|256:320|240:304|240:304|224:320|224:320|208:304|208:304|192:320|192:320|176:304|176:304|160:320|160:320|144:304|144:304,1,472.500004506111
48,224,120599,1,0,0:0:0:0:
96,192,120675,1,0,0:0:0:0:
144,160,120750,1,0,0:0:0:0:
96,160,120825,1,0,0:0:0:0:
48,160,120901,1,0,0:0:0:0:
0,160,120976,1,0,0:0:0:0:
32,128,121051,1,0,0:0:0:0:
64,96,121127,1,0,0:0:0:0:
96,64,121202,1,0,0:0:0:0:
240,32,121353,5,0,0:0:0:0:
272,64,121428,1,0,0:0:0:0:
368,112,121579,1,0,0:0:0:0:
400,144,121654,1,0,0:0:0:0:
417,232,121805,5,0,0:0:0:0:
416,272,121881,1,0,0:0:0:0:
451,252,121956,1,0,0:0:0:0:
448,288,122031,1,0,0:0:0:0:
416,304,122107,2,0,B|384:352|384:352|352:352,1,90
160,352,122408,6,0,B|112:352|112:352|80:320|64:272|64:272|64:192|128:144|128:144|144:176|144:176|160:192|160:192|176:176|176:176|192:192|192:192|208:176|208:176|224:192|224:192|240:176|240:176|256:192|256:192,1,472.500004506111
376,296,123011,1,0,0:0:0:0:
392,248,123112,2,0,B|414:224|448:230|448:230|424:204|435:159|435:159|405:193|369:189|369:189|393:213|381:241|381:241,1,270
160,80,123463,1,0,0:0:0:0:
125,89,123614,2,0,B|100:66|106:29|106:29|81:56|35:45|35:45|69:76|65:110|65:110|91:85|117:99|117:99,1,270.000010299683
400,80,124041,2,0,B|409:112|388:140|388:140|422:132|456:163|456:163|440:120|462:92|462:92|428:101|412:75|412:75,1,270
96,304,124519,2,0,B|72:279|78:245|78:245|53:269|8:259|8:259|42:289|37:324|37:324|63:299|90:313|90:313,1,270.000010299683
304,336,124820,6,0,P|384:336|480:192,1,202.500007724762
416,208,125122,2,0,P|400:128|256:48,1,229.500004377365
208,48,125423,1,0,0:0:0:0:
48,128,125574,2,0,L|32:192,1,58.4999973220826
192,224,125725,2,0,L|192:288,1,40.4999987640381
368,208,125876,2,0,L|384:224,1,22.5
496,64,126026,6,0,B|432:48|432:48|368:64|368:64|304:48|304:48|224:64|224:64,1,270.000010299683
32,64,126479,1,0,0:0:0:0:
48,272,126629,2,0,L|64:288,14,15.7499995193482
80,352,127232,6,0,B|121:323|121:323|174:391|183:305|183:305|231:358|244:288|244:288|288:325|306:270|306:270|345:292|367:252|367:252|402:259|429:235|429:235,1,472.500004506111
272,48,127835,1,0,0:0:0:0:
304,80,127936,2,0,B|379:104|379:104|338:104|325:151|325:151|304:80,1,225
432,336,128288,1,0,0:0:0:0:
448,292,128438,2,0,B|504:241|504:241|461:252|429:221|429:221|448:292,1,225
160,288,128865,2,0,B|143:362|143:362|136:322|88:307|88:307|160:288,1,225
0,96,129343,2,0,B|18:21|18:21|28:69|73:76|73:76|0:96,1,225
272,32,129644,6,0,B|352:32|432:80|432:80|416:112|416:112|448:128|448:128|416:144|416:144|448:160|448:160|416:176|416:176|448:192|448:192|416:208|416:208|448:224|448:224|448:256,1,472.500004506111
240,352,130247,1,0,0:0:0:0:
192,336,130323,1,0,0:0:0:0:
144,320,130398,1,0,0:0:0:0:
176,304,130473,1,0,0:0:0:0:
208,288,130549,1,0,0:0:0:0:
176,272,130624,1,0,0:0:0:0:
144,256,130699,1,0,0:0:0:0:
112,240,130775,1,0,0:0:0:0:
80,224,130850,1,0,0:0:0:0:
64,112,131001,5,0,0:0:0:0:
48,80,131077,1,0,0:0:0:0:
192,48,131227,1,0,0:0:0:0:
192,16,131303,1,0,0:0:0:0:
320,80,131453,1,0,0:0:0:0:
336,48,131529,1,0,0:0:0:0:
368,64,131604,1,0,0:0:0:0:
384,32,131680,1,0,0:0:0:0:
416,48,131755,6,0,B|464:48|464:48|496:96,1,90
448,256,132056,2,0,P|432:304|336:336,1,157.500001502037
160,112,132358,2,0,P|176:64|272:32,1,157.500001502037
144,352,132659,1,0,0:0:0:0:
122,338,132760,6,0,B|19:379|-22:296|-1:214|174:244|60:327|60:327|40:296|81:276,1,360
176,176,133112,1,0,0:0:0:0:
181,132,133262,2,0,B|71:116|77:24|135:-37|271:77|133:92|133:92|130:54|176:58,1,360
352,128,133690,2,0,B|265:58|315:-18|397:-40|457:125|329:68|329:68|346:35|385:61,1,360
416,320,134117,2,0,B|375:217|456:176|539:196|508:371|426:258|426:258|456:237|477:279,1,360
216,136,134469,5,0,0:0:0:0:
432,144,134619,1,0,0:0:0:0:
224,272,134770,1,0,0:0:0:0:
80,160,134921,2,0,P|112:80|192:80,1,135.000005149842
336,32,135222,5,0,0:0:0:0:
448,128,135373,1,0,0:0:0:0:
464,192,135448,1,0,0:0:0:0:
480,256,135524,1,0,0:0:0:0:
496,320,135599,1,0,0:0:0:0:
384,16,136881,6,0,B|384:96|384:96|416:128|416:128|416:176|416:176|384:208|384:208|384:256|384:256|416:288|416:288|416:336|416:336|384:368|384:368|352:368,1,432
320,352,137408,2,0,L|288:336,4,22.5
272,288,137634,1,0,0:0:0:0:
48,128,137785,2,0,L|64:144,2,22.5
48,80,137936,6,0,B|80:64|80:64|96:80|96:80|112:48|112:48|128:80|128:80|160:48|160:48|192:80|192:80|224:48|224:48|256:80|256:80|288:48|288:48|320:80|320:80|352:48|352:48|384:80|384:80|416:48|416:48|448:80|448:80,1,558.000004257202
512,224,138690,2,0,L|416:208,1,67.5000025749208
400,288,138840,2,0,L|336:256,1,53.9999983520508
272,304,138991,2,0,L|240:272,1,40.4999987640381
144,304,139142,2,0,L|128:272,1,26.9999991760254
0,320,139293,6,0,B|48:192|48:192|16:144|16:144|64:16,1,306.000005836487
176,176,139745,1,0,0:0:0:0:
336,80,139895,1,0,0:0:0:0:
496,192,140046,1,0,0:0:0:0:
336,304,140197,6,0,L|336:336,1,31.4999990386963
336,92,140348,2,0,L|336:32,1,58.4999973220826
221,228,140499,6,0,L|192:240,1,31.4999990386963
409,140,140650,2,0,L|472:112,1,62.9999980773926
217,114,140800,6,0,L|192:96,1,31.4999990386963
410,224,140951,2,0,L|488:280,1,67.5000025749208
288,320,141102,6,0,B|240:368|240:368|144:368|144:368|96:304|96:304|96:288|96:288|96:272|96:272|112:256|112:256|128:240|128:240|128:224|128:224|128:208|128:208|112:192|112:192|112:160|112:160|112:128|112:128|144:112|144:112|128:128|128:128,1,459.00000875473
288,32,141705,2,0,L|304:32,14,15.7499995193482
352,32,142308,1,0,0:0:0:0:
512,192,142458,1,0,0:0:0:0:
256,176,142609,6,0,B|241:135|241:135|183:169|117:173|117:173|131:239|115:303|115:303|181:308|236:345|236:345|263:283|314:242|314:242|280:210,1,612.000011672974
224,32,143363,1,0,0:0:0:0:
384,48,143514,6,0,L|416:48,1,22.5
288,160,143664,2,0,L|336:176,1,36
160,208,143815,2,0,L|208:256,1,49.5000015106202
16,192,143966,2,0,L|32:272,1,62.9999980773926
48,336,144117,6,0,L|64:352,4,15.7499995193482
48,96,144418,2,0,L|64:80,4,15.7499995193482
240,160,144720,6,0,P|224:135|254:165,1,180
273,192,144946,2,0,P|324:194|269:209,1,144
256,240,145172,2,0,P|270:288|209:241,1,200
192,208,145323,2,0,P|173:231|185:179,1,180
224,160,145549,2,0,P|214:119|247:160,1,144
273,192,145775,2,0,P|295:188|283:208,1,53.9999983520508
272,256,145926,6,0,L|296:268,14,15.7499995193482
352,352,146529,6,0,P|456:320|468:244,1,161.999995056153
416,64,146830,1,0,0:0:0:0:
248,192,146981,1,0,0:0:0:0:
248,192,147056,1,0,0:0:0:0:
248,192,147132,1,0,0:0:0:0:
152,64,147283,2,0,P|188:40|292:32,1,135.000005149842
256,192,147584,1,0,0:0:0:0:
52,40,147735,6,0,P|52:104|80:176,1,135.000005149842
216,76,148036,1,0,0:0:0:0:
296,248,148187,1,0,0:0:0:0:
284,292,148262,1,0,0:0:0:0:
252,320,148338,1,0,0:0:0:0:
76,236,148489,6,0,L|160:216,1,67.5000025749208
280,180,148639,2,0,L|340:164,1,45
444,132,148790,2,0,L|468:124,1,22.5
384,32,148941,6,0,L|208:96,1,153.000002918243
32,64,149242,1,0,0:0:0:0:
128,256,149393,1,0,0:0:0:0:
128,288,149469,1,0,0:0:0:0:
160,272,149544,1,0,0:0:0:0:
352,240,149695,1,0,0:0:0:0:
288,32,149845,6,0,L|336:80,1,67.5000025749208
496,240,149996,2,0,L|456:224,1,33.7500012874604
208,96,150147,6,0,L|256:144,1,67.5000025749208
416,304,150298,2,0,L|384:288,1,33.7500012874604
128,160,150448,6,0,L|192:224,1,76.5000014591217
336,368,150599,2,0,L|296:344,1,33.7500012874604
160,368,150750,6,0,B|85:390|61:363|59:328|72:298|99:275|135:273|164:285|187:312|192:352|192:352|223:310|214:289|214:289|235:281|235:281|227:260|227:260|248:251|248:251|240:230|240:230,1,432
343,40,151353,5,0,0:0:0:0:
343,343,151504,1,0,0:0:0:0:
81,191,151654,1,0,0:0:0:0:
430,192,151805,5,0,0:0:0:0:
168,343,151956,1,0,0:0:0:0:
168,40,152107,1,0,0:0:0:0:
343,343,152257,5,0,0:0:0:0:
81,191,152408,1,0,0:0:0:0:
343,40,152559,1,0,0:0:0:0:
160,128,152710,6,0,L|112:96,1,45
301,207,152860,2,0,L|368:272,1,72
256,131,153011,6,0,L|256:80,1,45
256,288,153162,2,0,L|256:384,1,72
352,128,153313,6,0,L|400:96,1,45
210,207,153463,2,0,L|128:256,1,72
256,16,153614,5,0,0:0:0:0:
112,32,153765,5,0,0:0:0:0:
80,64,153840,1,0,0:0:0:0:
80,112,153916,1,0,0:0:0:0:
112,144,153991,1,0,0:0:0:0:
160,144,154067,5,0,0:0:0:0:
192,176,154142,1,0,0:0:0:0:
192,224,154217,1,0,0:0:0:0:
160,256,154293,1,0,0:0:0:0:
160,304,154368,5,0,0:0:0:0:
192,336,154443,1,0,0:0:0:0:
240,336,154519,1,0,0:0:0:0:
272,304,154594,1,0,0:0:0:0:
272,256,154670,5,0,0:0:0:0:
288,208,154745,1,0,0:0:0:0:
320,176,154820,1,0,0:0:0:0:
368,176,154896,1,0,0:0:0:0:
256,192,154971,12,0,156177,0:0:0:0:
256,192,163413,12,0,165675,0:0:0:0:
112,64,165825,6,0,P|112:96|160:160,1,108
416,176,167785,5,0,0:0:0:0:
384,144,168011,1,0,0:0:0:0:
336,144,168237,2,0,P|320:144|240:192,1,108
208,320,170197,5,0,0:0:0:0:
192,272,170423,1,0,0:0:0:0:
144,256,170649,2,0,P|112:256|48:208,1,108
224,48,172609,6,0,L|256:48,1,27
400,112,173061,2,0,L|288:112,1,108
112,256,174268,6,0,L|128:272,3,18
240,352,174871,2,0,L|256:336,3,18
384,352,175474,6,0,B|480:272|480:272|480:128|480:128|400:48|400:48|336:80|336:80|272:48|272:48,1,517.5
80,80,176529,2,0,L|64:80,2,15.7499995193482
96,128,176680,2,0,P|32:159|159:144,1,540
432,80,177735,6,0,L|448:80,2,15.7499995193482
416,128,177886,2,0,P|479:159|352:144,1,540
256,320,178941,2,0,L|256:336,2,15.7499995193482
256,272,179092,2,0,B|256:176|256:176|336:160|368:96|352:-16|256:-32|160:0|144:96|176:176|272:80,1,540
400,32,180147,1,0,0:0:0:0:
464,176,180298,6,0,P|448:224|432:240,1,72
160,96,180750,2,0,P|128:128|128:144,1,53.9999983520508
320,320,181202,1,0,0:0:0:0:
80,288,181353,1,0,0:0:0:0:
368,240,181504,6,0,L|368:200,1,36
80,176,181956,2,0,L|80:156,1,18
368,64,182408,1,0,0:0:0:0:
112,48,182559,1,0,0:0:0:0:
64,176,182710,5,0,0:0:0:0:
336,224,182860,1,0,0:0:0:0:
240,64,183162,1,0,0:0:0:0:
160,320,183313,1,0,0:0:0:0:
368,256,183614,5,0,0:0:0:0:
64,144,183765,1,0,0:0:0:0:
256,192,183916,12,0,184820,0:0:0:0:
128,176,185122,6,0,B|113:188|117:210|117:210|99:202|84:216|84:216|81:194|68:185|68:185|83:177|91:159|91:159|104:173|128:176|128:176,1,180
320,336,185423,2,0,B|313:353|327:370|327:370|307:373|301:392|301:392|288:375|272:373|272:373|281:359|279:339|279:339|297:345|320:336|320:336,1,180
256,16,185725,2,0,B|258:34|279:42|279:42|264:54|268:74|268:74|248:65|233:72|233:72|234:55|222:39|222:39|241:35|256:16|256:16,1,180
464,192,186026,2,0,B|476:207|498:203|498:203|490:221|504:236|504:236|482:239|473:252|473:252|465:237|447:229|447:229|461:216|464:192|464:192,1,180
96,112,186328,6,0,B|111:157|65:142|50:112|65:81|96:66|126:81|141:112|126:142|80:157|80:112,1,180
448,288,186629,2,0,B|432:242|478:257|493:288|478:318|448:333|417:318|402:288|417:257|463:242|463:288,1,180
48,288,186931,2,0,B|93:272|78:318|48:333|17:318|1:288|17:257|48:242|78:257|93:303|48:303,1,180
464,112,187232,2,0,B|418:126|433:81|464:65|494:81|509:112|494:141|464:156|433:141|418:96|464:96,1,180
300,330,187534,5,0,0:0:0:0:
138,106,187685,1,0,0:0:0:0:
401,192,187835,1,0,0:0:0:0:
138,277,187986,1,0,0:0:0:0:
300,53,188137,1,0,0:0:0:0:
208,338,188288,5,0,0:0:0:0:
208,45,188439,1,0,0:0:0:0:
380,282,188589,1,0,0:0:0:0:
101,192,188740,1,0,0:0:0:0:
380,101,188891,1,0,0:0:0:0:
124,287,189041,5,0,0:0:0:0:
306,37,189192,1,0,0:0:0:0:
306,346,189342,1,0,0:0:0:0:
124,96,189493,1,0,0:0:0:0:
418,192,189644,1,0,0:0:0:0:
256,96,189795,5,0,0:0:0:0:
256,240,189946,5,0,0:0:0:0:
208,288,190021,1,0,0:0:0:0:
144,288,190097,1,0,0:0:0:0:
96,240,190172,1,0,0:0:0:0:
96,176,190247,5,0,0:0:0:0:
144,128,190323,1,0,0:0:0:0:
208,128,190398,1,0,0:0:0:0:
256,176,190474,1,0,0:0:0:0:
320,176,190549,5,0,0:0:0:0:
368,128,190624,1,0,0:0:0:0:
368,64,190700,1,0,0:0:0:0:
320,16,190775,1,0,0:0:0:0:
256,16,190850,5,0,0:0:0:0:
208,64,190926,1,0,0:0:0:0:
208,128,191001,1,0,0:0:0:0:
256,176,191077,1,0,0:0:0:0:
320,176,191152,5,0,0:0:0:0:
368,224,191227,1,0,0:0:0:0:
368,288,191303,1,0,0:0:0:0:
320,320,191378,1,0,0:0:0:0:
224,336,191453,6,0,L|240:336,6,15.7499995193482
128,256,191755,2,0,L|144:256,6,15.7499995193482
32,176,192056,2,0,L|48:176,6,15.7499995193482
32,80,194770,6,0,P|64:128|160:160,1,157.500001502037
208,128,194996,1,0,0:0:0:0:
272,112,195072,1,0,0:0:0:0:
320,80,195146,1,0,0:0:0:0:
368,48,195222,1,0,0:0:0:0:
384,272,195373,6,0,L|336:320,1,67.5000025749208
112,336,195524,2,0,L|160:288,1,58.4999973220826
448,256,195675,2,0,L|400:304,1,49.5000015106202
112,256,195825,2,0,L|144:224,1,40.4999987640381
256,32,195976,6,0,B|270:39|238:23|238:23|206:39|190:71|190:71|206:103|238:119,1,157.500001502037
272,128,196202,1,0,0:0:0:0:
496,160,196353,1,0,0:0:0:0:
480,224,196428,1,0,0:0:0:0:
464,288,196504,1,0,0:0:0:0:
432,320,196579,6,0,P|400:336|384:336,1,36
320,128,196730,2,0,P|256:128|256:128,1,45
208,320,196881,2,0,P|176:336|144:336,1,58.4999973220826
112,320,197031,1,0,0:0:0:0:
80,288,197107,1,0,0:0:0:0:
48,256,197182,5,0,0:0:0:0:
128,16,197333,1,0,0:0:0:0:
144,64,197408,1,0,0:0:0:0:
144,112,197484,6,0,L|208:128,2,53.9999983520508
304,272,197785,5,0,0:0:0:0:
352,288,197860,1,0,0:0:0:0:
400,272,197936,1,0,0:0:0:0:
416,224,198011,1,0,0:0:0:0:
400,176,198087,5,0,0:0:0:0:
352,160,198162,1,0,0:0:0:0:
304,176,198237,1,0,0:0:0:0:
256,192,198313,1,0,0:0:0:0:
208,208,198388,6,0,L|160:208,1,45
336,32,198539,2,0,L|336:54,1,22.5
128,208,198690,2,0,L|64:208,1,53.9999983520508
288,10,198840,2,0,L|288:28,1,13.5135135135135
224,32,198991,5,0,0:0:0:0:
192,48,199067,1,0,0:0:0:0:
160,64,199142,1,0,0:0:0:0:
128,80,199217,1,0,0:0:0:0:
160,128,199293,5,0,0:0:0:0:
208,176,199368,1,0,0:0:0:0:
256,224,199443,1,0,0:0:0:0:
304,272,199519,1,0,0:0:0:0:
368,272,199594,6,0,L|432:272,2,58.4999973220826
368,224,199820,1,0,0:0:0:0:
352,192,199896,1,0,0:0:0:0:
320,160,199971,1,0,0:0:0:0:
288,144,200046,1,0,0:0:0:0:
176,64,200197,6,0,P|160:32|160:0,1,53.9999983520508
48,192,200348,2,0,P|32:160|32:144,1,45
288,224,200499,2,0,P|272:192|272:192,1,36
112,368,200649,2,0,P|96:352|96:336,1,26.9999991760254
48,288,200800,6,0,B|32:272|32:272|160:272,1,144
192,240,201026,1,0,0:0:0:0:
256,32,201177,1,0,0:0:0:0:
288,16,201252,1,0,0:0:0:0:
320,32,201328,1,0,0:0:0:0:
352,16,201403,6,0,P|400:32|416:48,1,62.9999980773926
304,176,201554,2,0,P|336:192|352:208,1,49.5000015106202
272,336,201705,2,0,P|288:336|304:352,1,36
352,368,201855,1,0,0:0:0:0:
400,352,201931,1,0,0:0:0:0:
416,304,202006,5,0,0:0:0:0:
384,112,202157,1,0,0:0:0:0:
416,144,202232,1,0,0:0:0:0:
448,128,202308,6,0,P|464:112|480:96,3,36
448,64,202609,1,0,0:0:0:0:
416,32,202685,1,0,0:0:0:0:
384,64,202760,1,0,0:0:0:0:
352,32,202835,1,0,0:0:0:0:
320,64,202911,1,0,0:0:0:0:
288,32,202986,1,0,0:0:0:0:
256,64,203061,1,0,0:0:0:0:
224,32,203137,1,0,0:0:0:0:
192,48,203212,6,0,P|192:192|288:192,1,242.999992584229
240,128,203514,2,0,P|336:160|272:288,1,242.999992584229
256,352,203815,6,0,P|224:368|192:368,1,58.4999973220826
96,272,203966,2,0,P|80:240|80:192,1,58.4999973220826
304,192,204117,2,0,P|320:224|320:272,1,58.4999973220826
144,128,204268,2,0,P|176:112|224:112,1,58.4999973220826
368,64,204418,6,0,P|400:112|416:192,1,116.999994644165
256,336,204720,1,0,0:0:0:0:
256,80,204871,1,0,0:0:0:0:
128,304,205021,2,0,P|112:256|128:208,1,90
352,288,205323,5,0,0:0:0:0:
400,96,205474,1,0,0:0:0:0:
368,64,205549,1,0,0:0:0:0:
336,32,205624,1,0,0:0:0:0:
80,96,205775,2,0,P|64:144|80:224,2,116.999994644165
80,304,206227,5,0,0:0:0:0:
352,320,206378,1,0,0:0:0:0:
400,304,206453,1,0,0:0:0:0:
448,288,206529,1,0,0:0:0:0:
208,128,206680,1,0,0:0:0:0:
384,48,206830,6,0,P|416:64|464:112,1,99.0000030212403
224,48,207132,1,0,0:0:0:0:
96,224,207283,1,0,0:0:0:0:
368,224,207433,2,0,P|400:256|432:336,1,116.999994644165
208,320,207735,5,0,0:0:0:0:
96,96,207886,1,0,0:0:0:0:
128,64,207961,1,0,0:0:0:0:
160,32,208036,1,0,0:0:0:0:
384,128,208187,1,0,0:0:0:0:
176,224,208338,6,0,L|80:320,1,116.999994644165
0,192,208639,2,0,L|160:32,1,216
224,32,208941,1,0,0:0:0:0:
272,48,209016,1,0,0:0:0:0:
320,32,209092,1,0,0:0:0:0:
368,48,209167,1,0,0:0:0:0:
416,32,209242,6,0,B|448:64|448:64|464:96|464:96|448:144|448:144|464:176|464:176,1,144
352,272,209544,1,0,0:0:0:0:
320,304,209619,1,0,0:0:0:0:
288,336,209695,1,0,0:0:0:0:
112,64,209845,5,0,0:0:0:0:
416,64,209996,1,0,0:0:0:0:
112,320,210147,1,0,0:0:0:0:
432,320,210298,1,0,0:0:0:0:
336,192,210448,6,0,P|336:144|288:48,1,144
80,144,210750,1,0,0:0:0:0:
112,176,210825,1,0,0:0:0:0:
112,224,210901,1,0,0:0:0:0:
144,256,210976,1,0,0:0:0:0:
176,304,211051,6,0,P|192:320|208:320,1,36
208,272,211127,2,0,P|240:272|256:256,1,36
224,224,211202,2,0,P|249:204|239:191,1,36
256,48,211353,1,0,0:0:0:0:
496,48,211504,1,0,0:0:0:0:
144,48,211654,5,0,0:0:0:0:
432,48,211805,1,0,0:0:0:0:
32,48,211956,1,0,0:0:0:0:
336,48,212107,1,0,0:0:0:0:
48,144,212257,5,0,0:0:0:0:
48,192,212333,1,0,0:0:0:0:
64,240,212408,1,0,0:0:0:0:
96,272,212484,1,0,0:0:0:0:
144,288,212559,5,0,0:0:0:0:
192,272,212634,1,0,0:0:0:0:
240,256,212710,1,0,0:0:0:0:
288,272,212785,1,0,0:0:0:0:
320,304,212860,6,0,P|368:320|464:272,1,144
400,240,213087,2,0,P|448:176|448:128,1,116.999994644165
384,128,213313,2,0,P|368:80|320:48,1,90
288,96,213539,2,0,P|256:80|224:80,1,62.9999980773926
176,80,213765,5,0,0:0:0:0:
160,96,213840,1,0,0:0:0:0:
160,128,213916,1,0,0:0:0:0:
160,160,213991,1,0,0:0:0:0:
192,160,214067,6,0,P|212:161|212:161,1,18
240,176,214293,1,0,0:0:0:0:
272,192,214368,1,0,0:0:0:0:
304,176,214443,1,0,0:0:0:0:
336,192,214519,1,0,0:0:0:0:
384,320,214670,6,0,L|416:368,1,45
400,112,214820,2,0,L|416:128,1,18
192,32,214971,2,0,L|240:80,1,53.9999983520508
192,224,215122,2,0,L|224:240,1,26.9999991760254
16,128,215273,6,0,B|48:112|48:128|48:128|64:112|64:128|64:128|80:112|80:128|80:128,1,72
112,128,215423,1,0,0:0:0:0:
144,128,215499,1,0,0:0:0:0:
304,64,215649,2,0,L|368:64,2,45
272,96,215876,6,0,L|256:160,1,53.9999983520508
496,128,216026,2,0,L|480:208,1,62.9999980773926
384,288,216177,2,0,L|352:384,1,72
320,352,216328,1,0,0:0:0:0:
288,320,216403,1,0,0:0:0:0:
256,304,216479,6,0,L|192:336,3,72
112,208,216780,2,0,L|128:112,3,72
160,96,217082,6,0,P|192:112|224:112,1,67.5000025749208
368,80,217232,2,0,P|400:64|416:48,1,56.25
416,256,217383,2,0,P|400:272|368:288,1,45
192,288,217534,2,0,P|176:288|160:272,1,33.7500012874604
112,256,217685,5,0,0:0:0:0:
112,240,217760,1,0,0:0:0:0:
112,224,217835,1,0,0:0:0:0:
112,208,217911,1,0,0:0:0:0:
112,176,217986,5,0,0:0:0:0:
112,144,218061,1,0,0:0:0:0:
112,112,218137,1,0,0:0:0:0:
112,80,218212,1,0,0:0:0:0:
144,80,218288,6,0,L|176:64,1,28.125
192,80,218363,6,0,L|224:96,1,28.125
240,80,218438,6,0,L|272:64,1,28.125
288,80,218514,6,0,L|320:96,1,28.125
336,80,218589,6,0,L|368:64,1,28.125
384,80,218664,6,0,L|416:96,1,28.125
432,80,218740,6,0,L|464:64,1,28.125
464,112,218815,1,0,0:0:0:0:
448,160,218891,6,0,P|402:182|384:176,2,72
480,208,219117,1,0,0:0:0:0:
480,256,219192,1,0,0:0:0:0:
464,304,219268,1,0,0:0:0:0:
432,336,219343,1,0,0:0:0:0:
144,368,219494,6,0,P|96:368|64:336,1,67.5000025749208
0,96,219644,2,0,P|16:128|48:144,1,62.9999980773926
368,272,219795,2,0,P|336:272|304:256,1,58.4999973220826
160,64,219946,2,0,P|176:96|208:112,1,53.9999983520508
240,64,220097,6,0,P|272:48|384:80,1,153.000002918243
416,112,220323,1,0,0:0:0:0:
320,320,220474,1,0,0:0:0:0:
288,352,220549,1,0,0:0:0:0:
240,352,220624,1,0,0:0:0:0:
192,352,220700,6,0,P|160:304|160:288,1,67.5000025749208
288,48,220850,2,0,P|272:96|256:112,1,62.9999980773926
0,80,221001,2,0,P|32:112|64:128,1,58.4999973220826
64,160,221152,1,0,0:0:0:0:
112,160,221227,1,0,0:0:0:0:
160,176,221303,5,0,0:0:0:0:
192,176,221378,1,0,0:0:0:0:
224,176,221453,1,0,0:0:0:0:
256,176,221529,1,0,0:0:0:0:
296,176,221604,2,0,L|352:176,3,45
368,224,221906,6,0,P|324:275|266:309,1,135.000005149842
160,96,222207,1,0,0:0:0:0:
416,96,222358,1,0,0:0:0:0:
400,64,222433,1,0,0:0:0:0:
384,32,222509,1,0,0:0:0:0:
160,32,222659,1,0,0:0:0:0:
48,192,222810,6,0,P|48:256|80:320,2,125.999996154785
224,240,223262,5,0,0:0:0:0:
272,256,223338,1,0,0:0:0:0:
320,272,223413,1,0,0:0:0:0:
368,288,223489,1,0,0:0:0:0:
368,240,223564,1,0,0:0:0:0:
368,192,223639,1,0,0:0:0:0:
368,144,223715,5,0,0:0:0:0:
144,48,223865,1,0,0:0:0:0:
128,288,224016,1,0,0:0:0:0:
278,96,224166,1,0,0:0:0:0:
480,320,224318,5,0,0:0:0:0:
255,223,224468,1,0,0:0:0:0:
0,320,224619,1,0,0:0:0:0:
195,174,224769,1,0,0:0:0:0:
480,128,224921,5,0,0:0:0:0:
383,351,225071,1,0,0:0:0:0:
240,112,225222,1,0,0:0:0:0:
16,16,225372,1,0,0:0:0:0:
304,16,225524,5,0,0:0:0:0:
208,240,225674,1,0,0:0:0:0:
432,336,225825,1,0,0:0:0:0:
192,160,225975,1,0,0:0:0:0:
416,112,226127,6,0,B|423:92|409:75|409:75|429:73|436:53|436:53|450:72|466:74|466:74|455:88|457:109|457:109|438:103|416:112|416:112,1,180
128,304,226428,6,0,B|119:322|133:340|133:340|113:342|105:363|105:363|91:343|75:341|75:341|86:327|84:305|84:305|104:312|128:304|128:304,1,180
128,32,226730,1,0,0:0:0:0:
256,304,226881,1,0,0:0:0:0:
368,32,227031,1,0,0:0:0:0:
256,304,227182,1,0,0:0:0:0:
240,112,227333,6,0,B|233:87|206:79|206:79|225:63|217:38|217:38|245:47|262:36|262:36|262:59|280:78|280:78|256:86|240:112|240:112,1,180
400,320,227634,6,0,B|375:326|367:353|367:353|351:334|326:342|326:342|335:314|324:297|324:297|347:297|366:279|366:279|374:303|400:320|400:320,1,180
32,192,227936,1,0,0:0:0:0:
256,32,228087,1,0,0:0:0:0:
32,192,228237,1,0,0:0:0:0:
256,32,228388,1,0,0:0:0:0:
448,240,228539,5,0,0:0:0:0:
448,32,228690,1,0,0:0:0:0:
352,288,228840,5,0,0:0:0:0:
352,32,228991,1,0,0:0:0:0:
256,336,229142,5,0,0:0:0:0:
256,32,229293,1,0,0:0:0:0:
160,384,229443,5,0,0:0:0:0:
160,24,229594,1,0,0:0:0:0:
32,304,229745,5,0,0:0:0:0:
352,304,229896,1,0,0:0:0:0:
32,208,230046,5,0,0:0:0:0:
400,208,230197,1,0,0:0:0:0:
32,112,230348,5,0,0:0:0:0:
448,112,230499,1,0,0:0:0:0:
32,16,230649,5,0,0:0:0:0:
496,16,230800,1,0,0:0:0:0:
400,160,230951,5,0,0:0:0:0:
400,224,231026,1,0,0:0:0:0:
352,272,231102,1,0,0:0:0:0:
288,272,231177,1,0,0:0:0:0:
240,224,231252,5,0,0:0:0:0:
240,160,231328,1,0,0:0:0:0:
288,112,231403,1,0,0:0:0:0:
288,48,231479,1,0,0:0:0:0:
240,0,231554,5,0,0:0:0:0:
176,0,231629,1,0,0:0:0:0:
128,48,231705,1,0,0:0:0:0:
128,112,231780,1,0,0:0:0:0:
176,160,231855,5,0,0:0:0:0:
240,160,231931,1,0,0:0:0:0:
288,112,232006,1,0,0:0:0:0:
336,64,232082,1,0,0:0:0:0:
400,64,232157,6,0,L|416:80,1,18
464,96,232308,2,0,L|480:112,1,18
480,208,232534,2,0,L|464:224,1,18
384,320,232760,2,0,L|368:304,4,18
256,192,233212,1,0,0:0:0:0:
80,224,233363,6,0,B|48:192|48:192|128:160|128:160,1,125.999996154785
224,32,233664,2,0,L|240:96,1,62.9999980773926
320,64,233815,2,0,L|320:128,1,49.5000015106202
400,128,233966,2,0,L|384:176,1,36
464,208,234117,2,0,L|448:224,1,22.5
464,320,234268,1,0,0:0:0:0:
240,352,234418,1,0,0:0:0:0:
64,240,234569,6,0,L|64:176,2,53.9999983520508
192,64,234871,1,0,0:0:0:0:
304,304,235021,1,0,0:0:0:0:
480,192,235172,2,0,P|480:160|432:80,1,125.999996154785
336,96,235398,6,0,P|313:67|270:47,1,62.9999980773926
208,96,235549,2,0,P|176:80|112:80,1,72
48,240,235775,2,0,P|48:304|112:336,1,135.000005149842
272,352,236077,6,0,L|288:288,1,62.9999980773926
352,304,236227,2,0,L|352:240,1,53.9999983520508
416,224,236378,2,0,L|400:176,1,45
464,144,236529,2,0,L|448:112,1,36
480,48,236680,2,0,L|448:32,1,26.9999991760254
304,32,236830,1,0,0:0:0:0:
288,208,236981,6,0,P|272:240|240:256,2,53.9999983520508
32,112,237283,1,0,0:0:0:0:
160,16,237433,1,0,0:0:0:0:
64,192,237584,2,0,P|48:240|96:320,1,125.999996154785
176,352,237810,6,0,P|208:352|240:336,1,67.5000025749208
320,352,237961,2,0,P|352:336|384:272,1,76.5000014591217
448,176,238187,2,0,P|480:128|480:16,1,161.999995056153
240,32,238489,6,0,L|208:32,1,26.9999991760254
224,128,238639,2,0,L|176:112,1,36
176,208,238790,2,0,L|144:176,1,45
112,272,238941,2,0,L|80:208,1,53.9999983520508
32,320,239092,2,0,L|16:256,1,62.9999980773926
16,112,239242,1,0,0:0:0:0:
128,32,239393,6,0,L|192:32,2,53.9999983520508
304,160,239695,1,0,0:0:0:0:
432,80,239845,1,0,0:0:0:0:
416,336,239996,2,0,L|272:336,1,116.999994644165
272,240,240222,6,0,L|224:240,1,45
176,320,240373,2,0,L|128:320,1,45
16,208,240599,2,0,P|16:144|16:144,1,53.9999983520508
48,96,240750,6,0,P|96:112|176:96,1,107.999996704102
192,48,240976,2,0,P|240:48|304:80,1,107.999996704102
320,128,241202,1,0,0:0:0:0:
496,208,241353,1,0,0:0:0:0:
304,272,241504,6,0,P|256:272|240:256,1,62.9999980773926
176,64,241805,2,0,P|128:32|48:48,1,125.999996154785
32,224,242107,2,0,L|32:288,1,62.9999980773926
208,336,242257,2,0,L|208:272,1,62.9999980773926
256,240,242408,5,0,0:0:0:0:
304,208,242484,1,0,0:0:0:0:
352,176,242559,1,0,0:0:0:0:
384,128,242634,1,0,0:0:0:0:
384,80,242710,5,0,0:0:0:0:
352,48,242785,1,0,0:0:0:0:
304,48,242860,1,0,0:0:0:0:
272,80,242936,1,0,0:0:0:0:
224,80,243011,6,0,P|176:96|96:80,1,125.999996154785
48,240,243313,1,0,0:0:0:0:
224,304,243463,1,0,0:0:0:0:
256,304,243539,1,0,0:0:0:0:
288,304,243614,1,0,0:0:0:0:
464,240,243765,1,0,0:0:0:0:
448,32,243916,6,0,P|432:80|384:112,1,90
160,48,244217,2,0,P|128:64|112:80,2,53.9999983520508
128,320,244519,5,0,0:0:0:0:
304,272,244670,1,0,0:0:0:0:
336,256,244745,1,0,0:0:0:0:
368,240,244820,1,0,0:0:0:0:
400,224,244896,1,0,0:0:0:0:
432,208,244971,1,0,0:0:0:0:
464,192,245046,2,0,P|480:176|480:160,1,36
176,192,245273,2,0,P|176:240|208:304,1,107.999996704102
432,336,245574,5,0,0:0:0:0:
400,144,245725,1,0,0:0:0:0:
384,112,245800,1,0,0:0:0:0:
368,80,245876,1,0,0:0:0:0:
144,64,246026,1,0,0:0:0:0:
48,192,246177,1,0,0:0:0:0:
208,208,246328,6,0,P|224:240|224:304,1,90
368,336,246629,2,0,P|368:304|384:272,2,53.9999983520508
368,160,246931,1,0,0:0:0:0:
192,64,247082,1,0,0:0:0:0:
160,96,247157,1,0,0:0:0:0:
144,144,247232,1,0,0:0:0:0:
144,192,247308,1,0,0:0:0:0:
160,240,247383,1,0,0:0:0:0:
192,272,247458,2,0,P|224:304|240:304,1,45
272,160,247685,1,0,0:0:0:0:
416,48,247835,5,0,0:0:0:0:
416,80,247911,1,0,0:0:0:0:
416,112,247986,1,0,0:0:0:0:
416,144,248061,1,0,0:0:0:0:
416,176,248137,5,0,0:0:0:0:
416,208,248212,1,0,0:0:0:0:
416,240,248288,1,0,0:0:0:0:
416,272,248363,1,0,0:0:0:0:
416,304,248438,5,0,0:0:0:0:
416,336,248514,1,0,0:0:0:0:
384,368,248589,1,0,0:0:0:0:
336,368,248664,1,0,0:0:0:0:
304,336,248740,5,0,0:0:0:0:
304,288,248815,1,0,0:0:0:0:
304,240,248891,1,0,0:0:0:0:
304,192,248966,1,0,0:0:0:0:
304,144,249041,5,0,0:0:0:0:
304,96,249117,1,0,0:0:0:0:
304,48,249192,1,0,0:0:0:0:
272,16,249268,1,0,0:0:0:0:
224,16,249343,5,0,0:0:0:0:
192,48,249418,1,0,0:0:0:0:
192,96,249494,1,0,0:0:0:0:
192,144,249569,1,0,0:0:0:0:
192,208,249644,5,0,0:0:0:0:
192,272,249720,1,0,0:0:0:0:
192,336,249795,1,0,0:0:0:0:
144,368,249871,1,0,0:0:0:0:
80,368,249946,5,0,0:0:0:0:
32,320,250021,1,0,0:0:0:0:
32,256,250097,1,0,0:0:0:0:
32,192,250172,1,0,0:0:0:0:
48,128,250247,6,0,L|32:112,6,15.7499995193482
128,80,250549,6,0,L|128:64,6,15.7499995193482
224,80,250850,6,0,L|224:64,6,15.7499995193482
304,128,251152,6,0,L|320:112,6,15.7499995193482
256,192,252659,5,0,0:0:0:0:
144,64,262308,6,0,P|64:112|320:176,1,675
160,240,263363,2,0,L|144:240,2,15.7499995193482
192,240,263514,2,0,P|200:158|401:320,1,566.999982696534
320,160,264569,6,0,L|336:160,2,15.7499995193482
288,192,264720,2,0,P|286:278|119:153,1,459.00000875473
192,256,265775,2,0,L|192:272,2,15.7499995193482
192,224,265926,2,0,P|191:142|386:215,1,405.000015449525
288,336,266981,1,0,0:0:0:0:
96,288,267132,6,0,P|80:256|80:192,1,90
176,80,267584,1,0,0:0:0:0:
288,240,267735,1,0,0:0:0:0:
368,32,268036,2,0,L|448:96,1,90
464,256,268338,5,0,0:0:0:0:
288,320,268489,1,0,0:0:0:0:
96,208,268790,2,0,P|96:160|112:112,1,90
256,48,269242,1,0,0:0:0:0:
336,208,269393,1,0,0:0:0:0:
48,208,269544,6,0,L|112:176,1,72
304,320,269996,2,0,L|352:288,1,53.9999983520508
176,96,270448,2,0,L|208:80,1,36
464,192,270901,2,0,L|488:172,1,27.027027027027
320,64,271353,2,0,L|336:56,1,18
464,40,271654,1,0,0:0:0:0:
432,256,271956,6,0,P|384:272|328:264,1,108
248,96,273162,2,0,P|212:108|168:160,1,108
32,272,274368,2,0,P|84:296|136:288,1,108
256,192,275574,2,0,P|292:192|360:220,1,108
460,96,276780,6,0,P|420:80|408:80,1,54
224,64,277685,1,0,0:0:0:0:
208,92,277835,1,0,0:0:0:0:
192,124,277986,2,0,P|180:144|176:176,1,54
352,168,278891,5,0,0:0:0:0:
352,192,279041,1,0,0:0:0:0:
352,208,279192,6,0,P|360:232|368:260,13,54
256,192,285222,12,0,291252,0:0:0:0:
