osu file format v14

[General]
AudioFilename: audio.mp3
AudioLeadIn: 0
PreviewTime: 140447
Countdown: 0
SampleSet: Normal
StackLeniency: 0.2
Mode: 1
LetterboxInBreaks: 0
WidescreenStoryboard: 0

[Editor]
Bookmarks: 1402,74708,83056,99751,120621,141490,157143,173838,182186,190534,198882,217664,251056,263577,316795,349143,356447,381490,389838,402360
DistanceSpacing: 0.8
BeatDivisor: 6
GridSize: 32
TimelineZoom: 2.5

[Metadata]
Title:NIGHTMARE CITY
TitleUnicode:NIGHTMARE † CITY
Artist:Camellia
ArtistUnicode:かめりあ
Creator:Alchyr
Version:MELTDOWN
Source:
Tags:featured artist fa blackmagik blackmagic blazing comiket 96 c96 かめるかめりあ kamelcamellia cametek instrumental electronic gabber metal mappers' guild
BeatmapID:2262656
BeatmapSetID:1081656

[Difficulty]
HPDrainRate:4.4
CircleSize:2.5
OverallDifficulty:7.7
ApproachRate:9.5
SliderMultiplier:1.4
SliderTickRate:1

[Events]
//Background and Video events
0,0,"nightmare.jpg",0,0
//Break Periods
//Storyboard Layer 0 (Background)
//Storyboard Layer 1 (Fail)
//Storyboard Layer 2 (Pass)
//Storyboard Layer 3 (Foreground)
//Storyboard Layer 4 (Overlay)
//Storyboard Sound Samples

[TimingPoints]
1013,260.869565217391,4,1,0,30,1,0
1013,-200,4,1,0,30,0,0
2056,-263.157894736842,4,1,0,30,0,0
3099,-344.827586206897,4,1,0,30,0,0
4143,-454.545454545455,4,1,0,30,0,0
4534,-76.9230769230769,4,1,0,100,0,0
4925,-71.4285714285714,4,1,0,100,0,0
5186,-66.6666666666667,4,1,0,100,0,0
5447,-66.6666666666667,4,1,0,90,0,0
5578,-66.6666666666667,4,1,0,80,0,0
5708,-66.6666666666667,4,1,0,70,0,0
5839,-66.6666666666667,4,1,0,60,0,0
5969,-66.6666666666667,4,1,0,50,0,0
6099,-66.6666666666667,4,1,0,40,0,0
6230,-151.515151515152,4,1,0,35,0,0
6752,-200,4,1,0,35,0,0
8301,-166.666666666667,4,1,0,35,0,0
9230,-120.481927710843,4,1,0,35,0,0
9882,-200,4,1,0,35,0,0
11186,-227.272727272727,4,1,0,35,0,0
12474,-192.307692307692,4,1,0,35,0,0
13012,-120.481927710843,4,1,0,35,0,0
14056,-158.730158730159,4,1,0,35,0,0
14839,-185.185185185185,4,1,0,35,0,0
15620,285.714285714286,4,1,0,35,1,0
15620,-169.082125606315,4,1,0,35,0,0
16691,-151.515151515152,4,1,0,35,0,0
17905,300,4,1,0,35,1,0
17905,-104.766893661603,4,1,0,35,0,0
19105,303.030303030303,4,1,0,35,1,0
19105,-151.515151515152,4,1,0,35,0,0
20014,-170.925414364788,4,1,0,35,0,0
20317,331.491712707182,4,1,0,35,1,0
20317,-157.391304348346,4,1,0,35,0,0
21642,340.909090909091,4,1,0,35,1,0
21642,-180.051150896025,4,1,0,35,0,0
23005,365.853658536585,4,1,0,35,1,0
23005,-197.382277719652,4,1,0,35,0,0
24468,309.278350515464,4,1,0,40,1,0
24468,-111.304285882832,4,1,0,40,0,0
24610,-110.567243127417,4,1,0,40,0,0
24766,-109.839776717702,4,1,0,40,0,0
24922,-109.121939402405,4,1,0,40,0,0
25079,-108.413306215552,4,1,0,40,0,0
25235,-107.713933335847,4,1,0,40,0,0
25391,-107.023411371237,4,1,0,40,0,0
25547,-106.341686472806,4,1,0,40,0,0
25704,292.682926829268,4,1,0,40,1,0
25704,-112.823355037685,4,1,0,40,0,0
25850,-112.11372501253,4,1,0,40,0,0
25996,285.714285714286,4,1,0,40,1,8
25996,-114.130474480165,4,1,0,40,0,0
26138,-113.421540293035,4,1,0,40,0,0
26281,280.373831775701,4,1,0,40,1,8
26281,-114.86855087161,4,1,0,40,0,0
26421,-114.163786751777,4,1,0,40,0,0
26561,-113.467617911307,4,1,0,40,0,0
26701,-112.780002178867,4,1,0,40,0,0
26841,279.06976744186,4,1,0,40,1,0
26841,-112.624410686754,4,1,0,40,0,0
27957,287.081339712919,4,1,0,40,1,0
27957,-108.695652173913,4,1,0,40,0,0
31401,284.36018957346,4,1,0,40,1,0
31401,-109.89010989011,4,1,0,40,0,0
33671,-100,4,1,0,40,0,0
34814,283.018867924528,4,1,0,40,1,0
34814,-100.952380952977,4,1,0,40,0,0
35946,279.06976744186,4,1,0,40,1,0
35946,-102.380952381635,4,1,0,40,0,0
36504,272.727272727273,4,1,0,40,1,8
36504,-104.761904762503,4,1,0,40,0,0
37049,272.727272727273,4,1,0,40,1,0
37049,-104.761904762503,4,1,0,40,0,0
37412,-103.092783505155,4,1,0,40,0,0
37503,-100,4,1,0,40,0,0
37594,-97.0873786407767,4,1,0,40,0,0
37958,-100,4,1,0,40,0,0
38049,-97.0873786407767,4,1,0,43,0,0
38105,-97.0873786407767,4,1,0,55,0,0
38139,270.27027027027,4,1,0,55,1,0
38139,-95.2380952380952,4,1,0,55,0,0
38544,-133.333333333333,4,1,0,55,0,0
38814,-120.481927710843,4,1,0,55,0,0
39084,-111.111111111111,4,1,0,55,0,0
39220,263.157894736842,4,1,0,55,1,0
39220,-111.111111111111,4,1,0,55,0,0
39351,-106.382978723404,4,1,0,55,0,0
39483,-109.89010989011,4,1,0,55,0,0
39746,-100,4,1,0,55,0,0
39877,-97.0873786407767,4,1,0,55,0,0
40009,-94.3396226415094,4,1,0,55,0,0
40141,-91.743119266055,4,1,0,55,0,0
40252,-89.2857142857143,4,1,0,90,0,0
40428,-97.0873786407767,4,1,0,70,0,0
40603,-106.382978723404,4,1,0,50,0,0
40778,-92.5925925925926,4,1,0,90,0,0
40954,-96.1538461538461,4,1,0,70,0,0
41129,-100,4,1,0,50,0,0
41281,-76.9230769230769,4,1,0,100,0,0
41319,260.869565217391,4,1,0,100,1,0
41319,-87.719298245614,4,1,0,100,0,0
42362,-150.01500150015,4,1,0,50,0,0
43405,-200,4,1,0,40,0,0
44449,-250,4,1,0,40,0,0
45492,-312.5,4,1,0,40,0,0
46536,-384.615384615385,4,1,0,40,0,0
47579,-454.545454545455,4,1,0,40,0,0
48623,-512.820512820513,4,1,0,40,0,0
49536,-100,4,1,0,60,0,0
50188,-90.909090909091,4,1,0,60,0,0
50449,-100,4,1,0,60,0,0
51232,-86.9565217391304,4,1,0,60,0,0
51753,-100,4,1,0,60,0,0
52275,-83.3333333333333,4,1,0,60,0,0
52536,-100,4,1,0,60,0,0
53318,-80,4,1,0,60,0,0
53840,-100,4,1,0,60,0,0
54362,-76.9230769230769,4,1,0,60,0,0
54623,-100,4,1,0,60,0,0
55405,-74.0740740740741,4,1,0,60,0,0
55927,-100,4,1,0,60,0,0
56449,-71.4285714285714,4,1,0,60,0,0
56710,-100,4,1,0,60,0,0
57492,-68.9655172413793,4,1,0,75,0,0
57579,-71.4285714285714,4,1,0,75,0,0
57666,-74.0740740740741,4,1,0,75,0,0
57753,-76.9230769230769,4,1,0,75,0,0
57840,-80,4,1,0,75,0,0
57927,-83.3333333333333,4,1,0,75,0,0
58014,-66.6666666666667,4,1,0,100,0,0
59579,-90.9090909090909,4,1,0,100,0,0
59666,-87.7573264203962,4,1,0,100,0,0
59753,-84.8167787944482,4,1,0,100,0,0
59840,-82.0668368732863,4,1,0,100,0,0
59927,-79.4896762782934,4,1,0,100,0,0
60014,-77.0694495931118,4,1,0,100,0,0
60101,-66.6666666666667,4,1,0,100,0,0
61666,-90.9090909090909,4,1,0,100,0,0
61710,-94.3396226415094,4,1,0,100,0,0
61840,-84.1984017459381,4,1,0,100,0,0
61884,-86.9565217391304,4,1,0,100,0,0
62014,-78.125,4,1,0,100,0,0
62058,-80.6451612903226,4,1,0,100,0,0
62188,-66.6666666666667,4,1,0,100,0,0
63753,-76.9230769230769,4,1,0,100,0,0
63840,-79.333975409641,4,1,0,100,0,0
63927,-81.9008868228025,4,1,0,100,0,0
64014,-84.6395329252015,4,1,0,100,0,0
64101,-87.5675912344841,4,1,0,100,0,0
64188,-90.7054982951902,4,1,0,100,0,0
64275,-66.6666666666667,4,1,0,100,0,0
65840,-74.0740740740741,4,1,0,100,0,0
65884,-75.7363466301113,4,1,0,100,0,0
65927,-77.4748768343146,4,1,0,100,0,0
66014,-81.2030392673537,4,1,0,100,0,0
66101,-85.3080730441845,4,1,0,100,0,0
66188,-89.8502465940018,4,1,0,100,0,0
66275,-94.9033125052197,4,1,0,100,0,0
66362,-66.6666666666667,4,1,0,100,0,0
66884,-87.719298245614,4,1,0,100,0,0
67014,-66.6666666666667,4,1,0,100,0,0
67927,-87.719298245614,4,1,0,100,0,0
68449,-66.6666666666667,4,1,0,100,0,0
68971,-87.719298245614,4,1,0,100,0,0
69101,-66.6666666666667,4,1,0,100,0,0
70014,-87.719298245614,4,1,0,100,0,0
70536,-100,4,1,0,100,0,0
70623,-98.7046316,4,1,0,100,0,0
70710,-97.4423936,4,1,0,100,0,0
70797,-96.2120311,4,1,0,100,0,0
70884,-95.0123516,4,1,0,100,0,0
70971,-93.8422216,4,1,0,100,0,0
71058,-92.7005625,4,1,0,100,0,0
71145,-91.5863479,4,1,0,100,0,0
71232,-90.4985997,4,1,0,100,0,0
71318,-89.436386,4,1,0,100,0,0
71405,-88.3988182,4,1,0,100,0,0
71492,-87.3850484,4,1,0,100,0,0
71579,-86.3942671,4,1,0,100,0,0
71666,-85.425637,4,1,0,100,0,0
71753,-84.4785487,4,1,0,100,0,0
71840,-83.5522304,4,1,0,100,0,0
71927,-82.6460061,4,1,0,100,0,0
72014,-81.7592291,4,1,0,100,0,0
72101,-80.89128,4,1,0,100,0,0
72188,-80.0415654,4,1,0,100,0,0
72275,-79.2095168,4,1,0,100,0,0
72362,-78.3945888,4,1,0,100,0,0
72449,-77.5962585,4,1,0,100,0,0
72536,-76.8140238,4,1,0,100,0,0
72623,-76.0456273764259,4,1,0,100,0,0
72710,-77.518475462011,4,1,0,100,0,0
72797,-79.0198495991003,4,1,0,100,0,0
72884,-80.5503022788994,4,1,0,100,0,0
72971,-82.1103966932372,4,1,0,100,0,0
73058,-83.7007069418151,4,1,0,100,0,0
73145,-85.3218182434701,4,1,0,100,0,0
73232,-86.9743271515298,4,1,0,100,0,0
73318,-88.6392953867827,4,1,0,100,0,0
73405,-90.3560570339948,4,1,0,100,0,0
73492,-92.1060688389443,4,1,0,100,0,0
73579,-93.889974789101,4,1,0,100,0,0
73666,-95.7084313446535,4,1,0,100,0,0
73753,-97.5621076800797,4,1,0,100,0,0
73840,-99.4516859303973,4,1,0,100,0,0
73927,-101.377861442182,4,1,0,100,0,0
74014,-103.34134302945,4,1,0,100,0,0
74101,-105.342853234492,4,1,0,100,0,0
74188,-107.383128593764,4,1,0,100,0,0
74275,-109.462919908925,4,1,0,100,0,0
74362,-111.582992523125,4,1,0,100,0,0
74449,-113.744126602643,4,1,0,100,0,0
74536,-115.947117423982,4,1,0,100,0,0
74623,-118.192775666522,4,1,0,100,0,0
74710,-120.481927710843,4,1,0,100,0,0
75753,-212.765957446809,4,1,0,40,0,0
76275,-259.0909091,4,1,0,40,0,0
76536,-242.5531915,4,1,0,40,0,0
76797,-228,4,1,0,40,0,0
77840,-285,4,1,0,60,0,0
78101,-142.857142857143,4,1,0,60,0,0
78232,-135.135135135135,4,1,0,60,0,0
78297,-129.87012987013,4,1,0,60,0,0
78362,-125,4,1,0,60,0,0
78492,-129.87012987013,4,1,0,60,0,0
78558,-125,4,1,0,60,0,0
78623,-120.481927710843,4,1,0,60,0,0
78753,-125,4,1,0,60,0,0
78884,-111.111111111111,4,1,0,80,0,0
79014,-116.279069767442,4,1,0,70,0,0
80449,-103.6363636,4,1,0,72,0,0
80579,-110.6796117,4,1,0,74,0,0
80710,-100,4,1,0,76,0,0
80840,-107.5471698,4,1,0,78,0,0
80971,-96.6101695,4,1,0,80,0,0
81101,-104.587156,4,1,0,81,0,0
81166,-103.626943005181,4,1,0,81,0,0
81232,-102.79355,4,1,0,82,0,0
81297,-101.9196658,4,1,0,83,0,0
81362,-101.0604253,4,1,0,84,0,0
81427,-100.2156394,4,1,0,85,0,0
81492,-99.3847734,4,1,0,86,0,0
81623,-97.763866,4,1,0,87,0,0
81753,-96.194901,4,1,0,88,0,0
81818,-95.4291129,4,1,0,89,0,0
81884,-94.6754997,4,1,0,90,0,0
81949,-93.9336186,4,1,0,91,0,0
82014,-93.2033501,4,1,0,92,0,0
82079,-92.4842736,4,1,0,93,0,0
82145,-91.7762816,4,1,0,94,0,0
82210,-91.079047,4,1,0,95,0,0
82275,-90.3922548,4,1,0,96,0,0
82340,-89.7158134,4,1,0,97,0,0
82405,-89.0493513,4,1,0,98,0,0
82471,-88.3927865,4,1,0,99,0,0
82536,-87.6923077,4,1,0,100,0,0
82797,-81.9672131147541,4,1,0,100,0,0
83058,-76.9230769230769,4,1,0,100,0,1
83188,-100,4,1,0,100,0,1
83318,-98.738208,4,1,0,100,0,1
83351,-98.4276995,4,1,0,100,0,1
83384,-98.1191379,4,1,0,100,0,1
83449,-97.5077823,4,1,0,100,0,1
83492,-97.1044269,4,1,0,100,0,1
83536,-96.7043948,4,1,0,100,0,1
83579,-96.3077224,4,1,0,100,0,1
83645,-95.7186637,4,1,0,100,0,1
83710,-95.136767,4,1,0,100,0,1
83775,-94.5619026,4,1,0,100,0,1
83840,-93.9940173,4,1,0,100,0,1
83971,-92.8783224,4,1,0,100,0,1
84036,-92.3303488,4,1,0,100,0,1
84101,-91.7888734,4,1,0,100,0,1
84232,-90.7246175,4,1,0,100,0,1
84264,-90.4623986,4,1,0,100,0,1
84297,-90.2017588,4,1,0,100,0,1
84362,-89.6848251,4,1,0,100,0,1
84492,-88.6685312,4,1,0,100,0,1
84525,-88.4181116,4,1,0,100,0,1
84623,-87.6750762,4,1,0,100,0,1
84688,-87.1866186,4,1,0,100,0,1
84753,-86.7035735,4,1,0,100,0,1
84884,-85.753426,4,1,0,100,0,1
85145,-82.7586207,4,1,0,100,0,1
85275,-83.9160839,4,1,0,100,0,1
85405,-85.106383,4,1,0,100,0,1
85438,-85.4092527,4,1,0,100,0,1
85471,-85.7142857,4,1,0,100,0,1
85536,-86.3309353,4,1,0,100,0,1
85579,-86.7470089,4,1,0,100,0,1
85623,-87.1670491,4,1,0,100,0,1
85666,-87.5912409,4,1,0,100,0,1
85732,-88.2352941,4,1,0,100,0,1
85797,-88.8888889,4,1,0,100,0,1
85862,-89.5522388,4,1,0,100,0,1
85927,-90.2255639,4,1,0,100,0,1
86058,-91.6030534,4,1,0,100,0,1
86123,-92.3076923,4,1,0,100,0,1
86188,-93.0232558,4,1,0,100,0,1
86318,-94.488189,4,1,0,100,0,1
86351,-94.8616601,4,1,0,100,0,1
86384,-95.2380952,4,1,0,100,0,1
86449,-96,4,1,0,100,0,1
86710,-93.75,4,1,0,100,0,1
86742,-94.2912169,4,1,0,100,0,1
86775,-94.8387189,4,1,0,100,0,1
86840,-95.9530214,4,1,0,100,0,1
86971,-98.2620715,4,1,0,100,0,1
87231,-85.7142857,4,1,0,100,0,1
87361,-100,4,1,0,100,0,1
87491,-98.738208,4,1,0,100,0,1
87524,-98.4276995,4,1,0,100,0,1
87557,-98.1191379,4,1,0,100,0,1
87622,-97.5077823,4,1,0,100,0,1
87665,-97.1044269,4,1,0,100,0,1
87709,-96.7043948,4,1,0,100,0,1
87752,-96.3077224,4,1,0,100,0,1
87815,-95.7186637,4,1,0,100,0,1
87883,-95.136767,4,1,0,100,0,1
87948,-94.5619026,4,1,0,100,0,1
88013,-93.9940173,4,1,0,100,0,1
88144,-92.8783224,4,1,0,100,0,1
88209,-92.3303488,4,1,0,100,0,1
88274,-91.7888734,4,1,0,100,0,1
88405,-90.7246175,4,1,0,100,0,1
88437,-90.4623986,4,1,0,100,0,1
88470,-90.2017588,4,1,0,100,0,1
88535,-89.6848251,4,1,0,100,0,1
88665,-88.6685312,4,1,0,100,0,1
88698,-88.4181116,4,1,0,100,0,1
88796,-87.6750762,4,1,0,100,0,1
88861,-87.1866186,4,1,0,100,0,1
88926,-86.7035735,4,1,0,100,0,1
89057,-85.753426,4,1,0,100,0,1
89318,-82.7586207,4,1,0,100,0,1
89448,-83.9160839,4,1,0,100,0,1
89578,-85.106383,4,1,0,100,0,1
89611,-85.4092527,4,1,0,100,0,1
89644,-85.7142857,4,1,0,100,0,1
89709,-86.3309353,4,1,0,100,0,1
89752,-86.7470089,4,1,0,100,0,1
89796,-87.1670491,4,1,0,100,0,1
89839,-87.5912409,4,1,0,100,0,1
89905,-88.2352941,4,1,0,100,0,1
89970,-88.8888889,4,1,0,100,0,1
90035,-89.5522388,4,1,0,100,0,1
90100,-90.2255639,4,1,0,100,0,1
90231,-94.3396226415094,4,1,0,100,0,1
90297,-100,4,1,0,70,0,1
90362,-100,4,1,0,70,0,0
90427,-98.9304791,4,1,0,70,0,0
90492,-97.8835936,4,1,0,70,0,0
90558,-96.8586324,4,1,0,70,0,0
90623,-95.854914,4,1,0,70,0,0
90688,-94.8717847,4,1,0,70,0,0
90753,-93.9086175,4,1,0,70,0,0
90818,-92.9648105,4,1,0,70,0,0
90884,-92.0397857,4,1,0,70,0,0
90927,-91.4333085,4,1,0,70,0,0
90971,-90.8347028,4,1,0,70,0,0
91014,-90.2438841,4,1,0,70,0,0
91079,-89.3719609,4,1,0,70,0,0
91145,-88.5167252,4,1,0,70,0,0
91188,-87.9556469,4,1,0,70,0,0
91232,-87.4015731,4,1,0,70,0,0
91275,-86.8544363,4,1,0,70,0,0
91340,-86.2068965517241,4,1,0,70,0,0
91405,-86.2068965517241,4,1,0,100,0,1
91534,-100,4,1,0,100,0,1
91664,-98.738208,4,1,0,100,0,1
91697,-98.4276995,4,1,0,100,0,1
91730,-98.1191379,4,1,0,100,0,1
91795,-97.5077823,4,1,0,100,0,1
91838,-97.1044269,4,1,0,100,0,1
91882,-96.7043948,4,1,0,100,0,1
91925,-96.3077224,4,1,0,100,0,1
91991,-95.7186637,4,1,0,100,0,1
92056,-95.136767,4,1,0,100,0,1
92121,-94.5619026,4,1,0,100,0,1
92186,-93.9940173,4,1,0,100,0,1
92317,-92.8783224,4,1,0,100,0,1
92382,-92.3303488,4,1,0,100,0,1
92447,-91.7888734,4,1,0,100,0,1
92578,-90.7246175,4,1,0,100,0,1
92610,-90.4623986,4,1,0,100,0,1
92643,-90.2017588,4,1,0,100,0,1
92708,-89.6848251,4,1,0,100,0,1
92838,-88.6685312,4,1,0,100,0,1
92871,-88.4181116,4,1,0,100,0,1
92969,-87.6750762,4,1,0,100,0,1
93034,-87.1866186,4,1,0,100,0,1
93099,-86.7035735,4,1,0,100,0,1
93230,-80,4,1,0,100,0,1
93491,-82.7586207,4,1,0,100,0,1
93621,-83.9160839,4,1,0,100,0,1
93751,-85.106383,4,1,0,100,0,1
93784,-85.4092527,4,1,0,100,0,1
93817,-85.7142857,4,1,0,100,0,1
93882,-86.3309353,4,1,0,100,0,1
93925,-86.7470089,4,1,0,100,0,1
93969,-87.1670491,4,1,0,100,0,1
94012,-87.5912409,4,1,0,100,0,1
94078,-88.2352941,4,1,0,100,0,1
94143,-88.8888889,4,1,0,100,0,1
94208,-89.5522388,4,1,0,100,0,1
94273,-90.2255639,4,1,0,100,0,1
94404,-91.6030534,4,1,0,100,0,1
94469,-92.3076923,4,1,0,100,0,1
94534,-93.0232558,4,1,0,100,0,1
94664,-94.488189,4,1,0,100,0,1
94697,-94.8616601,4,1,0,100,0,1
94730,-95.2380952,4,1,0,100,0,1
94795,-96,4,1,0,100,0,1
95056,-93.75,4,1,0,100,0,1
95088,-94.2912169,4,1,0,100,0,1
95121,-94.8387189,4,1,0,100,0,1
95186,-95.9530214,4,1,0,100,0,1
95318,-98.2620715,4,1,0,100,0,0
95577,-120,4,1,0,100,0,0
95710,-100,4,1,0,100,0,1
95837,-98.738208,4,1,0,100,0,1
95870,-98.4276995,4,1,0,100,0,1
95903,-98.1191379,4,1,0,100,0,1
95968,-97.5077823,4,1,0,100,0,1
96011,-97.1044269,4,1,0,100,0,1
96055,-96.7043948,4,1,0,100,0,1
96098,-96.3077224,4,1,0,100,0,1
96164,-95.7186637,4,1,0,100,0,1
96229,-95.136767,4,1,0,100,0,1
96294,-94.5619026,4,1,0,100,0,1
96359,-93.9940173,4,1,0,100,0,1
96490,-92.8783224,4,1,0,100,0,1
96555,-92.3303488,4,1,0,100,0,1
96620,-91.7888734,4,1,0,100,0,1
96751,-90.7246175,4,1,0,100,0,1
96783,-90.4623986,4,1,0,100,0,1
96816,-90.2017588,4,1,0,100,0,1
96881,-89.6848251,4,1,0,100,0,1
97011,-88.6685312,4,1,0,100,0,1
97044,-88.4181116,4,1,0,100,0,1
97142,-87.6750762,4,1,0,100,0,1
97207,-87.1866186,4,1,0,100,0,1
97272,-86.7035735,4,1,0,100,0,1
97403,-85.753426,4,1,0,100,0,1
97666,-82.7586207,4,1,0,100,0,1
97797,-84.571841,4,1,0,100,0,1
97927,-86.4662954,4,1,0,100,0,1
97960,-86.9532452,4,1,0,100,0,1
97992,-87.4457108,4,1,0,100,0,1
98058,-88.4475683,4,1,0,100,0,1
98101,-89.128347,4,1,0,100,0,1
98145,-89.819687,4,1,0,100,0,1
98188,-90.5217675,4,1,0,100,0,1
98221,-91.0556077,4,1,0,100,0,1
98253,-91.5957817,4,1,0,100,0,1
98318,-92.6955877,4,1,0,100,0,1
98384,-93.8221258,4,1,0,100,0,1
98449,-94.9763825,4,1,0,100,0,1
98482,-95.5643032,4,1,0,100,0,1
98514,-96.1594709,4,1,0,100,0,1
98579,-97.3723266,4,1,0,100,0,1
98645,-98.6161686,4,1,0,100,0,1
98710,-100,4,1,0,100,0,0
98840,-100,4,1,0,80,0,0
99232,-87.719298245614,4,1,0,80,0,0
99362,-90.9090909090909,4,1,0,80,0,0
99492,-94.3396226415094,4,1,0,80,0,0
99623,-98.0392156862745,4,1,0,80,0,0
99753,-76.9230769230769,4,1,0,100,0,0
99884,-100,4,1,0,100,0,0
100014,-76.9230769230769,4,1,0,100,0,0
100145,-100,4,1,0,100,0,0
100275,-76.9230769230769,4,1,0,100,0,0
100405,-100,4,1,0,100,0,0
100536,-76.9230769230769,4,1,0,100,0,0
100666,-100,4,1,0,100,0,0
100797,-76.9230769230769,4,1,0,100,0,0
100927,-100,4,1,0,100,0,0
101058,-76.9230769230769,4,1,0,100,0,0
101318,-84.7457627118644,4,1,0,100,0,0
101362,-86.9565217391304,4,1,0,100,0,0
101405,-89.2857142857143,4,1,0,100,0,0
101449,-91.743119266055,4,1,0,100,0,0
101492,-94.3396226415094,4,1,0,100,0,0
101536,-97.0873786407767,4,1,0,100,0,0
101579,-100,4,1,0,100,0,0
101840,-76.9230769230769,4,1,0,100,0,0
101971,-100,4,1,0,100,0,0
102101,-76.9230769230769,4,1,0,100,0,0
102232,-100,4,1,0,100,0,0
102362,-76.9230769230769,4,1,0,100,0,0
102492,-100,4,1,0,100,0,0
102623,-76.9230769230769,4,1,0,100,0,0
102753,-100,4,1,0,100,0,0
102884,-76.9230769230769,4,1,0,100,0,0
103014,-90.9090909090909,4,1,0,100,0,0
103079,-88.4955752212389,4,1,0,100,0,0
103145,-86.2068965517241,4,1,0,100,0,0
103210,-84.0336134453781,4,1,0,100,0,0
103275,-81.9672131147541,4,1,0,100,0,0
103405,-83.3333333333333,4,1,0,100,0,0
103454,-81.4441679867409,4,1,0,100,0,0
103503,-79.6387585910311,4,1,0,100,0,0
103552,-77.9116559732919,4,1,0,100,0,0
103601,-76.2578736254518,4,1,0,100,0,0
103666,-74.1589998620643,4,1,0,100,0,0
103715,-72.6591580692718,4,1,0,100,0,0
103764,-71.2187812472403,4,1,0,100,0,0
103813,-69.8344016832884,4,1,0,100,0,0
103862,-68.502816150772,4,1,0,100,0,0
103927,-66.6666666666667,4,1,0,100,0,0
104058,-76.9230769230769,4,1,0,100,0,0
106014,-66.6666666666667,4,1,0,100,0,0
106145,-76.9230769230769,4,1,0,100,0,0
107710,-83.3333333333333,4,1,0,100,0,0
107840,-90.9090909090909,4,1,0,100,0,0
107971,-100,4,1,0,100,0,0
108101,-76.9230769230769,4,1,0,100,0,0
108232,-100,4,1,0,100,0,0
108362,-76.9230769230769,4,1,0,100,0,0
108493,-100,4,1,0,100,0,0
108623,-76.9230769230769,4,1,0,100,0,0
108753,-100,4,1,0,100,0,0
108884,-76.9230769230769,4,1,0,100,0,0
109014,-100,4,1,0,100,0,0
109145,-76.9230769230769,4,1,0,100,0,0
109275,-100,4,1,0,100,0,0
109406,-76.9230769230769,4,1,0,100,0,0
109666,-84.7457627118644,4,1,0,100,0,0
109710,-86.9565217391304,4,1,0,100,0,0
109753,-89.2857142857143,4,1,0,100,0,0
109797,-91.743119266055,4,1,0,100,0,0
109840,-94.3396226415094,4,1,0,100,0,0
109884,-97.0873786407767,4,1,0,100,0,0
109927,-100,4,1,0,100,0,0
110188,-76.9230769230769,4,1,0,100,0,0
110319,-100,4,1,0,100,0,0
110449,-76.9230769230769,4,1,0,100,0,0
110580,-100,4,1,0,100,0,0
110710,-76.9230769230769,4,1,0,100,0,0
110840,-100,4,1,0,100,0,0
110971,-76.9230769230769,4,1,0,100,0,0
111101,-100,4,1,0,100,0,0
111232,-76.9230769230769,4,1,0,100,0,0
111362,-90.9090909090909,4,1,0,100,0,0
111427,-88.4955752212389,4,1,0,100,0,0
111493,-86.2068965517241,4,1,0,100,0,0
111558,-84.0336134453781,4,1,0,100,0,0
111623,-81.9672131147541,4,1,0,100,0,0
111753,-83.3333333333333,4,1,0,100,0,0
111802,-81.4441679867409,4,1,0,100,0,0
111851,-79.6387585910311,4,1,0,100,0,0
111900,-77.9116559732919,4,1,0,100,0,0
111949,-76.2578736254518,4,1,0,100,0,0
112014,-74.1589998620643,4,1,0,100,0,0
112063,-72.6591580692718,4,1,0,100,0,0
112112,-71.2187812472403,4,1,0,100,0,0
112161,-69.8344016832884,4,1,0,100,0,0
112210,-68.502816150772,4,1,0,100,0,0
112275,-66.6666666666667,4,1,0,100,0,0
112406,-76.9230769230769,4,1,0,100,0,0
114362,-66.6666666666667,4,1,0,100,0,0
114493,-76.9230769230769,4,1,0,100,0,0
116449,-66.6666666666667,4,1,0,100,0,0
116579,-76.9230769230769,4,1,0,100,0,0
118536,-66.6666666666667,4,1,0,100,0,0
118797,-68.9655172413793,4,1,0,100,0,0
118927,-62.5,4,1,0,100,0,0
119188,-71.4285714285714,4,1,0,100,0,0
119318,-58.8235294117647,4,1,0,100,0,0
119579,-74.0740740740741,4,1,0,100,0,0
119710,-55.5555555555556,4,1,0,100,0,0
119971,-76.9230769230769,4,1,0,100,0,0
120101,-40,4,1,0,100,0,0
120623,-66.6666666666667,4,1,0,100,0,0
120884,-200,4,1,0,40,0,0
122188,-222.222222222222,4,1,0,40,0,0
122710,-243.90243902439,4,1,0,40,0,0
123753,-277.777777777778,4,1,0,40,0,0
124797,-333.333333333333,4,1,0,40,0,0
125840,-370.37037037037,4,1,0,40,0,0
126362,-392.156862745098,4,1,0,40,0,0
126884,-416.666666666667,4,1,0,40,0,0
127927,-476.190476190476,4,1,0,40,0,0
128449,-499.400719137036,4,1,0,40,0,0
128971,-120.481927710843,4,1,0,65,0,0
132492,-106.870261639775,4,1,0,65,0,0
132558,-103.934654204209,4,1,0,65,0,0
132623,-101.156113217968,4,1,0,65,0,0
132753,-97.0873786407767,4,1,0,65,0,0
132884,-93.4579439252336,4,1,0,65,0,0
133014,-90.4977375565611,4,1,0,65,0,0
133113,-76.9230769230769,4,1,0,80,0,0
133243,-88.6672601461946,4,1,0,80,0,0
133373,-80,4,1,0,80,0,0
133504,-90.6259260836822,4,1,0,80,0,0
133634,-83.3333333333333,4,1,0,80,0,0
133765,-92.6730808795046,4,1,0,80,0,0
133895,-86.2068965517241,4,1,0,80,0,0
134026,-94.8147698655906,4,1,0,80,0,0
134156,-89.2857142857143,4,1,0,80,0,0
134286,-97.0579785540691,4,1,0,80,0,0
134417,-92.5925925925926,4,1,0,80,0,0
134547,-99.4098039936895,4,1,0,80,0,0
134678,-96.1538461538461,4,1,0,80,0,0
134808,-101.878434576726,4,1,0,80,0,0
134939,-100,4,1,0,80,0,0
135069,-104.472684571892,4,1,0,80,0,0
135134,-105.142078490664,4,1,0,80,0,0
135200,-105.820105820106,4,1,0,80,0,0
135243,-106.276927916611,4,1,0,80,0,0
135286,-106.737825216811,4,1,0,80,0,0
135330,-107.202737529106,4,1,0,80,0,0
135395,-107.907575003858,4,1,0,80,0,0
135460,-108.621860149355,4,1,0,80,0,0
135526,-109.345664608417,4,1,0,80,0,0
135591,-110.079058780016,4,1,0,80,0,0
135656,-110.822480118447,4,1,0,80,0,0
135721,-111.576011157601,4,1,0,80,0,0
135765,-112.084000233135,4,1,0,80,0,0
135808,-112.596762843068,4,1,0,80,0,0
135852,-113.114238594126,4,1,0,80,0,0
135917,-113.899237900199,4,1,0,80,0,0
135982,-114.695340501792,4,1,0,80,0,0
136047,-115.502650208309,4,1,0,80,0,0
136113,-116.321405348691,4,1,0,80,0,0
136178,-117.151713812421,4,1,0,80,0,0
136243,-117.994100294985,4,1,0,80,0,0
136286,-118.562360244618,4,1,0,80,0,0
136330,-119.136262099777,4,1,0,80,0,0
136373,-119.715746930488,4,1,0,80,0,0
136439,-120.595403626786,4,1,0,80,0,0
136504,-121.488230827639,4,1,0,80,0,0
136569,-122.394376712756,4,1,0,80,0,0
136634,-123.31398947885,4,1,0,80,0,0
136700,-124.247680295809,4,1,0,80,0,0
136765,-125.195618153365,4,1,0,80,0,0
136830,-126.158131648534,4,1,0,80,0,0
136895,-127.135559561738,4,1,0,80,0,0
136960,-128.128087086098,4,1,0,80,0,0
137026,-129.136400322841,4,1,0,80,0,0
137091,-130.160709427931,4,1,0,80,0,0
137156,-131.201225944255,4,1,0,80,0,0
137221,-132.258687411883,4,1,0,80,0,0
137286,-50,4,1,0,80,0,0
138101,-120.481927710843,4,1,0,60,0,0
138362,-128.205128205128,4,1,0,60,0,0
138623,-135.135135135135,4,1,0,60,0,0
138884,-140.845070422535,4,1,0,60,0,0
139145,-144.927536231884,4,1,0,60,0,0
139405,-151.515151515152,4,1,0,60,0,0
139536,-142.857142857143,4,1,0,60,0,0
139666,-133.333333333333,4,1,0,60,0,0
139797,-123.456790123457,4,1,0,60,0,0
139927,-113.636363636364,4,1,0,60,0,0
140058,-104.166666666667,4,1,0,60,0,0
140188,-95.2380952380952,4,1,0,60,0,0
140318,-86.9565217391304,4,1,0,60,0,0
140449,-76.9230769230769,4,1,0,60,0,0
140971,-109.289617486339,4,1,0,60,0,0
141362,-102.040816326531,4,1,0,80,0,0
141427,-94.3396226415094,4,1,0,90,0,0
141492,-87.7192982,4,1,0,100,0,1
147884,-90.9090909090909,4,1,0,100,0,1
147949,-86.9565217391304,4,1,0,100,0,1
148014,-83.3333333333333,4,1,0,100,0,1
148145,-76.9230769230769,4,1,0,100,0,1
148275,-87.719298245614,4,1,0,100,0,1
148405,-71.4285714285714,4,1,0,100,0,1
148666,-66.6666666666667,4,1,0,100,0,1
148797,-73.0994152,4,1,0,100,0,1
148927,-77.3993808,4,1,0,100,0,1
148992,-78.7897888,4,1,0,100,0,1
149058,-80.2310655,4,1,0,100,0,1
149101,-81.2215724,4,1,0,100,0,1
149145,-82.2368421,4,1,0,100,0,1
149188,-83.2778148,4,1,0,100,0,1
149253,-84.8896435,4,1,0,100,0,1
149318,-86.565097,4,1,0,100,0,1
149351,-87.427872,4,1,0,100,0,1
149449,-90.1225667,4,1,0,100,0,1
149482,-91.0580951,4,1,0,100,0,1
149579,-92.6612305,4,1,0,100,0,1
149710,-95.3470633,4,1,0,100,0,1
149775,-91.374269,4,1,0,100,0,1
149840,-87.7192982,4,1,0,100,0,1
155645,-90.7441016,4,1,0,100,0,1
155710,-93.9849624,4,1,0,100,0,1
155775,-97.4658869,4,1,0,100,0,1
155840,-101.2145749,4,1,0,100,0,1
155905,-104.427736,4,1,0,100,0,1
155971,-107.8515962,4,1,0,100,0,1
156036,-111.5075825,4,1,0,100,0,1
156101,-82.2368421,4,1,0,100,0,0
156275,-90.7441016,4,1,0,100,0,0
156449,-101.2145749,4,1,0,100,0,0
156623,-93.9849624,4,1,0,100,0,0
156797,-101.2145749,4,1,0,100,0,0
156971,-109.6491228,4,1,0,100,0,0
157145,-87.719298245614,4,1,0,100,0,1
157536,-100,4,1,0,100,0,1
157927,-83.3333333333333,4,1,0,100,0,1
158318,-93.4579439252336,4,1,0,100,0,1
158710,-109.289617486339,4,1,0,100,0,1
159232,-87.719298245614,4,1,0,100,0,1
159623,-100,4,1,0,100,0,1
160014,-83.3333333333333,4,1,0,100,0,1
160405,-93.4579439252336,4,1,0,100,0,1
160666,-76.9230769230769,4,1,0,100,0,0
160927,-100,4,1,0,100,0,0
161318,-87.719298245614,4,1,0,100,0,1
161710,-100,4,1,0,100,0,1
162101,-83.3333333333333,4,1,0,100,0,1
162492,-93.4579439252336,4,1,0,100,0,1
162884,-108.695652173913,4,1,0,100,0,1
163405,-87.719298245614,4,1,0,100,0,1
163797,-100,4,1,0,100,0,1
164188,-83.3333333333333,4,1,0,100,0,1
164579,-93.4579439252336,4,1,0,100,0,1
164971,-76.9230769230769,4,1,0,100,0,0
165492,-87.7192982,4,1,0,90,0,0
166536,-131.5789474,4,1,0,90,0,0
167579,-93.9849624,4,1,0,90,0,0
168623,-158.5288523,4,1,0,90,0,0
169666,-101.2145749,4,1,0,90,0,0
170710,-199.3620415,4,1,0,90,0,0
171753,-109.6491228,4,1,0,90,0,0
172797,-200,4,1,0,90,0,0
173188,-120.481927710843,4,1,0,90,0,0
178145,-119.540295838324,4,1,0,90,0,0
178275,-118.613127863766,4,1,0,90,0,0
178405,-117.700370167664,4,1,0,90,0,0
178536,-116.80141656758,4,1,0,90,0,0
178666,-115.916225025849,4,1,0,90,0,0
178797,-115.044217244898,4,1,0,90,0,0
178927,-114.185361665005,4,1,0,90,0,0
179058,-113.339106071803,4,1,0,90,0,0
179188,-112.50542838692,4,1,0,90,0,0
179318,-111.68380082311,4,1,0,90,0,0
179449,-110.874209882662,4,1,0,90,0,0
179579,-110.076150681041,4,1,0,90,0,0
179710,-109.289617486339,4,1,0,90,0,0
179840,-108.514244664897,4,1,0,90,0,0
179971,-107.749680252824,4,1,0,90,0,0
180101,-106.995928804909,4,1,0,90,0,0
180166,-106.622880203863,4,1,0,90,0,0
180232,-106.252536779316,4,1,0,90,0,0
180297,-105.884757148015,4,1,0,90,0,0
180362,-105.519514779063,4,1,0,90,0,0
180427,-105.156672926994,4,1,0,90,0,0
180492,-104.796427699373,4,1,0,90,0,0
180558,-104.43864229765,4,1,0,90,0,0
180623,-104.083291613281,4,1,0,90,0,0
180688,-103.730350878285,4,1,0,90,0,0
180753,-103.379688785785,4,1,0,90,0,0
180818,-103.03149569792,4,1,0,90,0,0
180884,-102.685640234698,4,1,0,90,0,0
180949,-102.342098934107,4,1,0,90,0,0
181014,-102.000744605436,4,1,0,90,0,0
181079,-101.661763180956,4,1,0,90,0,0
181145,-101.325027383089,4,1,0,90,0,0
181210,-100.990514970834,4,1,0,90,0,0
181275,-100.658102675291,4,1,0,90,0,0
181340,-100.327972140929,4,1,0,90,0,0
181405,-100,4,1,0,90,0,0
181492,-103.092783505155,4,1,0,90,0,0
181579,-106.382978723404,4,1,0,90,0,0
181666,-109.89010989011,4,1,0,90,0,0
182188,-93.4579439252336,4,1,0,90,0,0
182318,-100,4,1,0,90,0,0
197971,-93.4579439252336,4,1,0,90,0,0
198101,-100,4,1,0,90,0,0
198166,-97.5609756097561,4,1,0,90,0,0
198232,-95.2380952380952,4,1,0,90,0,0
198362,-90.9090909090909,4,1,0,90,0,0
198492,-92.5925925925926,4,1,0,90,0,0
198558,-90.0900900900901,4,1,0,90,0,0
198623,-87.719298245614,4,1,0,90,0,0
198753,-93.4579439252336,4,1,0,90,0,0
198884,-100,4,1,0,95,0,0
213492,-93.4579439252336,4,1,0,95,0,0
213623,-100,4,1,0,95,0,0
213688,-104.166666666667,4,1,0,95,0,0
213753,-108.695652173913,4,1,0,95,0,0
213884,-93.4579439252336,4,1,0,95,0,0
214014,-100,4,1,0,95,0,0
214079,-104.166666666667,4,1,0,95,0,0
214145,-108.695652173913,4,1,0,95,0,0
214275,-93.4579439252336,4,1,0,95,0,0
214340,-96.6183574879227,4,1,0,95,0,0
214405,-100,4,1,0,95,0,0
214471,-104.166666666667,4,1,0,95,0,0
214536,-93.4579439252336,4,1,0,95,0,0
214666,-100,4,1,0,95,0,0
214732,-104.166666666667,4,1,0,95,0,0
214797,-108.695652173913,4,1,0,95,0,0
214927,-93.4579439252336,4,1,0,95,0,0
215058,-100,4,1,0,95,0,0
215123,-104.166666666667,4,1,0,95,0,0
215188,-108.695652173913,4,1,0,95,0,0
215318,-93.4579439252336,4,1,0,95,0,0
215384,-96.6183574879227,4,1,0,95,0,0
215449,-100,4,1,0,95,0,0
215514,-104.166666666667,4,1,0,95,0,0
215579,-90.9090909090909,4,1,0,95,0,0
215710,-103.092783505155,4,1,0,95,0,0
215775,-99.009900990099,4,1,0,95,0,0
215840,-95.2380952380952,4,1,0,95,0,0
215905,-91.743119266055,4,1,0,95,0,0
215971,-88.4955752212389,4,1,0,95,0,0
216101,-100,4,1,0,95,0,0
216166,-96.1538461538461,4,1,0,95,0,0
216232,-92.5925925925926,4,1,0,95,0,0
216297,-89.2857142857143,4,1,0,95,0,0
216362,-86.2068965517241,4,1,0,95,0,0
216492,-97.0873786407767,4,1,0,95,0,0
216558,-93.4579439252336,4,1,0,95,0,0
216623,-90.0900900900901,4,1,0,95,0,0
216688,-86.9565217391304,4,1,0,95,0,0
216753,-84.0336134453781,4,1,0,95,0,0
216884,-96.1538461538461,4,1,0,95,0,0
216949,-93.4579439252336,4,1,0,95,0,0
217014,-90.9090909090909,4,1,0,95,0,0
217079,-87.719298245614,4,1,0,95,0,0
217145,-84.7457627118644,4,1,0,95,0,0
217232,-86.9565217391304,4,1,0,95,0,0
217318,-89.2857142857143,4,1,0,95,0,0
217405,-91.743119266055,4,1,0,95,0,0
217492,-94.3396226415094,4,1,0,95,0,0
217579,-97.0873786407767,4,1,0,95,0,0
217666,-100,4,1,0,100,0,1
255232,-87.7192982,4,1,0,100,0,0
255579,-106.974754,4,1,0,100,0,0
255666,-111.0370864,4,1,0,100,0,0
255753,-115.4201293,4,1,0,100,0,0
256273,-131.5789474,4,1,0,50,0,0
257317,-200,4,1,0,40,0,0
258361,-250,4,1,0,40,0,0
259404,-312.5,4,1,0,40,0,0
260448,-384.615384615385,4,1,0,40,0,0
261491,-454.545454545455,4,1,0,40,0,0
262535,-512.820512820513,4,1,0,40,0,0
263448,-100,4,1,0,60,0,0
264100,-90.909090909091,4,1,0,60,0,0
264361,-100,4,1,0,60,0,0
265144,-86.9565217391304,4,1,0,60,0,0
265275,-100,4,1,0,60,0,0
265405,-86.9565217391304,4,1,0,60,0,0
265665,-100,4,1,0,60,0,0
266187,-83.3333333333333,4,1,0,60,0,0
266448,-100,4,1,0,60,0,0
267230,-80,4,1,0,60,0,0
267362,-100,4,1,0,60,0,0
267492,-80,4,1,0,60,0,0
267752,-100,4,1,0,60,0,0
268274,-76.9230769230769,4,1,0,60,0,0
268535,-100,4,1,0,60,0,0
269317,-74.0740740740741,4,1,0,60,0,0
269449,-100,4,1,0,60,0,0
269579,-74.0740740740741,4,1,0,60,0,0
269839,-100,4,1,0,60,0,0
270361,-71.4285714285714,4,1,0,60,0,0
270622,-100,4,1,0,60,0,0
271404,-68.9655172413793,4,1,0,75,0,0
271491,-71.4285714285714,4,1,0,75,0,0
271578,-74.0740740740741,4,1,0,75,0,0
271665,-76.9230769230769,4,1,0,75,0,0
271752,-80,4,1,0,75,0,0
271839,-83.3333333333333,4,1,0,75,0,0
271926,-66.6666666666667,4,1,0,100,0,0
273491,-90.9090909090909,4,1,0,100,0,0
273578,-87.7573264203962,4,1,0,100,0,0
273665,-84.8167787944482,4,1,0,100,0,0
273752,-82.0668368732863,4,1,0,100,0,0
273839,-79.4896762782934,4,1,0,100,0,0
273926,-77.0694495931118,4,1,0,100,0,0
274013,-66.6666666666667,4,1,0,100,0,0
275578,-90.9090909090909,4,1,0,100,0,0
275622,-94.3396226415094,4,1,0,100,0,0
275752,-84.1984017459381,4,1,0,100,0,0
275796,-86.9565217391304,4,1,0,100,0,0
275926,-78.125,4,1,0,100,0,0
275970,-80.6451612903226,4,1,0,100,0,0
276100,-66.6666666666667,4,1,0,100,0,0
277665,-76.9230769230769,4,1,0,100,0,0
277752,-79.333975409641,4,1,0,100,0,0
277839,-81.9008868228025,4,1,0,100,0,0
277926,-84.6395329252015,4,1,0,100,0,0
278013,-87.5675912344841,4,1,0,100,0,0
278100,-90.7054982951902,4,1,0,100,0,0
278187,-66.6666666666667,4,1,0,100,0,0
279752,-74.0740740740741,4,1,0,100,0,0
279796,-75.7363466301113,4,1,0,100,0,0
279839,-77.4748768343146,4,1,0,100,0,0
279926,-81.2030392673537,4,1,0,100,0,0
280013,-85.3080730441845,4,1,0,100,0,0
280100,-89.8502465940018,4,1,0,100,0,0
280187,-94.9033125052197,4,1,0,100,0,0
280274,-66.6666666666667,4,1,0,100,0,0
280796,-87.719298245614,4,1,0,100,0,0
280926,-66.6666666666667,4,1,0,100,0,0
281839,-87.719298245614,4,1,0,100,0,0
282361,-66.6666666666667,4,1,0,100,0,0
282883,-87.719298245614,4,1,0,100,0,0
283013,-66.6666666666667,4,1,0,100,0,0
283926,-87.719298245614,4,1,0,100,0,0
284448,-100,4,1,0,100,0,0
284535,-98.7046316,4,1,0,100,0,0
284622,-97.4423936,4,1,0,100,0,0
284709,-96.2120311,4,1,0,100,0,0
284796,-95.0123516,4,1,0,100,0,0
284883,-93.8422216,4,1,0,100,0,0
284970,-92.7005625,4,1,0,100,0,0
285057,-91.5863479,4,1,0,100,0,0
285144,-90.4985997,4,1,0,100,0,0
285230,-89.436386,4,1,0,100,0,0
285317,-88.3988182,4,1,0,100,0,0
285404,-87.3850484,4,1,0,100,0,0
285491,-86.3942671,4,1,0,100,0,0
285578,-85.425637,4,1,0,100,0,0
285665,-84.4785487,4,1,0,100,0,0
285752,-83.5522304,4,1,0,100,0,0
285839,-82.6460061,4,1,0,100,0,0
285926,-81.7592291,4,1,0,100,0,0
286013,-80.89128,4,1,0,100,0,0
286100,-80.0415654,4,1,0,100,0,0
286187,-79.2095168,4,1,0,100,0,0
286274,-78.3945888,4,1,0,100,0,0
286361,-77.5962585,4,1,0,100,0,0
286448,-76.8140238,4,1,0,100,0,0
286535,-76.0456273764259,4,1,0,100,0,0
286622,-77.8466873045729,4,1,0,100,0,0
286709,-79.6904034244917,4,1,0,100,0,0
286796,-81.577786002786,4,1,0,100,0,0
286883,-83.5098692331509,4,1,0,100,0,0
286970,-85.4877118030612,4,1,0,100,0,0
287057,-87.51239747388,4,1,0,100,0,0
287144,-89.5850356747076,4,1,0,100,0,0
287230,-91.6820912246015,4,1,0,100,0,0
287317,-93.8534841939301,4,1,0,100,0,0
287404,-96.0763042998376,4,1,0,100,0,0
287491,-98.3517695394411,4,1,0,100,0,0
287578,-100.681126756826,4,1,0,100,0,0
287665,-103.065652326256,4,1,0,100,0,0
287752,-105.506652851563,4,1,0,100,0,0
287839,-108.005465882104,4,1,0,100,0,0
287926,-110.563460645671,4,1,0,100,0,0
288013,-113.182038798764,4,1,0,100,0,0
288100,-115.862635194628,4,1,0,100,0,0
288187,-118.606718669482,4,1,0,100,0,0
288274,-121.415792847373,4,1,0,100,0,0
288361,-124.291396964085,4,1,0,100,0,0
288448,-127.235106710568,4,1,0,100,0,0
288535,-130.24853509634,4,1,0,100,0,0
288621,-50,4,1,0,100,0,0
288884,-200,4,1,0,40,0,0
290708,-166.666666666667,4,1,0,40,0,0
290840,-151.515151515152,4,1,0,40,0,0
290971,-141.129117618418,4,1,0,40,0,0
291101,-132.075446778218,4,1,0,40,0,0
291232,-124.113519189191,4,1,0,40,0,0
291297,-120.481927710843,4,1,0,40,0,0
291362,-117.056817037854,4,1,0,40,0,0
291427,-113.821193733916,4,1,0,40,0,0
291492,-110.759511196125,4,1,0,40,0,0
291558,-107.858226832323,4,1,0,40,0,0
291623,-105.105057760484,4,1,0,40,0,0
291688,-102.48904904511,4,1,0,40,0,0
291753,-25,4,1,0,40,0,0
292012,-120.481927710843,4,1,0,60,0,0
292797,-100,4,1,0,100,0,0
300753,-104.166666666667,4,1,0,100,0,0
300884,-108.695652173913,4,1,0,100,0,0
300971,-111.111111111111,4,1,0,100,0,0
301058,-113.636363636364,4,1,0,100,0,0
301145,-76.9230769230769,4,1,0,100,0,0
301405,-120.481927710843,4,1,0,60,0,0
301536,-119.4432492,4,1,0,60,0,0
301797,-117.4188229,4,1,0,60,0,0
302058,-115.4618763,4,1,0,60,0,0
302318,-113.5689837,4,1,0,60,0,0
302449,-112.6457277,4,1,0,60,0,0
302710,-110.8433247,4,1,0,60,0,0
302971,-109.0977914,4,1,0,60,0,0
303232,-107.4063822,4,1,0,60,0,0
303492,-105.7666181,4,1,0,60,0,0
303623,-104.9653238,4,1,0,60,0,0
303753,-104.1760794,4,1,0,60,0,0
303884,-103.398704,4,1,0,60,0,0
304145,-101.8780744,4,1,0,60,0,0
304275,-101.1344944,4,1,0,60,0,0
304536,-99.679264,4,1,0,60,0,0
304666,-98.9673225,4,1,0,60,0,0
304732,-98.6151115,4,1,0,60,0,0
304797,-98.2653985,4,1,0,60,0,0
305058,-96.8910811,4,1,0,60,0,0
305188,-96.2181995,4,1,0,61,0,0
305253,-95.8852513,4,1,0,62,0,0
305318,-95.5545994,4,1,0,63,0,0
305449,-94.9001648,4,1,0,65,0,0
305579,-94.2545597,4,1,0,67,0,0
305710,-93.6176793,4,1,0,69,0,0
305840,-92.9894198,4,1,0,71,0,0
305971,-92.3694656,4,1,0,73,0,0
306101,-91.7577929,4,1,0,75,0,0
306232,-91.154099,4,1,0,77,0,0
306362,-90.5582969,4,1,0,79,0,0
306492,-89.9702999,4,1,0,81,0,0
306558,-89.6791222,4,1,0,83,0,0
306623,-89.3898231,4,1,0,85,0,0
306753,-88.8167886,4,1,0,87,0,0
306818,-88.5330176,4,1,0,89,0,0
306884,-88.2511188,4,1,0,91,0,0
306927,-88.0641172,4,1,0,92,0,0
306971,-87.8779704,4,1,0,93,0,0
307014,-87.6925451,4,1,0,94,0,0
307079,-87.4159014,4,1,0,95,0,0
307145,-87.1409977,4,1,0,96,0,0
307210,-86.8678176,4,1,0,97,0,0
307275,-86.5964072,4,1,0,98,0,0
307340,-86.3266256,4,1,0,99,0,0
307373,-75.3012048,4,1,0,100,0,0
307578,-83.0909846,4,1,0,100,0,0
307752,-92.6784059,4,1,0,100,0,0
307926,-86.0585198,4,1,0,100,0,0
308100,-92.6784059,4,1,0,100,0,0
308274,-100.4016064,4,1,0,100,0,0
308449,-74.0740740740741,4,1,0,100,0,1
308839,-90.9090909090909,4,1,0,100,0,1
309230,-71.4285714285714,4,1,0,100,0,1
309621,-80,4,1,0,100,0,1
310013,-87.719298245614,4,1,0,100,0,1
310535,-76.9230769230769,4,1,0,100,0,1
310926,-90.9090909090909,4,1,0,100,0,1
311317,-71.4285714285714,4,1,0,100,0,1
311708,-80,4,1,0,100,0,1
311970,-66.6666666666667,4,1,0,100,0,0
312232,-100,4,1,0,100,0,0
312623,-76.9230769230769,4,1,0,100,0,1
313013,-90.9090909090909,4,1,0,100,0,1
313404,-71.4285714285714,4,1,0,100,0,1
313795,-80,4,1,0,100,0,1
314187,-87.719298245614,4,1,0,100,0,1
314708,-120.481927710843,4,1,0,40,0,0
315100,-100,4,1,0,40,0,0
315491,-87.719298245614,4,1,0,40,0,0
315882,-80,4,1,0,40,0,0
316143,-87.719298245614,4,1,0,40,0,0
316275,-109.289617486339,4,1,0,60,0,0
316666,-101.010101010101,4,1,0,80,0,0
316731,-92.5925925925926,4,1,0,90,0,0
316797,-83.3333333333333,4,1,0,100,0,1
323188,-90.9090909090909,4,1,0,100,0,1
323253,-86.9565217391304,4,1,0,100,0,1
323318,-83.3333333333333,4,1,0,100,0,1
323449,-76.9230769230769,4,1,0,100,0,1
323579,-87.719298245614,4,1,0,100,0,1
323709,-71.4285714285714,4,1,0,100,0,1
323970,-66.6666666666667,4,1,0,100,0,1
324101,-73.0994152,4,1,0,100,0,1
324231,-77.3993808,4,1,0,100,0,1
324296,-78.7897888,4,1,0,100,0,1
324362,-80.2310655,4,1,0,100,0,1
324405,-81.2215724,4,1,0,100,0,1
324449,-82.2368421,4,1,0,100,0,1
324492,-83.2778148,4,1,0,100,0,1
324557,-84.8896435,4,1,0,100,0,1
324622,-86.565097,4,1,0,100,0,1
324655,-87.427872,4,1,0,100,0,1
324688,-88.809946714032,4,1,0,100,0,1
324753,-90.1225667,4,1,0,100,0,1
324786,-91.0580951,4,1,0,100,0,1
324818,-91.4076782449726,4,1,0,100,0,1
324883,-92.6612305,4,1,0,100,0,1
325014,-95.3470633,4,1,0,100,0,1
325079,-90.9090909090909,4,1,0,100,0,1
325145,-83.3333333333333,4,1,0,100,0,1
331404,-66.6666666666667,4,1,0,100,0,0
331536,-82.6446280991736,4,1,0,100,0,0
331601,-83.7556713058933,4,1,0,100,0,0
331666,-84.8969944766015,4,1,0,100,0,0
331732,-86.0698525709495,4,1,0,100,0,0
331797,-87.2755708695091,4,1,0,100,0,0
331862,-88.5155499692409,4,1,0,100,0,0
331927,-89.7912712109431,4,1,0,100,0,0
331992,-91.1043025828981,4,1,0,100,0,0
332058,-92.456305150186,4,1,0,100,0,0
332123,-93.8490400650937,4,1,0,100,0,0
332188,-95.2843762208311,4,1,0,100,0,0
332253,-96.7642986184961,4,1,0,100,0,0
332318,-98.2908209151072,4,1,0,100,0,0
332384,-99.8663787851854,4,1,0,100,0,0
332448,-87.7192982,4,1,0,100,0,0
332579,-100,4,1,0,100,0,0
332612,-97.4930633685413,4,1,0,100,0,0
332645,-95.1086568850583,4,1,0,100,0,0
332710,-90.6735868748169,4,1,0,100,0,0
332775,-86.6336419223659,4,1,0,100,0,0
332840,-82.9384082792437,4,1,0,100,0,0
332971,-87.719298245614,4,1,0,100,0,0
333003,-86.2068965517241,4,1,0,100,0,0
333036,-84.804407115429,4,1,0,100,0,0
333068,-83.4184201218576,4,1,0,100,0,0
333101,-82.0770752983296,4,1,0,100,0,0
333166,-79.519637772146,4,1,0,100,0,0
333232,-77.1167586284013,4,1,0,100,0,0
333362,-71.4285714285714,4,1,0,100,0,0
333395,-72.4112961622013,4,1,0,100,0,0
333427,-73.4214390602056,4,1,0,100,0,0
333460,-74.4601638123604,4,1,0,100,0,0
333492,-75.5287009063444,4,1,0,100,0,0
333558,-77.7604976671851,4,1,0,100,0,0
333623,-80.1282051282051,4,1,0,100,0,0
333688,-82.6446280991736,4,1,0,100,0,0
333753,-66.6666666666667,4,1,0,100,0,1
333883,-83.3333333333333,4,1,0,100,0,1
339883,-90.9090909090909,4,1,0,100,0,1
339948,-86.9565217391304,4,1,0,100,0,1
340013,-83.3333333333333,4,1,0,100,0,1
340144,-76.9230769230769,4,1,0,100,0,1
340274,-87.719298245614,4,1,0,100,0,1
340405,-71.4285714285714,4,1,0,100,0,1
340666,-66.6666666666667,4,1,0,100,0,1
340794,-59.8086124,4,1,0,100,0,1
340927,-86.2068965517241,4,1,0,100,0,0
340992,-81.3008130081301,4,1,0,100,0,0
341058,-76.9230769230769,4,1,0,100,0,0
341188,-93.4579439252336,4,1,0,100,0,0
341253,-87.719298245614,4,1,0,100,0,0
341318,-83.3333333333333,4,1,0,100,0,0
341449,-97.0873786407767,4,1,0,100,0,0
341514,-90.9090909090909,4,1,0,100,0,0
341645,-107.52688172043,4,1,0,100,0,0
341710,-100,4,1,0,100,0,0
341840,-87.7192982,4,1,0,100,0,1
342884,-76.9230769230769,4,1,0,100,0,0
343014,-104.166666666667,4,1,0,100,0,0
343145,-100,4,1,0,100,0,0
343275,-104.166666666667,4,1,0,100,0,0
343536,-100,4,1,0,100,0,0
343666,-104.166666666667,4,1,0,100,0,0
343927,-87.7192982,4,1,0,100,0,1
344971,-76.9230769230769,4,1,0,100,0,0
345101,-100,4,1,0,100,0,0
345134,-98.0392156862745,4,1,0,100,0,0
345166,-96.1538461538461,4,1,0,100,0,0
345232,-90.7441016,4,1,0,100,0,0
345362,-100,4,1,0,100,0,0
345395,-98.0392156862745,4,1,0,100,0,0
345427,-96.1538461538461,4,1,0,100,0,0
345492,-90.9090909090909,4,1,0,100,0,0
345623,-90.7441016,4,1,0,100,0,0
345655,-91.743119266055,4,1,0,100,0,0
345688,-92.9229854,4,1,0,100,0,0
345753,-94.3396226415094,4,1,0,100,0,0
345818,-96.1538461538461,4,1,0,100,0,0
345884,-98.0392156862745,4,1,0,100,0,0
345949,-100,4,1,0,100,0,0
346014,-83.3333333333333,4,1,0,100,0,1
348101,-76.9230769230769,4,1,0,100,0,0
348274,-87.719298245614,4,1,0,100,0,0
348448,-100,4,1,0,100,0,0
348622,-93.4579439252336,4,1,0,100,0,0
348796,-100,4,1,0,100,0,0
348970,-108.695652173913,4,1,0,100,0,0
349144,-87.7192982,4,1,0,100,0,0
349405,-120.481927710843,4,1,0,35,0,0
355318,-87.719298245614,4,1,0,60,0,0
355492,-93.4579439252336,4,1,0,35,0,0
355753,-100,4,1,0,35,0,0
355840,-83.3333333333333,4,1,0,70,0,0
356014,-88.7379161142731,4,1,0,70,0,0
356101,-94.8922356326038,4,1,0,70,0,0
356188,-101.96371926941,4,1,0,70,0,0
356275,-110.174141247656,4,1,0,70,0,0
356362,-119.822471026927,4,1,0,70,0,0
356449,-68.9655172413793,4,1,0,70,0,0
357492,-200,4,1,0,40,0,0
358014,-181.818181818182,4,1,0,40,0,0
358275,-173.913043478261,4,1,0,40,0,0
358536,-166.666666666667,4,1,0,40,0,0
358666,-181.818181818182,4,1,0,40,0,0
358797,-200,4,1,0,40,0,0
359840,-151.515151515152,4,1,0,70,0,0
359927,-153.846153846154,4,1,0,70,0,0
360014,-156.25,4,1,0,70,0,0
360101,-119.047619047619,4,1,0,70,0,0
360188,-123.456790123457,4,1,0,70,0,0
360275,-128.205128205128,4,1,0,70,0,0
360362,-108.695652173913,4,1,0,70,0,0
360449,-112.359550561798,4,1,0,70,0,0
360536,-116.279069767442,4,1,0,70,0,0
360623,-100,4,1,0,70,0,0
360753,-120.481927710843,4,1,0,70,0,0
362188,-111.111111111111,4,1,0,71,0,0
362275,-114.942528735632,4,1,0,72,0,0
362362,-119.047619047619,4,1,0,74,0,0
362449,-105.263157894737,4,1,0,75,0,0
362536,-108.695652173913,4,1,0,76,0,0
362623,-112.359550561798,4,1,0,78,0,0
362710,-100,4,1,0,80,0,0
362797,-100,4,1,0,100,0,0
362927,-99.5644057249533,4,1,0,100,0,0
362971,-99.1325898389095,4,1,0,100,0,0
363058,-98.2800982800983,4,1,0,100,0,0
363145,-97.442143727162,4,1,0,100,0,0
363232,-96.6183574879227,4,1,0,100,0,0
363275,-96.2116656644618,4,1,0,100,0,0
363318,-95.8083832335329,4,1,0,100,0,0
363362,-95.4084675014908,4,1,0,100,0,0
363405,-95.0118764845606,4,1,0,100,0,0
363492,-94.2285041224971,4,1,0,100,0,0
363536,-93.841642228739,4,1,0,100,0,0
363579,-93.4579439252336,4,1,0,100,0,0
363666,-92.6998841251448,4,1,0,100,0,0
363753,-91.9540229885058,4,1,0,100,0,0
363797,-91.5855752718947,4,1,0,100,0,0
363840,-91.2200684150513,4,1,0,100,0,0
363884,-90.8574673480977,4,1,0,100,0,0
363927,-90.4977375565611,4,1,0,100,0,0
364014,-89.7867564534231,4,1,0,100,0,0
364058,-89.4354387926216,4,1,0,100,0,0
364101,-89.086859688196,4,1,0,100,0,0
364188,-88.3977900552486,4,1,0,100,0,0
364275,-76.9230769230769,4,1,0,100,0,0
364536,-71.4285714285714,4,1,0,100,0,0
364797,-66.6666666666667,4,1,0,100,0,1
364971,-100,4,1,0,100,0,1
365057,-99.0000173,4,1,0,100,0,1
365079,-98.7530778,4,1,0,100,0,1
365101,-98.507448,4,1,0,100,0,1
365145,-98.0198359,4,1,0,100,0,1
365188,-97.5369482,4,1,0,100,0,1
365232,-97.058795,4,1,0,100,0,1
365275,-96.5853847,4,1,0,100,0,1
365318,-96.1164932,4,1,0,100,0,1
365405,-95.1923123,4,1,0,100,0,1
365449,-94.7368172,4,1,0,100,0,1
365492,-94.2857345,4,1,0,100,0,1
365579,-93.3962617,4,1,0,100,0,1
365666,-92.5233429,4,1,0,100,0,1
365753,-91.6666603,4,1,0,100,0,1
365840,-90.8256964,4,1,0,100,0,1
365862,-90.617878,4,1,0,100,0,1
366014,-89.1891591,4,1,0,100,0,1
366036,-88.988754,4,1,0,100,0,1
366101,-88.3928414,4,1,0,100,0,1
366275,-86.8421167,4,1,0,100,0,1
366362,-86.0869809,4,1,0,100,0,1
366384,-85.9001983,4,1,0,100,0,1
366405,-85.7142857,4,1,0,100,0,1
366623,-120,4,1,0,100,0,1
366884,-82.7586207,4,1,0,100,0,1
367058,-84.478724,4,1,0,100,0,1
367144,-85.365871,4,1,0,100,0,1
367166,-85.5905462,4,1,0,100,0,1
367188,-85.8164686,4,1,0,100,0,1
367232,-86.2718483,4,1,0,100,0,1
367275,-86.7320868,4,1,0,100,0,1
367319,-87.197262,4,1,0,100,0,1
367362,-87.6673899,4,1,0,100,0,1
367405,-88.1426795,4,1,0,100,0,1
367449,-88.691796,4,1,0,100,0,1
367492,-89.1088888,4,1,0,100,0,1
367536,-89.5999809,4,1,0,100,0,1
367579,-90.0965159,4,1,0,100,0,1
367666,-91.1062808,4,1,0,100,0,1
367753,-92.1389363,4,1,0,100,0,1
367840,-93.1952697,4,1,0,100,0,1
367927,-94.2761049,4,1,0,100,0,1
367949,-94.550205,4,1,0,100,0,1
368101,-96.5147712,4,1,0,100,0,1
368123,-96.8020632,4,1,0,100,0,1
368188,-80,4,1,0,100,0,1
368449,-101.3268754,4,1,0,100,0,1
368471,-101.6436627,4,1,0,100,0,1
368492,-101.9623504,4,1,0,100,0,1
368623,-103.9175172,4,1,0,100,0,1
368645,-104.2507369,4,1,0,100,0,1
368710,-88.8888889,4,1,0,100,0,1
368970,-70.5882353,4,1,0,100,0,1
369144,-100,4,1,0,100,0,1
369230,-99.0000173,4,1,0,100,0,1
369252,-98.7530778,4,1,0,100,0,1
369274,-98.507448,4,1,0,100,0,1
369318,-98.0198359,4,1,0,100,0,1
369361,-97.5369482,4,1,0,100,0,1
369405,-97.058795,4,1,0,100,0,1
369448,-96.5853847,4,1,0,100,0,1
369491,-96.1164932,4,1,0,100,0,1
369578,-95.1923123,4,1,0,100,0,1
369622,-94.7368172,4,1,0,100,0,1
369665,-94.2857345,4,1,0,100,0,1
369752,-93.3962617,4,1,0,100,0,1
369839,-92.5233429,4,1,0,100,0,1
369926,-91.6666603,4,1,0,100,0,1
370013,-90.8256964,4,1,0,100,0,1
370035,-90.617878,4,1,0,100,0,1
370187,-89.1891591,4,1,0,100,0,1
370209,-88.988754,4,1,0,100,0,1
370274,-88.3928414,4,1,0,100,0,1
370448,-86.8421167,4,1,0,100,0,1
370535,-86.0869809,4,1,0,100,0,1
370557,-85.9001983,4,1,0,100,0,1
370578,-85.7142857,4,1,0,100,0,1
370796,-120,4,1,0,100,0,1
371057,-82.7586207,4,1,0,100,0,1
371231,-84.478724,4,1,0,100,0,1
371317,-85.365871,4,1,0,100,0,1
371339,-85.5905462,4,1,0,100,0,1
371361,-85.8164686,4,1,0,100,0,1
371405,-86.2718483,4,1,0,100,0,1
371448,-86.7320868,4,1,0,100,0,1
371492,-87.197262,4,1,0,100,0,1
371535,-87.6673899,4,1,0,100,0,1
371578,-88.1426795,4,1,0,100,0,1
371623,-88.691796,4,1,0,100,0,1
371665,-89.1088888,4,1,0,100,0,1
371709,-89.5999809,4,1,0,100,0,1
371752,-90.0965159,4,1,0,100,0,1
371839,-91.1062808,4,1,0,100,0,1
371926,-93.7558597412338,4,1,0,100,0,1
372013,-96.774224765879,4,1,0,100,0,1
372101,-100,4,1,0,70,0,0
372188,-97.872337,4,1,0,70,0,0
372275,-95.8333267,4,1,0,70,0,0
372362,-93.8775414,4,1,0,70,0,0
372449,-91.9999877,4,1,0,70,0,0
372536,-90.1960637,4,1,0,70,0,0
372623,-88.4615215,4,1,0,100,0,0
372666,-87.6190615,4,1,0,100,0,0
372710,-86.7924337,4,1,0,100,0,0
372753,-85.9813191,4,1,0,100,0,0
372797,-85.1851642,4,1,0,100,0,0
372884,-83.6363408,4,1,0,100,0,0
372927,-82.8828879,4,1,0,100,0,0
372971,-82.1428327,4,1,0,100,0,0
373014,-81.4159316,4,1,0,100,0,0
373058,-80.7017284,4,1,0,100,0,0
373101,-80,4,1,0,100,0,0
373145,-70.5882353,4,1,0,100,0,1
373275,-100,4,1,0,100,0,1
373405,-98.1191379,4,1,0,100,0,1
373438,-97.6599059,4,1,0,100,0,1
373471,-97.2049526,4,1,0,100,0,1
373535,-96.3077224,4,1,0,100,0,1
373579,-95.7186637,4,1,0,100,0,1
373623,-95.136767,4,1,0,100,0,1
373666,-94.5619026,4,1,0,100,0,1
373699,-94.1353667,4,1,0,100,0,1
373731,-93.7125882,4,1,0,100,0,1
373797,-92.8783224,4,1,0,100,0,1
373862,-92.0588502,4,1,0,100,0,1
373927,-91.2536425,4,1,0,100,0,1
374057,-89.6848251,4,1,0,100,0,1
374123,-88.9204392,4,1,0,100,0,1
374188,-88.1690377,4,1,0,100,0,1
374318,-86.7035735,4,1,0,100,0,1
374351,-86.3448498,4,1,0,100,0,1
374384,-85.9890206,4,1,0,100,0,1
374416,-85.6361122,4,1,0,100,0,1
374449,-85.2860886,4,1,0,100,0,1
374579,-83.9142061,4,1,0,100,0,1
374612,-83.5780894,4,1,0,100,0,1
374710,-82.5857602,4,1,0,100,0,1
374775,-81.9371583,4,1,0,100,0,1
374840,-81.29872,4,1,0,100,0,1
374971,-75,4,1,0,100,0,1
375231,-82.7586207,4,1,0,100,0,1
375362,-83.7070504,4,1,0,100,0,1
375492,-84.6774108,4,1,0,100,0,1
375525,-84.9235264,4,1,0,100,0,1
375557,-85.1710768,4,1,0,100,0,1
375622,-85.6705937,4,1,0,100,0,1
375666,-86.0068318,4,1,0,100,0,1
375710,-86.3457196,4,1,0,100,0,1
375753,-86.6872886,4,1,0,100,0,1
375786,-86.9452441,4,1,0,100,0,1
375818,-87.2048027,4,1,0,100,0,1
375884,-87.7284687,4,1,0,100,0,1
375949,-88.258462,4,1,0,100,0,1
376014,-88.7948978,4,1,0,100,0,1
376144,-89.8876404,4,1,0,100,0,1
376210,-90.4441259,4,1,0,100,0,1
376275,-91.0076135,4,1,0,100,0,1
376405,-92.1557771,4,1,0,100,0,1
376438,-92.4473589,4,1,0,100,0,1
376471,-92.7407918,4,1,0,100,0,1
376536,-93.3333541,4,1,0,100,0,1
376797,-95.7810828,4,1,0,100,0,1
376829,-96.0960961,4,1,0,100,0,1
376862,-96.4131884,4,1,0,100,0,1
376927,-97.0536925,4,1,0,100,0,1
377058,-98.3606557,4,1,0,100,0,0
377318,-120,4,1,0,100,0,0
377449,-100,4,1,0,100,0,1
377578,-98.1191379,4,1,0,100,0,1
377611,-97.6599059,4,1,0,100,0,1
377644,-97.2049526,4,1,0,100,0,1
377708,-96.3077224,4,1,0,100,0,1
377752,-95.7186637,4,1,0,100,0,1
377796,-95.136767,4,1,0,100,0,1
377839,-94.5619026,4,1,0,100,0,1
377872,-94.1353667,4,1,0,100,0,1
377904,-93.7125882,4,1,0,100,0,1
377970,-92.8783224,4,1,0,100,0,1
378035,-92.0588502,4,1,0,100,0,1
378100,-91.2536425,4,1,0,100,0,1
378230,-89.6848251,4,1,0,100,0,1
378296,-88.9204392,4,1,0,100,0,1
378361,-88.1690377,4,1,0,100,0,1
378491,-86.7035735,4,1,0,100,0,1
378524,-86.3448498,4,1,0,100,0,1
378557,-85.9890206,4,1,0,100,0,1
378589,-85.6361122,4,1,0,100,0,1
378622,-85.2860886,4,1,0,100,0,1
378752,-83.9142061,4,1,0,100,0,1
378785,-83.5780894,4,1,0,100,0,1
378883,-82.5857602,4,1,0,100,0,1
378948,-81.9371583,4,1,0,100,0,1
379013,-81.29872,4,1,0,100,0,1
379144,-75,4,1,0,100,0,1
379405,-85.7142857,4,1,0,100,0,1
379536,-87.740592,4,1,0,100,0,1
379666,-89.8649554,4,1,0,100,0,1
379699,-90.4122346,4,1,0,100,0,1
379731,-90.9662205,4,1,0,100,0,1
379796,-92.0948116,4,1,0,100,0,1
379840,-92.8628694,4,1,0,100,0,1
379884,-93.6438459,4,1,0,100,0,1
379927,-94.4380699,4,1,0,100,0,1
379960,-95.0426544,4,1,0,100,0,1
379992,-95.6550297,4,1,0,100,0,1
380058,-96.9037633,4,1,0,100,0,1
380123,-98.1855314,4,1,0,100,0,1
380188,-99.5016625,4,1,0,100,0,1
380221,-100.3988344,4,1,0,100,0,1
380253,-101.095198,4,1,0,100,0,1
380318,-102.2426064,4,1,0,100,0,1
380449,-87.719298245614,4,1,0,100,0,0
380536,-100,4,1,0,80,0,0
380710,-98.0392156862745,4,1,0,80,0,0
380797,-83.3333333333333,4,1,0,100,0,0
380927,-96.1538461538461,4,1,0,80,0,0
381101,-94.3396226415094,4,1,0,80,0,0
381188,-80,4,1,0,100,0,0
381318,-92.5925925925926,4,1,0,80,0,0
381449,-76.9230769230769,4,1,0,90,0,0
381753,-100,4,1,0,80,0,0
387753,-76.9230769230769,4,1,0,80,0,0
387884,-79.3650793650794,4,1,0,80,0,0
388014,-81.9672131147541,4,1,0,80,0,0
388145,-76.9230769230769,4,1,0,80,0,0
388275,-80,4,1,0,80,0,0
388405,-83.3333333333333,4,1,0,80,0,0
388536,-76.9230769230769,4,1,0,80,0,0
388666,-80.6451612903226,4,1,0,80,0,0
388797,-84.7457627118644,4,1,0,80,0,0
388927,-76.9230769230769,4,1,0,80,0,0
389058,-81.3008130081301,4,1,0,80,0,0
389188,-86.2068965517241,4,1,0,80,0,0
389318,-76.9230769230769,4,1,0,80,0,0
389579,-100,4,1,0,80,0,0
389710,-87.719298245614,4,1,0,80,0,0
389775,-81.9672131147541,4,1,0,80,0,0
389840,-76.9230769230769,4,1,0,80,0,0
395775,-73.5294117647059,4,1,0,80,0,0
395840,-70.4225352112676,4,1,0,80,0,0
395971,-74.0740740740741,4,1,0,80,0,0
396036,-70.1754385964912,4,1,0,80,0,0
396101,-66.6666666666667,4,1,0,80,0,0
396232,-69.9300699300699,4,1,0,80,0,0
396362,-73.5294117647059,4,1,0,80,0,0
396492,-66.6666666666667,4,1,0,80,0,0
396623,-70.4225352112676,4,1,0,80,0,0
396753,-74.6268656716418,4,1,0,80,0,0
396884,-66.6666666666667,4,1,0,80,0,0
397014,-70.9219858156028,4,1,0,80,0,0
397145,-75.7575757575758,4,1,0,80,0,0
397275,-66.6666666666667,4,1,0,80,0,0
397405,-71.4285714285714,4,1,0,80,0,0
397536,-76.9230769230769,4,1,0,80,0,0
397666,-66.6666666666667,4,1,0,80,0,0
397732,-68.7066117746643,4,1,0,80,0,0
397797,-70.8753387841194,4,1,0,80,0,0
397862,-73.1854401957857,4,1,0,80,0,0
397927,-75.6512055776121,4,1,0,80,0,0
397992,-78.2889174208499,4,1,0,80,0,0
398058,-81.1172111253877,4,1,0,80,0,0
398123,-84.157586764368,4,1,0,80,0,0
398188,-66.6666666666667,4,1,0,80,0,0
399232,-120.481927710843,4,1,0,60,0,0
400275,-87.719298245614,4,1,0,60,0,0
400340,-89.2857142857143,4,1,0,60,0,0
400405,-90.9090909090909,4,1,0,60,0,0
400471,-92.5925925925926,4,1,0,60,0,0
400536,-94.3396226415094,4,1,0,60,0,0
400601,-96.1538461538461,4,1,0,60,0,0
400666,-98.0392156862745,4,1,0,60,0,0
400732,-100,4,1,0,60,0,0
400797,-102.040816326531,4,1,0,60,0,0
400862,-104.166666666667,4,1,0,60,0,0
400927,-106.382978723404,4,1,0,60,0,0
400992,-108.695652173913,4,1,0,60,0,0
401058,-111.111111111111,4,1,0,60,0,0
401123,-113.636363636364,4,1,0,60,0,0
401188,-116.279069767442,4,1,0,60,0,0
401253,-119.047619047619,4,1,0,60,0,0
401318,-121.951219512195,4,1,0,60,0,0
401384,-125,4,1,0,60,0,0
401449,-128.205128205128,4,1,0,60,0,0
401514,-131.578947368421,4,1,0,60,0,0
401579,-135.135135135135,4,1,0,60,0,0
401645,-138.888888888889,4,1,0,60,0,0
401710,-142.857142857143,4,1,0,60,0,0
401775,-147.058823529412,4,1,0,60,0,0
401840,-151.515151515152,4,1,0,40,0,0
402362,-71.4285714285714,4,1,0,100,0,1
402751,-83.3333333333333,4,1,0,100,0,1
403142,-66.6666666666667,4,1,0,100,0,1
403533,-76.9230769230769,4,1,0,100,0,1
403925,-87.719298245614,4,1,0,100,0,1
404447,-71.4285714285714,4,1,0,100,0,1
404838,-83.3333333333333,4,1,0,100,0,1
405229,-66.6666666666667,4,1,0,100,0,1
405620,-76.9230769230769,4,1,0,100,0,1
405884,-50,4,1,0,100,0,0
406144,-100,4,1,0,100,0,0
406536,-71.4285714285714,4,1,0,100,0,1
406925,-83.3333333333333,4,1,0,100,0,1
407316,-66.6666666666667,4,1,0,100,0,1
407707,-76.9230769230769,4,1,0,100,0,1
408099,-87.719298245614,4,1,0,100,0,1
408623,-71.4285714285714,4,1,0,100,0,1
409012,-83.3333333333333,4,1,0,100,0,1
409403,-66.6666666666667,4,1,0,100,0,1
409794,-76.9230769230769,4,1,0,100,0,1
410188,-50,4,1,0,100,0,0
410710,-71.4285714285714,4,1,0,100,0,1
411101,-76.9230769230769,4,1,0,100,0,1
411492,-68.9655172413793,4,1,0,100,0,1
411884,-66.6666666666667,4,1,0,100,0,1
412275,-64.5161290322581,4,1,0,100,0,1
412666,-62.5,4,1,0,100,0,1
413058,-60.6060606060606,4,1,0,100,0,1
413449,-58.8235294117647,4,1,0,100,0,1
413840,-61.5384615384615,4,1,0,100,0,1
414232,-64.5161290322581,4,1,0,100,0,1
414623,-57.1428571428571,4,1,0,100,0,1
415014,-55.5555555555556,4,1,0,100,0,1
415405,-54.054054054054,4,1,0,100,0,1
415797,-52.6315789473684,4,1,0,100,0,1
416188,-51.2820512820513,4,1,0,100,0,1
416579,-50,4,1,0,100,0,1
416971,-43.859649122807,4,1,0,100,0,1
417362,-66.6666666666667,4,1,0,100,0,0

[HitObjects]
320,64,4665,5,12,0:0:0:0:
64,64,4926,1,4,0:0:0:0:
320,64,5186,1,12,0:0:0:0:
64,64,7143,1,0,0:0:0:0:
64,64,7208,1,0,0:0:0:0:
320,64,7273,1,8,0:0:0:0:
320,64,9360,1,8,0:0:0:0:
320,64,11404,1,8,0:0:0:0:
320,64,11447,1,8,0:0:0:0:
64,64,11491,1,0,0:0:0:0:
64,64,11534,1,0,0:0:0:0:
320,64,13534,1,8,0:0:0:0:
320,64,15426,1,8,0:0:0:0:
320,64,15491,1,8,0:0:0:0:
320,64,15556,1,8,0:0:0:0:
64,64,15620,1,0,0:0:0:0:
320,64,17905,1,8,0:0:0:0:
64,64,20089,1,0,0:0:0:0:
64,64,20165,1,0,0:0:0:0:
64,64,20241,1,0,0:0:0:0:
320,64,20317,1,8,0:0:0:0:
320,64,24468,1,8,0:0:0:0:
64,64,24931,1,0,0:0:0:0:
64,64,25241,1,0,0:0:0:0:
320,64,25550,1,8,0:0:0:0:
64,64,25850,1,0,0:0:0:0:
320,64,25996,1,8,0:0:0:0:
320,64,26281,1,8,0:0:0:0:
320,64,26561,1,8,0:0:0:0:
64,64,26841,1,0,0:0:0:0:
64,64,27259,1,0,0:0:0:0:
64,64,27538,1,0,0:0:0:0:
320,64,27817,1,8,0:0:0:0:
64,64,28339,1,0,0:0:0:0:
320,64,28435,1,8,0:0:0:0:
64,64,28531,1,0,0:0:0:0:
320,64,28913,1,8,0:0:0:0:
64,64,29009,1,0,0:0:0:0:
320,64,29105,1,8,0:0:0:0:
64,64,29535,1,0,0:0:0:0:
64,64,29823,1,0,0:0:0:0:
320,64,30110,1,8,0:0:0:0:
64,64,30397,1,0,0:0:0:0:
320,64,30540,1,8,0:0:0:0:
320,64,30827,1,8,0:0:0:0:
320,64,31114,1,8,0:0:0:0:
64,64,31401,1,0,0:0:0:0:
320,64,31827,1,8,0:0:0:0:
320,64,32111,1,8,0:0:0:0:
64,64,32396,1,0,0:0:0:0:
64,64,32680,1,0,0:0:0:0:
320,64,32822,1,8,0:0:0:0:
64,64,33107,1,0,0:0:0:0:
64,64,33391,1,0,0:0:0:0:
320,64,33675,1,8,0:0:0:0:
320,64,34102,1,8,0:0:0:0:
320,64,34386,1,8,0:0:0:0:
320,64,34671,1,8,0:0:0:0:
320,64,34955,1,8,0:0:0:0:
320,64,35097,1,8,0:0:0:0:
320,64,35380,1,8,0:0:0:0:
64,64,35521,1,0,0:0:0:0:
320,64,35663,1,8,0:0:0:0:
320,64,35946,1,8,0:0:0:0:
64,64,36364,1,0,0:0:0:0:
320,64,36640,1,8,0:0:0:0:
320,64,36913,1,8,0:0:0:0:
64,64,37412,1,0,0:0:0:0:
320,64,37503,1,8,0:0:0:0:
64,64,37594,1,0,0:0:0:0:
320,64,37958,1,8,0:0:0:0:
64,64,38049,1,0,0:0:0:0:
320,64,38139,1,8,0:0:0:0:
64,64,38544,1,0,0:0:0:0:
64,64,38814,1,0,0:0:0:0:
320,64,39084,1,8,0:0:0:0:
320,64,39351,1,8,0:0:0:0:
64,64,39483,1,0,0:0:0:0:
320,64,39746,1,8,0:0:0:0:
320,64,39877,1,8,0:0:0:0:
64,64,40009,1,0,0:0:0:0:
64,64,40141,1,0,0:0:0:0:
320,64,40272,1,8,0:0:0:0:
64,64,40448,1,0,0:0:0:0:
64,64,40623,1,0,0:0:0:0:
320,64,40798,1,8,0:0:0:0:
64,64,40974,1,0,0:0:0:0:
320,64,41149,1,8,0:0:0:0:
64,64,41319,1,4,0:0:0:0:
320,64,43405,1,8,0:0:0:0:
320,64,45492,1,8,0:0:0:0:
320,64,47579,1,8,0:0:0:0:
64,64,49666,1,0,0:0:0:0:
64,64,49797,1,0,0:0:0:0:
320,64,50188,1,8,0:0:0:0:
64,64,50449,1,0,0:0:0:0:
64,64,50579,1,0,0:0:0:0:
64,64,50840,1,0,0:0:0:0:
320,64,51232,1,8,0:0:0:0:
320,64,51492,1,8,0:0:0:0:
64,64,51753,1,0,0:0:0:0:
64,64,51884,1,0,0:0:0:0:
320,64,52275,1,8,0:0:0:0:
64,64,52536,1,0,0:0:0:0:
64,64,52666,1,0,0:0:0:0:
64,64,52927,1,0,0:0:0:0:
64,64,53058,1,0,0:0:0:0:
320,64,53318,1,8,0:0:0:0:
320,64,53579,1,8,0:0:0:0:
64,64,53840,1,0,0:0:0:0:
64,64,53971,1,0,0:0:0:0:
320,64,54362,1,8,0:0:0:0:
64,64,54623,1,0,0:0:0:0:
64,64,54753,1,0,0:0:0:0:
64,64,55014,1,0,0:0:0:0:
64,64,55145,1,0,0:0:0:0:
320,64,55405,1,8,0:0:0:0:
320,64,55666,1,8,0:0:0:0:
64,64,55927,1,0,0:0:0:0:
64,64,56058,1,0,0:0:0:0:
320,64,56449,1,8,0:0:0:0:
64,64,56710,1,0,0:0:0:0:
64,64,56840,1,0,0:0:0:0:
64,64,57101,1,0,0:0:0:0:
64,64,57232,1,0,0:0:0:0:
320,64,57492,1,8,0:0:0:0:
64,64,57579,1,0,0:0:0:0:
320,64,57666,1,8,0:0:0:0:
320,64,57753,1,8,0:0:0:0:
64,64,57840,1,0,0:0:0:0:
320,64,57927,1,8,0:0:0:0:
64,64,58014,1,4,0:0:0:0:
64,64,58145,1,4,0:0:0:0:
64,64,58405,1,4,0:0:0:0:
64,64,58666,1,4,0:0:0:0:
64,64,58797,1,4,0:0:0:0:
64,64,59058,1,4,0:0:0:0:
64,64,59318,1,4,0:0:0:0:
64,64,59449,1,4,0:0:0:0:
320,64,59579,1,8,0:0:0:0:
64,64,59666,1,0,0:0:0:0:
320,64,59753,1,8,0:0:0:0:
320,64,59840,1,8,0:0:0:0:
64,64,59927,1,0,0:0:0:0:
64,64,60014,1,0,0:0:0:0:
320,64,60101,1,12,0:0:0:0:
320,64,60232,1,12,0:0:0:0:
320,64,60536,1,12,0:0:0:0:
320,64,60753,1,12,0:0:0:0:
320,64,60884,1,12,0:0:0:0:
320,64,61145,1,12,0:0:0:0:
320,64,61405,1,12,0:0:0:0:
320,64,61536,1,12,0:0:0:0:
64,64,61666,1,0,0:0:0:0:
64,64,61710,1,0,0:0:0:0:
64,64,61840,1,0,0:0:0:0:
64,64,61884,1,0,0:0:0:0:
320,64,62014,1,8,0:0:0:0:
320,64,62058,1,8,0:0:0:0:
64,64,62188,1,4,0:0:0:0:
64,64,62318,1,4,0:0:0:0:
64,64,62579,1,4,0:0:0:0:
64,64,62840,1,4,0:0:0:0:
64,64,62971,1,4,0:0:0:0:
64,64,63232,1,4,0:0:0:0:
64,64,63492,1,4,0:0:0:0:
64,64,63623,1,4,0:0:0:0:
320,64,63753,1,8,0:0:0:0:
320,64,63840,1,8,0:0:0:0:
64,64,63927,1,0,0:0:0:0:
320,64,64014,1,8,0:0:0:0:
64,64,64101,1,0,0:0:0:0:
64,64,64188,1,0,0:0:0:0:
320,64,64275,1,12,0:0:0:0:
320,64,64405,1,12,0:0:0:0:
320,64,64666,1,12,0:0:0:0:
320,64,64927,1,12,0:0:0:0:
320,64,65058,1,12,0:0:0:0:
320,64,65318,1,12,0:0:0:0:
320,64,65579,1,12,0:0:0:0:
320,64,65710,1,12,0:0:0:0:
320,64,65840,1,8,0:0:0:0:
320,64,65884,1,8,0:0:0:0:
64,64,65927,1,0,0:0:0:0:
64,64,66014,1,0,0:0:0:0:
320,64,66101,1,8,0:0:0:0:
64,64,66188,1,0,0:0:0:0:
320,64,66275,1,8,0:0:0:0:
64,64,66362,1,4,0:0:0:0:
64,64,66492,1,4,0:0:0:0:
64,64,66753,1,4,0:0:0:0:
320,64,66884,1,8,0:0:0:0:
64,64,67014,1,4,0:0:0:0:
64,64,67145,1,4,0:0:0:0:
64,64,67405,1,4,0:0:0:0:
64,64,67666,1,4,0:0:0:0:
64,64,67797,1,4,0:0:0:0:
320,64,67927,1,8,0:0:0:0:
320,64,68449,1,12,0:0:0:0:
320,64,68579,1,12,0:0:0:0:
320,64,68840,1,12,0:0:0:0:
64,64,68971,1,0,0:0:0:0:
320,64,69101,1,12,0:0:0:0:
320,64,69232,1,12,0:0:0:0:
320,64,69492,1,12,0:0:0:0:
320,64,69753,1,12,0:0:0:0:
320,64,69884,1,12,0:0:0:0:
64,64,70014,1,0,0:0:0:0:
64,64,70536,1,0,0:0:0:0:
320,64,70623,1,8,0:0:0:0:
320,64,70710,1,8,0:0:0:0:
64,64,70797,1,0,0:0:0:0:
320,64,70884,1,8,0:0:0:0:
320,64,70971,1,8,0:0:0:0:
64,64,71058,1,0,0:0:0:0:
320,64,71145,1,8,0:0:0:0:
64,64,71232,1,0,0:0:0:0:
320,64,71318,1,8,0:0:0:0:
320,64,71405,1,8,0:0:0:0:
64,64,71492,1,0,0:0:0:0:
320,64,71579,1,8,0:0:0:0:
320,64,71666,1,8,0:0:0:0:
320,64,71753,1,8,0:0:0:0:
64,64,71840,1,0,0:0:0:0:
320,64,71927,1,8,0:0:0:0:
64,64,72014,1,0,0:0:0:0:
320,64,72101,1,8,0:0:0:0:
320,64,72188,1,8,0:0:0:0:
64,64,72275,1,0,0:0:0:0:
320,64,72362,1,8,0:0:0:0:
64,64,72449,1,0,0:0:0:0:
64,64,72536,1,0,0:0:0:0:
320,64,72623,1,8,0:0:0:0:
320,64,72710,1,8,0:0:0:0:
320,64,72797,1,8,0:0:0:0:
64,64,72884,1,0,0:0:0:0:
64,64,72971,1,0,0:0:0:0:
64,64,73058,1,0,0:0:0:0:
320,64,73145,1,8,0:0:0:0:
320,64,73232,1,8,0:0:0:0:
64,64,73318,1,0,0:0:0:0:
320,64,73405,1,8,0:0:0:0:
64,64,73492,1,0,0:0:0:0:
64,64,73579,1,0,0:0:0:0:
320,64,73666,1,8,0:0:0:0:
320,64,73753,1,8,0:0:0:0:
64,64,73840,1,0,0:0:0:0:
320,64,73927,1,8,0:0:0:0:
64,64,74014,1,0,0:0:0:0:
64,64,74101,1,0,0:0:0:0:
320,64,74188,1,8,0:0:0:0:
320,64,74275,1,8,0:0:0:0:
64,64,74362,1,0,0:0:0:0:
320,64,74449,1,8,0:0:0:0:
64,64,74536,1,0,0:0:0:0:
320,64,74623,1,8,0:0:0:0:
64,64,74710,1,0,0:0:0:0:
320,64,76275,1,8,0:0:0:0:
320,64,76536,1,8,0:0:0:0:
320,64,76797,1,8,0:0:0:0:
64,64,78101,1,0,0:0:0:0:
64,64,78232,1,0,0:0:0:0:
64,64,78297,1,0,0:0:0:0:
320,64,78362,1,8,0:0:0:0:
64,64,78492,1,0,0:0:0:0:
64,64,78558,1,0,0:0:0:0:
320,64,78623,1,8,0:0:0:0:
64,64,78753,1,0,0:0:0:0:
320,64,78884,1,8,0:0:0:0:
64,64,79014,1,0,0:0:0:0:
64,64,79145,1,0,0:0:0:0:
64,64,79275,1,0,0:0:0:0:
320,64,79405,1,8,0:0:0:0:
64,64,79536,1,0,0:0:0:0:
64,64,79666,1,0,0:0:0:0:
64,64,79797,1,0,0:0:0:0:
64,64,79862,1,0,0:0:0:0:
320,64,79927,1,8,0:0:0:0:
64,64,80058,1,0,0:0:0:0:
64,64,80188,1,0,0:0:0:0:
64,64,80318,1,0,0:0:0:0:
320,64,80449,1,8,0:0:0:0:
64,64,80579,1,0,0:0:0:0:
320,64,80710,1,8,0:0:0:0:
64,64,80840,1,0,0:0:0:0:
320,64,80971,1,8,0:0:0:0:
64,64,81101,1,0,0:0:0:0:
64,64,81166,1,0,0:0:0:0:
64,64,81232,1,0,0:0:0:0:
64,64,81362,1,0,0:0:0:0:
64,64,81427,1,0,0:0:0:0:
320,64,81492,1,8,0:0:0:0:
64,64,81623,1,0,0:0:0:0:
64,64,81753,1,0,0:0:0:0:
64,64,81818,1,0,0:0:0:0:
64,64,81884,1,0,0:0:0:0:
64,64,81949,1,0,0:0:0:0:
320,64,82014,1,8,0:0:0:0:
64,64,82079,1,0,0:0:0:0:
320,64,82145,1,8,0:0:0:0:
64,64,82210,1,0,0:0:0:0:
320,64,82275,1,8,0:0:0:0:
320,64,82340,1,8,0:0:0:0:
64,64,82405,1,0,0:0:0:0:
64,64,82471,1,0,0:0:0:0:
320,64,82536,1,12,0:0:0:0:
64,64,82797,1,4,0:0:0:0:
320,64,83058,1,12,0:0:0:0:
64,64,83188,1,0,0:0:0:0:
320,64,83318,1,8,0:0:0:0:
320,64,83351,1,8,0:0:0:0:
64,64,83384,1,0,0:0:0:0:
320,64,83449,1,8,0:0:0:0:
64,64,83492,1,0,0:0:0:0:
64,64,83536,1,0,0:0:0:0:
320,64,83579,1,8,0:0:0:0:
64,64,83645,1,0,0:0:0:0:
320,64,83710,1,8,0:0:0:0:
320,64,83775,1,8,0:0:0:0:
64,64,83840,1,0,0:0:0:0:
320,64,83971,1,8,0:0:0:0:
320,64,84036,1,8,0:0:0:0:
64,64,84101,1,0,0:0:0:0:
320,64,84232,1,8,0:0:0:0:
320,64,84264,1,8,0:0:0:0:
320,64,84297,1,8,0:0:0:0:
64,64,84362,1,0,0:0:0:0:
320,64,84492,1,8,0:0:0:0:
320,64,84525,1,8,0:0:0:0:
64,64,84623,1,0,0:0:0:0:
64,64,84688,1,0,0:0:0:0:
320,64,84753,1,8,0:0:0:0:
64,64,84884,1,4,0:0:0:0:
320,64,85145,1,8,0:0:0:0:
64,64,85275,1,0,0:0:0:0:
320,64,85405,1,8,0:0:0:0:
64,64,85438,1,0,0:0:0:0:
64,64,85471,1,0,0:0:0:0:
320,64,85536,1,8,0:0:0:0:
320,64,85579,1,8,0:0:0:0:
320,64,85623,1,8,0:0:0:0:
64,64,85666,1,0,0:0:0:0:
64,64,85732,1,0,0:0:0:0:
320,64,85797,1,8,0:0:0:0:
320,64,85862,1,8,0:0:0:0:
64,64,85927,1,0,0:0:0:0:
320,64,86058,1,8,0:0:0:0:
320,64,86123,1,8,0:0:0:0:
64,64,86188,1,0,0:0:0:0:
320,64,86318,1,8,0:0:0:0:
320,64,86351,1,8,0:0:0:0:
320,64,86384,1,8,0:0:0:0:
64,64,86449,1,4,0:0:0:0:
320,64,86710,1,8,0:0:0:0:
64,64,86775,1,0,0:0:0:0:
320,64,86840,1,8,0:0:0:0:
64,64,86971,1,4,0:0:0:0:
320,64,87232,1,12,0:0:0:0:
64,64,87362,1,0,0:0:0:0:
320,64,87492,1,8,0:0:0:0:
320,64,87525,1,8,0:0:0:0:
64,64,87558,1,0,0:0:0:0:
320,64,87623,1,8,0:0:0:0:
67,72,87666,1,0,0:0:0:0:
64,64,87710,1,0,0:0:0:0:
320,64,87753,1,8,0:0:0:0:
64,64,87818,1,0,0:0:0:0:
320,64,87884,1,8,0:0:0:0:
320,64,87949,1,8,0:0:0:0:
64,64,88014,1,0,0:0:0:0:
320,64,88145,1,8,0:0:0:0:
320,64,88210,1,8,0:0:0:0:
64,64,88275,1,0,0:0:0:0:
320,64,88405,1,8,0:0:0:0:
320,64,88438,1,8,0:0:0:0:
320,64,88471,1,8,0:0:0:0:
64,64,88536,1,0,0:0:0:0:
320,64,88666,1,8,0:0:0:0:
320,64,88699,1,8,0:0:0:0:
64,64,88797,1,0,0:0:0:0:
64,64,88862,1,0,0:0:0:0:
320,64,88927,1,8,0:0:0:0:
64,64,89058,1,4,0:0:0:0:
320,64,89318,1,8,0:0:0:0:
64,64,89448,1,0,0:0:0:0:
320,64,89578,1,8,0:0:0:0:
64,64,89611,1,0,0:0:0:0:
64,64,89644,1,0,0:0:0:0:
320,64,89709,1,8,0:0:0:0:
320,64,89752,1,8,0:0:0:0:
320,64,89796,1,8,0:0:0:0:
64,64,89839,1,0,0:0:0:0:
64,64,89905,1,0,0:0:0:0:
320,64,89970,1,8,0:0:0:0:
320,64,90035,1,8,0:0:0:0:
64,64,90100,1,0,0:0:0:0:
320,64,90232,1,8,0:0:0:0:
320,64,90362,1,8,0:0:0:0:
320,64,90427,1,8,0:0:0:0:
320,64,90492,1,8,0:0:0:0:
64,64,90558,1,0,0:0:0:0:
320,64,90623,1,8,0:0:0:0:
320,64,90688,1,8,0:0:0:0:
64,64,90753,1,0,0:0:0:0:
64,64,90818,1,0,0:0:0:0:
320,64,90884,1,8,0:0:0:0:
320,64,90927,1,8,0:0:0:0:
320,64,90971,1,8,0:0:0:0:
64,64,91014,1,0,0:0:0:0:
64,64,91079,1,0,0:0:0:0:
320,64,91145,1,8,0:0:0:0:
320,64,91188,1,8,0:0:0:0:
64,64,91232,1,0,0:0:0:0:
64,64,91275,1,0,0:0:0:0:
64,64,91340,1,0,0:0:0:0:
320,64,91405,1,12,0:0:0:0:
64,64,91536,1,0,0:0:0:0:
320,64,91666,1,8,0:0:0:0:
320,64,91699,1,8,0:0:0:0:
64,64,91732,1,0,0:0:0:0:
320,64,91796,1,8,0:0:0:0:
64,64,91840,1,0,0:0:0:0:
64,64,91884,1,0,0:0:0:0:
320,64,91927,1,8,0:0:0:0:
64,64,91992,1,0,0:0:0:0:
320,64,92058,1,8,0:0:0:0:
320,64,92123,1,8,0:0:0:0:
64,64,92188,1,0,0:0:0:0:
320,64,92318,1,8,0:0:0:0:
320,64,92384,1,8,0:0:0:0:
64,64,92449,1,0,0:0:0:0:
320,64,92579,1,8,0:0:0:0:
320,64,92612,1,8,0:0:0:0:
320,64,92645,1,8,0:0:0:0:
64,64,92710,1,0,0:0:0:0:
320,64,92840,1,8,0:0:0:0:
320,64,92873,1,8,0:0:0:0:
64,64,92971,1,0,0:0:0:0:
64,64,93036,1,0,0:0:0:0:
320,64,93101,1,8,0:0:0:0:
64,64,93232,1,4,0:0:0:0:
320,64,93492,1,8,0:0:0:0:
64,64,93623,1,0,0:0:0:0:
320,64,93753,1,8,0:0:0:0:
64,64,93786,1,0,0:0:0:0:
64,64,93818,1,0,0:0:0:0:
320,64,93883,1,8,0:0:0:0:
320,64,93927,1,8,0:0:0:0:
320,64,93971,1,8,0:0:0:0:
64,64,94014,1,0,0:0:0:0:
64,64,94079,1,0,0:0:0:0:
320,64,94145,1,8,0:0:0:0:
320,64,94210,1,8,0:0:0:0:
64,64,94275,1,0,0:0:0:0:
320,64,94405,1,8,0:0:0:0:
320,64,94471,1,8,0:0:0:0:
64,64,94536,1,0,0:0:0:0:
320,64,94666,1,8,0:0:0:0:
320,64,94699,1,8,0:0:0:0:
320,64,94732,1,8,0:0:0:0:
64,64,94797,1,0,0:0:0:0:
320,64,95058,1,8,0:0:0:0:
64,64,95123,1,0,0:0:0:0:
320,64,95188,1,8,0:0:0:0:
64,64,95318,1,0,0:0:0:0:
64,64,95710,1,0,0:0:0:0:
320,64,95840,1,8,0:0:0:0:
320,64,95873,1,8,0:0:0:0:
64,64,95905,1,0,0:0:0:0:
320,64,95971,1,8,0:0:0:0:
64,64,96014,1,0,0:0:0:0:
64,64,96058,1,0,0:0:0:0:
320,64,96101,1,8,0:0:0:0:
64,64,96166,1,0,0:0:0:0:
320,64,96232,1,8,0:0:0:0:
320,64,96297,1,8,0:0:0:0:
64,64,96362,1,0,0:0:0:0:
320,64,96492,1,8,0:0:0:0:
320,64,96558,1,8,0:0:0:0:
64,64,96623,1,0,0:0:0:0:
320,64,96753,1,8,0:0:0:0:
320,64,96786,1,8,0:0:0:0:
320,64,96818,1,8,0:0:0:0:
64,64,96884,1,0,0:0:0:0:
320,64,97014,1,8,0:0:0:0:
320,64,97047,1,8,0:0:0:0:
64,64,97145,1,0,0:0:0:0:
64,64,97210,1,0,0:0:0:0:
320,64,97275,1,8,0:0:0:0:
64,64,97405,1,4,0:0:0:0:
320,64,97666,1,8,0:0:0:0:
64,64,97797,1,0,0:0:0:0:
320,64,97927,1,8,0:0:0:0:
64,64,97960,1,0,0:0:0:0:
64,64,97992,1,0,0:0:0:0:
320,64,98058,1,8,0:0:0:0:
320,64,98101,1,8,0:0:0:0:
320,64,98145,1,8,0:0:0:0:
64,64,98188,1,0,0:0:0:0:
64,64,98221,1,0,0:0:0:0:
64,64,98253,1,0,0:0:0:0:
320,64,98318,1,8,0:0:0:0:
320,64,98384,1,8,0:0:0:0:
64,64,98449,1,0,0:0:0:0:
64,64,98482,1,0,0:0:0:0:
64,64,98514,1,0,0:0:0:0:
320,64,98579,1,8,0:0:0:0:
320,64,98645,1,8,0:0:0:0:
64,64,98710,1,0,0:0:0:0:
320,64,98971,1,8,0:0:0:0:
320,64,99232,1,8,0:0:0:0:
64,64,99362,1,0,0:0:0:0:
320,64,99492,1,8,0:0:0:0:
320,64,99623,1,8,0:0:0:0:
64,64,99753,1,4,0:0:0:0:
320,64,99884,1,8,0:0:0:0:
64,64,100014,1,4,0:0:0:0:
320,64,100145,1,8,0:0:0:0:
64,64,100275,1,4,0:0:0:0:
320,64,100405,1,8,0:0:0:0:
64,64,100536,1,4,0:0:0:0:
320,64,100666,1,8,0:0:0:0:
64,64,100797,1,4,0:0:0:0:
320,64,100927,1,8,0:0:0:0:
64,64,101058,1,4,0:0:0:0:
64,64,101318,1,0,0:0:0:0:
64,64,101362,1,0,0:0:0:0:
64,64,101405,1,0,0:0:0:0:
64,64,101449,1,0,0:0:0:0:
64,64,101492,1,0,0:0:0:0:
64,64,101536,1,0,0:0:0:0:
320,64,101579,1,8,0:0:0:0:
320,64,101840,1,12,0:0:0:0:
64,64,101971,1,0,0:0:0:0:
320,64,102101,1,12,0:0:0:0:
64,64,102232,1,0,0:0:0:0:
320,64,102362,1,12,0:0:0:0:
64,64,102492,1,0,0:0:0:0:
320,64,102623,1,12,0:0:0:0:
64,64,102753,1,0,0:0:0:0:
320,64,102884,1,12,0:0:0:0:
64,64,103014,1,0,0:0:0:0:
320,64,103079,1,8,0:0:0:0:
64,64,103145,1,0,0:0:0:0:
64,64,103210,1,0,0:0:0:0:
320,64,103275,1,8,0:0:0:0:
64,64,103405,1,0,0:0:0:0:
320,64,103454,1,8,0:0:0:0:
320,64,103503,1,8,0:0:0:0:
64,64,103552,1,0,0:0:0:0:
64,64,103601,1,0,0:0:0:0:
320,64,103666,1,8,0:0:0:0:
320,64,103715,1,8,0:0:0:0:
320,64,103764,1,8,0:0:0:0:
64,64,103813,1,0,0:0:0:0:
64,64,103862,1,0,0:0:0:0:
320,64,103927,1,12,0:0:0:0:
64,64,104058,1,0,0:0:0:0:
320,64,104188,1,8,0:0:0:0:
64,64,104318,1,0,0:0:0:0:
64,64,104384,1,0,0:0:0:0:
64,64,104449,1,0,0:0:0:0:
320,64,104579,1,8,0:0:0:0:
64,64,104840,1,0,0:0:0:0:
64,64,104971,1,0,0:0:0:0:
64,64,105014,1,0,0:0:0:0:
320,64,105058,1,8,0:0:0:0:
64,64,105145,1,0,0:0:0:0:
320,64,105232,1,8,0:0:0:0:
320,64,105318,1,8,0:0:0:0:
64,64,105405,1,0,0:0:0:0:
64,64,105492,1,0,0:0:0:0:
320,64,105579,1,8,0:0:0:0:
64,64,105623,1,0,0:0:0:0:
320,64,105666,1,8,0:0:0:0:
320,64,105753,1,8,0:0:0:0:
64,64,105840,1,0,0:0:0:0:
64,64,105927,1,0,0:0:0:0:
320,64,106014,1,12,0:0:0:0:
64,64,106145,1,0,0:0:0:0:
320,64,106275,1,8,0:0:0:0:
64,64,106405,1,0,0:0:0:0:
64,64,106471,1,0,0:0:0:0:
64,64,106536,1,0,0:0:0:0:
320,64,106666,1,8,0:0:0:0:
64,64,106927,1,0,0:0:0:0:
64,64,107058,1,0,0:0:0:0:
64,64,107101,1,0,0:0:0:0:
320,64,107145,1,8,0:0:0:0:
320,64,107232,1,8,0:0:0:0:
64,64,107318,1,0,0:0:0:0:
64,64,107405,1,0,0:0:0:0:
64,64,107449,1,0,0:0:0:0:
320,64,107492,1,8,0:0:0:0:
64,64,107579,1,0,0:0:0:0:
64,64,107710,1,0,0:0:0:0:
64,64,107742,1,0,0:0:0:0:
320,64,107840,1,8,0:0:0:0:
320,64,107873,1,8,0:0:0:0:
320,64,107971,1,8,0:0:0:0:
320,64,108003,1,8,0:0:0:0:
64,64,108101,1,4,0:0:0:0:
320,64,108232,1,8,0:0:0:0:
64,64,108362,1,4,0:0:0:0:
320,64,108493,1,8,0:0:0:0:
64,64,108623,1,4,0:0:0:0:
320,64,108753,1,8,0:0:0:0:
64,64,108884,1,4,0:0:0:0:
320,64,109014,1,8,0:0:0:0:
64,64,109145,1,4,0:0:0:0:
320,64,109275,1,8,0:0:0:0:
64,64,109406,1,4,0:0:0:0:
64,64,109666,1,0,0:0:0:0:
64,64,109710,1,0,0:0:0:0:
64,64,109753,1,0,0:0:0:0:
64,64,109797,1,0,0:0:0:0:
64,64,109840,1,0,0:0:0:0:
64,64,109884,1,0,0:0:0:0:
320,64,109927,1,8,0:0:0:0:
320,64,110188,1,12,0:0:0:0:
64,64,110319,1,0,0:0:0:0:
320,64,110449,1,12,0:0:0:0:
64,64,110580,1,0,0:0:0:0:
320,64,110710,1,12,0:0:0:0:
64,64,110840,1,0,0:0:0:0:
320,64,110971,1,12,0:0:0:0:
64,64,111101,1,0,0:0:0:0:
320,64,111232,1,12,0:0:0:0:
64,64,111362,1,0,0:0:0:0:
320,64,111427,1,8,0:0:0:0:
64,64,111493,1,0,0:0:0:0:
64,64,111558,1,0,0:0:0:0:
320,64,111623,1,8,0:0:0:0:
64,64,111753,1,0,0:0:0:0:
320,64,111802,1,8,0:0:0:0:
320,64,111851,1,8,0:0:0:0:
64,64,111900,1,0,0:0:0:0:
64,64,111949,1,0,0:0:0:0:
320,64,112014,1,8,0:0:0:0:
320,64,112063,1,8,0:0:0:0:
320,64,112112,1,8,0:0:0:0:
64,64,112161,1,0,0:0:0:0:
64,64,112210,1,0,0:0:0:0:
320,64,112275,1,12,0:0:0:0:
64,64,112406,1,0,0:0:0:0:
320,64,112536,1,8,0:0:0:0:
64,64,112666,1,0,0:0:0:0:
64,64,112732,1,0,0:0:0:0:
64,64,112797,1,0,0:0:0:0:
320,64,112927,1,8,0:0:0:0:
320,64,113188,1,8,0:0:0:0:
64,64,113319,1,0,0:0:0:0:
64,64,113362,1,0,0:0:0:0:
320,64,113406,1,8,0:0:0:0:
64,64,113493,1,0,0:0:0:0:
320,64,113580,1,8,0:0:0:0:
320,64,113666,1,8,0:0:0:0:
64,64,113753,1,0,0:0:0:0:
64,64,113840,1,0,0:0:0:0:
320,64,113927,1,8,0:0:0:0:
64,64,113971,1,0,0:0:0:0:
320,64,114014,1,8,0:0:0:0:
320,64,114101,1,8,0:0:0:0:
64,64,114188,1,0,0:0:0:0:
64,64,114275,1,0,0:0:0:0:
320,64,114362,1,12,0:0:0:0:
64,64,114493,1,0,0:0:0:0:
320,64,114623,1,8,0:0:0:0:
64,64,114753,1,0,0:0:0:0:
64,64,114819,1,0,0:0:0:0:
64,64,114884,1,0,0:0:0:0:
320,64,115014,1,8,0:0:0:0:
64,64,115275,1,0,0:0:0:0:
64,64,115406,1,0,0:0:0:0:
64,64,115449,1,0,0:0:0:0:
320,64,115493,1,8,0:0:0:0:
320,64,115580,1,8,0:0:0:0:
64,64,115666,1,0,0:0:0:0:
64,64,115753,1,0,0:0:0:0:
64,64,115797,1,0,0:0:0:0:
320,64,115840,1,8,0:0:0:0:
320,64,115927,1,8,0:0:0:0:
64,64,116014,1,0,0:0:0:0:
64,64,116101,1,0,0:0:0:0:
64,64,116145,1,0,0:0:0:0:
320,64,116188,1,8,0:0:0:0:
320,64,116275,1,8,0:0:0:0:
64,64,116362,1,0,0:0:0:0:
320,64,116449,1,12,0:0:0:0:
64,64,116579,1,0,0:0:0:0:
320,64,116710,1,8,0:0:0:0:
64,64,116840,1,0,0:0:0:0:
64,64,116905,1,0,0:0:0:0:
64,64,116971,1,0,0:0:0:0:
320,64,117101,1,8,0:0:0:0:
64,64,117362,1,0,0:0:0:0:
64,64,117492,1,0,0:0:0:0:
64,64,117536,1,0,0:0:0:0:
320,64,117579,1,8,0:0:0:0:
64,64,117666,1,0,0:0:0:0:
320,64,117753,1,8,0:0:0:0:
320,64,117840,1,8,0:0:0:0:
64,64,117927,1,0,0:0:0:0:
64,64,117971,1,0,0:0:0:0:
320,64,118014,1,8,0:0:0:0:
320,64,118101,1,8,0:0:0:0:
64,64,118188,1,0,0:0:0:0:
320,64,118275,1,8,0:0:0:0:
320,64,118362,1,8,0:0:0:0:
64,64,118449,1,0,0:0:0:0:
320,64,118536,1,12,0:0:0:0:
64,64,118797,1,0,0:0:0:0:
320,64,118927,1,12,0:0:0:0:
64,64,119188,1,0,0:0:0:0:
320,64,119318,1,12,0:0:0:0:
64,64,119579,1,0,0:0:0:0:
320,64,119710,1,12,0:0:0:0:
64,64,119971,1,0,0:0:0:0:
320,64,120101,1,12,0:0:0:0:
320,64,120623,1,12,0:0:0:0:
64,64,121666,1,0,0:0:0:0:
320,64,122188,1,8,0:0:0:0:
64,64,122710,1,0,0:0:0:0:
64,64,123753,1,0,0:0:0:0:
320,64,124797,1,8,0:0:0:0:
64,64,125840,1,0,0:0:0:0:
320,64,126362,1,8,0:0:0:0:
64,64,126884,1,0,0:0:0:0:
64,64,127927,1,0,0:0:0:0:
64,64,128449,1,0,0:0:0:0:
320,64,128971,1,8,0:0:0:0:
320,64,129101,1,8,0:0:0:0:
64,64,129362,1,0,0:0:0:0:
320,64,129492,1,8,0:0:0:0:
64,64,129753,1,0,0:0:0:0:
64,64,129884,1,0,0:0:0:0:
320,64,130145,1,8,0:0:0:0:
320,64,130536,1,8,0:0:0:0:
64,64,130666,1,0,0:0:0:0:
320,64,130797,1,8,0:0:0:0:
64,64,131058,1,0,0:0:0:0:
64,64,131188,1,0,0:0:0:0:
64,64,131449,1,0,0:0:0:0:
320,64,131579,1,8,0:0:0:0:
64,64,131840,1,0,0:0:0:0:
64,64,131971,1,0,0:0:0:0:
320,64,132232,1,8,0:0:0:0:
64,64,132492,1,0,0:0:0:0:
64,64,132558,1,0,0:0:0:0:
320,64,132623,1,8,0:0:0:0:
64,64,132753,1,0,0:0:0:0:
320,64,132884,1,8,0:0:0:0:
64,64,133014,1,0,0:0:0:0:
320,64,133145,1,12,0:0:0:0:
64,64,133275,1,0,0:0:0:0:
320,64,133405,1,12,0:0:0:0:
64,64,133536,1,0,0:0:0:0:
320,64,133666,1,12,0:0:0:0:
64,64,133797,1,0,0:0:0:0:
320,64,133927,1,12,0:0:0:0:
64,64,134058,1,0,0:0:0:0:
320,64,134188,1,12,0:0:0:0:
64,64,134318,1,0,0:0:0:0:
320,64,134449,1,12,0:0:0:0:
64,64,134579,1,0,0:0:0:0:
320,64,134710,1,12,0:0:0:0:
64,64,134840,1,0,0:0:0:0:
320,64,134971,1,12,0:0:0:0:
64,64,135101,1,0,0:0:0:0:
64,64,135166,1,0,0:0:0:0:
320,64,135232,1,8,0:0:0:0:
320,64,135275,1,8,0:0:0:0:
320,64,135318,1,8,0:0:0:0:
64,64,135362,1,0,0:0:0:0:
64,64,135427,1,0,0:0:0:0:
320,64,135492,1,8,0:0:0:0:
64,64,135558,1,0,0:0:0:0:
64,64,135623,1,0,0:0:0:0:
64,64,135688,1,0,0:0:0:0:
320,64,135753,1,8,0:0:0:0:
320,64,135797,1,8,0:0:0:0:
320,64,135840,1,8,0:0:0:0:
64,64,135884,1,0,0:0:0:0:
64,64,135949,1,0,0:0:0:0:
320,64,136014,1,8,0:0:0:0:
64,64,136079,1,0,0:0:0:0:
64,64,136145,1,0,0:0:0:0:
64,64,136210,1,0,0:0:0:0:
320,64,136275,1,8,0:0:0:0:
320,64,136318,1,8,0:0:0:0:
320,64,136362,1,8,0:0:0:0:
64,64,136405,1,0,0:0:0:0:
64,64,136471,1,0,0:0:0:0:
320,64,136536,1,8,0:0:0:0:
64,64,136601,1,0,0:0:0:0:
64,64,136666,1,0,0:0:0:0:
64,64,136732,1,0,0:0:0:0:
320,64,136797,1,8,0:0:0:0:
64,64,136862,1,0,0:0:0:0:
320,64,136927,1,8,0:0:0:0:
64,64,136992,1,0,0:0:0:0:
320,64,137058,1,8,0:0:0:0:
320,64,137123,1,8,0:0:0:0:
64,64,137188,1,0,0:0:0:0:
64,64,137253,1,0,0:0:0:0:
320,64,137318,1,12,0:0:0:0:
320,64,138101,1,8,0:0:0:0:
320,64,138362,1,8,0:0:0:0:
320,64,138623,1,8,0:0:0:0:
320,64,138884,1,8,0:0:0:0:
320,64,139145,1,8,0:0:0:0:
64,64,139405,1,0,0:0:0:0:
64,64,139536,1,0,0:0:0:0:
64,64,139666,1,0,0:0:0:0:
64,64,139797,1,0,0:0:0:0:
64,64,139927,1,0,0:0:0:0:
64,64,140058,1,0,0:0:0:0:
64,64,140188,1,0,0:0:0:0:
64,64,140318,1,0,0:0:0:0:
320,64,140971,1,8,0:0:0:0:
320,64,141023,1,8,0:0:0:0:
64,64,141075,1,0,0:0:0:0:
64,64,141127,1,0,0:0:0:0:
64,64,141179,1,0,0:0:0:0:
320,64,141232,1,8,0:0:0:0:
64,64,141362,1,0,0:0:0:0:
64,64,141427,1,0,0:0:0:0:
320,64,141492,1,8,0:0:0:0:
64,64,141623,1,0,0:0:0:0:
64,64,141687,1,0,0:0:0:0:
320,64,141753,1,8,0:0:0:0:
64,64,141818,1,0,0:0:0:0:
320,64,141884,1,8,0:0:0:0:
320,64,142014,1,8,0:0:0:0:
64,64,142079,1,0,0:0:0:0:
320,64,142145,1,8,0:0:0:0:
64,64,142275,1,0,0:0:0:0:
64,64,142340,1,0,0:0:0:0:
320,64,142405,1,8,0:0:0:0:
64,64,142536,1,0,0:0:0:0:
320,64,142601,1,8,0:0:0:0:
64,64,142666,1,0,0:0:0:0:
64,64,142732,1,0,0:0:0:0:
320,64,142797,1,8,0:0:0:0:
64,64,142927,1,0,0:0:0:0:
64,64,142992,1,0,0:0:0:0:
320,64,143058,1,8,0:0:0:0:
320,64,143188,1,8,0:0:0:0:
320,64,143253,1,8,0:0:0:0:
64,64,143318,1,0,0:0:0:0:
320,64,143449,1,8,0:0:0:0:
64,64,143514,1,0,0:0:0:0:
320,64,143579,1,8,0:0:0:0:
64,64,143710,1,0,0:0:0:0:
64,64,143775,1,0,0:0:0:0:
320,64,143840,1,8,0:0:0:0:
64,64,143905,1,0,0:0:0:0:
320,64,143971,1,8,0:0:0:0:
64,64,144101,1,0,0:0:0:0:
64,64,144166,1,0,0:0:0:0:
320,64,144232,1,8,0:0:0:0:
64,64,144362,1,0,0:0:0:0:
64,64,144427,1,0,0:0:0:0:
320,64,144492,1,8,0:0:0:0:
320,64,144536,1,8,0:0:0:0:
320,64,144579,1,8,0:0:0:0:
64,64,144623,1,0,0:0:0:0:
64,64,144688,1,0,0:0:0:0:
320,64,144753,1,8,0:0:0:0:
64,64,144818,1,0,0:0:0:0:
320,64,144884,1,8,0:0:0:0:
320,64,144949,1,8,0:0:0:0:
64,64,145014,1,0,0:0:0:0:
64,64,145079,1,0,0:0:0:0:
320,64,145145,1,8,0:0:0:0:
64,64,145275,1,0,0:0:0:0:
64,64,145340,1,0,0:0:0:0:
320,64,145405,1,8,0:0:0:0:
320,64,145471,1,8,0:0:0:0:
64,64,145536,1,0,0:0:0:0:
64,64,145601,1,0,0:0:0:0:
320,64,145666,1,8,0:0:0:0:
64,64,145797,1,0,0:0:0:0:
64,64,145862,1,0,0:0:0:0:
320,64,145927,1,8,0:0:0:0:
64,64,145992,1,0,0:0:0:0:
320,64,146058,1,8,0:0:0:0:
64,64,146188,1,0,0:0:0:0:
64,64,146253,1,0,0:0:0:0:
320,64,146318,1,8,0:0:0:0:
320,64,146449,1,8,0:0:0:0:
64,64,146514,1,0,0:0:0:0:
320,64,146579,1,8,0:0:0:0:
64,64,146710,1,0,0:0:0:0:
320,64,146775,1,8,0:0:0:0:
64,64,146840,1,0,0:0:0:0:
64,64,146905,1,0,0:0:0:0:
320,64,146971,1,8,0:0:0:0:
64,64,147101,1,0,0:0:0:0:
64,64,147166,1,0,0:0:0:0:
320,64,147232,1,8,0:0:0:0:
320,64,147275,1,8,0:0:0:0:
320,64,147318,1,8,0:0:0:0:
64,64,147362,1,0,0:0:0:0:
64,64,147427,1,0,0:0:0:0:
320,64,147492,1,8,0:0:0:0:
320,64,147536,1,8,0:0:0:0:
64,64,147579,1,0,0:0:0:0:
64,64,147623,1,0,0:0:0:0:
64,64,147688,1,0,0:0:0:0:
320,64,147753,1,12,0:0:0:0:
64,64,147884,1,0,0:0:0:0:
64,64,147949,1,0,0:0:0:0:
320,64,148014,1,12,0:0:0:0:
320,64,148145,1,12,0:0:0:0:
64,64,148275,1,0,0:0:0:0:
320,64,148405,1,12,0:0:0:0:
320,64,148666,1,12,0:0:0:0:
64,64,148927,1,0,0:0:0:0:
64,64,148992,1,0,0:0:0:0:
320,64,149058,1,8,0:0:0:0:
64,64,149101,1,0,0:0:0:0:
64,64,149145,1,0,0:0:0:0:
320,64,149188,1,8,0:0:0:0:
320,64,149253,1,8,0:0:0:0:
64,64,149318,1,0,0:0:0:0:
320,64,149351,1,8,0:0:0:0:
64,64,149449,1,0,0:0:0:0:
320,64,149482,1,8,0:0:0:0:
64,64,149579,1,0,0:0:0:0:
64,64,149710,1,0,0:0:0:0:
64,64,149775,1,0,0:0:0:0:
320,64,149840,1,8,0:0:0:0:
64,64,149971,1,0,0:0:0:0:
64,64,150035,1,0,0:0:0:0:
320,64,150101,1,8,0:0:0:0:
64,64,150166,1,0,0:0:0:0:
320,64,150232,1,8,0:0:0:0:
320,64,150362,1,8,0:0:0:0:
320,64,150427,1,8,0:0:0:0:
64,64,150493,1,0,0:0:0:0:
64,64,150623,1,0,0:0:0:0:
64,64,150688,1,0,0:0:0:0:
320,64,150753,1,8,0:0:0:0:
64,64,150884,1,0,0:0:0:0:
320,64,150949,1,8,0:0:0:0:
64,64,151014,1,0,0:0:0:0:
64,64,151080,1,0,0:0:0:0:
320,64,151145,1,8,0:0:0:0:
320,64,151275,1,8,0:0:0:0:
64,64,151340,1,0,0:0:0:0:
320,64,151406,1,8,0:0:0:0:
64,64,151536,1,0,0:0:0:0:
320,64,151601,1,8,0:0:0:0:
64,64,151666,1,0,0:0:0:0:
64,64,151797,1,0,0:0:0:0:
64,64,151862,1,0,0:0:0:0:
320,64,151927,1,8,0:0:0:0:
64,64,152058,1,0,0:0:0:0:
64,64,152123,1,0,0:0:0:0:
320,64,152188,1,8,0:0:0:0:
64,64,152253,1,0,0:0:0:0:
320,64,152319,1,8,0:0:0:0:
64,64,152449,1,0,0:0:0:0:
64,64,152514,1,0,0:0:0:0:
320,64,152580,1,8,0:0:0:0:
64,64,152710,1,0,0:0:0:0:
64,64,152775,1,0,0:0:0:0:
320,64,152840,1,8,0:0:0:0:
320,64,152884,1,8,0:0:0:0:
320,64,152927,1,8,0:0:0:0:
64,64,152971,1,0,0:0:0:0:
64,64,153036,1,0,0:0:0:0:
320,64,153101,1,8,0:0:0:0:
64,64,153166,1,0,0:0:0:0:
320,64,153232,1,8,0:0:0:0:
320,64,153297,1,8,0:0:0:0:
64,64,153362,1,0,0:0:0:0:
64,64,153427,1,0,0:0:0:0:
320,64,153493,1,8,0:0:0:0:
64,64,153623,1,0,0:0:0:0:
64,64,153688,1,0,0:0:0:0:
320,64,153753,1,8,0:0:0:0:
64,64,153786,1,0,0:0:0:0:
64,64,153818,1,0,0:0:0:0:
320,64,153884,1,8,0:0:0:0:
64,64,153949,1,0,0:0:0:0:
320,64,154014,1,8,0:0:0:0:
64,64,154058,1,0,0:0:0:0:
64,64,154101,1,0,0:0:0:0:
320,64,154145,1,8,0:0:0:0:
320,64,154210,1,8,0:0:0:0:
320,64,154275,1,8,0:0:0:0:
64,64,154340,1,0,0:0:0:0:
320,64,154406,1,8,0:0:0:0:
64,64,154536,1,0,0:0:0:0:
64,64,154601,1,0,0:0:0:0:
320,64,154666,1,8,0:0:0:0:
64,64,154797,1,0,0:0:0:0:
64,64,154862,1,0,0:0:0:0:
320,64,154927,1,8,0:0:0:0:
64,64,155058,1,0,0:0:0:0:
64,64,155123,1,0,0:0:0:0:
320,64,155188,1,8,0:0:0:0:
64,64,155253,1,0,0:0:0:0:
320,64,155319,1,8,0:0:0:0:
320,64,155362,1,8,0:0:0:0:
320,64,155406,1,8,0:0:0:0:
64,64,155449,1,0,0:0:0:0:
64,64,155514,1,0,0:0:0:0:
320,64,155580,1,8,0:0:0:0:
64,64,155645,1,0,0:0:0:0:
64,64,155710,1,0,0:0:0:0:
64,64,155775,1,0,0:0:0:0:
64,64,155840,1,0,0:0:0:0:
64,64,155905,1,0,0:0:0:0:
64,64,155971,1,0,0:0:0:0:
64,64,156036,1,0,0:0:0:0:
320,64,156101,1,12,0:0:0:0:
64,64,156275,1,0,0:0:0:0:
320,64,156449,1,8,0:0:0:0:
64,64,156623,1,4,0:0:0:0:
320,64,156797,1,8,0:0:0:0:
64,64,156971,1,0,0:0:0:0:
320,64,157145,1,8,0:0:0:0:
320,64,157210,1,8,0:0:0:0:
320,64,157275,1,8,0:0:0:0:
320,64,157340,1,8,0:0:0:0:
320,64,157405,1,8,0:0:0:0:
64,64,157536,1,0,0:0:0:0:
64,64,157601,1,0,0:0:0:0:
64,64,157666,1,0,0:0:0:0:
64,64,157732,1,0,0:0:0:0:
64,64,157797,1,0,0:0:0:0:
320,64,157927,1,8,0:0:0:0:
320,64,157992,1,8,0:0:0:0:
320,64,158058,1,8,0:0:0:0:
320,64,158123,1,8,0:0:0:0:
320,64,158188,1,8,0:0:0:0:
64,64,158318,1,0,0:0:0:0:
64,64,158384,1,0,0:0:0:0:
64,64,158449,1,0,0:0:0:0:
64,64,158514,1,0,0:0:0:0:
64,64,158579,1,0,0:0:0:0:
64,64,158710,1,0,0:0:0:0:
64,64,158775,1,0,0:0:0:0:
64,64,158971,1,0,0:0:0:0:
64,64,159036,1,0,0:0:0:0:
320,64,159232,1,8,0:0:0:0:
320,64,159297,1,8,0:0:0:0:
320,64,159362,1,8,0:0:0:0:
320,64,159427,1,8,0:0:0:0:
320,64,159492,1,8,0:0:0:0:
64,64,159623,1,0,0:0:0:0:
64,64,159688,1,0,0:0:0:0:
64,64,159753,1,0,0:0:0:0:
64,64,159818,1,0,0:0:0:0:
64,64,159884,1,0,0:0:0:0:
320,64,160014,1,8,0:0:0:0:
320,64,160079,1,8,0:0:0:0:
320,64,160145,1,8,0:0:0:0:
320,64,160210,1,8,0:0:0:0:
320,64,160275,1,8,0:0:0:0:
320,64,160405,1,8,0:0:0:0:
320,64,160471,1,8,0:0:0:0:
64,64,160536,1,0,0:0:0:0:
256,192,160666,12,0,160862,0:0:0:0:
256,192,160927,12,0,161188,0:0:0:0:
320,64,161318,5,8,0:0:0:0:
64,64,161384,1,0,0:0:0:0:
320,64,161449,1,8,0:0:0:0:
320,64,161514,1,8,0:0:0:0:
320,64,161579,1,8,0:0:0:0:
64,64,161710,1,0,0:0:0:0:
320,64,161775,1,8,0:0:0:0:
64,64,161840,1,0,0:0:0:0:
64,64,161905,1,0,0:0:0:0:
64,64,161971,1,0,0:0:0:0:
320,64,162101,1,8,0:0:0:0:
64,64,162166,1,0,0:0:0:0:
320,64,162232,1,8,0:0:0:0:
320,64,162297,1,8,0:0:0:0:
320,64,162362,1,8,0:0:0:0:
64,64,162492,1,0,0:0:0:0:
320,64,162558,1,8,0:0:0:0:
64,64,162623,1,0,0:0:0:0:
64,64,162688,1,0,0:0:0:0:
64,64,162753,1,0,0:0:0:0:
320,64,162884,1,8,0:0:0:0:
64,64,162949,1,0,0:0:0:0:
320,64,163145,1,8,0:0:0:0:
64,64,163210,1,0,0:0:0:0:
320,64,163405,1,8,0:0:0:0:
64,64,163471,1,0,0:0:0:0:
320,64,163536,1,8,0:0:0:0:
320,64,163601,1,8,0:0:0:0:
320,64,163666,1,8,0:0:0:0:
64,64,163797,1,0,0:0:0:0:
320,64,163862,1,8,0:0:0:0:
64,64,163927,1,0,0:0:0:0:
64,64,163992,1,0,0:0:0:0:
64,64,164058,1,0,0:0:0:0:
320,64,164188,1,8,0:0:0:0:
64,64,164253,1,0,0:0:0:0:
320,64,164318,1,8,0:0:0:0:
320,64,164384,1,8,0:0:0:0:
320,64,164449,1,8,0:0:0:0:
64,64,164579,1,0,0:0:0:0:
320,64,164645,1,8,0:0:0:0:
64,64,164710,1,0,0:0:0:0:
320,64,164840,1,8,0:0:0:0:
256,192,164971,12,0,165362,0:0:0:0:
320,64,165492,5,12,0:0:0:0:
320,64,167579,1,12,0:0:0:0:
64,64,169666,1,4,0:0:0:0:
320,64,171753,1,12,0:0:0:0:
64,64,173188,1,0,0:0:0:0:
64,64,173253,1,0,0:0:0:0:
320,64,173318,1,8,0:0:0:0:
320,64,173405,1,8,0:0:0:0:
64,64,173492,1,0,0:0:0:0:
320,64,173579,1,8,0:0:0:0:
320,64,173666,1,8,0:0:0:0:
320,64,173753,1,8,0:0:0:0:
64,64,173840,1,0,0:0:0:0:
64,64,174101,1,0,0:0:0:0:
64,64,174232,1,0,0:0:0:0:
320,64,174362,1,8,0:0:0:0:
64,64,174623,1,0,0:0:0:0:
320,64,174753,1,8,0:0:0:0:
320,64,174818,1,8,0:0:0:0:
64,64,174884,1,0,0:0:0:0:
320,64,175145,1,8,0:0:0:0:
64,64,175275,1,0,0:0:0:0:
320,64,175405,1,8,0:0:0:0:
64,64,175666,1,0,0:0:0:0:
320,64,175797,1,8,0:0:0:0:
64,64,175862,1,0,0:0:0:0:
320,64,175927,1,8,0:0:0:0:
64,64,176058,1,0,0:0:0:0:
64,64,176318,1,0,0:0:0:0:
320,64,176449,1,8,0:0:0:0:
64,64,176579,1,0,0:0:0:0:
64,64,176710,1,0,0:0:0:0:
320,64,176971,1,8,0:0:0:0:
64,64,177232,1,0,0:0:0:0:
64,64,177362,1,0,0:0:0:0:
320,64,177492,1,8,0:0:0:0:
64,64,177753,1,0,0:0:0:0:
320,64,177884,1,8,0:0:0:0:
320,64,177949,1,8,0:0:0:0:
64,64,178014,1,0,0:0:0:0:
64,64,178145,1,0,0:0:0:0:
320,64,178275,1,8,0:0:0:0:
64,64,178405,1,0,0:0:0:0:
320,64,178536,1,8,0:0:0:0:
64,64,178666,1,0,0:0:0:0:
320,64,178797,1,8,0:0:0:0:
64,64,178927,1,0,0:0:0:0:
320,64,179058,1,8,0:0:0:0:
320,64,179188,1,8,0:0:0:0:
64,64,179318,1,0,0:0:0:0:
320,64,179449,1,8,0:0:0:0:
320,64,179579,1,8,0:0:0:0:
64,64,179710,1,0,0:0:0:0:
320,64,179840,1,8,0:0:0:0:
64,64,179971,1,0,0:0:0:0:
320,64,180101,1,8,0:0:0:0:
64,64,180166,1,0,0:0:0:0:
320,64,180232,1,8,0:0:0:0:
320,64,180297,1,8,0:0:0:0:
64,64,180362,1,0,0:0:0:0:
64,64,180427,1,0,0:0:0:0:
320,64,180492,1,8,0:0:0:0:
64,64,180558,1,0,0:0:0:0:
64,64,180623,1,0,0:0:0:0:
64,64,180688,1,0,0:0:0:0:
320,64,180753,1,8,0:0:0:0:
64,64,180818,1,0,0:0:0:0:
320,64,180884,1,8,0:0:0:0:
320,64,180949,1,8,0:0:0:0:
64,64,181014,1,0,0:0:0:0:
64,64,181079,1,0,0:0:0:0:
320,64,181145,1,8,0:0:0:0:
320,64,181210,1,8,0:0:0:0:
64,64,181275,1,0,0:0:0:0:
64,64,181340,1,0,0:0:0:0:
320,64,181405,1,8,0:0:0:0:
64,64,181492,1,0,0:0:0:0:
64,64,181579,1,0,0:0:0:0:
320,64,181666,1,8,0:0:0:0:
64,64,182188,1,4,0:0:0:0:
320,64,182318,1,8,0:0:0:0:
64,64,182449,1,0,0:0:0:0:
64,64,182514,1,0,0:0:0:0:
320,64,182579,1,8,0:0:0:0:
64,64,182645,1,0,0:0:0:0:
320,64,182710,1,8,0:0:0:0:
320,64,182775,1,8,0:0:0:0:
64,64,182840,1,0,0:0:0:0:
64,64,182905,1,0,0:0:0:0:
320,64,182971,1,8,0:0:0:0:
64,64,183036,1,0,0:0:0:0:
320,64,183101,1,8,0:0:0:0:
320,64,183166,1,8,0:0:0:0:
64,64,183232,1,0,0:0:0:0:
64,64,183297,1,0,0:0:0:0:
64,64,183362,1,0,0:0:0:0:
64,64,183427,1,0,0:0:0:0:
320,64,183492,1,8,0:0:0:0:
320,64,183558,1,8,0:0:0:0:
64,64,183623,1,0,0:0:0:0:
320,64,183688,1,8,0:0:0:0:
64,64,183753,1,0,0:0:0:0:
64,64,183818,1,0,0:0:0:0:
320,64,183884,1,8,0:0:0:0:
320,64,183949,1,8,0:0:0:0:
64,64,184014,1,0,0:0:0:0:
320,64,184079,1,8,0:0:0:0:
64,64,184145,1,0,0:0:0:0:
64,64,184210,1,0,0:0:0:0:
320,64,184275,1,8,0:0:0:0:
320,64,184405,1,8,0:0:0:0:
64,64,184536,1,0,0:0:0:0:
320,64,184666,1,8,0:0:0:0:
64,64,184732,1,0,0:0:0:0:
64,64,184797,1,0,0:0:0:0:
320,64,184927,1,8,0:0:0:0:
64,64,185058,1,0,0:0:0:0:
64,64,185188,1,0,0:0:0:0:
64,64,185253,1,0,0:0:0:0:
320,64,185318,1,8,0:0:0:0:
320,64,185449,1,8,0:0:0:0:
64,64,185579,1,0,0:0:0:0:
320,64,185710,1,8,0:0:0:0:
64,64,185840,1,0,0:0:0:0:
64,64,185905,1,0,0:0:0:0:
64,64,185971,1,0,0:0:0:0:
320,64,186101,1,8,0:0:0:0:
64,64,186232,1,0,0:0:0:0:
320,64,186362,1,12,0:0:0:0:
64,64,186492,1,0,0:0:0:0:
64,64,186623,1,0,0:0:0:0:
320,64,186753,1,8,0:0:0:0:
64,64,186818,1,0,0:0:0:0:
320,64,186884,1,8,0:0:0:0:
64,64,187014,1,0,0:0:0:0:
320,64,187058,1,8,0:0:0:0:
64,64,187145,1,0,0:0:0:0:
320,64,187232,1,8,0:0:0:0:
64,64,187275,1,0,0:0:0:0:
320,64,187405,1,8,0:0:0:0:
64,64,187536,1,0,0:0:0:0:
320,64,187666,1,8,0:0:0:0:
320,64,187797,1,8,0:0:0:0:
320,64,187862,1,8,0:0:0:0:
64,64,187927,1,0,0:0:0:0:
64,64,188058,1,0,0:0:0:0:
320,64,188188,1,8,0:0:0:0:
64,64,188318,1,0,0:0:0:0:
320,64,188362,1,8,0:0:0:0:
320,64,188405,1,8,0:0:0:0:
64,64,188449,1,0,0:0:0:0:
64,64,188579,1,0,0:0:0:0:
320,64,188710,1,8,0:0:0:0:
64,64,188840,1,0,0:0:0:0:
64,64,188905,1,0,0:0:0:0:
64,64,188971,1,0,0:0:0:0:
64,64,189101,1,0,0:0:0:0:
320,64,189232,1,8,0:0:0:0:
64,64,189362,1,0,0:0:0:0:
320,64,189405,1,8,0:0:0:0:
320,64,189449,1,8,0:0:0:0:
320,64,189492,1,8,0:0:0:0:
64,64,189623,1,0,0:0:0:0:
320,64,189753,1,8,0:0:0:0:
64,64,189884,1,0,0:0:0:0:
320,64,190014,1,8,0:0:0:0:
320,64,190145,1,8,0:0:0:0:
64,64,190275,1,0,0:0:0:0:
64,64,190405,1,0,0:0:0:0:
320,64,190536,1,12,0:0:0:0:
64,64,190666,1,0,0:0:0:0:
320,64,190797,1,8,0:0:0:0:
320,64,190840,1,8,0:0:0:0:
64,64,190884,1,0,0:0:0:0:
64,64,190971,1,0,0:0:0:0:
320,64,191058,1,8,0:0:0:0:
320,64,191145,1,8,0:0:0:0:
320,64,191232,1,8,0:0:0:0:
64,64,191318,1,0,0:0:0:0:
320,64,191405,1,8,0:0:0:0:
64,64,191492,1,0,0:0:0:0:
320,64,191579,1,8,0:0:0:0:
320,64,191666,1,8,0:0:0:0:
64,64,191753,1,0,0:0:0:0:
64,64,191840,1,0,0:0:0:0:
320,64,191927,1,8,0:0:0:0:
320,64,192014,1,8,0:0:0:0:
64,64,192101,1,0,0:0:0:0:
64,64,192145,1,0,0:0:0:0:
320,64,192188,1,8,0:0:0:0:
320,64,192275,1,8,0:0:0:0:
64,64,192362,1,0,0:0:0:0:
64,64,192449,1,0,0:0:0:0:
320,64,192536,1,8,0:0:0:0:
64,64,192623,1,0,0:0:0:0:
64,64,192753,1,0,0:0:0:0:
320,64,192884,1,8,0:0:0:0:
64,64,193014,1,0,0:0:0:0:
64,64,193079,1,0,0:0:0:0:
64,64,193145,1,0,0:0:0:0:
64,64,193275,1,0,0:0:0:0:
320,64,193405,1,8,0:0:0:0:
64,64,193536,1,0,0:0:0:0:
320,64,193666,1,8,0:0:0:0:
320,64,193732,1,8,0:0:0:0:
64,64,193797,1,0,0:0:0:0:
320,64,193927,1,8,0:0:0:0:
64,64,193992,1,0,0:0:0:0:
64,64,194058,1,0,0:0:0:0:
320,64,194188,1,8,0:0:0:0:
64,64,194318,1,0,0:0:0:0:
64,64,194384,1,0,0:0:0:0:
320,64,194449,1,8,0:0:0:0:
64,64,194579,1,0,0:0:0:0:
320,64,194710,1,8,0:0:0:0:
320,64,194775,1,8,0:0:0:0:
320,64,194840,1,8,0:0:0:0:
320,64,194905,1,8,0:0:0:0:
320,64,194971,1,8,0:0:0:0:
320,64,195036,1,8,0:0:0:0:
320,64,195101,1,8,0:0:0:0:
320,64,195166,1,8,0:0:0:0:
64,64,195232,1,0,0:0:0:0:
64,64,195297,1,0,0:0:0:0:
64,64,195362,1,0,0:0:0:0:
64,64,195427,1,0,0:0:0:0:
64,64,195492,1,0,0:0:0:0:
64,64,195558,1,0,0:0:0:0:
64,64,195623,1,0,0:0:0:0:
64,64,195688,1,0,0:0:0:0:
320,64,195753,1,8,0:0:0:0:
320,64,195818,1,8,0:0:0:0:
320,64,195884,1,8,0:0:0:0:
320,64,195949,1,8,0:0:0:0:
320,64,196014,1,8,0:0:0:0:
320,64,196079,1,8,0:0:0:0:
320,64,196145,1,8,0:0:0:0:
320,64,196210,1,8,0:0:0:0:
64,64,196275,1,0,0:0:0:0:
64,64,196340,1,0,0:0:0:0:
64,64,196405,1,0,0:0:0:0:
64,64,196471,1,0,0:0:0:0:
64,64,196536,1,0,0:0:0:0:
64,64,196601,1,0,0:0:0:0:
64,64,196666,1,0,0:0:0:0:
64,64,196732,1,0,0:0:0:0:
320,64,196797,1,8,0:0:0:0:
320,64,196862,1,8,0:0:0:0:
320,64,196927,1,8,0:0:0:0:
64,64,196992,1,0,0:0:0:0:
64,64,197058,1,0,0:0:0:0:
64,64,197123,1,0,0:0:0:0:
320,64,197188,1,8,0:0:0:0:
320,64,197232,1,8,0:0:0:0:
320,64,197275,1,8,0:0:0:0:
64,64,197318,1,0,0:0:0:0:
64,64,197384,1,0,0:0:0:0:
64,64,197449,1,0,0:0:0:0:
64,64,197514,1,0,0:0:0:0:
320,64,197579,1,8,0:0:0:0:
320,64,197612,1,8,0:0:0:0:
320,64,197645,1,8,0:0:0:0:
64,64,197710,1,0,0:0:0:0:
64,64,197775,1,0,0:0:0:0:
320,64,197971,1,12,0:0:0:0:
64,64,198101,1,0,0:0:0:0:
64,64,198166,1,0,0:0:0:0:
64,64,198232,1,0,0:0:0:0:
320,64,198362,1,12,0:0:0:0:
64,64,198492,1,0,0:0:0:0:
64,64,198558,1,0,0:0:0:0:
320,64,198623,1,12,0:0:0:0:
64,64,198753,1,0,0:0:0:0:
320,64,198884,1,8,0:0:0:0:
320,64,198949,1,8,0:0:0:0:
64,64,199014,1,0,0:0:0:0:
320,64,199079,1,8,0:0:0:0:
64,64,199145,1,0,0:0:0:0:
64,64,199210,1,0,0:0:0:0:
320,64,199275,1,8,0:0:0:0:
320,64,199340,1,8,0:0:0:0:
64,64,199405,1,0,0:0:0:0:
320,64,199471,1,8,0:0:0:0:
64,64,199536,1,0,0:0:0:0:
64,64,199601,1,0,0:0:0:0:
320,64,199666,1,8,0:0:0:0:
320,64,199732,1,8,0:0:0:0:
64,64,199797,1,0,0:0:0:0:
320,64,199862,1,8,0:0:0:0:
64,64,199927,1,0,0:0:0:0:
64,64,199992,1,0,0:0:0:0:
320,64,200058,1,8,0:0:0:0:
320,64,200123,1,8,0:0:0:0:
64,64,200188,1,0,0:0:0:0:
320,64,200253,1,8,0:0:0:0:
64,64,200318,1,0,0:0:0:0:
320,64,200384,1,8,0:0:0:0:
320,64,200449,1,8,0:0:0:0:
64,64,200514,1,0,0:0:0:0:
320,64,200579,1,8,0:0:0:0:
320,64,200645,1,8,0:0:0:0:
64,64,200710,1,0,0:0:0:0:
64,64,200775,1,0,0:0:0:0:
320,64,200840,1,8,0:0:0:0:
64,64,200905,1,0,0:0:0:0:
320,64,200971,1,8,0:0:0:0:
320,64,201036,1,8,0:0:0:0:
64,64,201101,1,0,0:0:0:0:
64,64,201166,1,0,0:0:0:0:
320,64,201232,1,8,0:0:0:0:
64,64,201297,1,0,0:0:0:0:
320,64,201362,1,8,0:0:0:0:
320,64,201427,1,8,0:0:0:0:
64,64,201492,1,0,0:0:0:0:
64,64,201558,1,0,0:0:0:0:
320,64,201623,1,8,0:0:0:0:
64,64,201688,1,0,0:0:0:0:
320,64,201753,1,8,0:0:0:0:
320,64,201818,1,8,0:0:0:0:
64,64,201884,1,0,0:0:0:0:
64,64,201949,1,0,0:0:0:0:
320,64,202014,1,8,0:0:0:0:
64,64,202079,1,0,0:0:0:0:
64,64,202145,1,0,0:0:0:0:
320,64,202210,1,8,0:0:0:0:
64,64,202340,1,0,0:0:0:0:
320,64,202405,1,8,0:0:0:0:
64,64,202471,1,0,0:0:0:0:
320,64,202536,1,8,0:0:0:0:
320,64,202601,1,8,0:0:0:0:
64,64,202666,1,0,0:0:0:0:
320,64,202732,1,8,0:0:0:0:
64,64,202862,1,0,0:0:0:0:
320,64,202927,1,8,0:0:0:0:
64,64,202992,1,0,0:0:0:0:
320,64,203058,1,8,0:0:0:0:
64,64,203123,1,0,0:0:0:0:
64,64,203188,1,0,0:0:0:0:
64,64,203318,1,0,0:0:0:0:
64,64,203449,1,0,0:0:0:0:
320,64,203579,1,8,0:0:0:0:
64,64,203710,1,0,0:0:0:0:
64,64,203775,1,0,0:0:0:0:
320,64,203840,1,8,0:0:0:0:
320,64,203971,1,8,0:0:0:0:
64,64,204101,1,0,0:0:0:0:
64,64,204166,1,0,0:0:0:0:
64,64,204232,1,0,0:0:0:0:
64,64,204297,1,0,0:0:0:0:
320,64,204362,1,8,0:0:0:0:
320,64,204427,1,8,0:0:0:0:
64,64,204492,1,0,0:0:0:0:
64,64,204558,1,0,0:0:0:0:
320,64,204623,1,8,0:0:0:0:
64,64,204688,1,0,0:0:0:0:
320,64,204753,1,8,0:0:0:0:
320,64,204818,1,8,0:0:0:0:
320,64,204884,1,8,0:0:0:0:
320,64,204949,1,8,0:0:0:0:
64,64,205014,1,0,0:0:0:0:
64,64,205079,1,0,0:0:0:0:
320,64,205145,1,8,0:0:0:0:
64,64,205210,1,0,0:0:0:0:
320,64,205275,1,8,0:0:0:0:
64,64,205405,1,0,0:0:0:0:
320,64,205536,1,8,0:0:0:0:
64,64,205601,1,0,0:0:0:0:
320,64,205666,1,8,0:0:0:0:
64,64,205797,1,0,0:0:0:0:
64,64,205862,1,0,0:0:0:0:
320,64,205927,1,8,0:0:0:0:
64,64,205992,1,0,0:0:0:0:
320,64,206058,1,8,0:0:0:0:
64,64,206188,1,0,0:0:0:0:
64,64,206253,1,0,0:0:0:0:
320,64,206318,1,8,0:0:0:0:
64,64,206384,1,0,0:0:0:0:
320,64,206449,1,8,0:0:0:0:
320,64,206514,1,8,0:0:0:0:
64,64,206579,1,0,0:0:0:0:
64,64,206645,1,0,0:0:0:0:
320,64,206710,1,8,0:0:0:0:
64,64,206797,1,0,0:0:0:0:
64,64,206884,1,0,0:0:0:0:
64,64,206971,1,0,0:0:0:0:
64,64,207058,1,0,0:0:0:0:
64,64,207145,1,0,0:0:0:0:
320,64,207232,1,12,0:0:0:0:
320,64,207492,1,8,0:0:0:0:
320,64,207558,1,8,0:0:0:0:
64,64,207623,1,0,0:0:0:0:
320,64,207753,1,8,0:0:0:0:
320,64,207818,1,8,0:0:0:0:
320,64,207884,1,8,0:0:0:0:
64,64,208014,1,0,0:0:0:0:
320,64,208079,1,8,0:0:0:0:
64,64,208145,1,0,0:0:0:0:
320,64,208275,1,8,0:0:0:0:
64,64,208340,1,0,0:0:0:0:
64,64,208405,1,0,0:0:0:0:
64,64,208536,1,0,0:0:0:0:
64,64,208601,1,0,0:0:0:0:
64,64,208666,1,0,0:0:0:0:
64,64,208797,1,0,0:0:0:0:
320,64,208862,1,8,0:0:0:0:
64,64,208927,1,0,0:0:0:0:
320,64,209058,1,8,0:0:0:0:
64,64,209188,1,0,0:0:0:0:
64,64,209253,1,0,0:0:0:0:
320,64,209318,1,8,0:0:0:0:
64,64,209449,1,0,0:0:0:0:
64,64,209579,1,0,0:0:0:0:
64,64,209710,1,0,0:0:0:0:
320,64,209775,1,8,0:0:0:0:
320,64,209840,1,8,0:0:0:0:
64,64,209971,1,0,0:0:0:0:
64,64,210036,1,0,0:0:0:0:
64,64,210101,1,0,0:0:0:0:
64,64,210232,1,0,0:0:0:0:
320,64,210362,1,8,0:0:0:0:
320,64,210427,1,8,0:0:0:0:
64,64,210492,1,0,0:0:0:0:
320,64,210623,1,8,0:0:0:0:
64,64,210753,1,0,0:0:0:0:
320,64,210884,1,8,0:0:0:0:
64,64,211014,1,0,0:0:0:0:
64,64,211145,1,0,0:0:0:0:
320,64,211275,1,8,0:0:0:0:
64,64,211405,1,0,0:0:0:0:
320,64,211471,1,8,0:0:0:0:
64,64,211536,1,0,0:0:0:0:
64,64,211601,1,0,0:0:0:0:
320,64,211666,1,8,0:0:0:0:
320,64,211732,1,8,0:0:0:0:
64,64,211797,1,0,0:0:0:0:
64,64,211862,1,0,0:0:0:0:
320,64,211927,1,8,0:0:0:0:
64,64,211992,1,0,0:0:0:0:
320,64,212058,1,8,0:0:0:0:
320,64,212123,1,8,0:0:0:0:
64,64,212188,1,0,0:0:0:0:
320,64,212253,1,8,0:0:0:0:
64,64,212318,1,0,0:0:0:0:
64,64,212384,1,0,0:0:0:0:
320,64,212449,1,8,0:0:0:0:
320,64,212514,1,8,0:0:0:0:
64,64,212579,1,0,0:0:0:0:
320,64,212645,1,8,0:0:0:0:
64,64,212710,1,0,0:0:0:0:
64,64,212775,1,0,0:0:0:0:
64,64,212840,1,0,0:0:0:0:
64,64,212905,1,0,0:0:0:0:
320,64,212971,1,8,0:0:0:0:
320,64,213036,1,8,0:0:0:0:
320,64,213101,1,8,0:0:0:0:
64,64,213166,1,0,0:0:0:0:
320,64,213232,1,8,0:0:0:0:
320,64,213297,1,8,0:0:0:0:
320,64,213362,1,8,0:0:0:0:
64,64,213427,1,0,0:0:0:0:
320,64,213492,1,8,0:0:0:0:
64,64,213623,1,0,0:0:0:0:
64,64,213688,1,0,0:0:0:0:
64,64,213753,1,0,0:0:0:0:
320,64,213884,1,8,0:0:0:0:
64,64,214014,1,0,0:0:0:0:
320,64,214079,1,8,0:0:0:0:
64,64,214145,1,0,0:0:0:0:
320,64,214275,1,8,0:0:0:0:
64,64,214340,1,0,0:0:0:0:
64,64,214405,1,0,0:0:0:0:
64,64,214471,1,0,0:0:0:0:
320,64,214536,1,8,0:0:0:0:
64,64,214666,1,0,0:0:0:0:
64,64,214732,1,0,0:0:0:0:
64,64,214797,1,0,0:0:0:0:
320,64,214927,1,8,0:0:0:0:
64,64,215058,1,0,0:0:0:0:
320,64,215123,1,8,0:0:0:0:
64,64,215188,1,0,0:0:0:0:
320,64,215318,1,8,0:0:0:0:
64,64,215384,1,0,0:0:0:0:
64,64,215449,1,0,0:0:0:0:
64,64,215514,1,0,0:0:0:0:
320,64,215579,1,12,0:0:0:0:
64,64,215710,1,0,0:0:0:0:
64,64,215775,1,0,0:0:0:0:
64,64,215840,1,0,0:0:0:0:
64,64,215905,1,0,0:0:0:0:
320,64,215971,1,12,0:0:0:0:
64,64,216101,1,0,0:0:0:0:
320,64,216166,1,8,0:0:0:0:
64,64,216232,1,0,0:0:0:0:
64,64,216297,1,0,0:0:0:0:
320,64,216362,1,12,0:0:0:0:
64,64,216492,1,0,0:0:0:0:
64,64,216558,1,0,0:0:0:0:
64,64,216623,1,0,0:0:0:0:
64,64,216688,1,0,0:0:0:0:
320,64,216753,1,12,0:0:0:0:
64,64,216884,1,0,0:0:0:0:
64,64,216949,1,0,0:0:0:0:
320,64,217014,1,8,0:0:0:0:
64,64,217079,1,0,0:0:0:0:
320,64,217145,1,8,0:0:0:0:
320,64,217232,1,8,0:0:0:0:
320,64,217318,1,8,0:0:0:0:
64,64,217405,1,0,0:0:0:0:
64,64,217492,1,0,0:0:0:0:
64,64,217579,1,0,0:0:0:0:
320,64,217666,1,8,0:0:0:0:
320,64,217732,1,8,0:0:0:0:
64,64,217797,1,0,0:0:0:0:
64,64,217862,1,0,0:0:0:0:
320,64,217927,1,8,0:0:0:0:
64,64,217992,1,0,0:0:0:0:
320,64,218058,1,8,0:0:0:0:
320,64,218123,1,8,0:0:0:0:
64,64,218188,1,0,0:0:0:0:
64,64,218253,1,0,0:0:0:0:
64,64,218318,1,0,0:0:0:0:
64,64,218384,1,0,0:0:0:0:
320,64,218449,1,8,0:0:0:0:
320,64,218514,1,8,0:0:0:0:
64,64,218579,1,0,0:0:0:0:
64,64,218645,1,0,0:0:0:0:
320,64,218710,1,8,0:0:0:0:
320,64,218775,1,8,0:0:0:0:
320,64,218840,1,8,0:0:0:0:
64,64,218905,1,0,0:0:0:0:
320,64,218971,1,8,0:0:0:0:
64,64,219036,1,0,0:0:0:0:
320,64,219101,1,8,0:0:0:0:
320,64,219166,1,8,0:0:0:0:
64,64,219232,1,0,0:0:0:0:
64,64,219297,1,0,0:0:0:0:
64,64,219362,1,0,0:0:0:0:
64,64,219427,1,0,0:0:0:0:
320,64,219492,1,8,0:0:0:0:
320,64,219558,1,8,0:0:0:0:
64,64,219623,1,0,0:0:0:0:
64,64,219688,1,0,0:0:0:0:
320,64,219753,1,8,0:0:0:0:
320,64,219818,1,8,0:0:0:0:
320,64,219884,1,8,0:0:0:0:
320,64,219949,1,8,0:0:0:0:
64,64,220014,1,0,0:0:0:0:
64,64,220079,1,0,0:0:0:0:
320,64,220145,1,8,0:0:0:0:
320,64,220210,1,8,0:0:0:0:
320,64,220275,1,8,0:0:0:0:
320,64,220340,1,8,0:0:0:0:
64,64,220405,1,0,0:0:0:0:
64,64,220471,1,0,0:0:0:0:
320,64,220536,1,8,0:0:0:0:
320,64,220601,1,8,0:0:0:0:
64,64,220666,1,0,0:0:0:0:
64,64,220732,1,0,0:0:0:0:
320,64,220797,1,8,0:0:0:0:
64,64,220862,1,0,0:0:0:0:
64,64,220927,1,0,0:0:0:0:
64,64,220992,1,0,0:0:0:0:
320,64,221058,1,8,0:0:0:0:
64,64,221123,1,0,0:0:0:0:
320,64,221188,1,8,0:0:0:0:
64,64,221253,1,0,0:0:0:0:
64,64,221318,1,0,0:0:0:0:
64,64,221384,1,0,0:0:0:0:
64,64,221449,1,0,0:0:0:0:
64,64,221514,1,0,0:0:0:0:
320,64,221579,1,8,0:0:0:0:
64,64,221645,1,0,0:0:0:0:
64,64,221710,1,0,0:0:0:0:
64,64,221775,1,0,0:0:0:0:
320,64,221840,1,8,0:0:0:0:
320,64,221905,1,8,0:0:0:0:
320,64,221971,1,8,0:0:0:0:
64,64,222036,1,0,0:0:0:0:
320,64,222101,1,8,0:0:0:0:
64,64,222166,1,0,0:0:0:0:
320,64,222232,1,8,0:0:0:0:
320,64,222297,1,8,0:0:0:0:
320,64,222362,1,8,0:0:0:0:
64,64,222427,1,0,0:0:0:0:
64,64,222492,1,0,0:0:0:0:
64,64,222558,1,0,0:0:0:0:
320,64,222623,1,8,0:0:0:0:
320,64,222688,1,8,0:0:0:0:
64,64,222753,1,0,0:0:0:0:
64,64,222818,1,0,0:0:0:0:
320,64,222884,1,8,0:0:0:0:
64,64,222949,1,0,0:0:0:0:
64,64,223014,1,0,0:0:0:0:
64,64,223079,1,0,0:0:0:0:
320,64,223145,1,8,0:0:0:0:
64,64,223210,1,0,0:0:0:0:
320,64,223275,1,8,0:0:0:0:
320,64,223340,1,8,0:0:0:0:
64,64,223405,1,0,0:0:0:0:
64,64,223471,1,0,0:0:0:0:
64,64,223536,1,0,0:0:0:0:
64,64,223601,1,0,0:0:0:0:
320,64,223666,1,8,0:0:0:0:
320,64,223732,1,8,0:0:0:0:
64,64,223797,1,0,0:0:0:0:
64,64,223862,1,0,0:0:0:0:
320,64,223927,1,8,0:0:0:0:
320,64,223992,1,8,0:0:0:0:
320,64,224058,1,8,0:0:0:0:
320,64,224123,1,8,0:0:0:0:
64,64,224188,1,0,0:0:0:0:
64,64,224253,1,0,0:0:0:0:
320,64,224318,1,8,0:0:0:0:
320,64,224384,1,8,0:0:0:0:
320,64,224449,1,8,0:0:0:0:
320,64,224514,1,8,0:0:0:0:
64,64,224579,1,0,0:0:0:0:
64,64,224645,1,0,0:0:0:0:
320,64,224710,1,8,0:0:0:0:
64,64,224775,1,0,0:0:0:0:
64,64,224840,1,0,0:0:0:0:
64,64,224905,1,0,0:0:0:0:
320,64,224971,1,8,0:0:0:0:
320,64,225101,1,8,0:0:0:0:
320,64,225166,1,8,0:0:0:0:
64,64,225232,1,0,0:0:0:0:
320,64,225297,1,8,0:0:0:0:
64,64,225362,1,0,0:0:0:0:
320,64,225492,1,8,0:0:0:0:
64,64,225623,1,0,0:0:0:0:
64,64,225688,1,0,0:0:0:0:
320,64,225753,1,8,0:0:0:0:
64,64,225884,1,0,0:0:0:0:
64,64,225949,1,0,0:0:0:0:
320,64,226014,1,8,0:0:0:0:
320,64,226079,1,8,0:0:0:0:
320,64,226145,1,8,0:0:0:0:
320,64,226210,1,8,0:0:0:0:
64,64,226275,1,0,0:0:0:0:
64,64,226340,1,0,0:0:0:0:
320,64,226405,1,8,0:0:0:0:
320,64,226471,1,8,0:0:0:0:
320,64,226536,1,8,0:0:0:0:
320,64,226601,1,8,0:0:0:0:
64,64,226666,1,0,0:0:0:0:
64,64,226732,1,0,0:0:0:0:
320,64,226797,1,8,0:0:0:0:
320,64,226862,1,8,0:0:0:0:
64,64,226927,1,0,0:0:0:0:
64,64,226992,1,0,0:0:0:0:
320,64,227058,1,8,0:0:0:0:
320,64,227123,1,8,0:0:0:0:
64,64,227188,1,0,0:0:0:0:
64,64,227253,1,0,0:0:0:0:
320,64,227318,1,8,0:0:0:0:
64,64,227384,1,0,0:0:0:0:
320,64,227449,1,8,0:0:0:0:
320,64,227514,1,8,0:0:0:0:
64,64,227579,1,0,0:0:0:0:
64,64,227645,1,0,0:0:0:0:
64,64,227710,1,0,0:0:0:0:
64,64,227775,1,0,0:0:0:0:
320,64,227840,1,8,0:0:0:0:
320,64,227905,1,8,0:0:0:0:
64,64,227971,1,0,0:0:0:0:
64,64,228036,1,0,0:0:0:0:
320,64,228101,1,8,0:0:0:0:
320,64,228166,1,8,0:0:0:0:
320,64,228232,1,8,0:0:0:0:
64,64,228297,1,0,0:0:0:0:
320,64,228362,1,8,0:0:0:0:
64,64,228427,1,0,0:0:0:0:
320,64,228492,1,8,0:0:0:0:
320,64,228558,1,8,0:0:0:0:
320,64,228623,1,8,0:0:0:0:
64,64,228688,1,0,0:0:0:0:
64,64,228753,1,0,0:0:0:0:
64,64,228818,1,0,0:0:0:0:
320,64,228884,1,8,0:0:0:0:
320,64,228949,1,8,0:0:0:0:
64,64,229014,1,0,0:0:0:0:
64,64,229079,1,0,0:0:0:0:
320,64,229145,1,8,0:0:0:0:
64,64,229210,1,0,0:0:0:0:
64,64,229275,1,0,0:0:0:0:
64,64,229340,1,0,0:0:0:0:
320,64,229405,1,8,0:0:0:0:
64,64,229471,1,0,0:0:0:0:
320,64,229536,1,8,0:0:0:0:
64,64,229601,1,0,0:0:0:0:
64,64,229666,1,0,0:0:0:0:
64,64,229732,1,0,0:0:0:0:
64,64,229797,1,0,0:0:0:0:
64,64,229862,1,0,0:0:0:0:
320,64,229927,1,8,0:0:0:0:
64,64,229992,1,0,0:0:0:0:
64,64,230058,1,0,0:0:0:0:
64,64,230123,1,0,0:0:0:0:
320,64,230188,1,8,0:0:0:0:
320,64,230253,1,8,0:0:0:0:
64,64,230318,1,0,0:0:0:0:
64,64,230384,1,0,0:0:0:0:
320,64,230449,1,8,0:0:0:0:
64,64,230514,1,0,0:0:0:0:
320,64,230579,1,8,0:0:0:0:
320,64,230645,1,8,0:0:0:0:
64,64,230710,1,0,0:0:0:0:
64,64,230775,1,0,0:0:0:0:
64,64,230840,1,0,0:0:0:0:
64,64,230905,1,0,0:0:0:0:
320,64,230971,1,8,0:0:0:0:
320,64,231036,1,8,0:0:0:0:
64,64,231101,1,0,0:0:0:0:
64,64,231166,1,0,0:0:0:0:
320,64,231232,1,8,0:0:0:0:
320,64,231297,1,8,0:0:0:0:
320,64,231362,1,8,0:0:0:0:
64,64,231427,1,0,0:0:0:0:
320,64,231492,1,8,0:0:0:0:
64,64,231558,1,0,0:0:0:0:
320,64,231623,1,8,0:0:0:0:
64,64,231688,1,0,0:0:0:0:
320,64,231753,1,8,0:0:0:0:
320,64,231818,1,8,0:0:0:0:
64,64,231884,1,0,0:0:0:0:
64,64,231949,1,0,0:0:0:0:
320,64,232014,1,8,0:0:0:0:
64,64,232145,1,0,0:0:0:0:
64,64,232210,1,0,0:0:0:0:
320,64,232275,1,8,0:0:0:0:
64,64,232405,1,0,0:0:0:0:
64,64,232536,1,0,0:0:0:0:
320,64,232666,1,8,0:0:0:0:
64,64,232797,1,0,0:0:0:0:
64,64,232927,1,0,0:0:0:0:
64,64,233058,1,0,0:0:0:0:
64,64,233090,1,0,0:0:0:0:
320,64,233188,1,8,0:0:0:0:
64,64,233253,1,0,0:0:0:0:
320,64,233318,1,8,0:0:0:0:
320,64,233351,1,8,0:0:0:0:
64,64,233449,1,0,0:0:0:0:
64,64,233579,1,0,0:0:0:0:
320,64,233710,1,8,0:0:0:0:
320,64,233742,1,8,0:0:0:0:
320,64,233840,1,8,0:0:0:0:
320,64,233873,1,8,0:0:0:0:
64,64,233971,1,0,0:0:0:0:
320,64,234101,1,8,0:0:0:0:
320,64,234166,1,8,0:0:0:0:
64,64,234232,1,0,0:0:0:0:
64,64,234297,1,0,0:0:0:0:
320,64,234362,1,8,0:0:0:0:
320,64,234428,1,8,0:0:0:0:
64,64,234493,1,0,0:0:0:0:
64,64,234558,1,0,0:0:0:0:
320,64,234623,1,8,0:0:0:0:
64,64,234688,1,0,0:0:0:0:
320,64,234754,1,8,0:0:0:0:
320,64,234819,1,8,0:0:0:0:
64,64,234884,1,0,0:0:0:0:
64,64,234949,1,0,0:0:0:0:
64,64,235014,1,0,0:0:0:0:
64,64,235080,1,0,0:0:0:0:
320,64,235145,1,8,0:0:0:0:
320,64,235210,1,8,0:0:0:0:
64,64,235275,1,0,0:0:0:0:
64,64,235341,1,0,0:0:0:0:
320,64,235406,1,8,0:0:0:0:
320,64,235471,1,8,0:0:0:0:
320,64,235536,1,8,0:0:0:0:
64,64,235601,1,0,0:0:0:0:
320,64,235667,1,8,0:0:0:0:
64,64,235732,1,0,0:0:0:0:
320,64,235797,1,8,0:0:0:0:
320,64,235862,1,8,0:0:0:0:
64,64,235928,1,0,0:0:0:0:
64,64,235993,1,0,0:0:0:0:
64,64,236058,1,0,0:0:0:0:
64,64,236123,1,0,0:0:0:0:
320,64,236188,1,8,0:0:0:0:
320,64,236254,1,8,0:0:0:0:
64,64,236319,1,0,0:0:0:0:
64,64,236384,1,0,0:0:0:0:
320,64,236449,1,8,0:0:0:0:
320,64,236514,1,8,0:0:0:0:
320,64,236580,1,8,0:0:0:0:
320,64,236645,1,8,0:0:0:0:
64,64,236710,1,0,0:0:0:0:
64,64,236775,1,0,0:0:0:0:
320,64,236841,1,8,0:0:0:0:
320,64,236906,1,8,0:0:0:0:
320,64,236971,1,8,0:0:0:0:
320,64,237036,1,8,0:0:0:0:
64,64,237101,1,0,0:0:0:0:
64,64,237167,1,0,0:0:0:0:
320,64,237232,1,8,0:0:0:0:
320,64,237297,1,8,0:0:0:0:
64,64,237362,1,0,0:0:0:0:
64,64,237428,1,0,0:0:0:0:
320,64,237493,1,8,0:0:0:0:
64,64,237558,1,0,0:0:0:0:
64,64,237623,1,0,0:0:0:0:
64,64,237688,1,0,0:0:0:0:
320,64,237754,1,8,0:0:0:0:
64,64,237819,1,0,0:0:0:0:
320,64,237884,1,8,0:0:0:0:
64,64,237949,1,0,0:0:0:0:
64,64,238014,1,0,0:0:0:0:
64,64,238080,1,0,0:0:0:0:
64,64,238145,1,0,0:0:0:0:
64,64,238210,1,0,0:0:0:0:
320,64,238275,1,8,0:0:0:0:
64,64,238341,1,0,0:0:0:0:
64,64,238406,1,0,0:0:0:0:
64,64,238471,1,0,0:0:0:0:
320,64,238536,1,8,0:0:0:0:
320,64,238601,1,8,0:0:0:0:
320,64,238667,1,8,0:0:0:0:
64,64,238732,1,0,0:0:0:0:
320,64,238797,1,8,0:0:0:0:
64,64,238862,1,0,0:0:0:0:
320,64,238928,1,8,0:0:0:0:
320,64,238993,1,8,0:0:0:0:
320,64,239058,1,8,0:0:0:0:
64,64,239123,1,0,0:0:0:0:
64,64,239188,1,0,0:0:0:0:
64,64,239254,1,0,0:0:0:0:
320,64,239319,1,8,0:0:0:0:
320,64,239384,1,8,0:0:0:0:
64,64,239449,1,0,0:0:0:0:
64,64,239514,1,0,0:0:0:0:
320,64,239580,1,8,0:0:0:0:
64,64,239645,1,0,0:0:0:0:
64,64,239710,1,0,0:0:0:0:
64,64,239775,1,0,0:0:0:0:
320,64,239841,1,8,0:0:0:0:
64,64,239906,1,0,0:0:0:0:
320,64,239971,1,8,0:0:0:0:
320,64,240036,1,8,0:0:0:0:
64,64,240101,1,0,0:0:0:0:
64,64,240167,1,0,0:0:0:0:
64,64,240232,1,0,0:0:0:0:
64,64,240297,1,0,0:0:0:0:
320,64,240362,1,8,0:0:0:0:
320,64,240428,1,8,0:0:0:0:
64,64,240493,1,0,0:0:0:0:
64,64,240558,1,0,0:0:0:0:
320,64,240623,1,8,0:0:0:0:
320,64,240688,1,8,0:0:0:0:
320,64,240754,1,8,0:0:0:0:
320,64,240819,1,8,0:0:0:0:
64,64,240884,1,0,0:0:0:0:
64,64,240949,1,0,0:0:0:0:
320,64,241014,1,8,0:0:0:0:
320,64,241080,1,8,0:0:0:0:
320,64,241145,1,8,0:0:0:0:
320,64,241210,1,8,0:0:0:0:
64,64,241275,1,0,0:0:0:0:
64,64,241341,1,0,0:0:0:0:
320,64,241406,1,8,0:0:0:0:
64,64,241471,1,0,0:0:0:0:
64,64,241536,1,0,0:0:0:0:
64,64,241601,1,0,0:0:0:0:
320,64,241667,1,8,0:0:0:0:
64,64,241732,1,0,0:0:0:0:
320,64,241797,1,8,0:0:0:0:
320,64,241862,1,8,0:0:0:0:
64,64,241927,1,0,0:0:0:0:
64,64,241992,1,0,0:0:0:0:
320,64,242058,1,8,0:0:0:0:
320,64,242123,1,8,0:0:0:0:
64,64,242188,1,0,0:0:0:0:
64,64,242253,1,0,0:0:0:0:
64,64,242319,1,0,0:0:0:0:
64,64,242384,1,0,0:0:0:0:
320,64,242449,1,8,0:0:0:0:
320,64,242514,1,8,0:0:0:0:
320,64,242580,1,8,0:0:0:0:
64,64,242645,1,0,0:0:0:0:
320,64,242710,1,8,0:0:0:0:
320,64,242775,1,8,0:0:0:0:
320,64,242841,1,8,0:0:0:0:
320,64,242906,1,8,0:0:0:0:
64,64,242971,1,0,0:0:0:0:
64,64,243036,1,0,0:0:0:0:
320,64,243101,1,8,0:0:0:0:
320,64,243167,1,8,0:0:0:0:
320,64,243232,1,8,0:0:0:0:
320,64,243297,1,8,0:0:0:0:
64,64,243362,1,0,0:0:0:0:
64,64,243428,1,0,0:0:0:0:
320,64,243493,1,8,0:0:0:0:
320,64,243558,1,8,0:0:0:0:
64,64,243623,1,0,0:0:0:0:
64,64,243688,1,0,0:0:0:0:
320,64,243754,1,8,0:0:0:0:
320,64,243819,1,8,0:0:0:0:
64,64,243884,1,0,0:0:0:0:
64,64,243949,1,0,0:0:0:0:
320,64,244014,1,8,0:0:0:0:
64,64,244080,1,0,0:0:0:0:
320,64,244145,1,8,0:0:0:0:
320,64,244210,1,8,0:0:0:0:
64,64,244275,1,0,0:0:0:0:
64,64,244341,1,0,0:0:0:0:
64,64,244406,1,0,0:0:0:0:
64,64,244471,1,0,0:0:0:0:
320,64,244536,1,8,0:0:0:0:
320,64,244601,1,8,0:0:0:0:
64,64,244667,1,0,0:0:0:0:
64,64,244732,1,0,0:0:0:0:
320,64,244797,1,8,0:0:0:0:
320,64,244862,1,8,0:0:0:0:
320,64,244928,1,8,0:0:0:0:
64,64,244993,1,0,0:0:0:0:
320,64,245058,1,8,0:0:0:0:
64,64,245123,1,0,0:0:0:0:
320,64,245188,1,8,0:0:0:0:
320,64,245254,1,8,0:0:0:0:
320,64,245319,1,8,0:0:0:0:
64,64,245384,1,0,0:0:0:0:
64,64,245449,1,0,0:0:0:0:
64,64,245514,1,0,0:0:0:0:
320,64,245580,1,8,0:0:0:0:
320,64,245645,1,8,0:0:0:0:
64,64,245710,1,0,0:0:0:0:
64,64,245775,1,0,0:0:0:0:
320,64,245841,1,8,0:0:0:0:
64,64,245906,1,0,0:0:0:0:
64,64,245971,1,0,0:0:0:0:
64,64,246036,1,0,0:0:0:0:
320,64,246101,1,8,0:0:0:0:
64,64,246167,1,0,0:0:0:0:
320,64,246232,1,8,0:0:0:0:
64,64,246297,1,0,0:0:0:0:
64,64,246362,1,0,0:0:0:0:
64,64,246428,1,0,0:0:0:0:
64,64,246493,1,0,0:0:0:0:
64,64,246558,1,0,0:0:0:0:
320,64,246623,1,8,0:0:0:0:
64,64,246688,1,0,0:0:0:0:
64,64,246754,1,0,0:0:0:0:
64,64,246819,1,0,0:0:0:0:
320,64,246884,1,8,0:0:0:0:
320,64,246949,1,8,0:0:0:0:
64,64,247014,1,0,0:0:0:0:
64,64,247080,1,0,0:0:0:0:
320,64,247145,1,8,0:0:0:0:
64,64,247210,1,0,0:0:0:0:
320,64,247275,1,8,0:0:0:0:
320,64,247341,1,8,0:0:0:0:
64,64,247406,1,0,0:0:0:0:
64,64,247471,1,0,0:0:0:0:
64,64,247536,1,0,0:0:0:0:
64,64,247601,1,0,0:0:0:0:
320,64,247667,1,8,0:0:0:0:
320,64,247732,1,8,0:0:0:0:
64,64,247797,1,0,0:0:0:0:
64,64,247862,1,0,0:0:0:0:
320,64,247928,1,8,0:0:0:0:
320,64,247993,1,8,0:0:0:0:
320,64,248058,1,8,0:0:0:0:
64,64,248123,1,0,0:0:0:0:
320,64,248188,1,8,0:0:0:0:
64,64,248254,1,0,0:0:0:0:
320,64,248319,1,8,0:0:0:0:
320,64,248384,1,8,0:0:0:0:
320,64,248449,1,8,0:0:0:0:
64,64,248514,1,0,0:0:0:0:
64,64,248580,1,0,0:0:0:0:
64,64,248645,1,0,0:0:0:0:
320,64,248710,1,8,0:0:0:0:
320,64,248775,1,8,0:0:0:0:
320,64,248840,1,8,0:0:0:0:
64,64,248905,1,0,0:0:0:0:
320,64,248971,1,8,0:0:0:0:
320,64,249036,1,8,0:0:0:0:
320,64,249101,1,8,0:0:0:0:
320,64,249166,1,8,0:0:0:0:
64,64,249232,1,0,0:0:0:0:
64,64,249297,1,0,0:0:0:0:
320,64,249362,1,8,0:0:0:0:
64,64,249427,1,0,0:0:0:0:
320,64,249492,1,8,0:0:0:0:
320,64,249558,1,8,0:0:0:0:
64,64,249623,1,0,0:0:0:0:
64,64,249688,1,0,0:0:0:0:
320,64,249753,1,8,0:0:0:0:
64,64,249818,1,0,0:0:0:0:
320,64,249884,1,8,0:0:0:0:
64,64,249949,1,0,0:0:0:0:
320,64,250014,1,8,0:0:0:0:
320,64,250101,1,8,0:0:0:0:
64,64,250188,1,0,0:0:0:0:
320,64,250275,1,8,0:0:0:0:
64,64,250362,1,0,0:0:0:0:
64,64,250449,1,0,0:0:0:0:
320,64,250536,1,8,0:0:0:0:
320,64,250623,1,8,0:0:0:0:
64,64,250710,1,0,0:0:0:0:
320,64,250797,1,8,0:0:0:0:
64,64,250927,1,0,0:0:0:0:
320,64,251058,1,8,0:0:0:0:
64,64,251188,1,0,0:0:0:0:
320,64,251318,1,8,0:0:0:0:
64,64,251449,1,0,0:0:0:0:
320,64,251579,1,8,0:0:0:0:
64,64,251710,1,0,0:0:0:0:
320,64,251840,1,8,0:0:0:0:
64,64,251971,1,0,0:0:0:0:
64,64,252036,1,0,0:0:0:0:
320,64,252101,1,8,0:0:0:0:
64,64,252232,1,0,0:0:0:0:
320,64,252275,1,8,0:0:0:0:
64,64,252362,1,0,0:0:0:0:
320,64,252449,1,8,0:0:0:0:
64,64,252492,1,0,0:0:0:0:
320,64,252623,1,8,0:0:0:0:
64,64,252753,1,0,0:0:0:0:
320,64,252797,1,8,0:0:0:0:
64,64,252884,1,0,0:0:0:0:
320,64,252971,1,8,0:0:0:0:
64,64,253014,1,0,0:0:0:0:
320,64,253145,1,8,0:0:0:0:
64,64,253210,1,0,0:0:0:0:
64,64,253275,1,0,0:0:0:0:
64,64,253340,1,0,0:0:0:0:
320,64,253405,1,8,0:0:0:0:
64,64,253471,1,0,0:0:0:0:
64,64,253536,1,0,0:0:0:0:
64,64,253601,1,0,0:0:0:0:
320,64,253666,1,8,0:0:0:0:
64,64,253732,1,0,0:0:0:0:
64,64,253797,1,0,0:0:0:0:
64,64,253862,1,0,0:0:0:0:
320,64,253927,1,8,0:0:0:0:
64,64,253992,1,0,0:0:0:0:
320,64,254058,1,8,0:0:0:0:
320,64,254123,1,8,0:0:0:0:
64,64,254188,1,0,0:0:0:0:
64,64,254275,1,0,0:0:0:0:
320,64,254362,1,8,0:0:0:0:
64,64,254449,1,0,0:0:0:0:
320,64,254536,1,8,0:0:0:0:
64,64,254623,1,0,0:0:0:0:
320,64,254710,1,8,0:0:0:0:
64,64,254927,1,0,0:0:0:0:
320,64,254971,1,8,0:0:0:0:
320,64,255232,1,12,0:0:0:0:
64,64,255579,1,0,0:0:0:0:
320,64,255666,1,8,0:0:0:0:
64,64,255753,1,0,0:0:0:0:
320,64,257318,1,8,0:0:0:0:
320,64,259405,1,8,0:0:0:0:
320,64,261492,1,8,0:0:0:0:
64,64,263579,1,0,0:0:0:0:
64,64,263710,1,0,0:0:0:0:
64,64,263971,1,0,0:0:0:0:
320,64,264101,1,8,0:0:0:0:
64,64,264362,1,0,0:0:0:0:
64,64,264492,1,0,0:0:0:0:
64,64,264753,1,0,0:0:0:0:
320,64,265145,1,8,0:0:0:0:
64,64,265275,1,0,0:0:0:0:
320,64,265405,1,8,0:0:0:0:
64,64,265666,1,0,0:0:0:0:
64,64,265797,1,0,0:0:0:0:
64,64,266058,1,0,0:0:0:0:
320,64,266188,1,8,0:0:0:0:
64,64,266449,1,0,0:0:0:0:
64,64,266579,1,0,0:0:0:0:
64,64,266840,1,0,0:0:0:0:
64,64,266971,1,0,0:0:0:0:
320,64,267231,1,8,0:0:0:0:
64,64,267362,1,0,0:0:0:0:
320,64,267492,1,8,0:0:0:0:
64,64,267753,1,0,0:0:0:0:
64,64,267884,1,0,0:0:0:0:
64,64,268145,1,0,0:0:0:0:
320,64,268275,1,8,0:0:0:0:
64,64,268536,1,0,0:0:0:0:
64,64,268666,1,0,0:0:0:0:
64,64,268927,1,0,0:0:0:0:
64,64,269058,1,0,0:0:0:0:
320,64,269318,1,8,0:0:0:0:
64,64,269449,1,0,0:0:0:0:
320,64,269579,1,8,0:0:0:0:
64,64,269840,1,0,0:0:0:0:
64,64,269971,1,0,0:0:0:0:
64,64,270231,1,0,0:0:0:0:
320,64,270362,1,8,0:0:0:0:
64,64,270623,1,0,0:0:0:0:
64,64,270753,1,0,0:0:0:0:
64,64,271014,1,0,0:0:0:0:
64,64,271145,1,0,0:0:0:0:
320,64,271405,1,8,0:0:0:0:
64,64,271492,1,0,0:0:0:0:
320,64,271579,1,8,0:0:0:0:
320,64,271666,1,8,0:0:0:0:
64,64,271753,1,0,0:0:0:0:
320,64,271840,1,8,0:0:0:0:
64,64,271927,1,4,0:0:0:0:
64,64,272058,1,4,0:0:0:0:
64,64,272318,1,4,0:0:0:0:
64,64,272579,1,4,0:0:0:0:
64,64,272710,1,4,0:0:0:0:
64,64,272971,1,4,0:0:0:0:
64,64,273231,1,4,0:0:0:0:
64,64,273362,1,4,0:0:0:0:
320,64,273492,1,8,0:0:0:0:
64,64,273579,1,0,0:0:0:0:
320,64,273666,1,8,0:0:0:0:
320,64,273753,1,8,0:0:0:0:
64,64,273840,1,0,0:0:0:0:
64,64,273927,1,0,0:0:0:0:
320,64,274014,1,12,0:0:0:0:
320,64,274145,1,12,0:0:0:0:
320,64,274449,1,12,0:0:0:0:
320,64,274666,1,12,0:0:0:0:
320,64,274797,1,12,0:0:0:0:
320,64,275058,1,12,0:0:0:0:
320,64,275318,1,12,0:0:0:0:
320,64,275449,1,12,0:0:0:0:
64,64,275579,1,0,0:0:0:0:
64,64,275623,1,0,0:0:0:0:
64,64,275753,1,0,0:0:0:0:
64,64,275797,1,0,0:0:0:0:
320,64,275927,1,8,0:0:0:0:
320,64,275971,1,8,0:0:0:0:
64,64,276101,1,4,0:0:0:0:
64,64,276231,1,4,0:0:0:0:
64,64,276492,1,4,0:0:0:0:
64,64,276753,1,4,0:0:0:0:
64,64,276884,1,4,0:0:0:0:
64,64,277145,1,4,0:0:0:0:
64,64,277405,1,4,0:0:0:0:
64,64,277536,1,4,0:0:0:0:
320,64,277666,1,8,0:0:0:0:
320,64,277753,1,8,0:0:0:0:
64,64,277840,1,0,0:0:0:0:
320,64,277927,1,8,0:0:0:0:
64,64,278014,1,0,0:0:0:0:
64,64,278101,1,0,0:0:0:0:
320,64,278188,1,12,0:0:0:0:
320,64,278318,1,12,0:0:0:0:
320,64,278579,1,12,0:0:0:0:
320,64,278840,1,12,0:0:0:0:
320,64,278971,1,12,0:0:0:0:
320,64,279231,1,12,0:0:0:0:
320,64,279492,1,12,0:0:0:0:
320,64,279623,1,12,0:0:0:0:
320,64,279753,1,8,0:0:0:0:
320,64,279797,1,8,0:0:0:0:
64,64,279840,1,0,0:0:0:0:
64,64,279927,1,0,0:0:0:0:
320,64,280014,1,8,0:0:0:0:
64,64,280101,1,0,0:0:0:0:
320,64,280188,1,8,0:0:0:0:
64,64,280275,1,4,0:0:0:0:
64,64,280405,1,4,0:0:0:0:
64,64,280666,1,4,0:0:0:0:
320,64,280797,1,8,0:0:0:0:
64,64,280927,1,4,0:0:0:0:
64,64,281058,1,4,0:0:0:0:
64,64,281318,1,4,0:0:0:0:
64,64,281579,1,4,0:0:0:0:
64,64,281710,1,4,0:0:0:0:
320,64,281840,1,8,0:0:0:0:
320,64,282362,1,12,0:0:0:0:
320,64,282492,1,12,0:0:0:0:
320,64,282753,1,12,0:0:0:0:
64,64,282884,1,0,0:0:0:0:
320,64,283014,1,12,0:0:0:0:
320,64,283145,1,12,0:0:0:0:
320,64,283405,1,12,0:0:0:0:
320,64,283666,1,12,0:0:0:0:
320,64,283797,1,12,0:0:0:0:
64,64,283927,1,0,0:0:0:0:
64,64,284449,1,0,0:0:0:0:
320,64,284536,1,8,0:0:0:0:
320,64,284623,1,8,0:0:0:0:
64,64,284710,1,0,0:0:0:0:
320,64,284797,1,8,0:0:0:0:
320,64,284884,1,8,0:0:0:0:
64,64,284971,1,0,0:0:0:0:
320,64,285058,1,8,0:0:0:0:
64,64,285145,1,0,0:0:0:0:
320,64,285231,1,8,0:0:0:0:
320,64,285318,1,8,0:0:0:0:
64,64,285405,1,0,0:0:0:0:
320,64,285492,1,8,0:0:0:0:
320,64,285579,1,8,0:0:0:0:
320,64,285666,1,8,0:0:0:0:
64,64,285753,1,0,0:0:0:0:
320,64,285840,1,8,0:0:0:0:
64,64,285927,1,0,0:0:0:0:
320,64,286014,1,8,0:0:0:0:
320,64,286101,1,8,0:0:0:0:
64,64,286188,1,0,0:0:0:0:
320,64,286275,1,8,0:0:0:0:
64,64,286362,1,0,0:0:0:0:
64,64,286449,1,0,0:0:0:0:
320,64,286536,1,8,0:0:0:0:
320,64,286623,1,8,0:0:0:0:
320,64,286710,1,8,0:0:0:0:
64,64,286797,1,0,0:0:0:0:
64,64,286884,1,0,0:0:0:0:
64,64,286971,1,0,0:0:0:0:
320,64,287058,1,8,0:0:0:0:
320,64,287145,1,8,0:0:0:0:
64,64,287231,1,0,0:0:0:0:
320,64,287318,1,8,0:0:0:0:
64,64,287405,1,0,0:0:0:0:
64,64,287492,1,0,0:0:0:0:
320,64,287579,1,8,0:0:0:0:
320,64,287666,1,8,0:0:0:0:
64,64,287753,1,0,0:0:0:0:
320,64,287840,1,8,0:0:0:0:
64,64,287927,1,0,0:0:0:0:
64,64,288014,1,0,0:0:0:0:
320,64,288101,1,8,0:0:0:0:
320,64,288188,1,8,0:0:0:0:
64,64,288275,1,0,0:0:0:0:
320,64,288362,1,8,0:0:0:0:
64,64,288449,1,0,0:0:0:0:
320,64,288536,1,8,0:0:0:0:
64,64,288623,1,0,0:0:0:0:
256,192,289145,12,0,290579,0:0:0:0:
320,64,290710,5,8,0:0:0:0:
64,64,290840,1,0,0:0:0:0:
64,64,290971,1,0,0:0:0:0:
64,64,291101,1,0,0:0:0:0:
64,64,291232,1,0,0:0:0:0:
64,64,291297,1,0,0:0:0:0:
64,64,291362,1,0,0:0:0:0:
64,64,291427,1,0,0:0:0:0:
64,64,291492,1,0,0:0:0:0:
64,64,291558,1,0,0:0:0:0:
64,64,291623,1,0,0:0:0:0:
64,64,291688,1,0,0:0:0:0:
256,192,291753,12,0,292666,0:0:0:0:
320,64,292797,5,8,0:0:0:0:
64,64,292927,1,0,0:0:0:0:
64,64,292992,1,0,0:0:0:0:
320,64,293058,1,8,0:0:0:0:
64,64,293123,1,0,0:0:0:0:
320,64,293188,1,8,0:0:0:0:
320,64,293449,1,8,0:0:0:0:
320,64,293710,1,8,0:0:0:0:
64,64,293840,1,0,0:0:0:0:
64,64,293905,1,0,0:0:0:0:
320,64,293971,1,8,0:0:0:0:
64,64,294036,1,0,0:0:0:0:
320,64,294101,1,8,0:0:0:0:
64,64,294232,1,0,0:0:0:0:
64,64,294297,1,0,0:0:0:0:
320,64,294362,1,8,0:0:0:0:
64,64,294492,1,0,0:0:0:0:
320,64,294558,1,8,0:0:0:0:
64,64,294623,1,0,0:0:0:0:
64,64,294753,1,0,0:0:0:0:
64,64,294818,1,0,0:0:0:0:
320,64,294884,1,8,0:0:0:0:
64,64,295014,1,0,0:0:0:0:
320,64,295079,1,8,0:0:0:0:
64,64,295145,1,0,0:0:0:0:
64,64,295210,1,0,0:0:0:0:
320,64,295275,1,8,0:0:0:0:
64,64,295405,1,0,0:0:0:0:
64,64,295471,1,0,0:0:0:0:
320,64,295536,1,8,0:0:0:0:
64,64,295666,1,0,0:0:0:0:
64,64,295732,1,0,0:0:0:0:
320,64,295797,1,8,0:0:0:0:
320,64,296318,1,8,0:0:0:0:
64,64,296384,1,0,0:0:0:0:
320,64,296449,1,8,0:0:0:0:
64,64,296840,1,0,0:0:0:0:
64,64,296905,1,0,0:0:0:0:
320,64,296971,1,8,0:0:0:0:
64,64,297101,1,0,0:0:0:0:
320,64,297166,1,8,0:0:0:0:
64,64,297232,1,0,0:0:0:0:
64,64,297297,1,0,0:0:0:0:
320,64,297362,1,8,0:0:0:0:
64,64,297492,1,0,0:0:0:0:
64,64,297558,1,0,0:0:0:0:
320,64,297623,1,8,0:0:0:0:
64,64,297753,1,0,0:0:0:0:
320,64,297818,1,8,0:0:0:0:
64,64,297884,1,0,0:0:0:0:
64,64,298014,1,0,0:0:0:0:
64,64,298079,1,0,0:0:0:0:
320,64,298145,1,8,0:0:0:0:
64,64,298210,1,0,0:0:0:0:
320,64,298275,1,8,0:0:0:0:
64,64,298405,1,0,0:0:0:0:
64,64,298471,1,0,0:0:0:0:
320,64,298536,1,8,0:0:0:0:
64,64,298666,1,0,0:0:0:0:
320,64,298732,1,8,0:0:0:0:
64,64,298797,1,0,0:0:0:0:
320,64,298927,1,8,0:0:0:0:
320,64,298992,1,8,0:0:0:0:
64,64,299058,1,0,0:0:0:0:
64,64,299188,1,0,0:0:0:0:
64,64,299253,1,0,0:0:0:0:
320,64,299318,1,8,0:0:0:0:
64,64,299384,1,0,0:0:0:0:
320,64,299449,1,8,0:0:0:0:
64,64,299579,1,0,0:0:0:0:
64,64,299645,1,0,0:0:0:0:
320,64,299710,1,8,0:0:0:0:
64,64,299840,1,0,0:0:0:0:
320,64,299905,1,8,0:0:0:0:
64,64,299971,1,0,0:0:0:0:
320,64,300232,1,8,0:0:0:0:
320,64,300297,1,8,0:0:0:0:
64,64,300362,1,0,0:0:0:0:
320,64,300405,1,8,0:0:0:0:
320,64,300449,1,8,0:0:0:0:
64,64,300492,1,0,0:0:0:0:
64,64,300558,1,0,0:0:0:0:
320,64,300623,1,8,0:0:0:0:
320,64,300753,1,8,0:0:0:0:
64,64,300884,1,0,0:0:0:0:
320,64,300971,1,8,0:0:0:0:
320,64,301058,1,8,0:0:0:0:
64,64,301145,1,4,0:0:0:0:
320,64,301405,1,8,0:0:0:0:
64,64,301536,1,0,0:0:0:0:
320,64,301797,1,8,0:0:0:0:
320,64,302058,1,8,0:0:0:0:
64,64,302318,1,0,0:0:0:0:
320,64,302449,1,8,0:0:0:0:
320,64,302710,1,8,0:0:0:0:
320,64,302971,1,8,0:0:0:0:
320,64,303232,1,8,0:0:0:0:
320,64,303492,1,8,0:0:0:0:
320,64,303623,1,8,0:0:0:0:
64,64,303753,1,0,0:0:0:0:
320,64,303884,1,8,0:0:0:0:
320,64,304145,1,8,0:0:0:0:
64,64,304275,1,0,0:0:0:0:
320,64,304536,1,8,0:0:0:0:
320,64,304666,1,8,0:0:0:0:
320,64,304732,1,8,0:0:0:0:
64,64,304797,1,0,0:0:0:0:
64,64,305058,1,0,0:0:0:0:
64,64,305188,1,0,0:0:0:0:
64,64,305253,1,0,0:0:0:0:
320,64,305318,1,8,0:0:0:0:
64,64,305449,1,0,0:0:0:0:
320,64,305579,1,8,0:0:0:0:
320,64,305710,1,8,0:0:0:0:
64,64,305840,1,0,0:0:0:0:
320,64,305971,1,8,0:0:0:0:
64,64,306101,1,0,0:0:0:0:
320,64,306232,1,8,0:0:0:0:
64,64,306362,1,0,0:0:0:0:
320,64,306492,1,8,0:0:0:0:
64,64,306558,1,0,0:0:0:0:
320,64,306623,1,8,0:0:0:0:
320,64,306753,1,8,0:0:0:0:
320,64,306818,1,8,0:0:0:0:
64,64,306884,1,0,0:0:0:0:
64,64,306927,1,0,0:0:0:0:
64,64,306971,1,0,0:0:0:0:
320,64,307014,1,8,0:0:0:0:
64,64,307079,1,0,0:0:0:0:
320,64,307145,1,8,0:0:0:0:
320,64,307210,1,8,0:0:0:0:
64,64,307275,1,0,0:0:0:0:
64,64,307340,1,0,0:0:0:0:
320,64,307405,1,12,0:0:0:0:
64,64,307579,1,0,0:0:0:0:
320,64,307753,1,8,0:0:0:0:
64,64,307927,1,4,0:0:0:0:
320,64,308101,1,8,0:0:0:0:
64,64,308275,1,0,0:0:0:0:
320,64,308449,1,8,0:0:0:0:
320,64,308514,1,8,0:0:0:0:
320,64,308579,1,8,0:0:0:0:
320,64,308644,1,8,0:0:0:0:
320,64,308710,1,8,0:0:0:0:
64,64,308840,1,0,0:0:0:0:
64,64,308905,1,0,0:0:0:0:
64,64,308970,1,0,0:0:0:0:
64,64,309036,1,0,0:0:0:0:
64,64,309101,1,0,0:0:0:0:
320,64,309231,1,8,0:0:0:0:
320,64,309296,1,8,0:0:0:0:
320,64,309362,1,8,0:0:0:0:
320,64,309427,1,8,0:0:0:0:
320,64,309492,1,8,0:0:0:0:
64,64,309622,1,0,0:0:0:0:
64,64,309688,1,0,0:0:0:0:
64,64,309753,1,0,0:0:0:0:
64,64,309818,1,0,0:0:0:0:
64,64,309883,1,0,0:0:0:0:
64,64,310014,1,0,0:0:0:0:
64,64,310079,1,0,0:0:0:0:
64,64,310275,1,0,0:0:0:0:
64,64,310340,1,0,0:0:0:0:
320,64,310536,1,8,0:0:0:0:
320,64,310601,1,8,0:0:0:0:
320,64,310666,1,8,0:0:0:0:
320,64,310731,1,8,0:0:0:0:
320,64,310796,1,8,0:0:0:0:
64,64,310927,1,0,0:0:0:0:
64,64,310992,1,0,0:0:0:0:
64,64,311057,1,0,0:0:0:0:
64,64,311122,1,0,0:0:0:0:
64,64,311188,1,0,0:0:0:0:
320,64,311318,1,8,0:0:0:0:
320,64,311383,1,8,0:0:0:0:
320,64,311449,1,8,0:0:0:0:
320,64,311514,1,8,0:0:0:0:
320,64,311579,1,8,0:0:0:0:
320,64,311709,1,8,0:0:0:0:
320,64,311775,1,8,0:0:0:0:
64,64,311840,1,0,0:0:0:0:
256,192,311971,12,0,312166,0:0:0:0:
256,192,312232,12,0,312492,0:0:0:0:
320,64,312623,5,8,0:0:0:0:
64,64,312688,1,0,0:0:0:0:
320,64,312753,1,8,0:0:0:0:
320,64,312818,1,8,0:0:0:0:
320,64,312883,1,8,0:0:0:0:
64,64,313014,1,0,0:0:0:0:
320,64,313079,1,8,0:0:0:0:
64,64,313144,1,0,0:0:0:0:
64,64,313209,1,0,0:0:0:0:
64,64,313275,1,0,0:0:0:0:
320,64,313405,1,8,0:0:0:0:
64,64,313470,1,0,0:0:0:0:
320,64,313536,1,8,0:0:0:0:
320,64,313601,1,8,0:0:0:0:
320,64,313666,1,8,0:0:0:0:
64,64,313796,1,0,0:0:0:0:
320,64,313862,1,8,0:0:0:0:
64,64,313927,1,0,0:0:0:0:
64,64,313992,1,0,0:0:0:0:
64,64,314057,1,0,0:0:0:0:
320,64,314188,1,8,0:0:0:0:
64,64,314253,1,0,0:0:0:0:
320,64,314449,1,8,0:0:0:0:
64,64,314514,1,0,0:0:0:0:
32,352,314710,2,0,L|128:384,1,87.150001263313
160,256,315101,2,0,L|224:352,1,105
288,224,315492,2,0,L|320:352,1,119.699998538818
416,352,315884,2,0,L|416:192,1,131.25
64,64,316275,5,0,0:0:0:0:
320,64,316327,1,8,0:0:0:0:
320,64,316379,1,8,0:0:0:0:
64,64,316431,1,0,0:0:0:0:
64,64,316483,1,0,0:0:0:0:
320,64,316536,1,8,0:0:0:0:
320,64,316666,1,8,0:0:0:0:
64,64,316732,1,0,0:0:0:0:
320,64,316797,1,8,0:0:0:0:
64,64,316927,1,0,0:0:0:0:
64,64,316992,1,0,0:0:0:0:
320,64,317058,1,8,0:0:0:0:
64,64,317123,1,0,0:0:0:0:
320,64,317188,1,8,0:0:0:0:
320,64,317318,1,8,0:0:0:0:
64,64,317384,1,0,0:0:0:0:
320,64,317449,1,8,0:0:0:0:
64,64,317579,1,0,0:0:0:0:
64,64,317645,1,0,0:0:0:0:
320,64,317710,1,8,0:0:0:0:
64,64,317840,1,0,0:0:0:0:
320,64,317905,1,8,0:0:0:0:
64,64,317971,1,0,0:0:0:0:
64,64,318036,1,0,0:0:0:0:
320,64,318101,1,8,0:0:0:0:
64,64,318232,1,0,0:0:0:0:
64,64,318297,1,0,0:0:0:0:
320,64,318362,1,8,0:0:0:0:
320,64,318492,1,8,0:0:0:0:
320,64,318558,1,8,0:0:0:0:
64,64,318623,1,0,0:0:0:0:
320,64,318688,1,8,0:0:0:0:
64,64,318753,1,0,0:0:0:0:
64,64,318818,1,0,0:0:0:0:
320,64,318884,1,8,0:0:0:0:
64,64,319014,1,0,0:0:0:0:
64,64,319079,1,0,0:0:0:0:
320,64,319145,1,8,0:0:0:0:
64,64,319210,1,0,0:0:0:0:
320,64,319275,1,8,0:0:0:0:
64,64,319405,1,0,0:0:0:0:
64,64,319471,1,0,0:0:0:0:
320,64,319536,1,8,0:0:0:0:
64,64,319666,1,0,0:0:0:0:
64,64,319732,1,0,0:0:0:0:
320,64,319797,1,8,0:0:0:0:
320,64,319840,1,8,0:0:0:0:
320,64,319884,1,8,0:0:0:0:
320,64,319927,1,8,0:0:0:0:
64,64,319992,1,0,0:0:0:0:
320,64,320058,1,8,0:0:0:0:
64,64,320123,1,0,0:0:0:0:
320,64,320188,1,8,0:0:0:0:
320,64,320253,1,8,0:0:0:0:
64,64,320318,1,0,0:0:0:0:
64,64,320384,1,0,0:0:0:0:
320,64,320449,1,8,0:0:0:0:
320,64,320492,1,8,0:0:0:0:
320,64,320536,1,8,0:0:0:0:
64,64,320579,1,0,0:0:0:0:
320,64,320645,1,8,0:0:0:0:
64,64,320710,1,0,0:0:0:0:
64,64,320775,1,0,0:0:0:0:
320,64,320840,1,8,0:0:0:0:
64,64,320905,1,0,0:0:0:0:
320,64,320971,1,8,0:0:0:0:
320,64,321101,1,8,0:0:0:0:
64,64,321166,1,0,0:0:0:0:
320,64,321232,1,8,0:0:0:0:
64,64,321297,1,0,0:0:0:0:
320,64,321362,1,8,0:0:0:0:
64,64,321492,1,0,0:0:0:0:
64,64,321558,1,0,0:0:0:0:
320,64,321623,1,8,0:0:0:0:
64,64,321753,1,0,0:0:0:0:
320,64,321818,1,8,0:0:0:0:
64,64,321884,1,0,0:0:0:0:
64,64,322014,1,0,0:0:0:0:
64,64,322079,1,0,0:0:0:0:
320,64,322145,1,8,0:0:0:0:
64,64,322210,1,0,0:0:0:0:
320,64,322275,1,8,0:0:0:0:
64,64,322405,1,0,0:0:0:0:
64,64,322471,1,0,0:0:0:0:
320,64,322536,1,8,0:0:0:0:
320,64,322579,1,8,0:0:0:0:
320,64,322622,1,8,0:0:0:0:
64,64,322666,1,0,0:0:0:0:
64,64,322732,1,0,0:0:0:0:
320,64,322797,1,8,0:0:0:0:
64,64,322840,1,0,0:0:0:0:
64,64,322883,1,0,0:0:0:0:
320,64,322927,1,8,0:0:0:0:
64,64,322992,1,0,0:0:0:0:
320,64,323058,1,12,0:0:0:0:
64,64,323188,1,0,0:0:0:0:
64,64,323253,1,0,0:0:0:0:
320,64,323318,1,12,0:0:0:0:
320,64,323449,1,12,0:0:0:0:
64,64,323579,1,0,0:0:0:0:
320,64,323710,1,12,0:0:0:0:
320,64,323971,1,12,0:0:0:0:
64,64,324232,1,0,0:0:0:0:
64,64,324297,1,0,0:0:0:0:
320,64,324362,1,8,0:0:0:0:
320,64,324405,1,8,0:0:0:0:
64,64,324449,1,0,0:0:0:0:
320,64,324492,1,8,0:0:0:0:
320,64,324558,1,8,0:0:0:0:
64,64,324623,1,0,0:0:0:0:
320,64,324655,1,8,0:0:0:0:
320,64,324688,1,8,0:0:0:0:
64,64,324753,1,0,0:0:0:0:
320,64,324786,1,8,0:0:0:0:
320,64,324818,1,8,0:0:0:0:
64,64,324884,1,0,0:0:0:0:
64,64,325014,1,0,0:0:0:0:
64,64,325079,1,0,0:0:0:0:
320,64,325145,1,8,0:0:0:0:
320,64,325275,1,8,0:0:0:0:
64,64,325340,1,0,0:0:0:0:
320,64,325405,1,8,0:0:0:0:
64,64,325471,1,0,0:0:0:0:
320,64,325536,1,8,0:0:0:0:
64,64,325666,1,0,0:0:0:0:
64,64,325732,1,0,0:0:0:0:
320,64,325797,1,8,0:0:0:0:
64,64,325927,1,0,0:0:0:0:
320,64,325992,1,8,0:0:0:0:
64,64,326058,1,0,0:0:0:0:
64,64,326188,1,0,0:0:0:0:
320,64,326253,1,8,0:0:0:0:
64,64,326318,1,0,0:0:0:0:
64,64,326384,1,0,0:0:0:0:
320,64,326449,1,8,0:0:0:0:
64,64,326579,1,0,0:0:0:0:
64,64,326645,1,0,0:0:0:0:
320,64,326710,1,8,0:0:0:0:
64,64,326775,1,0,0:0:0:0:
320,64,326840,1,8,0:0:0:0:
320,64,326905,1,8,0:0:0:0:
64,64,326971,1,0,0:0:0:0:
64,64,327101,1,0,0:0:0:0:
64,64,327166,1,0,0:0:0:0:
320,64,327232,1,8,0:0:0:0:
64,64,327362,1,0,0:0:0:0:
64,64,327427,1,0,0:0:0:0:
320,64,327492,1,8,0:0:0:0:
64,64,327558,1,0,0:0:0:0:
320,64,327623,1,8,0:0:0:0:
64,64,327753,1,0,0:0:0:0:
64,64,327818,1,0,0:0:0:0:
320,64,327884,1,8,0:0:0:0:
64,64,328014,1,0,0:0:0:0:
64,64,328079,1,0,0:0:0:0:
320,64,328145,1,8,0:0:0:0:
320,64,328188,1,8,0:0:0:0:
320,64,328231,1,8,0:0:0:0:
320,64,328275,1,8,0:0:0:0:
64,64,328340,1,0,0:0:0:0:
320,64,328405,1,8,0:0:0:0:
64,64,328471,1,0,0:0:0:0:
320,64,328536,1,8,0:0:0:0:
320,64,328601,1,8,0:0:0:0:
64,64,328666,1,0,0:0:0:0:
64,64,328732,1,0,0:0:0:0:
320,64,328797,1,8,0:0:0:0:
320,64,328840,1,8,0:0:0:0:
320,64,328884,1,8,0:0:0:0:
64,64,328927,1,0,0:0:0:0:
320,64,328992,1,8,0:0:0:0:
64,64,329058,1,0,0:0:0:0:
64,64,329123,1,0,0:0:0:0:
320,64,329188,1,8,0:0:0:0:
64,64,329253,1,0,0:0:0:0:
320,64,329318,1,8,0:0:0:0:
64,64,329362,1,0,0:0:0:0:
64,64,329405,1,0,0:0:0:0:
320,64,329449,1,8,0:0:0:0:
320,64,329514,1,8,0:0:0:0:
320,64,329579,1,8,0:0:0:0:
64,64,329645,1,0,0:0:0:0:
320,64,329710,1,8,0:0:0:0:
64,64,329840,1,0,0:0:0:0:
64,64,329905,1,0,0:0:0:0:
320,64,329971,1,8,0:0:0:0:
64,64,330101,1,0,0:0:0:0:
64,64,330166,1,0,0:0:0:0:
320,64,330232,1,8,0:0:0:0:
64,64,330362,1,0,0:0:0:0:
64,64,330427,1,0,0:0:0:0:
320,64,330492,1,8,0:0:0:0:
320,64,330558,1,8,0:0:0:0:
320,64,330623,1,8,0:0:0:0:
64,64,330666,1,0,0:0:0:0:
64,64,330710,1,0,0:0:0:0:
320,64,330753,1,8,0:0:0:0:
320,64,330818,1,8,0:0:0:0:
320,64,330884,1,8,0:0:0:0:
64,64,330949,1,0,0:0:0:0:
320,64,331014,1,8,0:0:0:0:
64,64,331079,1,0,0:0:0:0:
320,64,331145,1,8,0:0:0:0:
320,64,331210,1,8,0:0:0:0:
64,64,331275,1,0,0:0:0:0:
64,64,331340,1,0,0:0:0:0:
320,64,331405,1,12,0:0:0:0:
320,64,331536,1,8,0:0:0:0:
320,64,331601,1,8,0:0:0:0:
64,64,331666,1,0,0:0:0:0:
64,64,331732,1,0,0:0:0:0:
320,64,331797,1,8,0:0:0:0:
64,64,331862,1,0,0:0:0:0:
320,64,331927,1,8,0:0:0:0:
320,64,331992,1,8,0:0:0:0:
320,64,332058,1,8,0:0:0:0:
64,64,332123,1,0,0:0:0:0:
320,64,332188,1,8,0:0:0:0:
64,64,332253,1,0,0:0:0:0:
64,64,332318,1,0,0:0:0:0:
64,64,332384,1,0,0:0:0:0:
320,64,332449,1,12,0:0:0:0:
64,64,332579,1,0,0:0:0:0:
64,64,332612,1,0,0:0:0:0:
320,64,332645,1,8,0:0:0:0:
64,64,332710,1,0,0:0:0:0:
64,64,332775,1,0,0:0:0:0:
320,64,332840,1,12,0:0:0:0:
64,64,332971,1,0,0:0:0:0:
64,64,333003,1,0,0:0:0:0:
320,64,333036,1,8,0:0:0:0:
64,64,333101,1,0,0:0:0:0:
64,64,333166,1,0,0:0:0:0:
320,64,333232,1,12,0:0:0:0:
320,64,333362,1,8,0:0:0:0:
320,64,333395,1,8,0:0:0:0:
320,64,333427,1,8,0:0:0:0:
320,64,333460,1,8,0:0:0:0:
64,64,333492,1,0,0:0:0:0:
64,64,333558,1,0,0:0:0:0:
64,64,333623,1,0,0:0:0:0:
64,64,333688,1,0,0:0:0:0:
320,64,333753,1,12,0:0:0:0:
64,64,333884,1,0,0:0:0:0:
64,64,333949,1,0,0:0:0:0:
320,64,334013,1,8,0:0:0:0:
64,64,334079,1,0,0:0:0:0:
320,64,334144,1,8,0:0:0:0:
64,64,334274,1,0,0:0:0:0:
64,64,334340,1,0,0:0:0:0:
320,64,334405,1,8,0:0:0:0:
64,64,334535,1,0,0:0:0:0:
64,64,334579,1,0,0:0:0:0:
64,64,334623,1,0,0:0:0:0:
320,64,334666,1,8,0:0:0:0:
64,64,334731,1,0,0:0:0:0:
320,64,334796,1,8,0:0:0:0:
64,64,334927,1,0,0:0:0:0:
64,64,334992,1,0,0:0:0:0:
320,64,335057,1,8,0:0:0:0:
64,64,335188,1,0,0:0:0:0:
64,64,335253,1,0,0:0:0:0:
320,64,335318,1,8,0:0:0:0:
64,64,335384,1,0,0:0:0:0:
320,64,335448,1,8,0:0:0:0:
320,64,335513,1,8,0:0:0:0:
64,64,335579,1,0,0:0:0:0:
64,64,335709,1,0,0:0:0:0:
64,64,335774,1,0,0:0:0:0:
320,64,335840,1,8,0:0:0:0:
64,64,335905,1,0,0:0:0:0:
320,64,335970,1,8,0:0:0:0:
64,64,336100,1,0,0:0:0:0:
64,64,336166,1,0,0:0:0:0:
320,64,336231,1,8,0:0:0:0:
64,64,336361,1,0,0:0:0:0:
64,64,336427,1,0,0:0:0:0:
320,64,336492,1,8,0:0:0:0:
320,64,336535,1,8,0:0:0:0:
320,64,336579,1,8,0:0:0:0:
320,64,336622,1,8,0:0:0:0:
64,64,336687,1,0,0:0:0:0:
320,64,336753,1,8,0:0:0:0:
64,64,336818,1,0,0:0:0:0:
320,64,336883,1,8,0:0:0:0:
320,64,336948,1,8,0:0:0:0:
64,64,337013,1,0,0:0:0:0:
64,64,337079,1,0,0:0:0:0:
320,64,337144,1,8,0:0:0:0:
320,64,337187,1,8,0:0:0:0:
320,64,337231,1,8,0:0:0:0:
64,64,337274,1,0,0:0:0:0:
320,64,337340,1,8,0:0:0:0:
64,64,337405,1,0,0:0:0:0:
64,64,337470,1,0,0:0:0:0:
320,64,337535,1,8,0:0:0:0:
64,64,337600,1,0,0:0:0:0:
320,64,337666,1,8,0:0:0:0:
320,64,337796,1,8,0:0:0:0:
64,64,337861,1,0,0:0:0:0:
320,64,337927,1,8,0:0:0:0:
64,64,337992,1,0,0:0:0:0:
320,64,338057,1,8,0:0:0:0:
64,64,338187,1,0,0:0:0:0:
320,64,338253,1,8,0:0:0:0:
64,64,338318,1,0,0:0:0:0:
64,64,338448,1,0,0:0:0:0:
64,64,338515,1,0,0:0:0:0:
320,64,338579,1,8,0:0:0:0:
64,64,338709,1,0,0:0:0:0:
64,64,338753,1,0,0:0:0:0:
64,64,338797,1,0,0:0:0:0:
320,64,338840,1,8,0:0:0:0:
64,64,338905,1,0,0:0:0:0:
320,64,338970,1,8,0:0:0:0:
64,64,339013,1,0,0:0:0:0:
64,64,339057,1,0,0:0:0:0:
320,64,339101,1,8,0:0:0:0:
64,64,339166,1,0,0:0:0:0:
320,64,339231,1,8,0:0:0:0:
320,64,339274,1,8,0:0:0:0:
320,64,339317,1,8,0:0:0:0:
64,64,339361,1,0,0:0:0:0:
64,64,339427,1,0,0:0:0:0:
320,64,339492,1,8,0:0:0:0:
320,64,339535,1,8,0:0:0:0:
320,64,339578,1,8,0:0:0:0:
64,64,339622,1,0,0:0:0:0:
64,64,339687,1,0,0:0:0:0:
320,64,339753,1,12,0:0:0:0:
64,64,339883,1,0,0:0:0:0:
64,64,339948,1,0,0:0:0:0:
320,64,340013,1,12,0:0:0:0:
320,64,340144,1,12,0:0:0:0:
64,64,340274,1,0,0:0:0:0:
320,64,340405,1,12,0:0:0:0:
320,64,340666,1,12,0:0:0:0:
320,64,340927,1,8,0:0:0:0:
64,64,340992,1,0,0:0:0:0:
320,64,341058,1,8,0:0:0:0:
64,64,341188,1,0,0:0:0:0:
64,64,341253,1,0,0:0:0:0:
320,64,341318,1,12,0:0:0:0:
64,64,341449,1,0,0:0:0:0:
320,64,341514,1,12,0:0:0:0:
64,64,341645,1,0,0:0:0:0:
320,64,341710,1,12,0:0:0:0:
320,64,341840,1,8,0:0:0:0:
64,64,341971,1,0,0:0:0:0:
64,64,342036,1,0,0:0:0:0:
320,64,342101,1,8,0:0:0:0:
64,64,342166,1,0,0:0:0:0:
320,64,342232,1,8,0:0:0:0:
320,64,342362,1,8,0:0:0:0:
64,64,342427,1,0,0:0:0:0:
320,64,342492,1,8,0:0:0:0:
64,64,342623,1,0,0:0:0:0:
64,64,342687,1,0,0:0:0:0:
320,64,342753,1,8,0:0:0:0:
64,64,343014,1,0,0:0:0:0:
64,64,343079,1,0,0:0:0:0:
320,64,343145,1,8,0:0:0:0:
320,64,343166,1,8,0:0:0:0:
64,64,343275,1,0,0:0:0:0:
64,64,343340,1,0,0:0:0:0:
320,64,343405,1,8,0:0:0:0:
64,64,343471,1,0,0:0:0:0:
320,64,343536,1,8,0:0:0:0:
320,64,343558,1,8,0:0:0:0:
64,64,343666,1,0,0:0:0:0:
320,64,343732,1,8,0:0:0:0:
64,64,343797,1,0,0:0:0:0:
64,64,343829,1,0,0:0:0:0:
64,64,343862,1,0,0:0:0:0:
320,64,343927,1,8,0:0:0:0:
64,64,344058,1,0,0:0:0:0:
64,64,344122,1,0,0:0:0:0:
320,64,344187,1,8,0:0:0:0:
64,64,344253,1,0,0:0:0:0:
320,64,344318,1,8,0:0:0:0:
64,64,344448,1,0,0:0:0:0:
64,64,344513,1,0,0:0:0:0:
320,64,344579,1,8,0:0:0:0:
64,64,344709,1,0,0:0:0:0:
64,64,344774,1,0,0:0:0:0:
320,64,344840,1,8,0:0:0:0:
320,64,344883,1,8,0:0:0:0:
320,64,344926,1,8,0:0:0:0:
64,64,345101,1,0,0:0:0:0:
64,64,345134,1,0,0:0:0:0:
64,64,345166,1,0,0:0:0:0:
320,64,345232,1,8,0:0:0:0:
64,64,345362,1,0,0:0:0:0:
64,64,345427,1,0,0:0:0:0:
320,64,345492,1,8,0:0:0:0:
64,64,345623,1,0,0:0:0:0:
64,64,345655,1,0,0:0:0:0:
64,64,345688,1,0,0:0:0:0:
320,64,345753,1,8,0:0:0:0:
320,64,345818,1,8,0:0:0:0:
64,64,345884,1,0,0:0:0:0:
64,64,345949,1,0,0:0:0:0:
320,64,346014,1,8,0:0:0:0:
320,64,346145,1,8,0:0:0:0:
320,64,346210,1,8,0:0:0:0:
320,64,346275,1,8,0:0:0:0:
64,64,346340,1,0,0:0:0:0:
320,64,346405,1,8,0:0:0:0:
64,64,346536,1,0,0:0:0:0:
64,64,346601,1,0,0:0:0:0:
320,64,346666,1,8,0:0:0:0:
320,64,346797,1,8,0:0:0:0:
64,64,346862,1,0,0:0:0:0:
320,64,346927,1,8,0:0:0:0:
320,64,347187,1,8,0:0:0:0:
320,64,347253,1,8,0:0:0:0:
320,64,347318,1,8,0:0:0:0:
64,64,347361,1,0,0:0:0:0:
64,64,347405,1,0,0:0:0:0:
320,64,347448,1,8,0:0:0:0:
320,64,347513,1,8,0:0:0:0:
320,64,347579,1,8,0:0:0:0:
64,64,347644,1,0,0:0:0:0:
320,64,347709,1,8,0:0:0:0:
64,64,347774,1,0,0:0:0:0:
320,64,347840,1,8,0:0:0:0:
320,64,347905,1,8,0:0:0:0:
64,64,347970,1,0,0:0:0:0:
64,64,348035,1,0,0:0:0:0:
320,64,348101,1,12,0:0:0:0:
64,64,348275,1,0,0:0:0:0:
320,64,348449,1,8,0:0:0:0:
64,64,348623,1,4,0:0:0:0:
320,64,348797,1,8,0:0:0:0:
64,64,348971,1,0,0:0:0:0:
320,64,349145,1,12,0:0:0:0:
320,64,349666,1,8,0:0:0:0:
320,64,349840,1,8,0:0:0:0:
64,64,350014,1,0,0:0:0:0:
320,64,350188,1,8,0:0:0:0:
320,64,350710,1,8,0:0:0:0:
64,64,350884,1,0,0:0:0:0:
320,64,351058,1,8,0:0:0:0:
64,64,351232,1,0,0:0:0:0:
320,64,351753,1,8,0:0:0:0:
320,64,351927,1,8,0:0:0:0:
64,64,352101,1,0,0:0:0:0:
64,64,352275,1,0,0:0:0:0:
320,64,352449,1,8,0:0:0:0:
64,64,352623,1,0,0:0:0:0:
64,64,353145,1,0,0:0:0:0:
320,64,353318,1,8,0:0:0:0:
320,64,354014,1,8,0:0:0:0:
320,64,354188,1,8,0:0:0:0:
64,64,354362,1,0,0:0:0:0:
320,64,354536,1,8,0:0:0:0:
64,64,354884,1,0,0:0:0:0:
320,64,355058,1,8,0:0:0:0:
320,64,355405,1,8,0:0:0:0:
64,64,355579,1,0,0:0:0:0:
64,64,355753,1,0,0:0:0:0:
320,64,355927,1,8,0:0:0:0:
64,64,356014,1,0,0:0:0:0:
320,64,356101,1,8,0:0:0:0:
320,64,356188,1,8,0:0:0:0:
64,64,356275,1,0,0:0:0:0:
64,64,356362,1,0,0:0:0:0:
320,64,356449,1,12,0:0:0:0:
64,64,357492,1,0,0:0:0:0:
64,64,357753,1,0,0:0:0:0:
320,64,358014,1,8,0:0:0:0:
320,64,358275,1,8,0:0:0:0:
320,64,358536,1,8,0:0:0:0:
64,64,358666,1,0,0:0:0:0:
64,64,358797,1,0,0:0:0:0:
64,64,359058,1,0,0:0:0:0:
64,64,359318,1,0,0:0:0:0:
64,64,359579,1,0,0:0:0:0:
64,64,359840,1,0,0:0:0:0:
64,64,359927,1,0,0:0:0:0:
64,64,360014,1,0,0:0:0:0:
320,64,360101,1,8,0:0:0:0:
64,64,360188,1,0,0:0:0:0:
64,64,360275,1,0,0:0:0:0:
320,64,360362,1,8,0:0:0:0:
64,64,360449,1,0,0:0:0:0:
64,64,360536,1,0,0:0:0:0:
320,64,360623,1,12,0:0:0:0:
64,64,360797,1,0,0:0:0:0:
64,64,360884,1,0,0:0:0:0:
64,64,361058,1,0,0:0:0:0:
320,64,361145,1,8,0:0:0:0:
320,64,361318,1,8,0:0:0:0:
64,64,361405,1,0,0:0:0:0:
64,64,361492,1,0,0:0:0:0:
64,64,361579,1,0,0:0:0:0:
320,64,361666,1,8,0:0:0:0:
64,64,361840,1,0,0:0:0:0:
320,64,361927,1,8,0:0:0:0:
64,64,362101,1,0,0:0:0:0:
320,64,362188,1,8,0:0:0:0:
320,64,362275,1,8,0:0:0:0:
64,64,362362,1,0,0:0:0:0:
320,64,362449,1,8,0:0:0:0:
320,64,362536,1,8,0:0:0:0:
64,64,362623,1,0,0:0:0:0:
320,64,362710,1,8,0:0:0:0:
320,64,362884,1,8,0:0:0:0:
64,64,362927,1,0,0:0:0:0:
320,64,362971,1,8,0:0:0:0:
320,64,363058,1,8,0:0:0:0:
64,64,363145,1,0,0:0:0:0:
320,64,363232,1,8,0:0:0:0:
320,64,363275,1,8,0:0:0:0:
64,64,363318,1,0,0:0:0:0:
64,64,363362,1,0,0:0:0:0:
320,64,363405,1,8,0:0:0:0:
64,64,363492,1,0,0:0:0:0:
64,64,363536,1,0,0:0:0:0:
320,64,363579,1,8,0:0:0:0:
320,64,363666,1,8,0:0:0:0:
64,64,363753,1,0,0:0:0:0:
320,64,363797,1,8,0:0:0:0:
320,64,363840,1,8,0:0:0:0:
64,64,363884,1,0,0:0:0:0:
320,64,363927,1,8,0:0:0:0:
64,64,364014,1,0,0:0:0:0:
320,64,364058,1,8,0:0:0:0:
320,64,364101,1,8,0:0:0:0:
64,64,364188,1,0,0:0:0:0:
320,64,364275,1,12,0:0:0:0:
64,64,364536,1,4,0:0:0:0:
320,64,364797,1,12,0:0:0:0:
64,64,364971,1,0,0:0:0:0:
320,64,365057,1,8,0:0:0:0:
320,64,365079,1,8,0:0:0:0:
64,64,365145,1,0,0:0:0:0:
64,64,365188,1,0,0:0:0:0:
320,64,365232,1,8,0:0:0:0:
320,64,365318,1,8,0:0:0:0:
64,64,365405,1,0,0:0:0:0:
320,64,365449,1,8,0:0:0:0:
320,64,365492,1,8,0:0:0:0:
64,64,365579,1,0,0:0:0:0:
320,64,365666,1,8,0:0:0:0:
320,64,365753,1,8,0:0:0:0:
64,64,365840,1,0,0:0:0:0:
320,64,365862,1,8,0:0:0:0:
320,64,366014,1,8,0:0:0:0:
320,64,366036,1,8,0:0:0:0:
64,64,366101,1,0,0:0:0:0:
320,64,366275,1,8,0:0:0:0:
64,64,366362,1,0,0:0:0:0:
320,64,366384,1,8,0:0:0:0:
320,64,366405,1,8,0:0:0:0:
64,64,366623,1,4,0:0:0:0:
320,64,366884,1,8,0:0:0:0:
64,64,367058,1,0,0:0:0:0:
320,64,367144,1,8,0:0:0:0:
320,64,367166,1,8,0:0:0:0:
64,64,367232,1,0,0:0:0:0:
320,64,367319,1,8,0:0:0:0:
64,64,367405,1,0,0:0:0:0:
320,64,367449,1,8,0:0:0:0:
320,64,367492,1,8,0:0:0:0:
64,64,367579,1,0,0:0:0:0:
64,64,367666,1,0,0:0:0:0:
320,64,367753,1,8,0:0:0:0:
320,64,367840,1,8,0:0:0:0:
64,64,367927,1,0,0:0:0:0:
320,64,367949,1,8,0:0:0:0:
320,64,368101,1,8,0:0:0:0:
320,64,368123,1,8,0:0:0:0:
320,64,368188,1,12,0:0:0:0:
64,64,368449,1,0,0:0:0:0:
320,64,368471,1,8,0:0:0:0:
320,64,368492,1,8,0:0:0:0:
64,64,368623,1,0,0:0:0:0:
64,64,368645,1,0,0:0:0:0:
64,64,368710,1,4,0:0:0:0:
320,64,368971,1,12,0:0:0:0:
64,64,369145,1,0,0:0:0:0:
320,64,369231,1,8,0:0:0:0:
320,64,369253,1,8,0:0:0:0:
64,64,369318,1,0,0:0:0:0:
64,64,369362,1,0,0:0:0:0:
320,64,369405,1,8,0:0:0:0:
320,64,369492,1,8,0:0:0:0:
64,64,369579,1,0,0:0:0:0:
320,64,369623,1,8,0:0:0:0:
320,64,369666,1,8,0:0:0:0:
64,64,369753,1,0,0:0:0:0:
320,64,369840,1,8,0:0:0:0:
320,64,369927,1,8,0:0:0:0:
64,64,370014,1,0,0:0:0:0:
320,64,370036,1,8,0:0:0:0:
320,64,370188,1,8,0:0:0:0:
320,64,370210,1,8,0:0:0:0:
64,64,370275,1,0,0:0:0:0:
320,64,370449,1,8,0:0:0:0:
64,64,370536,1,0,0:0:0:0:
320,64,370558,1,8,0:0:0:0:
320,64,370579,1,8,0:0:0:0:
64,64,370797,1,4,0:0:0:0:
320,64,371058,1,8,0:0:0:0:
64,64,371232,1,0,0:0:0:0:
320,64,371318,1,8,0:0:0:0:
320,64,371340,1,8,0:0:0:0:
64,64,371406,1,0,0:0:0:0:
320,64,371492,1,8,0:0:0:0:
64,64,371579,1,0,0:0:0:0:
64,64,371623,1,0,0:0:0:0:
320,64,371666,1,8,0:0:0:0:
320,64,371753,1,8,0:0:0:0:
64,64,371840,1,0,0:0:0:0:
320,64,371927,1,8,0:0:0:0:
64,64,372014,1,0,0:0:0:0:
320,64,372101,1,8,0:0:0:0:
320,64,372188,1,8,0:0:0:0:
64,64,372275,1,0,0:0:0:0:
320,64,372362,1,8,0:0:0:0:
320,64,372449,1,8,0:0:0:0:
64,64,372536,1,0,0:0:0:0:
320,64,372623,1,8,0:0:0:0:
320,64,372666,1,8,0:0:0:0:
64,64,372710,1,0,0:0:0:0:
64,64,372797,1,0,0:0:0:0:
320,64,372884,1,8,0:0:0:0:
320,64,372927,1,8,0:0:0:0:
64,64,372971,1,0,0:0:0:0:
320,64,373014,1,8,0:0:0:0:
64,64,373058,1,0,0:0:0:0:
320,64,373145,1,12,0:0:0:0:
64,64,373275,1,0,0:0:0:0:
320,64,373405,1,8,0:0:0:0:
320,64,373438,1,8,0:0:0:0:
64,64,373471,1,0,0:0:0:0:
320,64,373535,1,8,0:0:0:0:
64,64,373579,1,0,0:0:0:0:
64,64,373623,1,0,0:0:0:0:
320,64,373666,1,8,0:0:0:0:
320,64,373732,1,8,0:0:0:0:
320,64,373797,1,8,0:0:0:0:
64,64,373862,1,0,0:0:0:0:
320,64,373927,1,8,0:0:0:0:
320,64,374057,1,8,0:0:0:0:
320,64,374123,1,8,0:0:0:0:
64,64,374188,1,0,0:0:0:0:
320,64,374318,1,8,0:0:0:0:
320,64,374351,1,8,0:0:0:0:
320,64,374384,1,8,0:0:0:0:
64,64,374449,1,0,0:0:0:0:
320,64,374579,1,8,0:0:0:0:
320,64,374612,1,8,0:0:0:0:
64,64,374710,1,0,0:0:0:0:
64,64,374775,1,0,0:0:0:0:
320,64,374840,1,8,0:0:0:0:
64,64,374971,1,4,0:0:0:0:
320,64,375231,1,8,0:0:0:0:
64,64,375362,1,0,0:0:0:0:
320,64,375492,1,8,0:0:0:0:
64,64,375525,1,0,0:0:0:0:
64,64,375557,1,0,0:0:0:0:
320,64,375622,1,8,0:0:0:0:
320,64,375666,1,8,0:0:0:0:
320,64,375710,1,8,0:0:0:0:
64,64,375753,1,0,0:0:0:0:
320,64,375818,1,8,0:0:0:0:
64,64,375884,1,0,0:0:0:0:
320,64,375949,1,8,0:0:0:0:
64,64,376014,1,0,0:0:0:0:
320,64,376144,1,8,0:0:0:0:
320,64,376210,1,8,0:0:0:0:
64,64,376275,1,0,0:0:0:0:
320,64,376405,1,8,0:0:0:0:
320,64,376438,1,8,0:0:0:0:
320,64,376471,1,8,0:0:0:0:
64,64,376536,1,4,0:0:0:0:
320,64,376797,1,8,0:0:0:0:
64,64,376862,1,0,0:0:0:0:
320,64,376927,1,8,0:0:0:0:
64,64,377058,1,4,0:0:0:0:
64,64,377449,1,0,0:0:0:0:
320,64,377579,1,8,0:0:0:0:
320,64,377612,1,8,0:0:0:0:
64,64,377645,1,0,0:0:0:0:
320,64,377709,1,8,0:0:0:0:
64,64,377753,1,0,0:0:0:0:
64,64,377797,1,0,0:0:0:0:
320,64,377840,1,8,0:0:0:0:
320,64,377905,1,8,0:0:0:0:
320,64,377971,1,8,0:0:0:0:
64,64,378036,1,0,0:0:0:0:
320,64,378101,1,8,0:0:0:0:
320,64,378231,1,8,0:0:0:0:
320,64,378297,1,8,0:0:0:0:
64,64,378362,1,0,0:0:0:0:
320,64,378492,1,8,0:0:0:0:
320,64,378525,1,8,0:0:0:0:
320,64,378558,1,8,0:0:0:0:
64,64,378623,1,0,0:0:0:0:
320,64,378753,1,8,0:0:0:0:
320,64,378786,1,8,0:0:0:0:
64,64,378884,1,0,0:0:0:0:
64,64,378949,1,0,0:0:0:0:
320,64,379014,1,8,0:0:0:0:
64,64,379145,1,4,0:0:0:0:
320,64,379405,1,8,0:0:0:0:
64,64,379536,1,0,0:0:0:0:
320,64,379666,1,8,0:0:0:0:
64,64,379699,1,0,0:0:0:0:
64,64,379731,1,0,0:0:0:0:
320,64,379796,1,8,0:0:0:0:
320,64,379840,1,8,0:0:0:0:
320,64,379884,1,8,0:0:0:0:
64,64,379927,1,0,0:0:0:0:
320,64,379992,1,8,0:0:0:0:
64,64,380058,1,0,0:0:0:0:
64,64,380123,1,0,0:0:0:0:
320,64,380188,1,8,0:0:0:0:
320,64,380318,1,8,0:0:0:0:
64,64,380449,1,4,0:0:0:0:
320,64,380579,1,8,0:0:0:0:
320,64,380710,1,8,0:0:0:0:
64,64,380840,1,4,0:0:0:0:
320,64,380971,1,8,0:0:0:0:
320,64,381101,1,8,0:0:0:0:
64,64,381232,1,4,0:0:0:0:
320,64,381362,1,8,0:0:0:0:
64,64,381492,1,4,0:0:0:0:
64,64,381753,1,0,0:0:0:0:
64,64,382014,1,0,0:0:0:0:
64,64,382275,1,0,0:0:0:0:
320,64,382362,1,8,0:0:0:0:
320,64,382449,1,8,0:0:0:0:
64,64,382536,1,0,0:0:0:0:
64,64,382797,1,0,0:0:0:0:
64,64,383058,1,0,0:0:0:0:
320,64,383318,1,8,0:0:0:0:
320,64,383579,1,8,0:0:0:0:
64,64,383840,1,0,0:0:0:0:
64,64,384101,1,0,0:0:0:0:
64,64,384362,1,0,0:0:0:0:
320,64,384449,1,8,0:0:0:0:
320,64,384536,1,8,0:0:0:0:
64,64,384623,1,0,0:0:0:0:
64,64,384884,1,0,0:0:0:0:
320,64,385145,1,8,0:0:0:0:
64,64,385275,1,0,0:0:0:0:
64,64,385405,1,0,0:0:0:0:
320,64,385666,1,8,0:0:0:0:
64,64,385927,1,0,0:0:0:0:
64,64,386188,1,0,0:0:0:0:
64,64,386449,1,0,0:0:0:0:
320,64,386536,1,8,0:0:0:0:
320,64,386623,1,8,0:0:0:0:
64,64,386710,1,0,0:0:0:0:
64,64,386971,1,0,0:0:0:0:
64,64,387232,1,0,0:0:0:0:
320,64,387492,1,8,0:0:0:0:
320,64,387753,1,12,0:0:0:0:
320,64,387884,1,8,0:0:0:0:
64,64,388014,1,0,0:0:0:0:
320,64,388145,1,12,0:0:0:0:
64,64,388275,1,0,0:0:0:0:
64,64,388405,1,0,0:0:0:0:
320,64,388536,1,12,0:0:0:0:
320,64,388666,1,8,0:0:0:0:
64,64,388797,1,0,0:0:0:0:
320,64,388927,1,12,0:0:0:0:
64,64,389058,1,0,0:0:0:0:
64,64,389188,1,0,0:0:0:0:
320,64,389318,1,12,0:0:0:0:
64,64,389579,1,0,0:0:0:0:
320,64,389710,1,8,0:0:0:0:
64,64,389775,1,0,0:0:0:0:
320,64,389840,1,8,0:0:0:0:
64,64,389971,1,0,0:0:0:0:
64,64,390101,1,0,0:0:0:0:
320,64,390232,1,8,0:0:0:0:
64,64,390362,1,0,0:0:0:0:
64,64,390492,1,0,0:0:0:0:
320,64,390623,1,8,0:0:0:0:
320,64,390688,1,8,0:0:0:0:
64,64,390753,1,0,0:0:0:0:
64,64,390818,1,0,0:0:0:0:
320,64,390884,1,8,0:0:0:0:
64,64,391014,1,0,0:0:0:0:
64,64,391145,1,0,0:0:0:0:
64,64,391275,1,0,0:0:0:0:
320,64,391405,1,8,0:0:0:0:
64,64,391536,1,0,0:0:0:0:
64,64,391601,1,0,0:0:0:0:
320,64,391666,1,8,0:0:0:0:
64,64,391797,1,0,0:0:0:0:
64,64,391862,1,0,0:0:0:0:
320,64,391927,1,8,0:0:0:0:
64,64,392058,1,0,0:0:0:0:
64,64,392188,1,0,0:0:0:0:
320,64,392318,1,8,0:0:0:0:
64,64,392449,1,0,0:0:0:0:
64,64,392579,1,0,0:0:0:0:
320,64,392710,1,8,0:0:0:0:
320,64,392840,1,8,0:0:0:0:
320,64,392905,1,8,0:0:0:0:
64,64,392971,1,0,0:0:0:0:
64,64,393014,1,0,0:0:0:0:
64,64,393058,1,0,0:0:0:0:
320,64,393101,1,8,0:0:0:0:
320,64,393166,1,8,0:0:0:0:
64,64,393232,1,0,0:0:0:0:
64,64,393275,1,0,0:0:0:0:
64,64,393318,1,0,0:0:0:0:
320,64,393362,1,8,0:0:0:0:
64,64,393427,1,0,0:0:0:0:
320,64,393492,1,8,0:0:0:0:
320,64,393623,1,8,0:0:0:0:
320,64,393666,1,8,0:0:0:0:
64,64,393710,1,0,0:0:0:0:
320,64,393753,1,8,0:0:0:0:
64,64,393884,1,0,0:0:0:0:
320,64,394014,1,8,0:0:0:0:
64,64,394145,1,0,0:0:0:0:
64,64,394275,1,0,0:0:0:0:
320,64,394405,1,8,0:0:0:0:
64,64,394536,1,0,0:0:0:0:
64,64,394666,1,0,0:0:0:0:
320,64,394797,1,8,0:0:0:0:
64,64,394927,1,0,0:0:0:0:
64,64,394992,1,0,0:0:0:0:
320,64,395058,1,8,0:0:0:0:
64,64,395188,1,0,0:0:0:0:
64,64,395318,1,0,0:0:0:0:
64,64,395449,1,0,0:0:0:0:
320,64,395579,1,8,0:0:0:0:
64,64,395710,1,0,0:0:0:0:
64,64,395775,1,0,0:0:0:0:
320,64,395840,1,8,0:0:0:0:
64,64,395971,1,0,0:0:0:0:
64,64,396036,1,0,0:0:0:0:
320,64,396101,1,12,0:0:0:0:
64,64,396232,1,0,0:0:0:0:
64,64,396362,1,0,0:0:0:0:
320,64,396492,1,12,0:0:0:0:
320,64,396623,1,8,0:0:0:0:
64,64,396753,1,0,0:0:0:0:
320,64,396884,1,12,0:0:0:0:
64,64,397014,1,0,0:0:0:0:
64,64,397145,1,0,0:0:0:0:
320,64,397275,1,12,0:0:0:0:
320,64,397405,1,8,0:0:0:0:
320,64,397536,1,8,0:0:0:0:
64,64,397666,1,0,0:0:0:0:
320,64,397732,1,8,0:0:0:0:
64,64,397797,1,0,0:0:0:0:
320,64,397862,1,8,0:0:0:0:
320,64,397927,1,8,0:0:0:0:
64,64,397992,1,0,0:0:0:0:
64,64,398058,1,0,0:0:0:0:
320,64,398123,1,8,0:0:0:0:
64,64,398188,1,4,0:0:0:0:
64,64,400275,1,0,0:0:0:0:
64,64,400340,1,0,0:0:0:0:
64,64,400405,1,0,0:0:0:0:
64,64,400471,1,0,0:0:0:0:
64,64,400536,1,0,0:0:0:0:
64,64,400601,1,0,0:0:0:0:
64,64,400666,1,0,0:0:0:0:
64,64,400732,1,0,0:0:0:0:
64,64,400797,1,0,0:0:0:0:
64,64,400862,1,0,0:0:0:0:
64,64,400927,1,0,0:0:0:0:
64,64,400992,1,0,0:0:0:0:
64,64,401058,1,0,0:0:0:0:
64,64,401123,1,0,0:0:0:0:
64,64,401188,1,0,0:0:0:0:
64,64,401253,1,0,0:0:0:0:
64,64,401318,1,0,0:0:0:0:
64,64,401384,1,0,0:0:0:0:
64,64,401449,1,0,0:0:0:0:
64,64,401514,1,0,0:0:0:0:
64,64,401579,1,0,0:0:0:0:
64,64,401645,1,0,0:0:0:0:
64,64,401710,1,0,0:0:0:0:
64,64,401775,1,0,0:0:0:0:
320,64,401840,1,8,0:0:0:0:
64,64,402101,1,0,0:0:0:0:
64,64,402166,1,0,0:0:0:0:
64,64,402232,1,0,0:0:0:0:
64,64,402297,1,0,0:0:0:0:
320,64,402362,1,8,0:0:0:0:
64,64,402427,1,0,0:0:0:0:
320,64,402492,1,8,0:0:0:0:
320,64,402558,1,8,0:0:0:0:
320,64,402623,1,8,0:0:0:0:
64,64,402753,1,0,0:0:0:0:
320,64,402818,1,8,0:0:0:0:
64,64,402884,1,0,0:0:0:0:
64,64,402949,1,0,0:0:0:0:
64,64,403014,1,0,0:0:0:0:
320,64,403145,1,8,0:0:0:0:
64,64,403210,1,0,0:0:0:0:
320,64,403275,1,8,0:0:0:0:
320,64,403340,1,8,0:0:0:0:
320,64,403405,1,8,0:0:0:0:
64,64,403536,1,0,0:0:0:0:
320,64,403601,1,8,0:0:0:0:
64,64,403666,1,0,0:0:0:0:
64,64,403732,1,0,0:0:0:0:
64,64,403797,1,0,0:0:0:0:
320,64,403927,1,8,0:0:0:0:
64,64,403992,1,0,0:0:0:0:
320,64,404188,1,8,0:0:0:0:
64,64,404253,1,0,0:0:0:0:
320,64,404449,1,8,0:0:0:0:
64,64,404514,1,0,0:0:0:0:
320,64,404579,1,8,0:0:0:0:
320,64,404644,1,8,0:0:0:0:
320,64,404709,1,8,0:0:0:0:
64,64,404840,1,0,0:0:0:0:
320,64,404905,1,8,0:0:0:0:
64,64,404970,1,0,0:0:0:0:
64,64,405035,1,0,0:0:0:0:
64,64,405101,1,0,0:0:0:0:
320,64,405231,1,8,0:0:0:0:
64,64,405296,1,0,0:0:0:0:
320,64,405362,1,8,0:0:0:0:
320,64,405427,1,8,0:0:0:0:
320,64,405492,1,8,0:0:0:0:
64,64,405622,1,0,0:0:0:0:
320,64,405688,1,8,0:0:0:0:
320,64,405753,1,8,0:0:0:0:
256,192,405884,12,0,406079,0:0:0:0:
256,192,406145,12,0,406405,0:0:0:0:
320,64,406536,5,8,0:0:0:0:
64,64,406601,1,0,0:0:0:0:
320,64,406666,1,8,0:0:0:0:
320,64,406731,1,8,0:0:0:0:
320,64,406796,1,8,0:0:0:0:
64,64,406927,1,0,0:0:0:0:
320,64,406992,1,8,0:0:0:0:
64,64,407057,1,0,0:0:0:0:
64,64,407122,1,0,0:0:0:0:
64,64,407188,1,0,0:0:0:0:
320,64,407318,1,8,0:0:0:0:
64,64,407383,1,0,0:0:0:0:
320,64,407449,1,8,0:0:0:0:
320,64,407514,1,8,0:0:0:0:
320,64,407579,1,8,0:0:0:0:
64,64,407709,1,0,0:0:0:0:
320,64,407775,1,8,0:0:0:0:
64,64,407840,1,0,0:0:0:0:
64,64,407905,1,0,0:0:0:0:
64,64,407970,1,0,0:0:0:0:
320,64,408101,1,8,0:0:0:0:
64,64,408166,1,0,0:0:0:0:
320,64,408362,1,8,0:0:0:0:
64,64,408427,1,0,0:0:0:0:
320,64,408623,1,8,0:0:0:0:
64,64,408688,1,0,0:0:0:0:
320,64,408753,1,8,0:0:0:0:
320,64,408818,1,8,0:0:0:0:
320,64,408883,1,8,0:0:0:0:
64,64,409014,1,0,0:0:0:0:
320,64,409079,1,8,0:0:0:0:
64,64,409144,1,0,0:0:0:0:
64,64,409209,1,0,0:0:0:0:
64,64,409275,1,0,0:0:0:0:
320,64,409405,1,8,0:0:0:0:
64,64,409471,1,0,0:0:0:0:
320,64,409536,1,8,0:0:0:0:
320,64,409601,1,8,0:0:0:0:
320,64,409666,1,8,0:0:0:0:
64,64,409797,1,0,0:0:0:0:
320,64,409862,1,8,0:0:0:0:
320,64,409927,1,8,0:0:0:0:
320,64,410058,1,8,0:0:0:0:
256,192,410188,12,8,410579,0:0:0:0:
64,64,410710,5,0,0:0:0:0:
320,64,410775,1,8,0:0:0:0:
64,64,410840,1,0,0:0:0:0:
64,64,410905,1,0,0:0:0:0:
64,64,410971,1,0,0:0:0:0:
64,64,411101,1,0,0:0:0:0:
320,64,411166,1,8,0:0:0:0:
64,64,411232,1,0,0:0:0:0:
64,64,411297,1,0,0:0:0:0:
64,64,411362,1,0,0:0:0:0:
320,64,411492,1,8,0:0:0:0:
64,64,411557,1,0,0:0:0:0:
320,64,411622,1,8,0:0:0:0:
320,64,411687,1,8,0:0:0:0:
320,64,411753,1,8,0:0:0:0:
320,64,411884,1,8,0:0:0:0:
64,64,411949,1,0,0:0:0:0:
320,64,412014,1,8,0:0:0:0:
320,64,412079,1,8,0:0:0:0:
320,64,412145,1,8,0:0:0:0:
320,64,412275,1,8,0:0:0:0:
64,64,412340,1,0,0:0:0:0:
320,64,412405,1,8,0:0:0:0:
320,64,412470,1,8,0:0:0:0:
320,64,412536,1,8,0:0:0:0:
320,64,412666,1,8,0:0:0:0:
64,64,412731,1,0,0:0:0:0:
320,64,412796,1,8,0:0:0:0:
320,64,412861,1,8,0:0:0:0:
320,64,412927,1,8,0:0:0:0:
320,64,413058,1,8,0:0:0:0:
64,64,413123,1,0,0:0:0:0:
320,64,413188,1,8,0:0:0:0:
320,64,413253,1,8,0:0:0:0:
320,64,413319,1,8,0:0:0:0:
320,64,413449,1,8,0:0:0:0:
64,64,413514,1,0,0:0:0:0:
320,64,413579,1,8,0:0:0:0:
320,64,413644,1,8,0:0:0:0:
320,64,413710,1,8,0:0:0:0:
64,64,413840,1,0,0:0:0:0:
320,64,413905,1,8,0:0:0:0:
64,64,413971,1,0,0:0:0:0:
64,64,414036,1,0,0:0:0:0:
64,64,414101,1,0,0:0:0:0:
64,64,414232,1,0,0:0:0:0:
320,64,414297,1,8,0:0:0:0:
64,64,414362,1,0,0:0:0:0:
64,64,414427,1,0,0:0:0:0:
64,64,414492,1,0,0:0:0:0:
320,64,414623,1,8,0:0:0:0:
64,64,414688,1,0,0:0:0:0:
320,64,414753,1,8,0:0:0:0:
320,64,414818,1,8,0:0:0:0:
320,64,414884,1,8,0:0:0:0:
320,64,415014,1,8,0:0:0:0:
64,64,415079,1,0,0:0:0:0:
320,64,415144,1,8,0:0:0:0:
320,64,415209,1,8,0:0:0:0:
320,64,415275,1,8,0:0:0:0:
320,64,415405,1,8,0:0:0:0:
64,64,415470,1,0,0:0:0:0:
320,64,415535,1,8,0:0:0:0:
320,64,415600,1,8,0:0:0:0:
320,64,415666,1,8,0:0:0:0:
320,64,415797,1,8,0:0:0:0:
64,64,415862,1,0,0:0:0:0:
320,64,415927,1,8,0:0:0:0:
320,64,415992,1,8,0:0:0:0:
320,64,416058,1,8,0:0:0:0:
320,64,416188,1,8,0:0:0:0:
64,64,416253,1,0,0:0:0:0:
320,64,416318,1,8,0:0:0:0:
320,64,416383,1,8,0:0:0:0:
320,64,416449,1,8,0:0:0:0:
320,64,416579,1,8,0:0:0:0:
64,64,416644,1,0,0:0:0:0:
320,64,416709,1,8,0:0:0:0:
320,64,416774,1,8,0:0:0:0:
320,64,416840,1,8,0:0:0:0:
320,64,416971,1,12,0:0:0:0:
64,64,417362,1,4,0:0:0:0:
