osu file format v14

[General]
AudioFilename: audio.mp3
AudioLeadIn: 0
PreviewTime: 221611
Countdown: 0
SampleSet: Drum
StackLeniency: 0.7
Mode: 3
LetterboxInBreaks: 0
SpecialStyle: 0
WidescreenStoryboard: 1

[Editor]
Bookmarks: 23471,34634,45797,66727,89052,105797,112425,128471,133704,142076,150448,156029,167192,178355,199285,211843,223006,226146,231378,239750,245332,256494,267657
DistanceSpacing: 1
BeatDivisor: 4
GridSize: 8
TimelineZoom: 1.899999

[Metadata]
Title:NEURO-CLOUD-9
TitleUnicode:NEURO-CLOUD-9
Artist:Camellia
ArtistUnicode:かめりあ
Creator:Ska
Version:099
Source:
Tags:tech dump evening electronic instrumental INSANE INFLAME neurostep hip hop hip-hop dubstep breakcore kamelcamellia かめるかめりあ cametek masaya oya 大箭将也 FA featured artist track 2 two II CTCD-013 2016 M3 春 spring
BeatmapID:3877203
BeatmapSetID:1883182

[Difficulty]
HPDrainRate:8.8
CircleSize:4
OverallDifficulty:8.8
ApproachRate:5
SliderMultiplier:1.4
SliderTickRate:1

[Events]
//Background and Video events
0,0,"watefoKC.jpg",0,0
//Break Periods
2,1346,5527
//Storyboard Layer 0 (Background)
//Storyboard Layer 1 (Fail)
//Storyboard Layer 2 (Pass)
//Storyboard Layer 3 (Foreground)
//Storyboard Layer 4 (Overlay)
//Storyboard Sound Samples

[TimingPoints]
1146,348.837209302326,4,3,1,25,1,0

[HitObjects]
64,192,1146,5,0,0:0:0:0:
320,192,1146,1,0,0:0:0:0:
448,192,1146,1,0,0:0:0:0:
192,192,1146,1,0,0:0:0:0:
320,192,6727,5,0,0:0:0:0:
320,192,6989,1,0,0:0:0:0:
320,192,7250,1,0,0:0:0:0:
448,192,7773,1,0,0:0:0:0:
448,192,8035,1,0,0:0:0:0:
320,192,8122,1,0,0:0:0:0:
320,192,8297,1,0,0:0:0:0:
448,192,8558,1,0,0:0:0:0:
320,192,8646,1,0,0:0:0:0:
320,192,8820,1,0,0:0:0:0:
192,192,8907,1,0,0:0:0:0:
192,192,9082,1,0,0:0:0:0:
64,192,9169,1,0,0:0:0:0:
64,192,9430,1,0,0:0:0:0:
192,192,9518,1,0,0:0:0:0:
320,192,9605,1,0,0:0:0:0:
320,192,9779,1,0,0:0:0:0:
448,192,9866,1,0,0:0:0:0:
448,192,10041,1,0,0:0:0:0:
320,192,10128,1,0,0:0:0:0:
320,192,10477,1,0,0:0:0:0:
448,192,10564,1,0,0:0:0:0:
448,192,10826,1,0,0:0:0:0:
320,192,10913,1,0,0:0:0:0:
320,192,11087,1,0,0:0:0:0:
192,192,11175,1,0,0:0:0:0:
192,192,11349,1,0,0:0:0:0:
64,192,11436,1,0,0:0:0:0:
64,192,11611,1,0,0:0:0:0:
192,192,11698,1,0,0:0:0:0:
192,192,11872,1,0,0:0:0:0:
320,192,11959,1,0,0:0:0:0:
448,192,12047,1,0,0:0:0:0:
448,192,12221,1,0,0:0:0:0:
320,192,12308,1,0,0:0:0:0:
192,192,12396,1,0,0:0:0:0:
192,192,12570,1,0,0:0:0:0:
320,192,12657,1,0,0:0:0:0:
448,192,12744,1,0,0:0:0:0:
320,192,12832,1,0,0:0:0:0:
192,192,12919,1,0,0:0:0:0:
192,192,13268,1,0,0:0:0:0:
320,192,13355,1,0,0:0:0:0:
448,192,13442,1,0,0:0:0:0:
448,192,13616,1,0,0:0:0:0:
320,192,13704,1,0,0:0:0:0:
320,192,13878,1,0,0:0:0:0:
192,192,13965,1,0,0:0:0:0:
192,192,14140,1,0,0:0:0:0:
320,192,14227,1,0,0:0:0:0:
320,192,14401,1,0,0:0:0:0:
192,192,14489,1,0,0:0:0:0:
192,192,14663,1,0,0:0:0:0:
64,192,14750,1,0,0:0:0:0:
192,192,14837,1,0,0:0:0:0:
192,192,15012,1,0,0:0:0:0:
320,192,15099,1,0,0:0:0:0:
448,192,15186,1,0,0:0:0:0:
448,192,15361,1,0,0:0:0:0:
320,192,15448,1,0,0:0:0:0:
320,192,15622,1,0,0:0:0:0:
192,192,15709,1,0,0:0:0:0:
64,192,15797,1,0,0:0:0:0:
64,192,16058,1,0,0:0:0:0:
192,192,16146,1,0,0:0:0:0:
320,192,16233,1,0,0:0:0:0:
320,192,16407,1,0,0:0:0:0:
192,192,16494,1,0,0:0:0:0:
192,192,16669,1,0,0:0:0:0:
320,192,16756,1,0,0:0:0:0:
192,192,16843,1,0,0:0:0:0:
448,192,16930,1,0,0:0:0:0:
64,192,17018,1,0,0:0:0:0:
192,192,17105,1,0,0:0:0:0:
448,192,17192,1,0,0:0:0:0:
64,192,17279,1,0,0:0:0:0:
192,192,17366,1,0,0:0:0:0:
448,192,17454,1,0,0:0:0:0:
64,192,17541,1,0,0:0:0:0:
192,192,17628,1,0,0:0:0:0:
320,192,17715,1,0,0:0:0:0:
448,192,17802,1,0,0:0:0:0:
192,192,17890,1,0,0:0:0:0:
320,192,17977,1,0,0:0:0:0:
192,192,18064,1,0,0:0:0:0:
448,192,18151,1,0,0:0:0:0:
192,192,18239,1,0,0:0:0:0:
320,192,18326,1,0,0:0:0:0:
192,192,18413,1,0,0:0:0:0:
320,192,18500,1,0,0:0:0:0:
448,192,18587,1,0,0:0:0:0:
320,192,18675,1,0,0:0:0:0:
448,192,18762,1,0,0:0:0:0:
320,192,18849,1,0,0:0:0:0:
192,192,18936,1,0,0:0:0:0:
320,192,19023,1,0,0:0:0:0:
192,192,19111,1,0,0:0:0:0:
320,192,19198,1,0,0:0:0:0:
192,192,19285,1,0,0:0:0:0:
64,192,19372,1,0,0:0:0:0:
192,192,19459,1,0,0:0:0:0:
64,192,19547,1,0,0:0:0:0:
320,192,19634,1,0,0:0:0:0:
192,192,19721,1,0,0:0:0:0:
320,192,19808,1,0,0:0:0:0:
192,192,19896,1,0,0:0:0:0:
448,192,19983,1,0,0:0:0:0:
320,192,20041,1,0,0:0:0:0:
192,192,20099,1,0,0:0:0:0:
448,192,20157,1,0,0:0:0:0:
320,192,20215,1,0,0:0:0:0:
64,192,20273,1,0,0:0:0:0:
448,192,20332,1,0,0:0:0:0:
192,192,20390,1,0,0:0:0:0:
320,192,20448,1,0,0:0:0:0:
64,192,20506,1,0,0:0:0:0:
192,192,20564,1,0,0:0:0:0:
320,192,20622,1,0,0:0:0:0:
448,192,20680,1,0,0:0:0:0:
64,192,20724,1,0,0:0:0:0:
192,192,20768,1,0,0:0:0:0:
448,192,20811,1,0,0:0:0:0:
320,192,20855,1,0,0:0:0:0:
64,192,20898,1,0,0:0:0:0:
192,192,20942,1,0,0:0:0:0:
448,192,20986,1,0,0:0:0:0:
320,192,21029,1,0,0:0:0:0:
64,192,21073,1,0,0:0:0:0:
192,192,21116,1,0,0:0:0:0:
448,192,21160,1,0,0:0:0:0:
320,192,21204,1,0,0:0:0:0:
192,192,21247,1,0,0:0:0:0:
64,192,21291,1,0,0:0:0:0:
448,192,21334,1,0,0:0:0:0:
192,192,21378,1,0,0:0:0:0:
320,192,21422,1,0,0:0:0:0:
64,192,21465,1,0,0:0:0:0:
448,192,21509,1,0,0:0:0:0:
320,192,21552,1,0,0:0:0:0:
192,192,21596,1,0,0:0:0:0:
448,192,21640,1,0,0:0:0:0:
64,192,21683,1,0,0:0:0:0:
320,192,21727,1,0,0:0:0:0:
192,192,21771,1,0,0:0:0:0:
64,192,21814,1,0,0:0:0:0:
448,192,21858,1,0,0:0:0:0:
192,192,21901,1,0,0:0:0:0:
320,192,21945,1,0,0:0:0:0:
64,192,21989,1,0,0:0:0:0:
448,192,22032,1,0,0:0:0:0:
192,192,22076,1,0,0:0:0:0:
320,192,22119,1,0,0:0:0:0:
448,192,22163,1,0,0:0:0:0:
64,192,22207,1,0,0:0:0:0:
192,192,22250,1,0,0:0:0:0:
448,192,22294,1,0,0:0:0:0:
64,192,22337,1,0,0:0:0:0:
320,192,22381,1,0,0:0:0:0:
192,192,22425,1,0,0:0:0:0:
448,192,22468,1,0,0:0:0:0:
320,192,22512,1,0,0:0:0:0:
192,192,22555,1,0,0:0:0:0:
64,192,22599,1,0,0:0:0:0:
448,192,22643,1,0,0:0:0:0:
320,192,22686,1,0,0:0:0:0:
64,192,22730,1,0,0:0:0:0:
448,192,22773,1,0,0:0:0:0:
192,192,22817,1,0,0:0:0:0:
320,192,22861,1,0,0:0:0:0:
64,192,22904,1,0,0:0:0:0:
192,192,22948,1,0,0:0:0:0:
448,192,22991,1,0,0:0:0:0:
320,192,23035,1,0,0:0:0:0:
64,192,23079,1,0,0:0:0:0:
192,192,23122,1,0,0:0:0:0:
448,192,23166,1,0,0:0:0:0:
320,192,23209,1,0,0:0:0:0:
192,192,23253,1,0,0:0:0:0:
64,192,23297,1,0,0:0:0:0:
448,192,23340,1,0,0:0:0:0:
320,192,23384,1,0,0:0:0:0:
64,192,23427,1,0,0:0:0:0:
192,192,23471,128,0,23646:0:0:0:0:
320,192,23471,128,0,23646:0:0:0:0:
448,192,23471,128,0,23646:0:0:0:0:
192,192,23733,128,0,23907:0:0:0:0:
320,192,23733,128,0,23907:0:0:0:0:
448,192,23733,128,0,23907:0:0:0:0:
448,192,23994,128,0,24082:0:0:0:0:
320,192,23994,128,0,24082:0:0:0:0:
192,192,23994,128,0,24082:0:0:0:0:
64,192,24169,128,0,24736:0:0:0:0:
192,192,24692,128,0,24779:0:0:0:0:
320,192,24736,128,0,24823:0:0:0:0:
448,192,24779,128,0,24866:0:0:0:0:
64,192,24866,1,0,0:0:0:0:
192,192,24910,1,0,0:0:0:0:
448,192,24954,1,0,0:0:0:0:
64,192,25019,1,0,0:0:0:0:
192,192,25063,1,0,0:0:0:0:
448,192,25106,1,0,0:0:0:0:
64,192,25172,1,0,0:0:0:0:
192,192,25215,1,0,0:0:0:0:
448,192,25259,1,0,0:0:0:0:
64,192,25324,1,0,0:0:0:0:
192,192,25368,1,0,0:0:0:0:
448,192,25411,1,0,0:0:0:0:
64,192,25477,1,0,0:0:0:0:
192,192,25521,1,0,0:0:0:0:
448,192,25564,1,0,0:0:0:0:
64,192,25651,1,0,0:0:0:0:
192,192,25695,1,0,0:0:0:0:
448,192,25739,1,0,0:0:0:0:
64,192,25848,1,0,0:0:0:0:
192,192,25891,1,0,0:0:0:0:
448,192,25935,1,0,0:0:0:0:
320,192,25978,1,0,0:0:0:0:
64,192,26044,1,0,0:0:0:0:
192,192,26109,1,0,0:0:0:0:
320,192,26175,1,0,0:0:0:0:
192,192,26218,1,0,0:0:0:0:
64,192,26262,128,0,26959:0:0:0:0:
320,192,26959,128,0,27221:0:0:0:0:
64,192,27221,128,0,27657:0:0:0:0:
192,192,27657,1,0,0:0:0:0:
320,192,27701,1,0,0:0:0:0:
448,192,27744,1,0,0:0:0:0:
192,192,27853,1,0,0:0:0:0:
320,192,27897,1,0,0:0:0:0:
448,192,27941,1,0,0:0:0:0:
192,192,28050,1,0,0:0:0:0:
320,192,28093,1,0,0:0:0:0:
448,192,28137,1,0,0:0:0:0:
192,192,28268,1,0,0:0:0:0:
320,192,28311,1,0,0:0:0:0:
448,192,28355,1,0,0:0:0:0:
192,192,28486,1,0,0:0:0:0:
320,192,28529,1,0,0:0:0:0:
448,192,28573,1,0,0:0:0:0:
192,192,28725,1,0,0:0:0:0:
320,192,28769,1,0,0:0:0:0:
448,192,28813,1,0,0:0:0:0:
320,192,28878,1,0,0:0:0:0:
192,192,28943,1,0,0:0:0:0:
64,192,28987,1,0,0:0:0:0:
192,192,29052,128,0,29227:0:0:0:0:
320,192,29052,128,0,29227:0:0:0:0:
448,192,29052,128,0,29227:0:0:0:0:
192,192,29314,128,0,29489:0:0:0:0:
448,192,29314,128,0,29489:0:0:0:0:
320,192,29314,128,0,29489:0:0:0:0:
192,192,29576,128,0,29663:0:0:0:0:
448,192,29576,128,0,29663:0:0:0:0:
320,192,29576,128,0,29663:0:0:0:0:
320,192,29750,128,0,30317:0:0:0:0:
64,192,30317,1,0,0:0:0:0:
192,192,30361,1,0,0:0:0:0:
320,192,30404,1,0,0:0:0:0:
448,192,30448,1,0,0:0:0:0:
64,192,30579,1,0,0:0:0:0:
192,192,30600,1,0,0:0:0:0:
448,192,30622,1,0,0:0:0:0:
320,192,30709,1,0,0:0:0:0:
64,192,30739,1,0,0:0:0:0:
192,192,30826,1,0,0:0:0:0:
448,192,30855,1,0,0:0:0:0:
320,192,30913,1,0,0:0:0:0:
64,192,30942,1,0,0:0:0:0:
192,192,31029,1,0,0:0:0:0:
448,192,31058,1,0,0:0:0:0:
320,192,31146,1,0,0:0:0:0:
64,192,31175,1,0,0:0:0:0:
192,192,31255,1,0,0:0:0:0:
448,192,31291,1,0,0:0:0:0:
320,192,31378,1,0,0:0:0:0:
64,192,31407,1,0,0:0:0:0:
192,192,31523,1,0,0:0:0:0:
448,192,31552,1,0,0:0:0:0:
320,192,31582,1,0,0:0:0:0:
64,192,31669,1,0,0:0:0:0:
448,192,31712,1,0,0:0:0:0:
320,192,31756,1,0,0:0:0:0:
192,192,31800,1,0,0:0:0:0:
64,192,31843,128,0,32454:0:0:0:0:
192,192,32366,128,0,32497:0:0:0:0:
320,192,32410,128,0,32541:0:0:0:0:
448,192,32454,128,0,32715:0:0:0:0:
320,192,32628,128,0,32759:0:0:0:0:
192,192,32672,128,0,32802:0:0:0:0:
64,192,32715,128,0,33151:0:0:0:0:
192,192,33064,128,0,33195:0:0:0:0:
320,192,33108,128,0,33239:0:0:0:0:
448,192,33151,128,0,33413:0:0:0:0:
320,192,33326,128,0,33457:0:0:0:0:
192,192,33369,128,0,33936:0:0:0:0:
320,192,33849,128,0,33980:0:0:0:0:
448,192,33893,128,0,34285:0:0:0:0:
320,192,34285,1,0,0:0:0:0:
192,192,34329,1,0,0:0:0:0:
448,192,34372,1,0,0:0:0:0:
320,192,34459,1,0,0:0:0:0:
448,192,34503,1,0,0:0:0:0:
192,192,34525,1,0,0:0:0:0:
320,192,34590,1,0,0:0:0:0:
448,192,34634,1,0,0:0:0:0:
192,192,34634,1,0,0:0:0:0:
64,192,34634,1,0,0:0:0:0:
320,192,34721,1,0,0:0:0:0:
64,192,34808,1,0,0:0:0:0:
448,192,34896,1,0,0:0:0:0:
320,192,34896,1,0,0:0:0:0:
192,192,34896,1,0,0:0:0:0:
64,192,34983,1,0,0:0:0:0:
320,192,35070,1,0,0:0:0:0:
448,192,35157,1,0,0:0:0:0:
192,192,35157,1,0,0:0:0:0:
64,192,35157,1,0,0:0:0:0:
320,192,35244,1,0,0:0:0:0:
448,192,35332,1,0,0:0:0:0:
192,192,35332,1,0,0:0:0:0:
64,192,35332,1,0,0:0:0:0:
448,192,35419,1,0,0:0:0:0:
320,192,35506,1,0,0:0:0:0:
64,192,35506,1,0,0:0:0:0:
192,192,35593,1,0,0:0:0:0:
448,192,35680,1,0,0:0:0:0:
64,192,35680,1,0,0:0:0:0:
320,192,35768,1,0,0:0:0:0:
448,192,35855,1,0,0:0:0:0:
64,192,35855,1,0,0:0:0:0:
192,192,35942,1,0,0:0:0:0:
320,192,36029,1,0,0:0:0:0:
192,192,36116,1,0,0:0:0:0:
320,192,36160,1,0,0:0:0:0:
448,192,36204,1,0,0:0:0:0:
192,192,36269,1,0,0:0:0:0:
320,192,36313,1,0,0:0:0:0:
448,192,36356,1,0,0:0:0:0:
192,192,36378,1,0,0:0:0:0:
64,192,36378,1,0,0:0:0:0:
320,192,36465,1,0,0:0:0:0:
448,192,36509,1,0,0:0:0:0:
192,192,36574,1,0,0:0:0:0:
320,192,36618,1,0,0:0:0:0:
448,192,36661,1,0,0:0:0:0:
64,192,36727,1,0,0:0:0:0:
192,192,36727,1,0,0:0:0:0:
320,192,36727,1,0,0:0:0:0:
448,192,36814,1,0,0:0:0:0:
192,192,36901,1,0,0:0:0:0:
320,192,36945,1,0,0:0:0:0:
448,192,36989,1,0,0:0:0:0:
64,192,37032,1,0,0:0:0:0:
192,192,37076,1,0,0:0:0:0:
320,192,37119,1,0,0:0:0:0:
448,192,37163,1,0,0:0:0:0:
320,192,37228,1,0,0:0:0:0:
192,192,37294,1,0,0:0:0:0:
64,192,37359,1,0,0:0:0:0:
448,192,37425,1,0,0:0:0:0:
320,192,37425,1,0,0:0:0:0:
192,192,37425,1,0,0:0:0:0:
64,192,37512,1,0,0:0:0:0:
320,192,37599,1,0,0:0:0:0:
448,192,37686,1,0,0:0:0:0:
192,192,37686,1,0,0:0:0:0:
64,192,37686,1,0,0:0:0:0:
320,192,37773,1,0,0:0:0:0:
64,192,37861,1,0,0:0:0:0:
192,192,37948,1,0,0:0:0:0:
448,192,37948,1,0,0:0:0:0:
320,192,37948,1,0,0:0:0:0:
64,192,38035,1,0,0:0:0:0:
448,192,38122,1,0,0:0:0:0:
192,192,38122,1,0,0:0:0:0:
192,192,38209,1,0,0:0:0:0:
320,192,38297,1,0,0:0:0:0:
64,192,38297,1,0,0:0:0:0:
448,192,38384,1,0,0:0:0:0:
192,192,38471,1,0,0:0:0:0:
64,192,38471,1,0,0:0:0:0:
448,192,38558,1,0,0:0:0:0:
320,192,38646,1,0,0:0:0:0:
64,192,38646,1,0,0:0:0:0:
192,192,38733,1,0,0:0:0:0:
448,192,38820,1,0,0:0:0:0:
320,192,38820,1,0,0:0:0:0:
192,192,38907,1,0,0:0:0:0:
64,192,38951,1,0,0:0:0:0:
320,192,38994,1,0,0:0:0:0:
192,192,39125,1,0,0:0:0:0:
64,192,39169,1,0,0:0:0:0:
448,192,39169,1,0,0:0:0:0:
320,192,39169,1,0,0:0:0:0:
192,192,39343,1,0,0:0:0:0:
64,192,39387,1,0,0:0:0:0:
320,192,39430,1,0,0:0:0:0:
448,192,39518,1,0,0:0:0:0:
320,192,39518,1,0,0:0:0:0:
192,192,39561,1,0,0:0:0:0:
64,192,39605,1,0,0:0:0:0:
320,192,39648,1,0,0:0:0:0:
192,192,39779,1,0,0:0:0:0:
64,192,39823,1,0,0:0:0:0:
320,192,39866,1,0,0:0:0:0:
448,192,39954,1,0,0:0:0:0:
192,192,40041,1,0,0:0:0:0:
64,192,40084,1,0,0:0:0:0:
448,192,40084,1,0,0:0:0:0:
320,192,40128,1,0,0:0:0:0:
448,192,40215,1,0,0:0:0:0:
192,192,40215,1,0,0:0:0:0:
64,192,40215,1,0,0:0:0:0:
320,192,40302,1,0,0:0:0:0:
64,192,40390,1,0,0:0:0:0:
320,192,40477,1,0,0:0:0:0:
192,192,40477,1,0,0:0:0:0:
448,192,40477,1,0,0:0:0:0:
64,192,40564,1,0,0:0:0:0:
320,192,40651,1,0,0:0:0:0:
192,192,40739,1,0,0:0:0:0:
64,192,40739,1,0,0:0:0:0:
448,192,40739,1,0,0:0:0:0:
320,192,40826,1,0,0:0:0:0:
448,192,40913,1,0,0:0:0:0:
64,192,40913,1,0,0:0:0:0:
448,192,41000,1,0,0:0:0:0:
192,192,41087,1,0,0:0:0:0:
64,192,41087,1,0,0:0:0:0:
448,192,41175,1,0,0:0:0:0:
320,192,41262,1,0,0:0:0:0:
64,192,41262,1,0,0:0:0:0:
192,192,41349,1,0,0:0:0:0:
320,192,41436,1,0,0:0:0:0:
448,192,41436,1,0,0:0:0:0:
192,192,41523,1,0,0:0:0:0:
64,192,41611,1,0,0:0:0:0:
448,192,41611,1,0,0:0:0:0:
192,192,41698,1,0,0:0:0:0:
448,192,41720,1,0,0:0:0:0:
320,192,41785,1,0,0:0:0:0:
64,192,41807,1,0,0:0:0:0:
192,192,41872,1,0,0:0:0:0:
448,192,41894,1,0,0:0:0:0:
320,192,41959,1,0,0:0:0:0:
64,192,41981,1,0,0:0:0:0:
192,192,42047,1,0,0:0:0:0:
448,192,42068,1,0,0:0:0:0:
320,192,42134,1,0,0:0:0:0:
64,192,42156,1,0,0:0:0:0:
192,192,42221,1,0,0:0:0:0:
448,192,42243,1,0,0:0:0:0:
320,192,42308,1,0,0:0:0:0:
192,192,42308,1,0,0:0:0:0:
64,192,42337,1,0,0:0:0:0:
320,192,42439,1,0,0:0:0:0:
448,192,42483,1,0,0:0:0:0:
64,192,42505,1,0,0:0:0:0:
192,192,42592,1,0,0:0:0:0:
320,192,42635,1,0,0:0:0:0:
64,192,42744,1,0,0:0:0:0:
448,192,42766,1,0,0:0:0:0:
320,192,42832,1,0,0:0:0:0:
192,192,42890,1,0,0:0:0:0:
64,192,42948,1,0,0:0:0:0:
448,192,43006,1,0,0:0:0:0:
320,192,43006,1,0,0:0:0:0:
192,192,43006,1,0,0:0:0:0:
64,192,43093,1,0,0:0:0:0:
448,192,43180,1,0,0:0:0:0:
320,192,43268,1,0,0:0:0:0:
192,192,43268,1,0,0:0:0:0:
64,192,43268,1,0,0:0:0:0:
448,192,43355,1,0,0:0:0:0:
64,192,43442,1,0,0:0:0:0:
192,192,43529,1,0,0:0:0:0:
448,192,43529,1,0,0:0:0:0:
320,192,43529,1,0,0:0:0:0:
192,192,43616,1,0,0:0:0:0:
448,192,43704,1,0,0:0:0:0:
320,192,43704,1,0,0:0:0:0:
64,192,43704,1,0,0:0:0:0:
192,192,43791,1,0,0:0:0:0:
448,192,43878,1,0,0:0:0:0:
64,192,43878,1,0,0:0:0:0:
192,192,43965,1,0,0:0:0:0:
448,192,44052,1,0,0:0:0:0:
64,192,44052,1,0,0:0:0:0:
320,192,44140,1,0,0:0:0:0:
448,192,44227,1,0,0:0:0:0:
64,192,44227,1,0,0:0:0:0:
192,192,44314,1,0,0:0:0:0:
64,192,44401,1,0,0:0:0:0:
448,192,44401,128,0,45688:0:0:0:0:
320,192,44401,128,0,44816:0:0:0:0:
64,192,44837,128,0,45688:0:0:0:0:
192,192,44881,128,0,45709:0:0:0:0:
320,192,44968,128,0,45731:0:0:0:0:
64,192,45768,128,0,45855:0:0:0:0:
448,192,45775,128,0,45840:0:0:0:0:
192,192,45797,128,0,45862:0:0:0:0:
320,192,45818,128,0,45884:0:0:0:0:
64,192,47279,1,0,0:0:0:0:
192,192,47337,1,0,0:0:0:0:
320,192,47454,1,0,0:0:0:0:
192,192,47497,1,0,0:0:0:0:
448,192,47541,1,0,0:0:0:0:
64,192,47563,1,0,0:0:0:0:
448,192,47672,1,0,0:0:0:0:
320,192,47672,1,0,0:0:0:0:
64,192,47715,1,0,0:0:0:0:
192,192,47781,1,0,0:0:0:0:
448,192,47846,1,0,0:0:0:0:
64,192,47890,1,0,0:0:0:0:
448,192,47977,1,0,0:0:0:0:
192,192,47977,1,0,0:0:0:0:
320,192,48086,1,0,0:0:0:0:
64,192,48130,1,0,0:0:0:0:
192,192,48173,1,0,0:0:0:0:
448,192,48239,1,0,0:0:0:0:
64,192,48260,1,0,0:0:0:0:
320,192,48304,1,0,0:0:0:0:
192,192,48391,1,0,0:0:0:0:
448,192,48522,1,0,0:0:0:0:
64,192,48522,1,0,0:0:0:0:
320,192,48566,1,0,0:0:0:0:
448,192,48609,1,0,0:0:0:0:
192,192,48631,1,0,0:0:0:0:
64,192,48718,1,0,0:0:0:0:
320,192,48784,1,0,0:0:0:0:
192,192,48827,1,0,0:0:0:0:
192,192,48980,1,0,0:0:0:0:
64,192,49067,1,0,0:0:0:0:
320,192,49089,1,0,0:0:0:0:
192,192,49132,1,0,0:0:0:0:
320,192,49198,1,0,0:0:0:0:
448,192,49263,1,0,0:0:0:0:
192,192,50397,1,0,0:0:0:0:
448,192,50484,1,0,0:0:0:0:
320,192,50550,1,0,0:0:0:0:
64,192,50593,1,0,0:0:0:0:
448,192,50680,1,0,0:0:0:0:
192,192,50680,1,0,0:0:0:0:
64,192,50746,1,0,0:0:0:0:
320,192,50789,1,0,0:0:0:0:
448,192,50789,1,0,0:0:0:0:
192,192,50833,1,0,0:0:0:0:
64,192,50898,1,0,0:0:0:0:
320,192,50964,1,0,0:0:0:0:
192,192,51051,1,0,0:0:0:0:
448,192,51095,1,0,0:0:0:0:
320,192,51095,1,0,0:0:0:0:
64,192,51138,1,0,0:0:0:0:
320,192,51225,1,0,0:0:0:0:
448,192,51269,1,0,0:0:0:0:
192,192,51313,1,0,0:0:0:0:
320,192,51422,1,0,0:0:0:0:
64,192,51487,1,0,0:0:0:0:
192,192,51531,1,0,0:0:0:0:
448,192,51531,1,0,0:0:0:0:
192,192,51661,1,0,0:0:0:0:
320,192,51683,1,0,0:0:0:0:
448,192,51727,1,0,0:0:0:0:
64,192,51727,1,0,0:0:0:0:
448,192,51836,1,0,0:0:0:0:
192,192,51858,1,0,0:0:0:0:
320,192,51901,1,0,0:0:0:0:
64,192,51967,1,0,0:0:0:0:
448,192,52010,1,0,0:0:0:0:
320,192,52054,1,0,0:0:0:0:
192,192,52076,1,0,0:0:0:0:
64,192,52185,1,0,0:0:0:0:
320,192,52250,1,0,0:0:0:0:
192,192,52294,1,0,0:0:0:0:
448,192,52316,1,0,0:0:0:0:
64,192,52316,1,0,0:0:0:0:
320,192,52381,1,0,0:0:0:0:
192,192,52468,1,0,0:0:0:0:
64,192,52621,1,0,0:0:0:0:
192,192,52686,1,0,0:0:0:0:
320,192,52686,1,0,0:0:0:0:
448,192,52730,1,0,0:0:0:0:
320,192,52817,1,0,0:0:0:0:
64,192,52861,1,0,0:0:0:0:
192,192,52882,1,0,0:0:0:0:
64,192,52970,1,0,0:0:0:0:
320,192,52991,1,0,0:0:0:0:
448,192,52991,1,0,0:0:0:0:
192,192,53035,1,0,0:0:0:0:
320,192,53122,1,0,0:0:0:0:
64,192,53144,1,0,0:0:0:0:
320,192,53253,1,0,0:0:0:0:
192,192,53340,1,0,0:0:0:0:
448,192,53340,1,0,0:0:0:0:
64,192,53427,1,0,0:0:0:0:
448,192,53471,1,0,0:0:0:0:
192,192,53515,1,0,0:0:0:0:
64,192,53580,1,0,0:0:0:0:
320,192,53624,1,0,0:0:0:0:
448,192,53711,1,0,0:0:0:0:
320,192,53755,1,0,0:0:0:0:
192,192,53798,1,0,0:0:0:0:
64,192,53820,1,0,0:0:0:0:
320,192,53842,1,0,0:0:0:0:
448,192,53885,1,0,0:0:0:0:
64,192,55063,1,0,0:0:0:0:
192,192,55106,1,0,0:0:0:0:
320,192,55150,1,0,0:0:0:0:
448,192,55172,1,0,0:0:0:0:
192,192,55215,1,0,0:0:0:0:
64,192,55215,1,0,0:0:0:0:
320,192,55259,1,0,0:0:0:0:
64,192,55324,1,0,0:0:0:0:
320,192,55390,1,0,0:0:0:0:
448,192,55455,1,0,0:0:0:0:
192,192,55499,1,0,0:0:0:0:
64,192,55564,1,0,0:0:0:0:
448,192,55564,1,0,0:0:0:0:
192,192,55630,1,0,0:0:0:0:
320,192,55673,1,0,0:0:0:0:
64,192,55739,1,0,0:0:0:0:
192,192,55760,1,0,0:0:0:0:
320,192,55804,1,0,0:0:0:0:
448,192,55826,1,0,0:0:0:0:
320,192,55942,1,0,0:0:0:0:
448,192,55957,1,0,0:0:0:0:
64,192,56000,1,0,0:0:0:0:
192,192,56044,1,0,0:0:0:0:
320,192,56327,1,0,0:0:0:0:
192,192,56393,1,0,0:0:0:0:
448,192,56436,1,0,0:0:0:0:
64,192,56436,1,0,0:0:0:0:
320,192,56545,1,0,0:0:0:0:
448,192,56567,1,0,0:0:0:0:
192,192,56632,1,0,0:0:0:0:
64,192,56698,1,0,0:0:0:0:
448,192,56720,1,0,0:0:0:0:
320,192,56741,1,0,0:0:0:0:
64,192,56785,1,0,0:0:0:0:
192,192,56850,1,0,0:0:0:0:
448,192,56916,1,0,0:0:0:0:
64,192,57047,1,0,0:0:0:0:
320,192,57090,1,0,0:0:0:0:
448,192,57134,1,0,0:0:0:0:
192,192,57134,1,0,0:0:0:0:
320,192,57199,1,0,0:0:0:0:
448,192,57265,1,0,0:0:0:0:
192,192,57286,1,0,0:0:0:0:
64,192,57352,1,0,0:0:0:0:
320,192,57396,1,0,0:0:0:0:
192,192,57439,1,0,0:0:0:0:
320,192,57505,1,0,0:0:0:0:
448,192,57526,1,0,0:0:0:0:
64,192,57570,1,0,0:0:0:0:
320,192,57701,1,0,0:0:0:0:
64,192,57788,1,0,0:0:0:0:
192,192,57832,1,0,0:0:0:0:
448,192,57853,1,0,0:0:0:0:
320,192,57875,1,0,0:0:0:0:
192,192,57941,1,0,0:0:0:0:
448,192,58006,1,0,0:0:0:0:
64,192,58006,1,0,0:0:0:0:
320,192,58028,1,0,0:0:0:0:
448,192,58137,1,0,0:0:0:0:
64,192,58202,1,0,0:0:0:0:
192,192,58246,1,0,0:0:0:0:
320,192,58289,1,0,0:0:0:0:
448,192,58355,1,0,0:0:0:0:
64,192,58355,1,0,0:0:0:0:
192,192,58420,1,0,0:0:0:0:
320,192,58464,1,0,0:0:0:0:
448,192,58486,1,0,0:0:0:0:
64,192,58551,1,0,0:0:0:0:
192,192,58616,1,0,0:0:0:0:
448,192,58638,1,0,0:0:0:0:
320,192,58704,1,0,0:0:0:0:
192,192,58813,1,0,0:0:0:0:
448,192,58878,1,0,0:0:0:0:
64,192,58900,1,0,0:0:0:0:
192,192,58965,1,0,0:0:0:0:
320,192,58987,1,0,0:0:0:0:
448,192,59052,1,0,0:0:0:0:
64,192,59052,1,0,0:0:0:0:
320,192,59140,1,0,0:0:0:0:
192,192,59227,1,0,0:0:0:0:
320,192,59292,1,0,0:0:0:0:
64,192,59314,1,0,0:0:0:0:
448,192,59401,1,0,0:0:0:0:
64,192,59467,1,0,0:0:0:0:
448,192,59510,1,0,0:0:0:0:
192,192,59510,1,0,0:0:0:0:
320,192,59598,1,0,0:0:0:0:
64,192,59641,1,0,0:0:0:0:
448,192,59663,1,0,0:0:0:0:
192,192,59728,1,0,0:0:0:0:
64,192,60600,1,0,0:0:0:0:
448,192,60644,1,0,0:0:0:0:
192,192,60644,1,0,0:0:0:0:
320,192,60709,1,0,0:0:0:0:
192,192,60753,1,0,0:0:0:0:
64,192,60797,1,0,0:0:0:0:
448,192,60818,1,0,0:0:0:0:
320,192,60884,1,0,0:0:0:0:
192,192,60971,1,0,0:0:0:0:
64,192,60971,1,0,0:0:0:0:
448,192,61029,1,0,0:0:0:0:
192,192,61087,1,0,0:0:0:0:
320,192,61175,1,0,0:0:0:0:
64,192,61233,1,0,0:0:0:0:
192,192,61291,1,0,0:0:0:0:
448,192,61349,1,0,0:0:0:0:
320,192,61378,1,0,0:0:0:0:
64,192,61436,1,0,0:0:0:0:
448,192,61494,1,0,0:0:0:0:
320,192,61538,1,0,0:0:0:0:
64,192,61625,1,0,0:0:0:0:
448,192,61669,1,0,0:0:0:0:
192,192,61669,1,0,0:0:0:0:
320,192,61756,1,0,0:0:0:0:
448,192,61843,1,0,0:0:0:0:
64,192,61843,1,0,0:0:0:0:
192,192,61952,1,0,0:0:0:0:
320,192,62039,1,0,0:0:0:0:
64,192,62105,1,0,0:0:0:0:
192,192,62148,1,0,0:0:0:0:
448,192,62192,1,0,0:0:0:0:
320,192,62192,1,0,0:0:0:0:
64,192,62236,1,0,0:0:0:0:
448,192,62279,1,0,0:0:0:0:
192,192,62301,1,0,0:0:0:0:
320,192,62432,1,0,0:0:0:0:
192,192,62475,1,0,0:0:0:0:
64,192,62519,1,0,0:0:0:0:
448,192,62541,1,0,0:0:0:0:
320,192,62563,1,0,0:0:0:0:
192,192,62650,1,0,0:0:0:0:
448,192,62715,1,0,0:0:0:0:
320,192,62715,1,0,0:0:0:0:
64,192,62781,1,0,0:0:0:0:
192,192,62846,1,0,0:0:0:0:
448,192,62911,1,0,0:0:0:0:
320,192,62955,1,0,0:0:0:0:
448,192,63064,1,0,0:0:0:0:
64,192,63064,1,0,0:0:0:0:
320,192,63130,1,0,0:0:0:0:
192,192,63173,1,0,0:0:0:0:
64,192,63239,1,0,0:0:0:0:
192,192,63304,1,0,0:0:0:0:
320,192,63326,1,0,0:0:0:0:
448,192,63348,1,0,0:0:0:0:
64,192,63457,1,0,0:0:0:0:
448,192,63522,1,0,0:0:0:0:
320,192,63544,1,0,0:0:0:0:
64,192,63631,1,0,0:0:0:0:
192,192,63675,1,0,0:0:0:0:
320,192,63696,1,0,0:0:0:0:
448,192,63762,1,0,0:0:0:0:
192,192,63805,1,0,0:0:0:0:
320,192,63849,1,0,0:0:0:0:
448,192,63936,1,0,0:0:0:0:
64,192,63936,1,0,0:0:0:0:
192,192,64023,1,0,0:0:0:0:
64,192,64111,1,0,0:0:0:0:
192,192,64198,1,0,0:0:0:0:
320,192,64285,1,0,0:0:0:0:
192,192,64372,1,0,0:0:0:0:
448,192,64459,1,0,0:0:0:0:
64,192,64459,1,0,0:0:0:0:
320,192,64547,1,0,0:0:0:0:
448,192,64634,1,0,0:0:0:0:
320,192,64721,1,0,0:0:0:0:
192,192,64808,1,0,0:0:0:0:
64,192,64852,1,0,0:0:0:0:
320,192,64896,1,0,0:0:0:0:
192,192,64939,1,0,0:0:0:0:
448,192,64983,1,0,0:0:0:0:
320,192,65070,1,0,0:0:0:0:
64,192,65070,1,0,0:0:0:0:
192,192,65114,1,0,0:0:0:0:
448,192,65157,1,0,0:0:0:0:
64,192,65215,1,0,0:0:0:0:
192,192,65244,1,0,0:0:0:0:
320,192,65273,1,0,0:0:0:0:
448,192,65332,1,0,0:0:0:0:
320,192,65419,1,0,0:0:0:0:
448,192,65506,1,0,0:0:0:0:
320,192,65593,1,0,0:0:0:0:
192,192,65680,1,0,0:0:0:0:
64,192,65680,1,0,0:0:0:0:
448,192,65724,1,0,0:0:0:0:
320,192,65768,1,0,0:0:0:0:
64,192,65811,1,0,0:0:0:0:
448,192,65855,1,0,0:0:0:0:
192,192,65898,1,0,0:0:0:0:
320,192,65942,1,0,0:0:0:0:
64,192,65986,1,0,0:0:0:0:
192,192,66029,1,0,0:0:0:0:
448,192,66029,1,0,0:0:0:0:
320,192,66087,1,0,0:0:0:0:
192,192,66146,1,0,0:0:0:0:
64,192,66204,1,0,0:0:0:0:
320,192,66233,1,0,0:0:0:0:
448,192,66320,1,0,0:0:0:0:
64,192,66320,1,0,0:0:0:0:
192,192,66378,1,0,0:0:0:0:
448,192,66436,1,0,0:0:0:0:
192,192,66494,1,0,0:0:0:0:
320,192,66552,1,0,0:0:0:0:
64,192,66582,1,0,0:0:0:0:
448,192,66640,1,0,0:0:0:0:
448,192,66727,5,0,0:0:0:0:
320,192,66727,1,0,0:0:0:0:
192,192,66727,1,0,0:0:0:0:
64,192,66727,1,0,0:0:0:0:
64,192,66814,1,0,0:0:0:0:
192,192,66901,1,0,0:0:0:0:
448,192,66901,1,0,0:0:0:0:
64,192,66989,1,0,0:0:0:0:
192,192,67076,1,0,0:0:0:0:
448,192,67076,1,0,0:0:0:0:
64,192,67163,1,0,0:0:0:0:
192,192,67250,1,0,0:0:0:0:
64,192,67337,1,0,0:0:0:0:
192,192,67425,1,0,0:0:0:0:
448,192,67425,1,0,0:0:0:0:
64,192,67512,1,0,0:0:0:0:
320,192,67541,1,0,0:0:0:0:
192,192,67599,1,0,0:0:0:0:
320,192,67657,1,0,0:0:0:0:
64,192,67686,1,0,0:0:0:0:
192,192,67773,1,0,0:0:0:0:
448,192,67773,1,0,0:0:0:0:
64,192,67861,1,0,0:0:0:0:
192,192,67948,1,0,0:0:0:0:
64,192,68035,1,0,0:0:0:0:
192,192,68122,1,0,0:0:0:0:
448,192,68122,1,0,0:0:0:0:
64,192,68209,1,0,0:0:0:0:
448,192,68209,1,0,0:0:0:0:
192,192,68297,1,0,0:0:0:0:
320,192,68297,1,0,0:0:0:0:
64,192,68384,1,0,0:0:0:0:
320,192,68384,1,0,0:0:0:0:
192,192,68471,1,0,0:0:0:0:
448,192,68471,1,0,0:0:0:0:
64,192,68558,1,0,0:0:0:0:
448,192,68558,1,0,0:0:0:0:
192,192,68646,1,0,0:0:0:0:
320,192,68646,1,0,0:0:0:0:
64,192,68733,1,0,0:0:0:0:
320,192,68733,1,0,0:0:0:0:
192,192,68820,1,0,0:0:0:0:
448,192,68820,1,0,0:0:0:0:
64,192,68907,1,0,0:0:0:0:
320,192,68936,1,0,0:0:0:0:
192,192,68994,1,0,0:0:0:0:
320,192,69052,1,0,0:0:0:0:
64,192,69082,1,0,0:0:0:0:
192,192,69169,1,0,0:0:0:0:
448,192,69169,1,0,0:0:0:0:
64,192,69256,1,0,0:0:0:0:
192,192,69343,1,0,0:0:0:0:
320,192,69401,1,0,0:0:0:0:
64,192,69430,1,0,0:0:0:0:
192,192,69518,1,0,0:0:0:0:
448,192,69518,1,0,0:0:0:0:
64,192,69605,1,0,0:0:0:0:
448,192,69634,1,0,0:0:0:0:
192,192,69692,1,0,0:0:0:0:
320,192,69750,1,0,0:0:0:0:
64,192,69779,1,0,0:0:0:0:
192,192,69866,1,0,0:0:0:0:
320,192,69866,1,0,0:0:0:0:
64,192,69954,1,0,0:0:0:0:
192,192,70041,1,0,0:0:0:0:
320,192,70099,1,0,0:0:0:0:
64,192,70128,1,0,0:0:0:0:
192,192,70215,1,0,0:0:0:0:
448,192,70215,1,0,0:0:0:0:
64,192,70302,1,0,0:0:0:0:
448,192,70332,1,0,0:0:0:0:
192,192,70390,1,0,0:0:0:0:
320,192,70448,1,0,0:0:0:0:
64,192,70477,1,0,0:0:0:0:
192,192,70564,1,0,0:0:0:0:
320,192,70564,1,0,0:0:0:0:
64,192,70651,1,0,0:0:0:0:
192,192,70739,1,0,0:0:0:0:
320,192,70797,1,0,0:0:0:0:
64,192,70826,1,0,0:0:0:0:
192,192,70913,1,0,0:0:0:0:
448,192,70913,1,0,0:0:0:0:
64,192,71000,1,0,0:0:0:0:
320,192,71029,1,0,0:0:0:0:
192,192,71087,1,0,0:0:0:0:
320,192,71146,1,0,0:0:0:0:
64,192,71175,1,0,0:0:0:0:
192,192,71262,1,0,0:0:0:0:
448,192,71262,1,0,0:0:0:0:
64,192,71349,1,0,0:0:0:0:
448,192,71378,1,0,0:0:0:0:
192,192,71436,1,0,0:0:0:0:
320,192,71494,1,0,0:0:0:0:
64,192,71523,1,0,0:0:0:0:
192,192,71611,1,0,0:0:0:0:
448,192,71611,1,0,0:0:0:0:
64,192,71698,1,0,0:0:0:0:
448,192,71727,1,0,0:0:0:0:
192,192,71785,1,0,0:0:0:0:
320,192,71843,1,0,0:0:0:0:
64,192,71872,1,0,0:0:0:0:
192,192,71959,1,0,0:0:0:0:
320,192,71959,128,0,72308:0:0:0:0:
64,192,72047,1,0,0:0:0:0:
192,192,72134,1,0,0:0:0:0:
64,192,72221,1,0,0:0:0:0:
448,192,72308,5,0,0:0:0:0:
192,192,72308,1,0,0:0:0:0:
64,192,72396,1,0,0:0:0:0:
192,192,72483,1,0,0:0:0:0:
448,192,72483,1,0,0:0:0:0:
64,192,72570,1,0,0:0:0:0:
192,192,72657,1,0,0:0:0:0:
448,192,72657,1,0,0:0:0:0:
64,192,72744,1,0,0:0:0:0:
192,192,72832,1,0,0:0:0:0:
64,192,72919,1,0,0:0:0:0:
192,192,73006,1,0,0:0:0:0:
448,192,73006,1,0,0:0:0:0:
64,192,73093,1,0,0:0:0:0:
320,192,73122,1,0,0:0:0:0:
192,192,73180,1,0,0:0:0:0:
320,192,73239,1,0,0:0:0:0:
64,192,73268,1,0,0:0:0:0:
192,192,73355,1,0,0:0:0:0:
448,192,73355,1,0,0:0:0:0:
64,192,73442,1,0,0:0:0:0:
192,192,73529,1,0,0:0:0:0:
64,192,73616,1,0,0:0:0:0:
192,192,73704,1,0,0:0:0:0:
448,192,73704,1,0,0:0:0:0:
64,192,73791,1,0,0:0:0:0:
448,192,73791,1,0,0:0:0:0:
192,192,73878,1,0,0:0:0:0:
320,192,73878,1,0,0:0:0:0:
64,192,73965,1,0,0:0:0:0:
320,192,73965,1,0,0:0:0:0:
192,192,74052,1,0,0:0:0:0:
448,192,74052,1,0,0:0:0:0:
64,192,74140,1,0,0:0:0:0:
448,192,74140,1,0,0:0:0:0:
192,192,74227,1,0,0:0:0:0:
320,192,74227,1,0,0:0:0:0:
64,192,74314,1,0,0:0:0:0:
320,192,74314,1,0,0:0:0:0:
192,192,74401,1,0,0:0:0:0:
448,192,74401,1,0,0:0:0:0:
64,192,74489,1,0,0:0:0:0:
320,192,74518,1,0,0:0:0:0:
192,192,74576,1,0,0:0:0:0:
320,192,74634,1,0,0:0:0:0:
64,192,74663,1,0,0:0:0:0:
192,192,74750,1,0,0:0:0:0:
448,192,74750,1,0,0:0:0:0:
64,192,74837,1,0,0:0:0:0:
192,192,74925,1,0,0:0:0:0:
320,192,74983,1,0,0:0:0:0:
64,192,75012,1,0,0:0:0:0:
192,192,75099,1,0,0:0:0:0:
448,192,75099,1,0,0:0:0:0:
64,192,75186,1,0,0:0:0:0:
448,192,75215,1,0,0:0:0:0:
192,192,75273,1,0,0:0:0:0:
320,192,75332,1,0,0:0:0:0:
64,192,75361,1,0,0:0:0:0:
192,192,75448,1,0,0:0:0:0:
320,192,75448,1,0,0:0:0:0:
64,192,75535,1,0,0:0:0:0:
192,192,75622,1,0,0:0:0:0:
320,192,75680,1,0,0:0:0:0:
64,192,75709,1,0,0:0:0:0:
192,192,75797,1,0,0:0:0:0:
448,192,75797,1,0,0:0:0:0:
64,192,75884,1,0,0:0:0:0:
448,192,75913,1,0,0:0:0:0:
192,192,75971,1,0,0:0:0:0:
320,192,76029,1,0,0:0:0:0:
64,192,76058,1,0,0:0:0:0:
192,192,76146,1,0,0:0:0:0:
320,192,76146,1,0,0:0:0:0:
64,192,76233,1,0,0:0:0:0:
192,192,76320,1,0,0:0:0:0:
320,192,76378,1,0,0:0:0:0:
64,192,76407,1,0,0:0:0:0:
192,192,76494,1,0,0:0:0:0:
448,192,76494,1,0,0:0:0:0:
64,192,76582,1,0,0:0:0:0:
320,192,76611,1,0,0:0:0:0:
192,192,76669,1,0,0:0:0:0:
320,192,76727,1,0,0:0:0:0:
64,192,76756,1,0,0:0:0:0:
192,192,76843,1,0,0:0:0:0:
448,192,76843,1,0,0:0:0:0:
64,192,76930,1,0,0:0:0:0:
448,192,76959,1,0,0:0:0:0:
192,192,77018,1,0,0:0:0:0:
320,192,77076,1,0,0:0:0:0:
64,192,77105,1,0,0:0:0:0:
192,192,77192,1,0,0:0:0:0:
448,192,77192,1,0,0:0:0:0:
64,192,77279,1,0,0:0:0:0:
448,192,77308,1,0,0:0:0:0:
192,192,77366,1,0,0:0:0:0:
64,192,77366,1,0,0:0:0:0:
320,192,77425,1,0,0:0:0:0:
320,192,77541,128,0,77715:0:0:0:0:
448,192,77541,1,0,0:0:0:0:
64,192,77628,1,0,0:0:0:0:
192,192,77628,1,0,0:0:0:0:
192,192,77715,1,0,0:0:0:0:
448,192,77802,1,0,0:0:0:0:
192,192,77890,1,0,0:0:0:0:
64,192,77890,1,0,0:0:0:0:
448,192,77890,1,0,0:0:0:0:
320,192,77890,1,0,0:0:0:0:
64,192,77977,1,0,0:0:0:0:
192,192,78064,1,0,0:0:0:0:
320,192,78064,1,0,0:0:0:0:
64,192,78151,1,0,0:0:0:0:
192,192,78239,1,0,0:0:0:0:
320,192,78239,1,0,0:0:0:0:
64,192,78326,1,0,0:0:0:0:
192,192,78413,1,0,0:0:0:0:
64,192,78500,1,0,0:0:0:0:
192,192,78587,1,0,0:0:0:0:
448,192,78587,1,0,0:0:0:0:
64,192,78675,1,0,0:0:0:0:
448,192,78704,1,0,0:0:0:0:
192,192,78762,1,0,0:0:0:0:
320,192,78820,1,0,0:0:0:0:
64,192,78849,1,0,0:0:0:0:
192,192,78936,1,0,0:0:0:0:
320,192,78936,1,0,0:0:0:0:
64,192,79023,1,0,0:0:0:0:
192,192,79111,1,0,0:0:0:0:
64,192,79198,1,0,0:0:0:0:
192,192,79285,1,0,0:0:0:0:
320,192,79285,1,0,0:0:0:0:
64,192,79372,1,0,0:0:0:0:
448,192,79372,1,0,0:0:0:0:
320,192,79459,1,0,0:0:0:0:
192,192,79459,1,0,0:0:0:0:
64,192,79547,1,0,0:0:0:0:
448,192,79547,1,0,0:0:0:0:
320,192,79634,1,0,0:0:0:0:
192,192,79634,1,0,0:0:0:0:
64,192,79721,1,0,0:0:0:0:
192,192,79808,1,0,0:0:0:0:
320,192,79808,1,0,0:0:0:0:
64,192,79896,1,0,0:0:0:0:
448,192,79983,1,0,0:0:0:0:
192,192,79983,1,0,0:0:0:0:
64,192,80070,1,0,0:0:0:0:
448,192,80099,1,0,0:0:0:0:
192,192,80157,1,0,0:0:0:0:
320,192,80215,1,0,0:0:0:0:
64,192,80244,1,0,0:0:0:0:
320,192,80332,1,0,0:0:0:0:
192,192,80332,1,0,0:0:0:0:
64,192,80419,1,0,0:0:0:0:
192,192,80506,1,0,0:0:0:0:
448,192,80506,1,0,0:0:0:0:
64,192,80593,1,0,0:0:0:0:
320,192,80680,1,0,0:0:0:0:
192,192,80680,1,0,0:0:0:0:
64,192,80768,1,0,0:0:0:0:
448,192,80768,1,0,0:0:0:0:
192,192,80855,1,0,0:0:0:0:
320,192,80855,1,0,0:0:0:0:
64,192,80942,1,0,0:0:0:0:
448,192,80942,1,0,0:0:0:0:
192,192,81029,1,0,0:0:0:0:
320,192,81029,1,0,0:0:0:0:
64,192,81116,1,0,0:0:0:0:
448,192,81116,1,0,0:0:0:0:
192,192,81204,1,0,0:0:0:0:
320,192,81204,1,0,0:0:0:0:
64,192,81291,1,0,0:0:0:0:
320,192,81291,1,0,0:0:0:0:
192,192,81378,1,0,0:0:0:0:
448,192,81378,1,0,0:0:0:0:
64,192,81465,1,0,0:0:0:0:
448,192,81494,1,0,0:0:0:0:
192,192,81552,1,0,0:0:0:0:
320,192,81611,1,0,0:0:0:0:
64,192,81640,1,0,0:0:0:0:
192,192,81727,1,0,0:0:0:0:
320,192,81727,1,0,0:0:0:0:
64,192,81814,1,0,0:0:0:0:
448,192,81814,1,0,0:0:0:0:
192,192,81901,1,0,0:0:0:0:
320,192,81901,1,0,0:0:0:0:
64,192,81989,1,0,0:0:0:0:
448,192,81989,1,0,0:0:0:0:
192,192,82076,1,0,0:0:0:0:
320,192,82076,1,0,0:0:0:0:
64,192,82163,1,0,0:0:0:0:
320,192,82163,1,0,0:0:0:0:
192,192,82250,1,0,0:0:0:0:
448,192,82250,1,0,0:0:0:0:
64,192,82337,1,0,0:0:0:0:
320,192,82337,1,0,0:0:0:0:
192,192,82425,1,0,0:0:0:0:
448,192,82425,1,0,0:0:0:0:
64,192,82512,1,0,0:0:0:0:
320,192,82512,1,0,0:0:0:0:
192,192,82599,1,0,0:0:0:0:
448,192,82599,1,0,0:0:0:0:
64,192,82686,1,0,0:0:0:0:
320,192,82686,1,0,0:0:0:0:
448,192,82773,1,0,0:0:0:0:
192,192,82773,1,0,0:0:0:0:
64,192,82861,1,0,0:0:0:0:
448,192,82890,1,0,0:0:0:0:
192,192,82948,1,0,0:0:0:0:
320,192,83006,1,0,0:0:0:0:
64,192,83035,1,0,0:0:0:0:
320,192,83122,1,0,0:0:0:0:
192,192,83122,1,0,0:0:0:0:
64,192,83209,1,0,0:0:0:0:
448,192,83209,1,0,0:0:0:0:
192,192,83297,1,0,0:0:0:0:
448,192,83297,1,0,0:0:0:0:
64,192,83384,1,0,0:0:0:0:
320,192,83384,1,0,0:0:0:0:
192,192,83471,1,0,0:0:0:0:
448,192,83471,1,0,0:0:0:0:
192,192,83558,1,0,0:0:0:0:
448,192,83558,1,0,0:0:0:0:
64,192,83646,1,0,0:0:0:0:
320,192,83646,1,0,0:0:0:0:
192,192,83733,1,0,0:0:0:0:
448,192,83733,1,0,0:0:0:0:
320,192,83820,1,0,0:0:0:0:
64,192,83820,1,0,0:0:0:0:
320,192,83907,1,0,0:0:0:0:
64,192,83907,1,0,0:0:0:0:
448,192,83994,1,0,0:0:0:0:
192,192,83994,1,0,0:0:0:0:
320,192,84082,1,0,0:0:0:0:
64,192,84082,1,0,0:0:0:0:
192,192,84169,1,0,0:0:0:0:
448,192,84169,1,0,0:0:0:0:
192,192,84256,1,0,0:0:0:0:
448,192,84256,1,0,0:0:0:0:
64,192,84343,1,0,0:0:0:0:
320,192,84343,1,0,0:0:0:0:
192,192,84430,1,0,0:0:0:0:
448,192,84430,1,0,0:0:0:0:
64,192,84518,1,0,0:0:0:0:
320,192,84518,1,0,0:0:0:0:
320,192,84605,1,0,0:0:0:0:
64,192,84605,1,0,0:0:0:0:
448,192,84692,1,0,0:0:0:0:
192,192,84692,1,0,0:0:0:0:
320,192,84779,1,0,0:0:0:0:
64,192,84779,1,0,0:0:0:0:
448,192,84866,1,0,0:0:0:0:
192,192,84866,1,0,0:0:0:0:
192,192,84954,1,0,0:0:0:0:
448,192,84954,1,0,0:0:0:0:
64,192,85041,1,0,0:0:0:0:
320,192,85041,1,0,0:0:0:0:
192,192,85128,1,0,0:0:0:0:
448,192,85128,1,0,0:0:0:0:
64,192,85215,1,0,0:0:0:0:
320,192,85215,1,0,0:0:0:0:
320,192,85302,1,0,0:0:0:0:
64,192,85302,1,0,0:0:0:0:
192,192,85390,1,0,0:0:0:0:
448,192,85390,1,0,0:0:0:0:
320,192,85477,1,0,0:0:0:0:
64,192,85477,1,0,0:0:0:0:
448,192,85564,1,0,0:0:0:0:
192,192,85564,1,0,0:0:0:0:
192,192,85651,1,0,0:0:0:0:
448,192,85651,1,0,0:0:0:0:
320,192,85739,1,0,0:0:0:0:
64,192,85739,1,0,0:0:0:0:
192,192,85826,1,0,0:0:0:0:
448,192,85826,1,0,0:0:0:0:
320,192,85913,1,0,0:0:0:0:
64,192,85913,1,0,0:0:0:0:
320,192,86000,1,0,0:0:0:0:
64,192,86000,1,0,0:0:0:0:
192,192,86087,1,0,0:0:0:0:
448,192,86087,1,0,0:0:0:0:
192,192,86175,1,0,0:0:0:0:
320,192,86175,1,0,0:0:0:0:
64,192,86262,1,0,0:0:0:0:
448,192,86262,1,0,0:0:0:0:
320,192,86305,1,0,0:0:0:0:
192,192,86349,1,0,0:0:0:0:
448,192,86393,1,0,0:0:0:0:
64,192,86436,1,0,0:0:0:0:
320,192,86480,1,0,0:0:0:0:
192,192,86523,1,0,0:0:0:0:
64,192,86567,1,0,0:0:0:0:
448,192,86611,1,0,0:0:0:0:
192,192,86654,1,0,0:0:0:0:
320,192,86698,1,0,0:0:0:0:
64,192,86741,1,0,0:0:0:0:
192,192,86785,1,0,0:0:0:0:
320,192,86829,1,0,0:0:0:0:
448,192,86872,1,0,0:0:0:0:
192,192,86916,1,0,0:0:0:0:
320,192,86959,1,0,0:0:0:0:
64,192,87003,1,0,0:0:0:0:
448,192,87047,1,0,0:0:0:0:
192,192,87090,1,0,0:0:0:0:
64,192,87134,1,0,0:0:0:0:
448,192,87177,1,0,0:0:0:0:
320,192,87221,1,0,0:0:0:0:
64,192,87265,1,0,0:0:0:0:
448,192,87308,1,0,0:0:0:0:
192,192,87352,1,0,0:0:0:0:
448,192,87396,1,0,0:0:0:0:
192,192,87439,1,0,0:0:0:0:
320,192,87483,1,0,0:0:0:0:
64,192,87526,1,0,0:0:0:0:
448,192,87570,1,0,0:0:0:0:
64,192,87614,1,0,0:0:0:0:
448,192,87657,1,0,0:0:0:0:
320,192,87657,1,0,0:0:0:0:
192,192,87657,1,0,0:0:0:0:
448,192,87832,1,0,0:0:0:0:
64,192,87919,1,0,0:0:0:0:
64,192,88006,1,0,0:0:0:0:
448,192,88093,1,0,0:0:0:0:
320,192,88180,1,0,0:0:0:0:
320,192,88268,1,0,0:0:0:0:
192,192,88355,1,0,0:0:0:0:
64,192,88442,128,0,88529:0:0:0:0:
448,192,88442,128,0,88529:0:0:0:0:
320,192,88529,1,0,0:0:0:0:
192,192,88529,1,0,0:0:0:0:
448,192,88616,1,0,0:0:0:0:
64,192,88616,128,0,88791:0:0:0:0:
192,192,88704,128,0,88791:0:0:0:0:
448,192,88791,1,0,0:0:0:0:
320,192,88791,1,0,0:0:0:0:
448,192,88878,1,0,0:0:0:0:
64,192,88878,1,0,0:0:0:0:
320,192,88965,1,0,0:0:0:0:
192,192,88965,1,0,0:0:0:0:
448,192,89052,1,0,0:0:0:0:
192,192,89052,1,0,0:0:0:0:
64,192,89052,1,0,0:0:0:0:
320,192,89111,1,0,0:0:0:0:
192,192,89227,1,0,0:0:0:0:
320,192,89227,1,0,0:0:0:0:
320,192,89336,1,0,0:0:0:0:
64,192,89380,1,0,0:0:0:0:
448,192,89401,1,0,0:0:0:0:
192,192,89401,1,0,0:0:0:0:
320,192,89489,1,0,0:0:0:0:
64,192,89489,1,0,0:0:0:0:
448,192,89576,1,0,0:0:0:0:
192,192,89576,1,0,0:0:0:0:
448,192,89663,1,0,0:0:0:0:
64,192,89663,1,0,0:0:0:0:
320,192,89685,1,0,0:0:0:0:
448,192,89750,1,0,0:0:0:0:
192,192,89750,1,0,0:0:0:0:
320,192,89837,1,0,0:0:0:0:
64,192,89837,1,0,0:0:0:0:
64,192,89925,1,0,0:0:0:0:
448,192,89925,1,0,0:0:0:0:
192,192,89946,1,0,0:0:0:0:
64,192,90012,1,0,0:0:0:0:
320,192,90012,1,0,0:0:0:0:
448,192,90099,1,0,0:0:0:0:
192,192,90099,1,0,0:0:0:0:
320,192,90164,1,0,0:0:0:0:
448,192,90186,1,0,0:0:0:0:
64,192,90186,1,0,0:0:0:0:
192,192,90244,1,0,0:0:0:0:
320,192,90273,1,0,0:0:0:0:
64,192,90332,1,0,0:0:0:0:
448,192,90361,1,0,0:0:0:0:
320,192,90390,1,0,0:0:0:0:
192,192,90448,1,0,0:0:0:0:
64,192,90448,1,0,0:0:0:0:
448,192,90506,1,0,0:0:0:0:
192,192,90564,1,0,0:0:0:0:
448,192,90622,1,0,0:0:0:0:
64,192,90622,1,0,0:0:0:0:
320,192,90680,1,0,0:0:0:0:
64,192,90739,1,0,0:0:0:0:
320,192,90797,1,0,0:0:0:0:
448,192,90797,1,0,0:0:0:0:
192,192,90818,1,0,0:0:0:0:
320,192,90884,1,0,0:0:0:0:
64,192,90884,1,0,0:0:0:0:
448,192,90971,1,0,0:0:0:0:
192,192,90971,1,0,0:0:0:0:
448,192,91058,1,0,0:0:0:0:
64,192,91058,1,0,0:0:0:0:
320,192,91080,1,0,0:0:0:0:
448,192,91146,1,0,0:0:0:0:
192,192,91146,1,0,0:0:0:0:
320,192,91233,1,0,0:0:0:0:
64,192,91233,1,0,0:0:0:0:
64,192,91320,1,0,0:0:0:0:
448,192,91320,1,0,0:0:0:0:
192,192,91342,1,0,0:0:0:0:
64,192,91407,1,0,0:0:0:0:
320,192,91407,1,0,0:0:0:0:
448,192,91494,1,0,0:0:0:0:
192,192,91494,1,0,0:0:0:0:
448,192,91582,1,0,0:0:0:0:
64,192,91582,1,0,0:0:0:0:
320,192,91640,1,0,0:0:0:0:
192,192,91698,1,0,0:0:0:0:
448,192,91756,1,0,0:0:0:0:
64,192,91756,1,0,0:0:0:0:
64,192,91843,1,0,0:0:0:0:
192,192,91843,1,0,0:0:0:0:
320,192,91843,1,0,0:0:0:0:
320,192,91959,1,0,0:0:0:0:
192,192,91974,1,0,0:0:0:0:
320,192,92076,1,0,0:0:0:0:
192,192,92083,1,0,0:0:0:0:
320,192,92192,1,0,0:0:0:0:
448,192,92192,1,0,0:0:0:0:
64,192,92192,1,0,0:0:0:0:
320,192,92279,1,0,0:0:0:0:
192,192,92279,1,0,0:0:0:0:
448,192,92366,1,0,0:0:0:0:
64,192,92366,1,0,0:0:0:0:
448,192,92454,1,0,0:0:0:0:
192,192,92454,1,0,0:0:0:0:
320,192,92475,1,0,0:0:0:0:
448,192,92541,1,0,0:0:0:0:
64,192,92541,1,0,0:0:0:0:
320,192,92628,1,0,0:0:0:0:
192,192,92628,1,0,0:0:0:0:
448,192,92715,1,0,0:0:0:0:
192,192,92715,1,0,0:0:0:0:
64,192,92737,1,0,0:0:0:0:
320,192,92802,1,0,0:0:0:0:
192,192,92802,1,0,0:0:0:0:
448,192,92890,1,0,0:0:0:0:
64,192,92890,1,0,0:0:0:0:
320,192,92933,1,0,0:0:0:0:
192,192,92977,1,0,0:0:0:0:
448,192,93006,1,0,0:0:0:0:
320,192,93064,1,0,0:0:0:0:
64,192,93086,1,0,0:0:0:0:
448,192,93108,1,0,0:0:0:0:
192,192,93151,1,0,0:0:0:0:
64,192,93195,1,0,0:0:0:0:
448,192,93239,1,0,0:0:0:0:
320,192,93239,1,0,0:0:0:0:
64,192,93326,1,0,0:0:0:0:
320,192,93355,1,0,0:0:0:0:
192,192,93384,1,0,0:0:0:0:
320,192,93471,1,0,0:0:0:0:
64,192,93500,1,0,0:0:0:0:
448,192,93587,1,0,0:0:0:0:
320,192,93587,1,0,0:0:0:0:
192,192,93587,1,0,0:0:0:0:
448,192,93675,1,0,0:0:0:0:
192,192,93675,1,0,0:0:0:0:
320,192,93762,1,0,0:0:0:0:
64,192,93762,1,0,0:0:0:0:
448,192,93849,1,0,0:0:0:0:
320,192,93849,1,0,0:0:0:0:
192,192,93871,1,0,0:0:0:0:
320,192,93936,1,0,0:0:0:0:
64,192,93936,1,0,0:0:0:0:
192,192,94023,1,0,0:0:0:0:
448,192,94023,1,0,0:0:0:0:
64,192,94111,1,0,0:0:0:0:
192,192,94111,1,0,0:0:0:0:
320,192,94132,1,0,0:0:0:0:
448,192,94198,1,0,0:0:0:0:
192,192,94220,1,0,0:0:0:0:
448,192,94285,1,0,0:0:0:0:
64,192,94285,1,0,0:0:0:0:
320,192,94307,1,0,0:0:0:0:
448,192,94372,1,0,0:0:0:0:
192,192,94394,1,0,0:0:0:0:
320,192,94459,1,0,0:0:0:0:
64,192,94481,1,0,0:0:0:0:
192,192,94525,1,0,0:0:0:0:
448,192,94634,1,0,0:0:0:0:
192,192,94634,1,0,0:0:0:0:
320,192,94656,1,0,0:0:0:0:
64,192,94677,1,0,0:0:0:0:
192,192,94750,1,0,0:0:0:0:
448,192,94808,1,0,0:0:0:0:
320,192,94866,1,0,0:0:0:0:
192,192,94925,1,0,0:0:0:0:
64,192,94983,1,0,0:0:0:0:
448,192,94983,1,0,0:0:0:0:
320,192,94983,1,0,0:0:0:0:
448,192,95070,1,0,0:0:0:0:
192,192,95070,1,0,0:0:0:0:
320,192,95157,1,0,0:0:0:0:
64,192,95157,1,0,0:0:0:0:
448,192,95244,1,0,0:0:0:0:
64,192,95244,1,0,0:0:0:0:
192,192,95266,1,0,0:0:0:0:
64,192,95332,1,0,0:0:0:0:
320,192,95332,1,0,0:0:0:0:
448,192,95419,1,0,0:0:0:0:
192,192,95419,1,0,0:0:0:0:
448,192,95506,1,0,0:0:0:0:
64,192,95506,1,0,0:0:0:0:
320,192,95528,1,0,0:0:0:0:
448,192,95593,1,0,0:0:0:0:
192,192,95593,1,0,0:0:0:0:
320,192,95680,1,0,0:0:0:0:
192,192,95680,1,0,0:0:0:0:
64,192,95680,1,0,0:0:0:0:
448,192,95768,1,0,0:0:0:0:
64,192,95797,1,0,0:0:0:0:
320,192,95855,1,0,0:0:0:0:
192,192,95855,1,0,0:0:0:0:
448,192,95913,1,0,0:0:0:0:
64,192,95964,1,0,0:0:0:0:
320,192,95986,1,0,0:0:0:0:
448,192,96029,1,0,0:0:0:0:
192,192,96029,1,0,0:0:0:0:
320,192,96087,1,0,0:0:0:0:
448,192,96146,1,0,0:0:0:0:
64,192,96175,1,0,0:0:0:0:
192,192,96233,1,0,0:0:0:0:
320,192,96262,1,0,0:0:0:0:
448,192,96291,1,0,0:0:0:0:
320,192,96378,1,0,0:0:0:0:
192,192,96378,1,0,0:0:0:0:
64,192,96378,1,0,0:0:0:0:
320,192,96465,1,0,0:0:0:0:
192,192,96465,1,0,0:0:0:0:
448,192,96552,1,0,0:0:0:0:
64,192,96552,1,0,0:0:0:0:
320,192,96640,1,0,0:0:0:0:
64,192,96640,1,0,0:0:0:0:
192,192,96661,1,0,0:0:0:0:
448,192,96727,1,0,0:0:0:0:
64,192,96727,1,0,0:0:0:0:
320,192,96814,1,0,0:0:0:0:
192,192,96814,1,0,0:0:0:0:
64,192,96901,1,0,0:0:0:0:
320,192,96901,1,0,0:0:0:0:
448,192,96923,1,0,0:0:0:0:
320,192,96989,1,0,0:0:0:0:
192,192,96989,1,0,0:0:0:0:
448,192,97076,1,0,0:0:0:0:
64,192,97076,1,0,0:0:0:0:
448,192,97163,1,0,0:0:0:0:
192,192,97163,1,0,0:0:0:0:
320,192,97207,1,0,0:0:0:0:
64,192,97250,1,0,0:0:0:0:
192,192,97294,1,0,0:0:0:0:
320,192,97337,1,0,0:0:0:0:
448,192,97425,1,0,0:0:0:0:
64,192,97425,1,0,0:0:0:0:
192,192,97425,1,0,0:0:0:0:
448,192,97512,1,0,0:0:0:0:
64,192,97512,1,0,0:0:0:0:
320,192,97577,1,0,0:0:0:0:
192,192,97599,1,0,0:0:0:0:
448,192,97686,1,0,0:0:0:0:
64,192,97686,1,0,0:0:0:0:
320,192,97708,1,0,0:0:0:0:
64,192,97773,1,0,0:0:0:0:
192,192,97773,1,0,0:0:0:0:
448,192,97795,1,0,0:0:0:0:
192,192,97861,1,0,0:0:0:0:
448,192,97948,1,0,0:0:0:0:
320,192,97948,1,0,0:0:0:0:
64,192,97991,1,0,0:0:0:0:
320,192,98035,1,0,0:0:0:0:
192,192,98079,1,0,0:0:0:0:
448,192,98122,1,0,0:0:0:0:
64,192,98122,1,0,0:0:0:0:
320,192,98180,1,0,0:0:0:0:
192,192,98231,1,0,0:0:0:0:
448,192,98239,1,0,0:0:0:0:
64,192,98253,1,0,0:0:0:0:
320,192,98297,1,0,0:0:0:0:
448,192,98355,1,0,0:0:0:0:
192,192,98355,1,0,0:0:0:0:
320,192,98471,1,0,0:0:0:0:
64,192,98471,1,0,0:0:0:0:
192,192,98493,1,0,0:0:0:0:
320,192,98558,1,0,0:0:0:0:
64,192,98580,1,0,0:0:0:0:
192,192,98624,1,0,0:0:0:0:
448,192,98646,1,0,0:0:0:0:
64,192,98689,1,0,0:0:0:0:
320,192,98711,1,0,0:0:0:0:
448,192,98820,1,0,0:0:0:0:
192,192,98820,1,0,0:0:0:0:
320,192,98842,1,0,0:0:0:0:
192,192,98907,1,0,0:0:0:0:
64,192,98929,1,0,0:0:0:0:
448,192,98994,1,0,0:0:0:0:
320,192,99016,1,0,0:0:0:0:
192,192,99082,1,0,0:0:0:0:
448,192,99082,1,0,0:0:0:0:
320,192,99169,1,0,0:0:0:0:
192,192,99191,1,0,0:0:0:0:
320,192,99256,1,0,0:0:0:0:
64,192,99256,1,0,0:0:0:0:
448,192,99321,1,0,0:0:0:0:
192,192,99343,1,0,0:0:0:0:
448,192,99430,1,0,0:0:0:0:
64,192,99430,1,0,0:0:0:0:
320,192,99518,1,0,0:0:0:0:
192,192,99518,1,0,0:0:0:0:
448,192,99576,1,0,0:0:0:0:
320,192,99634,1,0,0:0:0:0:
64,192,99634,1,0,0:0:0:0:
192,192,99670,1,0,0:0:0:0:
448,192,99692,1,0,0:0:0:0:
320,192,99750,1,0,0:0:0:0:
64,192,99750,1,0,0:0:0:0:
448,192,99866,1,0,0:0:0:0:
192,192,99866,1,0,0:0:0:0:
64,192,99888,1,0,0:0:0:0:
448,192,99954,1,0,0:0:0:0:
192,192,99954,1,0,0:0:0:0:
320,192,100041,1,0,0:0:0:0:
64,192,100041,1,0,0:0:0:0:
192,192,100106,1,0,0:0:0:0:
320,192,100128,1,0,0:0:0:0:
64,192,100215,1,0,0:0:0:0:
448,192,100215,1,0,0:0:0:0:
192,192,100215,1,0,0:0:0:0:
320,192,100273,1,0,0:0:0:0:
192,192,100390,1,0,0:0:0:0:
320,192,100390,1,0,0:0:0:0:
320,192,100499,1,0,0:0:0:0:
64,192,100542,1,0,0:0:0:0:
448,192,100564,1,0,0:0:0:0:
192,192,100564,1,0,0:0:0:0:
320,192,100651,1,0,0:0:0:0:
64,192,100651,1,0,0:0:0:0:
448,192,100739,1,0,0:0:0:0:
192,192,100739,1,0,0:0:0:0:
448,192,100826,1,0,0:0:0:0:
64,192,100826,1,0,0:0:0:0:
320,192,100848,1,0,0:0:0:0:
448,192,100913,1,0,0:0:0:0:
192,192,100913,1,0,0:0:0:0:
320,192,101000,1,0,0:0:0:0:
64,192,101000,1,0,0:0:0:0:
64,192,101087,1,0,0:0:0:0:
448,192,101087,1,0,0:0:0:0:
192,192,101109,1,0,0:0:0:0:
64,192,101175,1,0,0:0:0:0:
320,192,101175,1,0,0:0:0:0:
448,192,101262,1,0,0:0:0:0:
192,192,101262,1,0,0:0:0:0:
320,192,101284,1,0,0:0:0:0:
448,192,101349,1,0,0:0:0:0:
64,192,101349,1,0,0:0:0:0:
192,192,101414,1,0,0:0:0:0:
320,192,101436,1,0,0:0:0:0:
64,192,101480,1,0,0:0:0:0:
448,192,101523,1,0,0:0:0:0:
320,192,101545,1,0,0:0:0:0:
448,192,101611,1,0,0:0:0:0:
192,192,101611,1,0,0:0:0:0:
64,192,101611,1,0,0:0:0:0:
320,192,101669,1,0,0:0:0:0:
192,192,101727,1,0,0:0:0:0:
448,192,101785,1,0,0:0:0:0:
64,192,101785,1,0,0:0:0:0:
192,192,101843,1,0,0:0:0:0:
64,192,101901,1,0,0:0:0:0:
320,192,101959,1,0,0:0:0:0:
448,192,101959,1,0,0:0:0:0:
192,192,101981,1,0,0:0:0:0:
320,192,102047,1,0,0:0:0:0:
64,192,102047,1,0,0:0:0:0:
448,192,102134,1,0,0:0:0:0:
192,192,102134,1,0,0:0:0:0:
448,192,102221,1,0,0:0:0:0:
64,192,102221,1,0,0:0:0:0:
320,192,102243,1,0,0:0:0:0:
448,192,102308,1,0,0:0:0:0:
192,192,102308,1,0,0:0:0:0:
320,192,102396,1,0,0:0:0:0:
64,192,102396,1,0,0:0:0:0:
64,192,102483,1,0,0:0:0:0:
448,192,102483,1,0,0:0:0:0:
192,192,102505,1,0,0:0:0:0:
64,192,102570,1,0,0:0:0:0:
320,192,102570,1,0,0:0:0:0:
448,192,102657,1,0,0:0:0:0:
192,192,102657,1,0,0:0:0:0:
448,192,102744,1,0,0:0:0:0:
64,192,102744,1,0,0:0:0:0:
320,192,102802,1,0,0:0:0:0:
192,192,102861,1,0,0:0:0:0:
448,192,102919,1,0,0:0:0:0:
64,192,102919,1,0,0:0:0:0:
64,192,103006,1,0,0:0:0:0:
192,192,103006,1,0,0:0:0:0:
320,192,103006,1,0,0:0:0:0:
320,192,103122,1,0,0:0:0:0:
192,192,103151,1,0,0:0:0:0:
320,192,103239,1,0,0:0:0:0:
192,192,103268,1,0,0:0:0:0:
64,192,103355,1,0,0:0:0:0:
320,192,103355,1,0,0:0:0:0:
448,192,103355,1,0,0:0:0:0:
320,192,103442,1,0,0:0:0:0:
192,192,103442,1,0,0:0:0:0:
448,192,103529,1,0,0:0:0:0:
64,192,103529,1,0,0:0:0:0:
448,192,103616,1,0,0:0:0:0:
192,192,103616,1,0,0:0:0:0:
320,192,103638,1,0,0:0:0:0:
448,192,103704,1,0,0:0:0:0:
64,192,103704,1,0,0:0:0:0:
320,192,103791,1,0,0:0:0:0:
192,192,103791,1,0,0:0:0:0:
448,192,103878,1,0,0:0:0:0:
192,192,103878,1,0,0:0:0:0:
64,192,103900,1,0,0:0:0:0:
320,192,103965,1,0,0:0:0:0:
192,192,103965,1,0,0:0:0:0:
448,192,104052,1,0,0:0:0:0:
64,192,104052,1,0,0:0:0:0:
320,192,104096,1,0,0:0:0:0:
192,192,104140,1,0,0:0:0:0:
448,192,104169,1,0,0:0:0:0:
320,192,104227,1,0,0:0:0:0:
64,192,104249,1,0,0:0:0:0:
448,192,104271,1,0,0:0:0:0:
192,192,104314,1,0,0:0:0:0:
64,192,104358,1,0,0:0:0:0:
448,192,104401,1,0,0:0:0:0:
320,192,104401,1,0,0:0:0:0:
64,192,104489,1,0,0:0:0:0:
320,192,104518,1,0,0:0:0:0:
448,192,104547,1,0,0:0:0:0:
320,192,104634,1,0,0:0:0:0:
64,192,104663,1,0,0:0:0:0:
448,192,104750,1,0,0:0:0:0:
320,192,104750,1,0,0:0:0:0:
192,192,104750,1,0,0:0:0:0:
448,192,104837,1,0,0:0:0:0:
192,192,104837,1,0,0:0:0:0:
320,192,104925,1,0,0:0:0:0:
64,192,104925,1,0,0:0:0:0:
448,192,105012,1,0,0:0:0:0:
320,192,105012,1,0,0:0:0:0:
192,192,105034,1,0,0:0:0:0:
320,192,105099,1,0,0:0:0:0:
64,192,105099,1,0,0:0:0:0:
192,192,105157,1,0,0:0:0:0:
448,192,105208,1,0,0:0:0:0:
320,192,105215,1,0,0:0:0:0:
64,192,105252,1,0,0:0:0:0:
192,192,105317,1,0,0:0:0:0:
448,192,105332,1,0,0:0:0:0:
320,192,105382,1,0,0:0:0:0:
448,192,105448,1,0,0:0:0:0:
192,192,105448,1,0,0:0:0:0:
64,192,105470,1,0,0:0:0:0:
320,192,105506,1,0,0:0:0:0:
448,192,105535,1,0,0:0:0:0:
192,192,105564,1,0,0:0:0:0:
64,192,105622,1,0,0:0:0:0:
320,192,105644,1,0,0:0:0:0:
448,192,105680,1,0,0:0:0:0:
64,192,105731,1,0,0:0:0:0:
192,192,105797,1,0,0:0:0:0:
320,192,105797,1,0,0:0:0:0:
448,192,105797,1,0,0:0:0:0:
64,192,105884,1,0,0:0:0:0:
320,192,105906,1,0,0:0:0:0:
64,192,105971,1,0,0:0:0:0:
448,192,105971,1,0,0:0:0:0:
192,192,106036,1,0,0:0:0:0:
448,192,106058,1,0,0:0:0:0:
320,192,106146,1,0,0:0:0:0:
192,192,106146,1,0,0:0:0:0:
64,192,106146,1,0,0:0:0:0:
192,192,106233,1,0,0:0:0:0:
448,192,106276,1,0,0:0:0:0:
320,192,106320,1,0,0:0:0:0:
64,192,106364,1,0,0:0:0:0:
320,192,106407,1,0,0:0:0:0:
448,192,106494,1,0,0:0:0:0:
192,192,106494,1,0,0:0:0:0:
64,192,106494,1,0,0:0:0:0:
320,192,106538,1,0,0:0:0:0:
64,192,106582,1,0,0:0:0:0:
192,192,106625,1,0,0:0:0:0:
448,192,106647,1,0,0:0:0:0:
320,192,106691,1,0,0:0:0:0:
64,192,106712,1,0,0:0:0:0:
192,192,106756,1,0,0:0:0:0:
320,192,106800,1,0,0:0:0:0:
64,192,106843,1,0,0:0:0:0:
448,192,106887,1,0,0:0:0:0:
320,192,106930,1,0,0:0:0:0:
192,192,106974,1,0,0:0:0:0:
448,192,107018,1,0,0:0:0:0:
64,192,107061,1,0,0:0:0:0:
192,192,107105,1,0,0:0:0:0:
320,192,107127,1,0,0:0:0:0:
448,192,107192,1,0,0:0:0:0:
64,192,107192,1,0,0:0:0:0:
192,192,107236,1,0,0:0:0:0:
320,192,107279,1,0,0:0:0:0:
64,192,107345,1,0,0:0:0:0:
320,192,107388,1,0,0:0:0:0:
64,192,107454,1,0,0:0:0:0:
448,192,107454,1,0,0:0:0:0:
320,192,107541,1,0,0:0:0:0:
192,192,107541,1,0,0:0:0:0:
64,192,107563,1,0,0:0:0:0:
448,192,107628,1,0,0:0:0:0:
320,192,107672,1,0,0:0:0:0:
192,192,107715,1,0,0:0:0:0:
448,192,107737,1,0,0:0:0:0:
192,192,107824,1,0,0:0:0:0:
448,192,107868,1,0,0:0:0:0:
64,192,107890,1,0,0:0:0:0:
320,192,107933,1,0,0:0:0:0:
448,192,107977,1,0,0:0:0:0:
64,192,108021,1,0,0:0:0:0:
320,192,108042,1,0,0:0:0:0:
192,192,108064,1,0,0:0:0:0:
448,192,108130,1,0,0:0:0:0:
320,192,108151,1,0,0:0:0:0:
192,192,108195,1,0,0:0:0:0:
64,192,108239,1,0,0:0:0:0:
448,192,108260,1,0,0:0:0:0:
320,192,108304,1,0,0:0:0:0:
192,192,108326,1,0,0:0:0:0:
448,192,108391,1,0,0:0:0:0:
320,192,108413,1,0,0:0:0:0:
64,192,108435,1,0,0:0:0:0:
192,192,108500,1,0,0:0:0:0:
320,192,108544,1,0,0:0:0:0:
448,192,108587,1,0,0:0:0:0:
64,192,108587,1,0,0:0:0:0:
192,192,108631,1,0,0:0:0:0:
320,192,108675,1,0,0:0:0:0:
64,192,108718,1,0,0:0:0:0:
448,192,108762,1,0,0:0:0:0:
192,192,108820,1,0,0:0:0:0:
448,192,108878,1,0,0:0:0:0:
192,192,108936,1,0,0:0:0:0:
64,192,108936,1,0,0:0:0:0:
320,192,108936,1,0,0:0:0:0:
448,192,108994,1,0,0:0:0:0:
64,192,109052,1,0,0:0:0:0:
320,192,109111,1,0,0:0:0:0:
192,192,109140,1,0,0:0:0:0:
64,192,109169,1,0,0:0:0:0:
448,192,109198,1,0,0:0:0:0:
320,192,109256,1,0,0:0:0:0:
64,192,109285,1,0,0:0:0:0:
448,192,109329,1,0,0:0:0:0:
192,192,109350,1,0,0:0:0:0:
320,192,109394,1,0,0:0:0:0:
192,192,109459,1,0,0:0:0:0:
320,192,109503,1,0,0:0:0:0:
64,192,109547,1,0,0:0:0:0:
448,192,109568,1,0,0:0:0:0:
192,192,109634,1,0,0:0:0:0:
448,192,109677,1,0,0:0:0:0:
64,192,109699,1,0,0:0:0:0:
320,192,109721,1,0,0:0:0:0:
64,192,109830,1,0,0:0:0:0:
320,192,109852,1,0,0:0:0:0:
192,192,109896,1,0,0:0:0:0:
448,192,109939,1,0,0:0:0:0:
320,192,109983,1,0,0:0:0:0:
64,192,109983,1,0,0:0:0:0:
192,192,110005,1,0,0:0:0:0:
448,192,110070,1,0,0:0:0:0:
320,192,110070,1,0,0:0:0:0:
64,192,110157,1,0,0:0:0:0:
192,192,110157,1,0,0:0:0:0:
320,192,110179,1,0,0:0:0:0:
64,192,110244,1,0,0:0:0:0:
192,192,110244,1,0,0:0:0:0:
448,192,110332,1,0,0:0:0:0:
320,192,110332,1,0,0:0:0:0:
192,192,110353,1,0,0:0:0:0:
448,192,110419,1,0,0:0:0:0:
320,192,110419,1,0,0:0:0:0:
192,192,110506,1,0,0:0:0:0:
64,192,110506,1,0,0:0:0:0:
320,192,110528,1,0,0:0:0:0:
64,192,110593,1,0,0:0:0:0:
192,192,110593,1,0,0:0:0:0:
448,192,110680,1,0,0:0:0:0:
320,192,110680,1,0,0:0:0:0:
192,192,110702,1,0,0:0:0:0:
448,192,110768,1,0,0:0:0:0:
320,192,110768,1,0,0:0:0:0:
64,192,110789,1,0,0:0:0:0:
448,192,110855,1,0,0:0:0:0:
192,192,110855,1,0,0:0:0:0:
64,192,110898,1,0,0:0:0:0:
320,192,110942,1,0,0:0:0:0:
192,192,110986,1,0,0:0:0:0:
448,192,111029,1,0,0:0:0:0:
64,192,111029,1,0,0:0:0:0:
320,192,111068,1,0,0:0:0:0:
192,192,111107,1,0,0:0:0:0:
448,192,111146,1,0,0:0:0:0:
320,192,111184,1,0,0:0:0:0:
64,192,111223,1,0,0:0:0:0:
192,192,111262,1,0,0:0:0:0:
320,192,111301,1,0,0:0:0:0:
448,192,111339,1,0,0:0:0:0:
192,192,111378,1,0,0:0:0:0:
64,192,111378,1,0,0:0:0:0:
448,192,111465,1,0,0:0:0:0:
64,192,111494,1,0,0:0:0:0:
192,192,111552,1,0,0:0:0:0:
192,192,111640,1,0,0:0:0:0:
320,192,111727,1,0,0:0:0:0:
448,192,111771,1,0,0:0:0:0:
320,192,111901,1,0,0:0:0:0:
448,192,111945,1,0,0:0:0:0:
320,192,112076,1,0,0:0:0:0:
192,192,112076,1,0,0:0:0:0:
64,192,112076,1,0,0:0:0:0:
448,192,112119,1,0,0:0:0:0:
320,192,112250,1,0,0:0:0:0:
448,192,112294,1,0,0:0:0:0:
192,192,112425,1,0,0:0:0:0:
64,192,112425,1,0,0:0:0:0:
448,192,112425,1,0,0:0:0:0:
320,192,112468,1,0,0:0:0:0:
64,192,112534,1,0,0:0:0:0:
448,192,112555,1,0,0:0:0:0:
192,192,112599,1,0,0:0:0:0:
320,192,112621,1,0,0:0:0:0:
64,192,112686,1,0,0:0:0:0:
320,192,112730,1,0,0:0:0:0:
192,192,112773,1,0,0:0:0:0:
448,192,112817,1,0,0:0:0:0:
64,192,112861,1,0,0:0:0:0:
320,192,112904,1,0,0:0:0:0:
64,192,112970,1,0,0:0:0:0:
448,192,112991,1,0,0:0:0:0:
192,192,113013,1,0,0:0:0:0:
448,192,113100,1,0,0:0:0:0:
64,192,113122,1,0,0:0:0:0:
192,192,113122,1,0,0:0:0:0:
320,192,113166,1,0,0:0:0:0:
448,192,113209,1,0,0:0:0:0:
64,192,113253,1,0,0:0:0:0:
320,192,113297,1,0,0:0:0:0:
64,192,113362,1,0,0:0:0:0:
192,192,113384,1,0,0:0:0:0:
448,192,113427,1,0,0:0:0:0:
64,192,113471,1,0,0:0:0:0:
320,192,113471,1,0,0:0:0:0:
448,192,113536,1,0,0:0:0:0:
192,192,113558,1,0,0:0:0:0:
320,192,113602,1,0,0:0:0:0:
64,192,113646,1,0,0:0:0:0:
448,192,113689,1,0,0:0:0:0:
192,192,113733,1,0,0:0:0:0:
448,192,113798,1,0,0:0:0:0:
64,192,113820,1,0,0:0:0:0:
192,192,113842,1,0,0:0:0:0:
320,192,113864,1,0,0:0:0:0:
64,192,113929,1,0,0:0:0:0:
448,192,113951,1,0,0:0:0:0:
192,192,113994,1,0,0:0:0:0:
320,192,114016,1,0,0:0:0:0:
448,192,114038,1,0,0:0:0:0:
64,192,114082,1,0,0:0:0:0:
192,192,114147,1,0,0:0:0:0:
320,192,114169,1,0,0:0:0:0:
448,192,114169,1,0,0:0:0:0:
64,192,114227,1,0,0:0:0:0:
448,192,114285,1,0,0:0:0:0:
320,192,114285,1,0,0:0:0:0:
192,192,114285,1,0,0:0:0:0:
64,192,114343,1,0,0:0:0:0:
320,192,114401,1,0,0:0:0:0:
192,192,114430,1,0,0:0:0:0:
64,192,114518,1,0,0:0:0:0:
448,192,114518,1,0,0:0:0:0:
320,192,114561,1,0,0:0:0:0:
448,192,114605,1,0,0:0:0:0:
192,192,114648,1,0,0:0:0:0:
448,192,114692,1,0,0:0:0:0:
64,192,114736,1,0,0:0:0:0:
320,192,114779,1,0,0:0:0:0:
64,192,114823,1,0,0:0:0:0:
320,192,114866,1,0,0:0:0:0:
448,192,114866,1,0,0:0:0:0:
192,192,114910,1,0,0:0:0:0:
448,192,114954,1,0,0:0:0:0:
192,192,114997,1,0,0:0:0:0:
320,192,115041,1,0,0:0:0:0:
64,192,115084,1,0,0:0:0:0:
448,192,115084,1,0,0:0:0:0:
320,192,115128,1,0,0:0:0:0:
64,192,115172,1,0,0:0:0:0:
192,192,115215,1,0,0:0:0:0:
448,192,115215,1,0,0:0:0:0:
320,192,115273,1,0,0:0:0:0:
64,192,115302,1,0,0:0:0:0:
192,192,115346,1,0,0:0:0:0:
320,192,115390,1,0,0:0:0:0:
64,192,115448,1,0,0:0:0:0:
448,192,115455,1,0,0:0:0:0:
192,192,115521,1,0,0:0:0:0:
448,192,115564,1,0,0:0:0:0:
320,192,115586,1,0,0:0:0:0:
320,192,115680,1,0,0:0:0:0:
448,192,115739,1,0,0:0:0:0:
64,192,115739,1,0,0:0:0:0:
192,192,115768,1,0,0:0:0:0:
192,192,115855,1,0,0:0:0:0:
64,192,115913,1,0,0:0:0:0:
448,192,115913,1,0,0:0:0:0:
320,192,115957,1,0,0:0:0:0:
448,192,116000,1,0,0:0:0:0:
192,192,116044,1,0,0:0:0:0:
64,192,116087,1,0,0:0:0:0:
320,192,116131,1,0,0:0:0:0:
64,192,116175,1,0,0:0:0:0:
192,192,116218,1,0,0:0:0:0:
448,192,116262,1,0,0:0:0:0:
320,192,116262,1,0,0:0:0:0:
64,192,116305,1,0,0:0:0:0:
448,192,116349,1,0,0:0:0:0:
192,192,116393,1,0,0:0:0:0:
320,192,116436,1,0,0:0:0:0:
64,192,116436,1,0,0:0:0:0:
448,192,116480,1,0,0:0:0:0:
64,192,116523,1,0,0:0:0:0:
320,192,116567,1,0,0:0:0:0:
192,192,116611,1,0,0:0:0:0:
320,192,116654,1,0,0:0:0:0:
448,192,116698,1,0,0:0:0:0:
192,192,116741,1,0,0:0:0:0:
320,192,116785,1,0,0:0:0:0:
64,192,116829,1,0,0:0:0:0:
448,192,116872,1,0,0:0:0:0:
64,192,116916,1,0,0:0:0:0:
320,192,116959,1,0,0:0:0:0:
448,192,116959,1,0,0:0:0:0:
192,192,116959,1,0,0:0:0:0:
320,192,117076,1,0,0:0:0:0:
192,192,117105,1,0,0:0:0:0:
320,192,117192,1,0,0:0:0:0:
192,192,117221,1,0,0:0:0:0:
320,192,117308,1,0,0:0:0:0:
64,192,117308,1,0,0:0:0:0:
448,192,117352,1,0,0:0:0:0:
64,192,117396,1,0,0:0:0:0:
192,192,117483,1,0,0:0:0:0:
320,192,117483,1,0,0:0:0:0:
448,192,117526,1,0,0:0:0:0:
320,192,117570,1,0,0:0:0:0:
448,192,117614,1,0,0:0:0:0:
64,192,117657,1,0,0:0:0:0:
192,192,117657,128,0,117832:0:0:0:0:
320,192,117744,1,0,0:0:0:0:
448,192,117832,1,0,0:0:0:0:
64,192,117832,1,0,0:0:0:0:
320,192,117875,1,0,0:0:0:0:
448,192,118006,1,0,0:0:0:0:
320,192,118006,1,0,0:0:0:0:
64,192,118006,1,0,0:0:0:0:
192,192,118050,1,0,0:0:0:0:
448,192,118115,1,0,0:0:0:0:
64,192,118137,1,0,0:0:0:0:
320,192,118180,1,0,0:0:0:0:
192,192,118224,1,0,0:0:0:0:
448,192,118268,1,0,0:0:0:0:
64,192,118311,1,0,0:0:0:0:
320,192,118355,1,0,0:0:0:0:
64,192,118420,1,0,0:0:0:0:
192,192,118442,1,0,0:0:0:0:
320,192,118486,1,0,0:0:0:0:
64,192,118529,1,0,0:0:0:0:
448,192,118573,1,0,0:0:0:0:
192,192,118616,1,0,0:0:0:0:
448,192,118682,1,0,0:0:0:0:
64,192,118704,1,0,0:0:0:0:
320,192,118704,1,0,0:0:0:0:
192,192,118747,1,0,0:0:0:0:
448,192,118791,1,0,0:0:0:0:
64,192,118834,1,0,0:0:0:0:
320,192,118878,1,0,0:0:0:0:
64,192,118943,1,0,0:0:0:0:
448,192,118965,1,0,0:0:0:0:
192,192,119009,1,0,0:0:0:0:
320,192,119052,1,0,0:0:0:0:
64,192,119074,1,0,0:0:0:0:
448,192,119096,1,0,0:0:0:0:
192,192,119140,1,0,0:0:0:0:
320,192,119183,1,0,0:0:0:0:
192,192,119249,1,0,0:0:0:0:
448,192,119271,1,0,0:0:0:0:
64,192,119314,1,0,0:0:0:0:
320,192,119358,1,0,0:0:0:0:
192,192,119401,1,0,0:0:0:0:
448,192,119445,1,0,0:0:0:0:
320,192,119489,1,0,0:0:0:0:
64,192,119547,1,0,0:0:0:0:
192,192,119605,1,0,0:0:0:0:
320,192,119634,1,0,0:0:0:0:
448,192,119663,1,0,0:0:0:0:
64,192,119692,1,0,0:0:0:0:
192,192,119721,1,0,0:0:0:0:
320,192,119750,1,0,0:0:0:0:
448,192,119750,1,0,0:0:0:0:
64,192,119808,1,0,0:0:0:0:
192,192,119866,1,0,0:0:0:0:
64,192,119925,1,0,0:0:0:0:
320,192,119925,1,0,0:0:0:0:
192,192,120012,1,0,0:0:0:0:
320,192,120012,1,0,0:0:0:0:
64,192,120099,1,0,0:0:0:0:
320,192,120099,1,0,0:0:0:0:
448,192,120157,1,0,0:0:0:0:
192,192,120215,1,0,0:0:0:0:
448,192,120273,1,0,0:0:0:0:
320,192,120273,1,0,0:0:0:0:
64,192,120332,1,0,0:0:0:0:
320,192,120390,1,0,0:0:0:0:
192,192,120448,1,0,0:0:0:0:
448,192,120448,1,0,0:0:0:0:
192,192,120535,1,0,0:0:0:0:
320,192,120535,1,0,0:0:0:0:
192,192,120622,1,0,0:0:0:0:
448,192,120622,1,0,0:0:0:0:
64,192,120680,1,0,0:0:0:0:
320,192,120739,1,0,0:0:0:0:
192,192,120797,1,0,0:0:0:0:
64,192,120797,1,0,0:0:0:0:
448,192,120855,1,0,0:0:0:0:
192,192,120913,1,0,0:0:0:0:
320,192,120971,1,0,0:0:0:0:
64,192,120971,1,0,0:0:0:0:
320,192,121058,1,0,0:0:0:0:
192,192,121058,1,0,0:0:0:0:
320,192,121146,1,0,0:0:0:0:
64,192,121146,1,0,0:0:0:0:
448,192,121204,1,0,0:0:0:0:
192,192,121262,1,0,0:0:0:0:
448,192,121320,1,0,0:0:0:0:
320,192,121320,1,0,0:0:0:0:
64,192,121320,1,0,0:0:0:0:
64,192,121407,1,0,0:0:0:0:
320,192,121407,1,0,0:0:0:0:
64,192,121494,1,0,0:0:0:0:
448,192,121494,1,0,0:0:0:0:
192,192,121552,1,0,0:0:0:0:
320,192,121611,1,0,0:0:0:0:
448,192,121669,1,0,0:0:0:0:
192,192,121669,1,0,0:0:0:0:
448,192,121756,1,0,0:0:0:0:
64,192,121756,1,0,0:0:0:0:
448,192,121843,1,0,0:0:0:0:
64,192,121843,1,0,0:0:0:0:
320,192,121887,1,0,0:0:0:0:
192,192,121901,1,0,0:0:0:0:
448,192,121974,1,0,0:0:0:0:
64,192,122018,1,0,0:0:0:0:
192,192,122018,1,0,0:0:0:0:
320,192,122061,1,0,0:0:0:0:
64,192,122105,1,0,0:0:0:0:
192,192,122105,1,0,0:0:0:0:
448,192,122134,1,0,0:0:0:0:
320,192,122214,1,0,0:0:0:0:
448,192,122279,1,0,0:0:0:0:
64,192,122279,1,0,0:0:0:0:
192,192,122279,1,0,0:0:0:0:
64,192,122366,1,0,0:0:0:0:
192,192,122366,1,0,0:0:0:0:
320,192,122366,1,0,0:0:0:0:
448,192,122425,1,0,0:0:0:0:
320,192,122483,1,0,0:0:0:0:
64,192,122541,128,0,122715:0:0:0:0:
192,192,122541,128,0,122715:0:0:0:0:
448,192,122541,1,0,0:0:0:0:
448,192,122715,1,0,0:0:0:0:
448,192,122802,1,0,0:0:0:0:
192,192,122890,1,0,0:0:0:0:
64,192,122890,1,0,0:0:0:0:
192,192,122977,1,0,0:0:0:0:
448,192,123064,1,0,0:0:0:0:
64,192,123064,1,0,0:0:0:0:
192,192,123122,1,0,0:0:0:0:
448,192,123151,1,0,0:0:0:0:
320,192,123239,1,0,0:0:0:0:
64,192,123239,1,0,0:0:0:0:
192,192,123297,1,0,0:0:0:0:
64,192,123355,1,0,0:0:0:0:
192,192,123413,1,0,0:0:0:0:
320,192,123413,1,0,0:0:0:0:
64,192,123471,1,0,0:0:0:0:
192,192,123529,1,0,0:0:0:0:
448,192,123587,1,0,0:0:0:0:
320,192,123587,1,0,0:0:0:0:
64,192,123631,1,0,0:0:0:0:
192,192,123653,1,0,0:0:0:0:
448,192,123718,1,0,0:0:0:0:
192,192,123762,1,0,0:0:0:0:
320,192,123784,1,0,0:0:0:0:
64,192,123849,1,0,0:0:0:0:
320,192,123893,1,0,0:0:0:0:
192,192,123936,1,0,0:0:0:0:
448,192,123980,1,0,0:0:0:0:
320,192,124023,1,0,0:0:0:0:
64,192,124045,1,0,0:0:0:0:
448,192,124111,1,0,0:0:0:0:
64,192,124154,1,0,0:0:0:0:
320,192,124198,1,0,0:0:0:0:
192,192,124241,1,0,0:0:0:0:
448,192,124263,1,0,0:0:0:0:
64,192,124285,1,0,0:0:0:0:
320,192,124329,1,0,0:0:0:0:
448,192,124372,1,0,0:0:0:0:
192,192,124394,1,0,0:0:0:0:
320,192,124459,1,0,0:0:0:0:
192,192,124503,1,0,0:0:0:0:
448,192,124547,1,0,0:0:0:0:
64,192,124590,1,0,0:0:0:0:
320,192,124634,1,0,0:0:0:0:
192,192,124634,1,0,0:0:0:0:
448,192,124677,1,0,0:0:0:0:
64,192,124699,1,0,0:0:0:0:
320,192,124765,1,0,0:0:0:0:
64,192,124808,1,0,0:0:0:0:
448,192,124830,1,0,0:0:0:0:
192,192,124896,1,0,0:0:0:0:
448,192,124939,1,0,0:0:0:0:
64,192,124983,1,0,0:0:0:0:
320,192,125005,1,0,0:0:0:0:
192,192,125026,1,0,0:0:0:0:
448,192,125070,1,0,0:0:0:0:
64,192,125114,1,0,0:0:0:0:
192,192,125157,1,0,0:0:0:0:
320,192,125179,1,0,0:0:0:0:
448,192,125201,1,0,0:0:0:0:
192,192,125266,1,0,0:0:0:0:
320,192,125332,1,0,0:0:0:0:
448,192,125332,1,0,0:0:0:0:
64,192,125332,128,0,125680:0:0:0:0:
192,192,125390,1,0,0:0:0:0:
448,192,125448,1,0,0:0:0:0:
320,192,125506,1,0,0:0:0:0:
192,192,125564,1,0,0:0:0:0:
320,192,125622,1,0,0:0:0:0:
448,192,125680,1,0,0:0:0:0:
192,192,125724,1,0,0:0:0:0:
448,192,125768,1,0,0:0:0:0:
192,192,125811,1,0,0:0:0:0:
320,192,125855,1,0,0:0:0:0:
64,192,125898,1,0,0:0:0:0:
320,192,125942,1,0,0:0:0:0:
64,192,125986,1,0,0:0:0:0:
448,192,126029,1,0,0:0:0:0:
192,192,126029,1,0,0:0:0:0:
320,192,126073,1,0,0:0:0:0:
64,192,126116,1,0,0:0:0:0:
448,192,126160,1,0,0:0:0:0:
192,192,126160,1,0,0:0:0:0:
64,192,126204,1,0,0:0:0:0:
448,192,126247,1,0,0:0:0:0:
192,192,126291,1,0,0:0:0:0:
320,192,126334,1,0,0:0:0:0:
64,192,126378,1,0,0:0:0:0:
448,192,126378,1,0,0:0:0:0:
192,192,126422,1,0,0:0:0:0:
448,192,126465,1,0,0:0:0:0:
192,192,126509,1,0,0:0:0:0:
320,192,126552,1,0,0:0:0:0:
448,192,126596,1,0,0:0:0:0:
64,192,126611,1,0,0:0:0:0:
192,192,126669,1,0,0:0:0:0:
448,192,126727,1,0,0:0:0:0:
320,192,126727,1,0,0:0:0:0:
64,192,126771,1,0,0:0:0:0:
64,192,126858,1,0,0:0:0:0:
192,192,126901,1,0,0:0:0:0:
448,192,126901,1,0,0:0:0:0:
320,192,126945,1,0,0:0:0:0:
320,192,127032,1,0,0:0:0:0:
192,192,127076,1,0,0:0:0:0:
64,192,127076,1,0,0:0:0:0:
448,192,127119,1,0,0:0:0:0:
192,192,127163,1,0,0:0:0:0:
320,192,127207,1,0,0:0:0:0:
448,192,127250,1,0,0:0:0:0:
64,192,127250,1,0,0:0:0:0:
192,192,127294,1,0,0:0:0:0:
320,192,127337,1,0,0:0:0:0:
64,192,127381,1,0,0:0:0:0:
448,192,127425,1,0,0:0:0:0:
320,192,127425,1,0,0:0:0:0:
64,192,127468,1,0,0:0:0:0:
192,192,127512,1,0,0:0:0:0:
320,192,127555,1,0,0:0:0:0:
448,192,127599,1,0,0:0:0:0:
192,192,127643,1,0,0:0:0:0:
448,192,127686,1,0,0:0:0:0:
192,192,127730,1,0,0:0:0:0:
320,192,127773,1,0,0:0:0:0:
64,192,127773,1,0,0:0:0:0:
448,192,127817,1,0,0:0:0:0:
64,192,127861,1,0,0:0:0:0:
320,192,127904,1,0,0:0:0:0:
192,192,127948,1,0,0:0:0:0:
320,192,127991,1,0,0:0:0:0:
64,192,128035,1,0,0:0:0:0:
448,192,128079,1,0,0:0:0:0:
192,192,128122,1,0,0:0:0:0:
64,192,128122,1,0,0:0:0:0:
320,192,128122,1,0,0:0:0:0:
192,192,128253,1,0,0:0:0:0:
448,192,128297,1,0,0:0:0:0:
192,192,128384,1,0,0:0:0:0:
448,192,128471,1,0,0:0:0:0:
320,192,128471,1,0,0:0:0:0:
64,192,128471,1,0,0:0:0:0:
192,192,128529,1,0,0:0:0:0:
64,192,128587,1,0,0:0:0:0:
320,192,128646,1,0,0:0:0:0:
192,192,128646,1,0,0:0:0:0:
448,192,128704,1,0,0:0:0:0:
320,192,128762,1,0,0:0:0:0:
448,192,128820,1,0,0:0:0:0:
192,192,128820,1,0,0:0:0:0:
64,192,128820,1,0,0:0:0:0:
320,192,128878,1,0,0:0:0:0:
448,192,128936,1,0,0:0:0:0:
320,192,128994,1,0,0:0:0:0:
192,192,128994,1,0,0:0:0:0:
64,192,129052,1,0,0:0:0:0:
192,192,129111,1,0,0:0:0:0:
64,192,129169,1,0,0:0:0:0:
448,192,129169,1,0,0:0:0:0:
320,192,129169,1,0,0:0:0:0:
192,192,129212,1,0,0:0:0:0:
448,192,129256,1,0,0:0:0:0:
320,192,129300,1,0,0:0:0:0:
64,192,129343,1,0,0:0:0:0:
448,192,129387,1,0,0:0:0:0:
64,192,129430,1,0,0:0:0:0:
320,192,129474,1,0,0:0:0:0:
192,192,129518,1,0,0:0:0:0:
448,192,129518,1,0,0:0:0:0:
64,192,129561,1,0,0:0:0:0:
320,192,129605,1,0,0:0:0:0:
192,192,129648,1,0,0:0:0:0:
320,192,129692,1,0,0:0:0:0:
64,192,129736,1,0,0:0:0:0:
448,192,129779,1,0,0:0:0:0:
192,192,129823,1,0,0:0:0:0:
64,192,129866,1,0,0:0:0:0:
448,192,129866,1,0,0:0:0:0:
320,192,129910,1,0,0:0:0:0:
192,192,129954,1,0,0:0:0:0:
448,192,129997,1,0,0:0:0:0:
192,192,130041,1,0,0:0:0:0:
320,192,130084,1,0,0:0:0:0:
64,192,130128,1,0,0:0:0:0:
192,192,130172,1,0,0:0:0:0:
448,192,130215,1,0,0:0:0:0:
320,192,130215,1,0,0:0:0:0:
64,192,130259,1,0,0:0:0:0:
448,192,130302,1,0,0:0:0:0:
192,192,130346,1,0,0:0:0:0:
64,192,130390,1,0,0:0:0:0:
320,192,130433,1,0,0:0:0:0:
192,192,130477,1,0,0:0:0:0:
448,192,130521,1,0,0:0:0:0:
64,192,130564,1,0,0:0:0:0:
192,192,130564,1,0,0:0:0:0:
320,192,130608,1,0,0:0:0:0:
448,192,130651,1,0,0:0:0:0:
192,192,130695,1,0,0:0:0:0:
448,192,130739,1,0,0:0:0:0:
320,192,130782,1,0,0:0:0:0:
64,192,130826,1,0,0:0:0:0:
192,192,130869,1,0,0:0:0:0:
320,192,130913,1,0,0:0:0:0:
448,192,130913,1,0,0:0:0:0:
64,192,130957,1,0,0:0:0:0:
448,192,131000,1,0,0:0:0:0:
64,192,131044,1,0,0:0:0:0:
320,192,131087,1,0,0:0:0:0:
192,192,131131,1,0,0:0:0:0:
448,192,131175,1,0,0:0:0:0:
320,192,131218,1,0,0:0:0:0:
192,192,131262,1,0,0:0:0:0:
64,192,131262,1,0,0:0:0:0:
448,192,131305,1,0,0:0:0:0:
64,192,131349,1,0,0:0:0:0:
448,192,131393,1,0,0:0:0:0:
192,192,131436,1,0,0:0:0:0:
320,192,131480,1,0,0:0:0:0:
64,192,131523,1,0,0:0:0:0:
192,192,131567,1,0,0:0:0:0:
320,192,131611,1,0,0:0:0:0:
448,192,131611,1,0,0:0:0:0:
64,192,131654,1,0,0:0:0:0:
320,192,131698,1,0,0:0:0:0:
64,192,131741,1,0,0:0:0:0:
320,192,131785,1,0,0:0:0:0:
192,192,131829,1,0,0:0:0:0:
448,192,131872,1,0,0:0:0:0:
320,192,131916,1,0,0:0:0:0:
64,192,131959,1,0,0:0:0:0:
192,192,131959,1,0,0:0:0:0:
448,192,132003,1,0,0:0:0:0:
192,192,132047,1,0,0:0:0:0:
64,192,132068,1,0,0:0:0:0:
448,192,132090,1,0,0:0:0:0:
192,192,132134,1,0,0:0:0:0:
320,192,132177,1,0,0:0:0:0:
448,192,132199,1,0,0:0:0:0:
64,192,132221,1,0,0:0:0:0:
192,192,132265,1,0,0:0:0:0:
320,192,132308,1,0,0:0:0:0:
448,192,132330,1,0,0:0:0:0:
64,192,132352,1,0,0:0:0:0:
192,192,132417,1,0,0:0:0:0:
448,192,132461,1,0,0:0:0:0:
320,192,132505,1,0,0:0:0:0:
64,192,132592,1,0,0:0:0:0:
192,192,132614,1,0,0:0:0:0:
320,192,132657,1,0,0:0:0:0:
320,192,132832,1,0,0:0:0:0:
192,192,132832,1,0,0:0:0:0:
64,192,132875,1,0,0:0:0:0:
448,192,132919,1,0,0:0:0:0:
320,192,132962,1,0,0:0:0:0:
64,192,132984,1,0,0:0:0:0:
192,192,133028,1,0,0:0:0:0:
320,192,133180,1,0,0:0:0:0:
448,192,133180,1,0,0:0:0:0:
192,192,133268,1,0,0:0:0:0:
64,192,133268,1,0,0:0:0:0:
64,192,133355,1,0,0:0:0:0:
192,192,133355,1,0,0:0:0:0:
320,192,133442,1,0,0:0:0:0:
448,192,133442,1,0,0:0:0:0:
64,192,133529,1,0,0:0:0:0:
320,192,133529,1,0,0:0:0:0:
448,192,133616,1,0,0:0:0:0:
192,192,133616,1,0,0:0:0:0:
448,192,133704,1,0,0:0:0:0:
192,192,133704,1,0,0:0:0:0:
64,192,133704,1,0,0:0:0:0:
320,192,133704,1,0,0:0:0:0:
320,192,133820,1,0,0:0:0:0:
192,192,133834,1,0,0:0:0:0:
320,192,133936,1,0,0:0:0:0:
192,192,133943,1,0,0:0:0:0:
448,192,134052,1,0,0:0:0:0:
192,192,134052,1,0,0:0:0:0:
64,192,134052,1,0,0:0:0:0:
320,192,134140,1,0,0:0:0:0:
64,192,134161,1,0,0:0:0:0:
192,192,134227,1,0,0:0:0:0:
320,192,134227,1,0,0:0:0:0:
64,192,134314,1,0,0:0:0:0:
448,192,134314,1,0,0:0:0:0:
320,192,134336,1,0,0:0:0:0:
64,192,134401,1,0,0:0:0:0:
192,192,134423,1,0,0:0:0:0:
448,192,134489,1,0,0:0:0:0:
64,192,134510,1,0,0:0:0:0:
320,192,134576,1,0,0:0:0:0:
192,192,134576,1,0,0:0:0:0:
448,192,134598,1,0,0:0:0:0:
64,192,134663,1,0,0:0:0:0:
320,192,134663,1,0,0:0:0:0:
192,192,134685,1,0,0:0:0:0:
448,192,134750,1,0,0:0:0:0:
192,192,134772,1,0,0:0:0:0:
64,192,134794,1,0,0:0:0:0:
320,192,134837,1,0,0:0:0:0:
448,192,134881,1,0,0:0:0:0:
64,192,134925,1,0,0:0:0:0:
320,192,134968,1,0,0:0:0:0:
192,192,134968,1,0,0:0:0:0:
64,192,135099,1,0,0:0:0:0:
320,192,135099,1,0,0:0:0:0:
448,192,135099,1,0,0:0:0:0:
192,192,135143,1,0,0:0:0:0:
448,192,135186,1,0,0:0:0:0:
192,192,135230,1,0,0:0:0:0:
64,192,135273,1,0,0:0:0:0:
448,192,135295,1,0,0:0:0:0:
320,192,135317,1,0,0:0:0:0:
64,192,135361,1,0,0:0:0:0:
320,192,135404,1,0,0:0:0:0:
448,192,135448,1,0,0:0:0:0:
192,192,135448,1,0,0:0:0:0:
64,192,135470,1,0,0:0:0:0:
320,192,135535,1,0,0:0:0:0:
448,192,135557,1,0,0:0:0:0:
192,192,135600,1,0,0:0:0:0:
320,192,135622,1,0,0:0:0:0:
64,192,135688,1,0,0:0:0:0:
448,192,135709,1,0,0:0:0:0:
192,192,135731,1,0,0:0:0:0:
320,192,135797,1,0,0:0:0:0:
64,192,135797,1,0,0:0:0:0:
192,192,135862,1,0,0:0:0:0:
320,192,135884,1,0,0:0:0:0:
448,192,135949,1,0,0:0:0:0:
64,192,135971,1,0,0:0:0:0:
192,192,135993,1,0,0:0:0:0:
64,192,136058,1,0,0:0:0:0:
448,192,136080,1,0,0:0:0:0:
192,192,136146,1,0,0:0:0:0:
320,192,136146,1,0,0:0:0:0:
448,192,136167,1,0,0:0:0:0:
64,192,136233,1,0,0:0:0:0:
320,192,136255,1,0,0:0:0:0:
192,192,136320,1,0,0:0:0:0:
64,192,136342,1,0,0:0:0:0:
320,192,136407,1,0,0:0:0:0:
448,192,136429,1,0,0:0:0:0:
64,192,136473,1,0,0:0:0:0:
192,192,136494,1,0,0:0:0:0:
448,192,136516,1,0,0:0:0:0:
320,192,136516,128,0,136843:0:0:0:0:
64,192,136669,1,0,0:0:0:0:
64,192,136814,1,0,0:0:0:0:
448,192,136843,1,0,0:0:0:0:
192,192,136843,1,0,0:0:0:0:
448,192,136930,1,0,0:0:0:0:
192,192,136959,1,0,0:0:0:0:
320,192,137018,1,0,0:0:0:0:
192,192,137047,1,0,0:0:0:0:
448,192,137083,1,0,0:0:0:0:
64,192,137105,1,0,0:0:0:0:
320,192,137134,1,0,0:0:0:0:
192,192,137192,1,0,0:0:0:0:
320,192,137214,1,0,0:0:0:0:
64,192,137279,1,0,0:0:0:0:
448,192,137301,1,0,0:0:0:0:
192,192,137345,1,0,0:0:0:0:
64,192,137366,1,0,0:0:0:0:
448,192,137388,1,0,0:0:0:0:
320,192,137432,1,0,0:0:0:0:
192,192,137475,1,0,0:0:0:0:
448,192,137512,1,0,0:0:0:0:
64,192,137541,1,0,0:0:0:0:
320,192,137570,1,0,0:0:0:0:
448,192,137628,1,0,0:0:0:0:
192,192,137628,1,0,0:0:0:0:
320,192,137686,1,0,0:0:0:0:
64,192,137715,1,0,0:0:0:0:
448,192,137759,1,0,0:0:0:0:
192,192,137802,1,0,0:0:0:0:
448,192,137890,1,0,0:0:0:0:
192,192,137890,1,0,0:0:0:0:
64,192,137890,1,0,0:0:0:0:
320,192,137933,1,0,0:0:0:0:
448,192,137977,1,0,0:0:0:0:
320,192,138021,1,0,0:0:0:0:
192,192,138064,1,0,0:0:0:0:
64,192,138108,1,0,0:0:0:0:
192,192,138151,1,0,0:0:0:0:
64,192,138195,1,0,0:0:0:0:
448,192,138239,1,0,0:0:0:0:
320,192,138239,1,0,0:0:0:0:
192,192,138260,1,0,0:0:0:0:
64,192,138326,1,0,0:0:0:0:
448,192,138348,1,0,0:0:0:0:
192,192,138413,1,0,0:0:0:0:
320,192,138435,1,0,0:0:0:0:
64,192,138478,1,0,0:0:0:0:
448,192,138500,1,0,0:0:0:0:
192,192,138522,1,0,0:0:0:0:
320,192,138566,1,0,0:0:0:0:
64,192,138587,1,0,0:0:0:0:
192,192,138653,1,0,0:0:0:0:
448,192,138675,1,0,0:0:0:0:
448,192,138762,1,0,0:0:0:0:
192,192,138784,1,0,0:0:0:0:
64,192,138805,1,0,0:0:0:0:
448,192,138849,1,0,0:0:0:0:
320,192,138936,1,0,0:0:0:0:
64,192,138936,1,0,0:0:0:0:
192,192,138936,1,0,0:0:0:0:
448,192,139023,1,0,0:0:0:0:
320,192,139023,1,0,0:0:0:0:
64,192,139045,1,0,0:0:0:0:
192,192,139111,1,0,0:0:0:0:
448,192,139154,1,0,0:0:0:0:
64,192,139198,1,0,0:0:0:0:
320,192,139241,1,0,0:0:0:0:
192,192,139285,1,0,0:0:0:0:
64,192,139285,1,0,0:0:0:0:
448,192,139285,1,0,0:0:0:0:
192,192,139401,1,0,0:0:0:0:
320,192,139416,1,0,0:0:0:0:
192,192,139518,1,0,0:0:0:0:
320,192,139547,1,0,0:0:0:0:
192,192,139634,1,0,0:0:0:0:
448,192,139634,1,0,0:0:0:0:
64,192,139634,1,0,0:0:0:0:
320,192,139721,1,0,0:0:0:0:
64,192,139743,1,0,0:0:0:0:
320,192,139808,1,0,0:0:0:0:
192,192,139808,1,0,0:0:0:0:
64,192,139896,1,0,0:0:0:0:
448,192,139896,1,0,0:0:0:0:
192,192,139917,1,0,0:0:0:0:
64,192,139983,1,0,0:0:0:0:
320,192,140005,1,0,0:0:0:0:
448,192,140070,1,0,0:0:0:0:
64,192,140092,1,0,0:0:0:0:
192,192,140157,1,0,0:0:0:0:
320,192,140157,1,0,0:0:0:0:
448,192,140179,1,0,0:0:0:0:
64,192,140244,1,0,0:0:0:0:
192,192,140244,1,0,0:0:0:0:
320,192,140266,1,0,0:0:0:0:
448,192,140332,1,0,0:0:0:0:
320,192,140353,1,0,0:0:0:0:
64,192,140375,1,0,0:0:0:0:
192,192,140419,1,0,0:0:0:0:
448,192,140462,1,0,0:0:0:0:
64,192,140484,1,0,0:0:0:0:
192,192,140550,1,0,0:0:0:0:
320,192,140550,1,0,0:0:0:0:
64,192,140680,1,0,0:0:0:0:
320,192,140680,1,0,0:0:0:0:
448,192,140680,1,0,0:0:0:0:
192,192,140724,1,0,0:0:0:0:
448,192,140768,1,0,0:0:0:0:
192,192,140811,1,0,0:0:0:0:
64,192,140855,1,0,0:0:0:0:
448,192,140877,1,0,0:0:0:0:
320,192,140898,1,0,0:0:0:0:
64,192,140942,1,0,0:0:0:0:
192,192,140986,1,0,0:0:0:0:
448,192,141029,1,0,0:0:0:0:
320,192,141029,1,0,0:0:0:0:
64,192,141051,1,0,0:0:0:0:
192,192,141116,1,0,0:0:0:0:
448,192,141138,1,0,0:0:0:0:
320,192,141182,1,0,0:0:0:0:
192,192,141204,1,0,0:0:0:0:
64,192,141269,1,0,0:0:0:0:
448,192,141291,1,0,0:0:0:0:
320,192,141313,1,0,0:0:0:0:
192,192,141378,1,0,0:0:0:0:
64,192,141378,1,0,0:0:0:0:
320,192,141443,1,0,0:0:0:0:
192,192,141465,1,0,0:0:0:0:
448,192,141531,1,0,0:0:0:0:
320,192,141552,1,0,0:0:0:0:
64,192,141574,1,0,0:0:0:0:
448,192,141640,1,0,0:0:0:0:
192,192,141661,1,0,0:0:0:0:
320,192,141727,1,0,0:0:0:0:
64,192,141727,1,0,0:0:0:0:
448,192,141749,1,0,0:0:0:0:
192,192,141814,1,0,0:0:0:0:
320,192,141836,1,0,0:0:0:0:
448,192,141901,1,0,0:0:0:0:
64,192,141923,1,0,0:0:0:0:
192,192,141989,1,0,0:0:0:0:
448,192,142010,1,0,0:0:0:0:
64,192,142054,1,0,0:0:0:0:
320,192,142076,1,0,0:0:0:0:
448,192,142098,1,0,0:0:0:0:
64,192,142163,1,0,0:0:0:0:
320,192,142207,1,0,0:0:0:0:
192,192,142250,1,0,0:0:0:0:
448,192,142294,1,0,0:0:0:0:
192,192,142337,1,0,0:0:0:0:
320,192,142381,1,0,0:0:0:0:
64,192,142425,1,0,0:0:0:0:
448,192,142425,1,0,0:0:0:0:
192,192,142483,1,0,0:0:0:0:
64,192,142541,1,0,0:0:0:0:
192,192,142599,1,0,0:0:0:0:
448,192,142599,1,0,0:0:0:0:
320,192,142599,1,0,0:0:0:0:
64,192,142657,1,0,0:0:0:0:
192,192,142715,1,0,0:0:0:0:
64,192,142773,1,0,0:0:0:0:
448,192,142773,1,0,0:0:0:0:
320,192,142817,1,0,0:0:0:0:
192,192,142890,1,0,0:0:0:0:
320,192,142926,1,0,0:0:0:0:
448,192,142948,1,0,0:0:0:0:
192,192,143006,1,0,0:0:0:0:
320,192,143100,1,0,0:0:0:0:
64,192,143122,1,0,0:0:0:0:
192,192,143122,1,0,0:0:0:0:
448,192,143144,1,0,0:0:0:0:
64,192,143209,1,0,0:0:0:0:
320,192,143209,1,0,0:0:0:0:
448,192,143275,1,0,0:0:0:0:
192,192,143297,1,0,0:0:0:0:
320,192,143340,1,0,0:0:0:0:
192,192,143384,1,0,0:0:0:0:
448,192,143384,1,0,0:0:0:0:
320,192,143427,1,0,0:0:0:0:
64,192,143471,1,0,0:0:0:0:
448,192,143515,1,0,0:0:0:0:
64,192,143558,1,0,0:0:0:0:
320,192,143602,1,0,0:0:0:0:
192,192,143646,1,0,0:0:0:0:
448,192,143689,1,0,0:0:0:0:
192,192,143733,1,0,0:0:0:0:
320,192,143733,1,0,0:0:0:0:
64,192,143820,1,0,0:0:0:0:
448,192,143820,1,0,0:0:0:0:
64,192,143907,1,0,0:0:0:0:
320,192,143907,1,0,0:0:0:0:
192,192,143994,1,0,0:0:0:0:
448,192,143994,1,0,0:0:0:0:
320,192,144038,1,0,0:0:0:0:
192,192,144082,1,0,0:0:0:0:
64,192,144169,1,0,0:0:0:0:
448,192,144169,1,0,0:0:0:0:
320,192,144169,1,0,0:0:0:0:
320,192,144256,1,0,0:0:0:0:
448,192,144278,1,0,0:0:0:0:
64,192,144285,1,0,0:0:0:0:
320,192,144365,1,0,0:0:0:0:
448,192,144387,1,0,0:0:0:0:
64,192,144401,1,0,0:0:0:0:
320,192,144452,1,0,0:0:0:0:
448,192,144496,1,0,0:0:0:0:
192,192,144496,1,0,0:0:0:0:
64,192,144518,1,0,0:0:0:0:
320,192,144561,1,0,0:0:0:0:
192,192,144605,1,0,0:0:0:0:
448,192,144627,1,0,0:0:0:0:
320,192,144670,1,0,0:0:0:0:
192,192,144692,1,0,0:0:0:0:
64,192,144714,1,0,0:0:0:0:
448,192,144757,1,0,0:0:0:0:
320,192,144779,1,0,0:0:0:0:
192,192,144823,1,0,0:0:0:0:
64,192,144866,1,0,0:0:0:0:
448,192,144866,1,0,0:0:0:0:
320,192,144866,1,0,0:0:0:0:
64,192,144983,1,0,0:0:0:0:
192,192,145012,1,0,0:0:0:0:
64,192,145099,1,0,0:0:0:0:
320,192,145128,1,0,0:0:0:0:
192,192,145215,1,0,0:0:0:0:
448,192,145215,1,0,0:0:0:0:
320,192,145215,1,0,0:0:0:0:
192,192,145302,1,0,0:0:0:0:
320,192,145324,1,0,0:0:0:0:
64,192,145390,1,0,0:0:0:0:
448,192,145390,1,0,0:0:0:0:
192,192,145477,1,0,0:0:0:0:
320,192,145477,1,0,0:0:0:0:
64,192,145499,1,0,0:0:0:0:
320,192,145564,1,0,0:0:0:0:
448,192,145586,1,0,0:0:0:0:
192,192,145651,1,0,0:0:0:0:
320,192,145673,1,0,0:0:0:0:
64,192,145739,1,0,0:0:0:0:
448,192,145739,1,0,0:0:0:0:
192,192,145760,1,0,0:0:0:0:
64,192,145826,1,0,0:0:0:0:
320,192,145826,1,0,0:0:0:0:
448,192,145848,1,0,0:0:0:0:
192,192,145913,1,0,0:0:0:0:
448,192,145935,1,0,0:0:0:0:
320,192,145957,1,0,0:0:0:0:
64,192,146000,1,0,0:0:0:0:
192,192,146044,1,0,0:0:0:0:
320,192,146066,1,0,0:0:0:0:
448,192,146131,1,0,0:0:0:0:
64,192,146146,1,0,0:0:0:0:
64,192,146262,1,0,0:0:0:0:
192,192,146262,1,0,0:0:0:0:
320,192,146262,1,0,0:0:0:0:
448,192,146305,1,0,0:0:0:0:
192,192,146349,1,0,0:0:0:0:
448,192,146393,1,0,0:0:0:0:
320,192,146436,1,0,0:0:0:0:
192,192,146458,1,0,0:0:0:0:
64,192,146480,1,0,0:0:0:0:
320,192,146523,1,0,0:0:0:0:
64,192,146567,1,0,0:0:0:0:
192,192,146611,1,0,0:0:0:0:
448,192,146611,1,0,0:0:0:0:
320,192,146632,1,0,0:0:0:0:
64,192,146698,1,0,0:0:0:0:
192,192,146720,1,0,0:0:0:0:
448,192,146763,1,0,0:0:0:0:
64,192,146785,1,0,0:0:0:0:
320,192,146850,1,0,0:0:0:0:
192,192,146872,1,0,0:0:0:0:
448,192,146894,1,0,0:0:0:0:
320,192,146959,1,0,0:0:0:0:
192,192,146981,1,0,0:0:0:0:
448,192,147025,1,0,0:0:0:0:
64,192,147047,1,0,0:0:0:0:
320,192,147112,1,0,0:0:0:0:
64,192,147156,1,0,0:0:0:0:
448,192,147156,1,0,0:0:0:0:
320,192,147221,1,0,0:0:0:0:
192,192,147243,1,0,0:0:0:0:
64,192,147308,1,0,0:0:0:0:
448,192,147308,1,0,0:0:0:0:
192,192,147330,1,0,0:0:0:0:
320,192,147396,1,0,0:0:0:0:
64,192,147417,1,0,0:0:0:0:
448,192,147483,1,0,0:0:0:0:
320,192,147505,1,0,0:0:0:0:
64,192,147570,1,0,0:0:0:0:
192,192,147592,1,0,0:0:0:0:
320,192,147635,1,0,0:0:0:0:
448,192,147657,1,0,0:0:0:0:
192,192,147679,1,0,0:0:0:0:
64,192,147679,128,0,148006:0:0:0:0:
320,192,147832,1,0,0:0:0:0:
320,192,147977,1,0,0:0:0:0:
192,192,148006,1,0,0:0:0:0:
448,192,148006,1,0,0:0:0:0:
192,192,148093,1,0,0:0:0:0:
448,192,148122,1,0,0:0:0:0:
64,192,148180,1,0,0:0:0:0:
448,192,148209,1,0,0:0:0:0:
192,192,148246,1,0,0:0:0:0:
320,192,148268,1,0,0:0:0:0:
64,192,148297,1,0,0:0:0:0:
448,192,148355,1,0,0:0:0:0:
64,192,148377,1,0,0:0:0:0:
320,192,148442,1,0,0:0:0:0:
192,192,148464,1,0,0:0:0:0:
448,192,148507,1,0,0:0:0:0:
320,192,148529,1,0,0:0:0:0:
192,192,148551,1,0,0:0:0:0:
64,192,148595,1,0,0:0:0:0:
448,192,148638,1,0,0:0:0:0:
192,192,148675,1,0,0:0:0:0:
320,192,148704,1,0,0:0:0:0:
64,192,148733,1,0,0:0:0:0:
192,192,148791,1,0,0:0:0:0:
448,192,148791,1,0,0:0:0:0:
64,192,148849,1,0,0:0:0:0:
320,192,148878,1,0,0:0:0:0:
192,192,148922,1,0,0:0:0:0:
448,192,148965,1,0,0:0:0:0:
64,192,149052,1,0,0:0:0:0:
448,192,149052,1,0,0:0:0:0:
320,192,149052,1,0,0:0:0:0:
192,192,149096,1,0,0:0:0:0:
64,192,149140,1,0,0:0:0:0:
448,192,149183,1,0,0:0:0:0:
320,192,149227,1,0,0:0:0:0:
448,192,149271,1,0,0:0:0:0:
192,192,149314,1,0,0:0:0:0:
64,192,149358,1,0,0:0:0:0:
320,192,149380,1,0,0:0:0:0:
192,192,149401,1,0,0:0:0:0:
448,192,149423,1,0,0:0:0:0:
320,192,149489,1,0,0:0:0:0:
192,192,149510,1,0,0:0:0:0:
448,192,149576,1,0,0:0:0:0:
64,192,149598,1,0,0:0:0:0:
320,192,149641,1,0,0:0:0:0:
192,192,149663,1,0,0:0:0:0:
448,192,149685,1,0,0:0:0:0:
64,192,149728,1,0,0:0:0:0:
320,192,149750,1,0,0:0:0:0:
448,192,149816,1,0,0:0:0:0:
192,192,149837,1,0,0:0:0:0:
192,192,149925,1,0,0:0:0:0:
64,192,149925,1,0,0:0:0:0:
320,192,149968,1,0,0:0:0:0:
448,192,150034,1,0,0:0:0:0:
64,192,150041,1,0,0:0:0:0:
192,192,150070,1,0,0:0:0:0:
320,192,150121,1,0,0:0:0:0:
192,192,150186,1,0,0:0:0:0:
64,192,150186,1,0,0:0:0:0:
320,192,150244,1,0,0:0:0:0:
64,192,150302,1,0,0:0:0:0:
192,192,150332,1,0,0:0:0:0:
320,192,150361,1,0,0:0:0:0:
64,192,150404,1,0,0:0:0:0:
192,192,150448,1,0,0:0:0:0:
448,192,150448,1,0,0:0:0:0:
320,192,150448,1,0,0:0:0:0:
192,192,150564,1,0,0:0:0:0:
448,192,150622,1,0,0:0:0:0:
320,192,150622,1,0,0:0:0:0:
192,192,150680,1,0,0:0:0:0:
448,192,150797,1,0,0:0:0:0:
320,192,150797,1,0,0:0:0:0:
64,192,150797,1,0,0:0:0:0:
192,192,150855,1,0,0:0:0:0:
448,192,150884,1,0,0:0:0:0:
320,192,150942,1,0,0:0:0:0:
192,192,150971,1,0,0:0:0:0:
64,192,151029,1,0,0:0:0:0:
448,192,151058,1,0,0:0:0:0:
192,192,151116,1,0,0:0:0:0:
320,192,151146,1,0,0:0:0:0:
448,192,151175,1,0,0:0:0:0:
64,192,151189,1,0,0:0:0:0:
192,192,151233,1,0,0:0:0:0:
320,192,151276,1,0,0:0:0:0:
64,192,151320,1,0,0:0:0:0:
192,192,151364,1,0,0:0:0:0:
320,192,151407,1,0,0:0:0:0:
448,192,151436,1,0,0:0:0:0:
192,192,151494,1,0,0:0:0:0:
320,192,151538,1,0,0:0:0:0:
448,192,151560,1,0,0:0:0:0:
64,192,151582,1,0,0:0:0:0:
192,192,151625,1,0,0:0:0:0:
448,192,151691,1,0,0:0:0:0:
64,192,151712,1,0,0:0:0:0:
192,192,151756,1,0,0:0:0:0:
320,192,151800,1,0,0:0:0:0:
448,192,151821,1,0,0:0:0:0:
64,192,151843,1,0,0:0:0:0:
192,192,151887,1,0,0:0:0:0:
320,192,151930,1,0,0:0:0:0:
320,192,152018,1,0,0:0:0:0:
64,192,152018,1,0,0:0:0:0:
320,192,152105,1,0,0:0:0:0:
448,192,152192,1,0,0:0:0:0:
192,192,152192,1,0,0:0:0:0:
64,192,152192,1,0,0:0:0:0:
192,192,152279,1,0,0:0:0:0:
320,192,152366,1,0,0:0:0:0:
320,192,152454,1,0,0:0:0:0:
64,192,152454,1,0,0:0:0:0:
192,192,152497,1,0,0:0:0:0:
320,192,152541,1,0,0:0:0:0:
448,192,152584,1,0,0:0:0:0:
192,192,152599,1,0,0:0:0:0:
64,192,152628,1,0,0:0:0:0:
320,192,152657,1,0,0:0:0:0:
192,192,152744,1,0,0:0:0:0:
64,192,152773,1,0,0:0:0:0:
320,192,152802,1,0,0:0:0:0:
448,192,152861,1,0,0:0:0:0:
192,192,152890,1,0,0:0:0:0:
320,192,152919,1,0,0:0:0:0:
448,192,153006,1,0,0:0:0:0:
192,192,153035,1,0,0:0:0:0:
64,192,153064,1,0,0:0:0:0:
320,192,153093,1,0,0:0:0:0:
448,192,153151,1,0,0:0:0:0:
192,192,153180,1,0,0:0:0:0:
64,192,153209,1,0,0:0:0:0:
320,192,153239,1,0,0:0:0:0:
192,192,153304,1,0,0:0:0:0:
448,192,153326,1,0,0:0:0:0:
64,192,153413,1,0,0:0:0:0:
192,192,153413,1,0,0:0:0:0:
320,192,153500,1,0,0:0:0:0:
320,192,153587,1,0,0:0:0:0:
64,192,153609,1,0,0:0:0:0:
320,192,153675,1,0,0:0:0:0:
192,192,153762,1,0,0:0:0:0:
64,192,153762,1,0,0:0:0:0:
448,192,153762,1,0,0:0:0:0:
192,192,153849,1,0,0:0:0:0:
320,192,153849,1,0,0:0:0:0:
448,192,153936,1,0,0:0:0:0:
64,192,153936,1,0,0:0:0:0:
320,192,153980,1,0,0:0:0:0:
192,192,154023,1,0,0:0:0:0:
448,192,154045,1,0,0:0:0:0:
64,192,154111,1,0,0:0:0:0:
320,192,154111,1,0,0:0:0:0:
192,192,154154,1,0,0:0:0:0:
448,192,154198,1,0,0:0:0:0:
64,192,154220,1,0,0:0:0:0:
320,192,154263,1,0,0:0:0:0:
192,192,154307,1,0,0:0:0:0:
448,192,154350,1,0,0:0:0:0:
64,192,154350,1,0,0:0:0:0:
320,192,154416,1,0,0:0:0:0:
64,192,154459,1,0,0:0:0:0:
192,192,154503,1,0,0:0:0:0:
320,192,154547,1,0,0:0:0:0:
64,192,154590,1,0,0:0:0:0:
448,192,154612,1,0,0:0:0:0:
320,192,154634,1,0,0:0:0:0:
192,192,154656,1,0,0:0:0:0:
448,192,154721,1,0,0:0:0:0:
320,192,154750,1,0,0:0:0:0:
64,192,154779,1,0,0:0:0:0:
448,192,154808,1,0,0:0:0:0:
192,192,154830,1,0,0:0:0:0:
64,192,154874,1,0,0:0:0:0:
320,192,154896,1,0,0:0:0:0:
192,192,154939,1,0,0:0:0:0:
448,192,154983,1,0,0:0:0:0:
64,192,155005,1,0,0:0:0:0:
320,192,155048,1,0,0:0:0:0:
192,192,155092,1,0,0:0:0:0:
448,192,155114,1,0,0:0:0:0:
64,192,155135,1,0,0:0:0:0:
320,192,155179,1,0,0:0:0:0:
64,192,155244,1,0,0:0:0:0:
192,192,155266,1,0,0:0:0:0:
320,192,155332,1,0,0:0:0:0:
448,192,155375,1,0,0:0:0:0:
64,192,155397,1,0,0:0:0:0:
320,192,155441,1,0,0:0:0:0:
192,192,155462,1,0,0:0:0:0:
448,192,155506,1,0,0:0:0:0:
64,192,155528,1,0,0:0:0:0:
192,192,155593,1,0,0:0:0:0:
320,192,155615,1,0,0:0:0:0:
448,192,155659,1,0,0:0:0:0:
64,192,155659,1,0,0:0:0:0:
320,192,155724,1,0,0:0:0:0:
448,192,155768,1,0,0:0:0:0:
192,192,155768,1,0,0:0:0:0:
64,192,155833,1,0,0:0:0:0:
320,192,155833,1,0,0:0:0:0:
192,192,155877,1,0,0:0:0:0:
448,192,155898,1,0,0:0:0:0:
320,192,155920,1,0,0:0:0:0:
64,192,155964,1,0,0:0:0:0:
192,192,156007,1,0,0:0:0:0:
448,192,156029,1,0,0:0:0:0:
320,192,156029,1,0,0:0:0:0:
192,192,156116,1,0,0:0:0:0:
64,192,156116,1,0,0:0:0:0:
320,192,156204,1,0,0:0:0:0:
64,192,156204,1,0,0:0:0:0:
448,192,156225,1,0,0:0:0:0:
192,192,156291,1,0,0:0:0:0:
448,192,156378,1,0,0:0:0:0:
320,192,156378,1,0,0:0:0:0:
64,192,156378,1,0,0:0:0:0:
192,192,156400,1,0,0:0:0:0:
64,192,156465,1,0,0:0:0:0:
448,192,156487,1,0,0:0:0:0:
320,192,156531,1,0,0:0:0:0:
192,192,156552,1,0,0:0:0:0:
64,192,156640,1,0,0:0:0:0:
320,192,156640,1,0,0:0:0:0:
448,192,156661,1,0,0:0:0:0:
192,192,156727,1,0,0:0:0:0:
448,192,156749,1,0,0:0:0:0:
64,192,156756,1,0,0:0:0:0:
320,192,156814,1,0,0:0:0:0:
192,192,156843,1,0,0:0:0:0:
448,192,156901,1,0,0:0:0:0:
64,192,156945,1,0,0:0:0:0:
192,192,156959,1,0,0:0:0:0:
320,192,156989,1,0,0:0:0:0:
192,192,157076,1,0,0:0:0:0:
64,192,157076,1,0,0:0:0:0:
448,192,157076,1,0,0:0:0:0:
320,192,157119,1,0,0:0:0:0:
448,192,157163,1,0,0:0:0:0:
192,192,157185,1,0,0:0:0:0:
320,192,157250,1,0,0:0:0:0:
64,192,157294,1,0,0:0:0:0:
192,192,157337,1,0,0:0:0:0:
320,192,157381,1,0,0:0:0:0:
448,192,157425,1,0,0:0:0:0:
64,192,157425,1,0,0:0:0:0:
192,192,157425,1,0,0:0:0:0:
448,192,157512,1,0,0:0:0:0:
192,192,157555,1,0,0:0:0:0:
320,192,157599,1,0,0:0:0:0:
64,192,157599,1,0,0:0:0:0:
64,192,157686,1,0,0:0:0:0:
320,192,157730,1,0,0:0:0:0:
448,192,157773,1,0,0:0:0:0:
192,192,157773,1,0,0:0:0:0:
64,192,157839,1,0,0:0:0:0:
320,192,157861,1,0,0:0:0:0:
192,192,157926,1,0,0:0:0:0:
64,192,157948,1,0,0:0:0:0:
448,192,157970,1,0,0:0:0:0:
320,192,158035,1,0,0:0:0:0:
64,192,158057,1,0,0:0:0:0:
192,192,158100,1,0,0:0:0:0:
448,192,158122,1,0,0:0:0:0:
320,192,158144,1,0,0:0:0:0:
64,192,158188,1,0,0:0:0:0:
192,192,158209,1,0,0:0:0:0:
320,192,158239,1,0,0:0:0:0:
448,192,158253,1,0,0:0:0:0:
64,192,158297,1,0,0:0:0:0:
448,192,158362,1,0,0:0:0:0:
192,192,158362,1,0,0:0:0:0:
320,192,158384,1,0,0:0:0:0:
448,192,158471,1,0,0:0:0:0:
64,192,158471,1,0,0:0:0:0:
320,192,158493,1,0,0:0:0:0:
192,192,158558,1,0,0:0:0:0:
448,192,158580,1,0,0:0:0:0:
64,192,158624,1,0,0:0:0:0:
320,192,158667,1,0,0:0:0:0:
64,192,158711,1,0,0:0:0:0:
192,192,158755,1,0,0:0:0:0:
448,192,158820,1,0,0:0:0:0:
320,192,158820,1,0,0:0:0:0:
64,192,158820,1,0,0:0:0:0:
192,192,158929,1,0,0:0:0:0:
320,192,158936,1,0,0:0:0:0:
448,192,158951,1,0,0:0:0:0:
64,192,159023,1,0,0:0:0:0:
448,192,159052,1,0,0:0:0:0:
320,192,159060,1,0,0:0:0:0:
64,192,159140,1,0,0:0:0:0:
448,192,159169,1,0,0:0:0:0:
192,192,159169,1,0,0:0:0:0:
320,192,159191,1,0,0:0:0:0:
64,192,159256,1,0,0:0:0:0:
448,192,159278,1,0,0:0:0:0:
192,192,159343,1,0,0:0:0:0:
320,192,159365,1,0,0:0:0:0:
448,192,159430,1,0,0:0:0:0:
64,192,159430,1,0,0:0:0:0:
192,192,159452,1,0,0:0:0:0:
320,192,159518,1,0,0:0:0:0:
64,192,159539,1,0,0:0:0:0:
192,192,159583,1,0,0:0:0:0:
448,192,159605,1,0,0:0:0:0:
320,192,159634,1,0,0:0:0:0:
64,192,159714,1,0,0:0:0:0:
448,192,159721,1,0,0:0:0:0:
192,192,159757,1,0,0:0:0:0:
320,192,159779,1,0,0:0:0:0:
448,192,159866,1,0,0:0:0:0:
64,192,159866,1,0,0:0:0:0:
192,192,159888,1,0,0:0:0:0:
320,192,159932,1,0,0:0:0:0:
448,192,159975,1,0,0:0:0:0:
192,192,159997,1,0,0:0:0:0:
320,192,160041,1,0,0:0:0:0:
64,192,160084,1,0,0:0:0:0:
192,192,160128,1,0,0:0:0:0:
64,192,160193,1,0,0:0:0:0:
448,192,160215,1,0,0:0:0:0:
320,192,160237,1,0,0:0:0:0:
192,192,160302,1,0,0:0:0:0:
64,192,160332,1,0,0:0:0:0:
448,192,160368,1,0,0:0:0:0:
320,192,160390,1,0,0:0:0:0:
192,192,160419,1,0,0:0:0:0:
320,192,160477,1,0,0:0:0:0:
64,192,160506,1,0,0:0:0:0:
448,192,160564,1,0,0:0:0:0:
192,192,160564,1,0,0:0:0:0:
64,192,160651,1,0,0:0:0:0:
320,192,160651,1,0,0:0:0:0:
192,192,160680,1,0,0:0:0:0:
448,192,160768,1,0,0:0:0:0:
320,192,160797,1,0,0:0:0:0:
64,192,160797,1,0,0:0:0:0:
192,192,160884,1,0,0:0:0:0:
448,192,160913,1,0,0:0:0:0:
64,192,160942,1,0,0:0:0:0:
448,192,161000,1,0,0:0:0:0:
320,192,161029,1,0,0:0:0:0:
192,192,161029,1,0,0:0:0:0:
64,192,161116,1,0,0:0:0:0:
448,192,161146,1,0,0:0:0:0:
192,192,161146,1,0,0:0:0:0:
320,192,161233,1,0,0:0:0:0:
64,192,161233,1,0,0:0:0:0:
448,192,161262,1,0,0:0:0:0:
192,192,161349,1,0,0:0:0:0:
320,192,161349,1,0,0:0:0:0:
64,192,161349,1,0,0:0:0:0:
448,192,161436,1,0,0:0:0:0:
192,192,161494,1,0,0:0:0:0:
320,192,161523,1,0,0:0:0:0:
448,192,161611,1,0,0:0:0:0:
192,192,161611,1,0,0:0:0:0:
64,192,161611,1,0,0:0:0:0:
320,192,161698,1,0,0:0:0:0:
64,192,161763,1,0,0:0:0:0:
320,192,161785,1,0,0:0:0:0:
64,192,161872,1,0,0:0:0:0:
320,192,161938,1,0,0:0:0:0:
448,192,161959,1,0,0:0:0:0:
192,192,161959,1,0,0:0:0:0:
64,192,162047,1,0,0:0:0:0:
192,192,162068,1,0,0:0:0:0:
320,192,162134,1,0,0:0:0:0:
64,192,162199,1,0,0:0:0:0:
448,192,162199,1,0,0:0:0:0:
192,192,162221,1,0,0:0:0:0:
448,192,162308,1,0,0:0:0:0:
64,192,162308,1,0,0:0:0:0:
320,192,162308,1,0,0:0:0:0:
320,192,162425,1,0,0:0:0:0:
192,192,162439,1,0,0:0:0:0:
448,192,162454,1,0,0:0:0:0:
64,192,162512,1,0,0:0:0:0:
320,192,162526,1,0,0:0:0:0:
192,192,162541,1,0,0:0:0:0:
64,192,162635,1,0,0:0:0:0:
448,192,162657,1,0,0:0:0:0:
320,192,162679,1,0,0:0:0:0:
192,192,162723,1,0,0:0:0:0:
320,192,162766,1,0,0:0:0:0:
448,192,162810,1,0,0:0:0:0:
64,192,162832,1,0,0:0:0:0:
192,192,162897,1,0,0:0:0:0:
448,192,162941,1,0,0:0:0:0:
320,192,162984,1,0,0:0:0:0:
192,192,163006,1,0,0:0:0:0:
64,192,163006,1,0,0:0:0:0:
448,192,163093,1,0,0:0:0:0:
64,192,163115,1,0,0:0:0:0:
192,192,163159,1,0,0:0:0:0:
448,192,163180,1,0,0:0:0:0:
320,192,163246,1,0,0:0:0:0:
64,192,163268,1,0,0:0:0:0:
448,192,163355,1,0,0:0:0:0:
192,192,163355,1,0,0:0:0:0:
320,192,163377,1,0,0:0:0:0:
64,192,163442,1,0,0:0:0:0:
192,192,163464,1,0,0:0:0:0:
448,192,163507,1,0,0:0:0:0:
64,192,163558,1,0,0:0:0:0:
448,192,163616,1,0,0:0:0:0:
320,192,163616,1,0,0:0:0:0:
64,192,163704,1,0,0:0:0:0:
192,192,163704,1,0,0:0:0:0:
448,192,163725,1,0,0:0:0:0:
320,192,163820,1,0,0:0:0:0:
64,192,163834,1,0,0:0:0:0:
448,192,163856,1,0,0:0:0:0:
320,192,163922,1,0,0:0:0:0:
192,192,163936,1,0,0:0:0:0:
64,192,163965,1,0,0:0:0:0:
448,192,164052,1,0,0:0:0:0:
192,192,164052,1,0,0:0:0:0:
320,192,164074,1,0,0:0:0:0:
448,192,164161,1,0,0:0:0:0:
64,192,164169,1,0,0:0:0:0:
320,192,164227,1,0,0:0:0:0:
192,192,164249,1,0,0:0:0:0:
448,192,164336,1,0,0:0:0:0:
320,192,164401,1,0,0:0:0:0:
64,192,164401,1,0,0:0:0:0:
192,192,164423,1,0,0:0:0:0:
64,192,164510,1,0,0:0:0:0:
448,192,164510,1,0,0:0:0:0:
320,192,164518,1,0,0:0:0:0:
192,192,164619,1,0,0:0:0:0:
64,192,164641,1,0,0:0:0:0:
320,192,164641,1,0,0:0:0:0:
192,192,164728,1,0,0:0:0:0:
448,192,164750,1,0,0:0:0:0:
320,192,164772,1,0,0:0:0:0:
64,192,164816,1,0,0:0:0:0:
448,192,164881,1,0,0:0:0:0:
192,192,164925,1,0,0:0:0:0:
448,192,164968,1,0,0:0:0:0:
64,192,164983,1,0,0:0:0:0:
320,192,165012,1,0,0:0:0:0:
192,192,165034,1,0,0:0:0:0:
320,192,165099,1,0,0:0:0:0:
448,192,165164,1,0,0:0:0:0:
192,192,165186,1,0,0:0:0:0:
64,192,165215,1,0,0:0:0:0:
320,192,165215,1,0,0:0:0:0:
448,192,165302,1,0,0:0:0:0:
192,192,165317,1,0,0:0:0:0:
64,192,165332,1,0,0:0:0:0:
320,192,165361,1,0,0:0:0:0:
448,192,165448,1,0,0:0:0:0:
192,192,165448,1,0,0:0:0:0:
320,192,165477,1,0,0:0:0:0:
64,192,165535,1,0,0:0:0:0:
192,192,165579,1,0,0:0:0:0:
448,192,165600,1,0,0:0:0:0:
320,192,165644,1,0,0:0:0:0:
64,192,165680,1,0,0:0:0:0:
320,192,165739,1,0,0:0:0:0:
192,192,165797,1,0,0:0:0:0:
64,192,165797,1,0,0:0:0:0:
448,192,165797,1,0,0:0:0:0:
320,192,165884,1,0,0:0:0:0:
64,192,165913,1,0,0:0:0:0:
448,192,165927,1,0,0:0:0:0:
192,192,166015,1,0,0:0:0:0:
448,192,166029,1,0,0:0:0:0:
64,192,166058,1,0,0:0:0:0:
320,192,166124,1,0,0:0:0:0:
448,192,166146,1,0,0:0:0:0:
64,192,166167,1,0,0:0:0:0:
192,192,166233,1,0,0:0:0:0:
448,192,166262,1,0,0:0:0:0:
320,192,166276,1,0,0:0:0:0:
192,192,166342,1,0,0:0:0:0:
64,192,166378,1,0,0:0:0:0:
320,192,166407,1,0,0:0:0:0:
448,192,166451,1,0,0:0:0:0:
64,192,166494,1,0,0:0:0:0:
192,192,166516,1,0,0:0:0:0:
448,192,166560,1,0,0:0:0:0:
64,192,166611,1,0,0:0:0:0:
320,192,166611,1,0,0:0:0:0:
192,192,166712,1,0,0:0:0:0:
448,192,166712,1,0,0:0:0:0:
320,192,166734,1,0,0:0:0:0:
448,192,166843,1,0,0:0:0:0:
64,192,166843,1,0,0:0:0:0:
320,192,166865,1,0,0:0:0:0:
192,192,166901,1,0,0:0:0:0:
448,192,166952,1,0,0:0:0:0:
320,192,166996,1,0,0:0:0:0:
64,192,167018,1,0,0:0:0:0:
448,192,167061,1,0,0:0:0:0:
192,192,167076,1,0,0:0:0:0:
64,192,167134,1,0,0:0:0:0:
320,192,167134,1,0,0:0:0:0:
448,192,167192,1,0,0:0:0:0:
192,192,167192,1,0,0:0:0:0:
320,192,167250,1,0,0:0:0:0:
192,192,167308,1,0,0:0:0:0:
64,192,167337,1,0,0:0:0:0:
448,192,167396,1,0,0:0:0:0:
64,192,167454,1,0,0:0:0:0:
320,192,167483,1,0,0:0:0:0:
448,192,167541,1,0,0:0:0:0:
192,192,167541,1,0,0:0:0:0:
64,192,167570,1,0,0:0:0:0:
320,192,167599,1,0,0:0:0:0:
192,192,167657,1,0,0:0:0:0:
448,192,167686,1,0,0:0:0:0:
320,192,167744,1,0,0:0:0:0:
64,192,167773,1,0,0:0:0:0:
192,192,167832,1,0,0:0:0:0:
448,192,167890,1,0,0:0:0:0:
320,192,167890,1,0,0:0:0:0:
64,192,167977,1,0,0:0:0:0:
192,192,168006,1,0,0:0:0:0:
448,192,168006,1,0,0:0:0:0:
320,192,168122,1,0,0:0:0:0:
64,192,168151,1,0,0:0:0:0:
448,192,168151,1,0,0:0:0:0:
192,192,168239,1,0,0:0:0:0:
64,192,168268,1,0,0:0:0:0:
320,192,168268,1,0,0:0:0:0:
448,192,168326,1,0,0:0:0:0:
192,192,168355,1,0,0:0:0:0:
320,192,168384,1,0,0:0:0:0:
64,192,168413,1,0,0:0:0:0:
448,192,168457,1,0,0:0:0:0:
320,192,168529,1,0,0:0:0:0:
192,192,168587,1,0,0:0:0:0:
64,192,168587,1,0,0:0:0:0:
448,192,168587,1,0,0:0:0:0:
320,192,168646,1,0,0:0:0:0:
64,192,168704,1,0,0:0:0:0:
448,192,168762,1,0,0:0:0:0:
192,192,168820,1,0,0:0:0:0:
320,192,168878,1,0,0:0:0:0:
192,192,168936,1,0,0:0:0:0:
448,192,168936,1,0,0:0:0:0:
64,192,168965,1,0,0:0:0:0:
320,192,168994,1,0,0:0:0:0:
448,192,169082,1,0,0:0:0:0:
320,192,169140,1,0,0:0:0:0:
64,192,169169,1,0,0:0:0:0:
192,192,169227,1,0,0:0:0:0:
320,192,169285,1,0,0:0:0:0:
448,192,169285,1,0,0:0:0:0:
64,192,169372,1,0,0:0:0:0:
192,192,169401,1,0,0:0:0:0:
448,192,169430,1,0,0:0:0:0:
64,192,169489,1,0,0:0:0:0:
448,192,169547,1,0,0:0:0:0:
192,192,169634,1,0,0:0:0:0:
64,192,169634,1,0,0:0:0:0:
320,192,169663,1,0,0:0:0:0:
448,192,169721,1,0,0:0:0:0:
192,192,169750,1,0,0:0:0:0:
320,192,169779,1,0,0:0:0:0:
64,192,169837,1,0,0:0:0:0:
320,192,169925,1,0,0:0:0:0:
64,192,169983,1,0,0:0:0:0:
192,192,169983,1,0,0:0:0:0:
448,192,169983,1,0,0:0:0:0:
320,192,170070,1,0,0:0:0:0:
64,192,170099,1,0,0:0:0:0:
448,192,170157,1,0,0:0:0:0:
192,192,170186,1,0,0:0:0:0:
320,192,170244,1,0,0:0:0:0:
192,192,170302,1,0,0:0:0:0:
448,192,170332,1,0,0:0:0:0:
64,192,170361,1,0,0:0:0:0:
320,192,170390,1,0,0:0:0:0:
192,192,170506,1,0,0:0:0:0:
320,192,170535,1,0,0:0:0:0:
64,192,170564,1,0,0:0:0:0:
192,192,170622,1,0,0:0:0:0:
320,192,170680,1,0,0:0:0:0:
448,192,170680,1,0,0:0:0:0:
64,192,170739,1,0,0:0:0:0:
448,192,170797,1,0,0:0:0:0:
192,192,170855,1,0,0:0:0:0:
448,192,170913,1,0,0:0:0:0:
64,192,170971,1,0,0:0:0:0:
192,192,171029,1,0,0:0:0:0:
320,192,171058,1,0,0:0:0:0:
448,192,171116,1,0,0:0:0:0:
192,192,171175,1,0,0:0:0:0:
64,192,171233,1,0,0:0:0:0:
320,192,171320,1,0,0:0:0:0:
64,192,171378,1,0,0:0:0:0:
192,192,171378,1,0,0:0:0:0:
448,192,171378,1,0,0:0:0:0:
320,192,171465,1,0,0:0:0:0:
64,192,171494,1,0,0:0:0:0:
448,192,171552,1,0,0:0:0:0:
192,192,171582,1,0,0:0:0:0:
320,192,171640,1,0,0:0:0:0:
448,192,171727,1,0,0:0:0:0:
192,192,171756,1,0,0:0:0:0:
64,192,171814,1,0,0:0:0:0:
320,192,171843,1,0,0:0:0:0:
448,192,171901,1,0,0:0:0:0:
64,192,171959,1,0,0:0:0:0:
192,192,172018,1,0,0:0:0:0:
320,192,172076,1,0,0:0:0:0:
448,192,172076,1,0,0:0:0:0:
64,192,172134,1,0,0:0:0:0:
448,192,172192,1,0,0:0:0:0:
192,192,172250,1,0,0:0:0:0:
448,192,172308,1,0,0:0:0:0:
64,192,172366,1,0,0:0:0:0:
320,192,172396,1,0,0:0:0:0:
192,192,172454,1,0,0:0:0:0:
448,192,172512,1,0,0:0:0:0:
64,192,172570,1,0,0:0:0:0:
320,192,172628,1,0,0:0:0:0:
64,192,172744,1,0,0:0:0:0:
448,192,172773,1,0,0:0:0:0:
192,192,172773,1,0,0:0:0:0:
320,192,172832,1,0,0:0:0:0:
448,192,172890,1,0,0:0:0:0:
64,192,172904,1,0,0:0:0:0:
320,192,172948,1,0,0:0:0:0:
192,192,172948,1,0,0:0:0:0:
448,192,173006,1,0,0:0:0:0:
320,192,173064,1,0,0:0:0:0:
448,192,173122,1,0,0:0:0:0:
64,192,173122,1,0,0:0:0:0:
192,192,173180,1,0,0:0:0:0:
64,192,173239,1,0,0:0:0:0:
448,192,173253,1,0,0:0:0:0:
192,192,173297,1,0,0:0:0:0:
320,192,173297,1,0,0:0:0:0:
64,192,173355,1,0,0:0:0:0:
192,192,173413,1,0,0:0:0:0:
64,192,173471,1,0,0:0:0:0:
448,192,173471,1,0,0:0:0:0:
320,192,173529,1,0,0:0:0:0:
448,192,173587,1,0,0:0:0:0:
64,192,173602,1,0,0:0:0:0:
320,192,173646,1,0,0:0:0:0:
192,192,173646,1,0,0:0:0:0:
448,192,173704,1,0,0:0:0:0:
320,192,173762,1,0,0:0:0:0:
448,192,173820,1,0,0:0:0:0:
64,192,173820,1,0,0:0:0:0:
192,192,173878,1,0,0:0:0:0:
64,192,173936,1,0,0:0:0:0:
320,192,173965,1,0,0:0:0:0:
192,192,173994,1,0,0:0:0:0:
448,192,174023,1,0,0:0:0:0:
320,192,174082,1,0,0:0:0:0:
192,192,174125,1,0,0:0:0:0:
64,192,174169,1,0,0:0:0:0:
448,192,174169,1,0,0:0:0:0:
320,192,174227,1,0,0:0:0:0:
448,192,174285,1,0,0:0:0:0:
64,192,174321,1,0,0:0:0:0:
320,192,174343,1,0,0:0:0:0:
192,192,174365,1,0,0:0:0:0:
448,192,174430,1,0,0:0:0:0:
64,192,174518,1,0,0:0:0:0:
320,192,174518,1,0,0:0:0:0:
192,192,174576,1,0,0:0:0:0:
64,192,174634,1,0,0:0:0:0:
448,192,174670,1,0,0:0:0:0:
192,192,174692,1,0,0:0:0:0:
320,192,174714,1,0,0:0:0:0:
64,192,174779,1,0,0:0:0:0:
448,192,174866,1,0,0:0:0:0:
192,192,174866,1,0,0:0:0:0:
320,192,174925,1,0,0:0:0:0:
448,192,174983,1,0,0:0:0:0:
64,192,175019,1,0,0:0:0:0:
320,192,175041,1,0,0:0:0:0:
192,192,175063,1,0,0:0:0:0:
448,192,175128,1,0,0:0:0:0:
64,192,175215,1,0,0:0:0:0:
320,192,175215,1,0,0:0:0:0:
192,192,175273,1,0,0:0:0:0:
64,192,175332,1,0,0:0:0:0:
448,192,175368,1,0,0:0:0:0:
192,192,175390,1,0,0:0:0:0:
320,192,175411,1,0,0:0:0:0:
64,192,175477,1,0,0:0:0:0:
448,192,175564,1,0,0:0:0:0:
192,192,175564,1,0,0:0:0:0:
320,192,175651,1,0,0:0:0:0:
192,192,175651,1,0,0:0:0:0:
448,192,175739,1,0,0:0:0:0:
64,192,175739,1,0,0:0:0:0:
320,192,175826,1,0,0:0:0:0:
448,192,175826,1,0,0:0:0:0:
192,192,175913,1,0,0:0:0:0:
64,192,175913,1,0,0:0:0:0:
448,192,175957,1,0,0:0:0:0:
64,192,176000,1,0,0:0:0:0:
320,192,176000,1,0,0:0:0:0:
320,192,176087,1,0,0:0:0:0:
192,192,176131,1,0,0:0:0:0:
448,192,176175,1,0,0:0:0:0:
64,192,176175,1,0,0:0:0:0:
448,192,176262,1,0,0:0:0:0:
320,192,176262,1,0,0:0:0:0:
64,192,176305,1,0,0:0:0:0:
192,192,176349,1,0,0:0:0:0:
448,192,176349,1,0,0:0:0:0:
320,192,176436,1,0,0:0:0:0:
64,192,176436,1,0,0:0:0:0:
64,192,176523,1,0,0:0:0:0:
192,192,176523,1,0,0:0:0:0:
320,192,176567,1,0,0:0:0:0:
448,192,176611,1,0,0:0:0:0:
320,192,176698,1,0,0:0:0:0:
64,192,176698,1,0,0:0:0:0:
192,192,176741,1,0,0:0:0:0:
448,192,176785,1,0,0:0:0:0:
64,192,176829,1,0,0:0:0:0:
320,192,176872,1,0,0:0:0:0:
192,192,176872,1,0,0:0:0:0:
448,192,176959,1,0,0:0:0:0:
64,192,176959,1,0,0:0:0:0:
192,192,177003,1,0,0:0:0:0:
320,192,177047,1,0,0:0:0:0:
192,192,177090,1,0,0:0:0:0:
448,192,177134,1,0,0:0:0:0:
64,192,177177,1,0,0:0:0:0:
192,192,177221,1,0,0:0:0:0:
320,192,177265,1,0,0:0:0:0:
448,192,177308,1,0,0:0:0:0:
64,192,177352,1,0,0:0:0:0:
448,192,177396,1,0,0:0:0:0:
64,192,177439,1,0,0:0:0:0:
192,192,177483,1,0,0:0:0:0:
320,192,177526,1,0,0:0:0:0:
64,192,177570,1,0,0:0:0:0:
192,192,177614,1,0,0:0:0:0:
448,192,177657,1,0,0:0:0:0:
64,192,177701,1,0,0:0:0:0:
320,192,177744,1,0,0:0:0:0:
448,192,177788,1,0,0:0:0:0:
320,192,177832,1,0,0:0:0:0:
64,192,177890,1,0,0:0:0:0:
192,192,177948,1,0,0:0:0:0:
320,192,178006,1,0,0:0:0:0:
448,192,178064,1,0,0:0:0:0:
320,192,178122,1,0,0:0:0:0:
448,192,178180,1,0,0:0:0:0:
320,192,178239,1,0,0:0:0:0:
448,192,178297,1,0,0:0:0:0:
320,192,178355,1,0,0:0:0:0:
192,192,178355,1,0,0:0:0:0:
64,192,178355,1,0,0:0:0:0:
192,192,178442,1,0,0:0:0:0:
320,192,178529,1,0,0:0:0:0:
64,192,178529,1,0,0:0:0:0:
320,192,178616,1,0,0:0:0:0:
448,192,178704,1,0,0:0:0:0:
64,192,178704,1,0,0:0:0:0:
192,192,178704,1,0,0:0:0:0:
64,192,178791,1,0,0:0:0:0:
448,192,178878,1,0,0:0:0:0:
192,192,178878,1,0,0:0:0:0:
320,192,178965,1,0,0:0:0:0:
448,192,179052,1,0,0:0:0:0:
192,192,179052,1,0,0:0:0:0:
64,192,179140,1,0,0:0:0:0:
192,192,179227,1,0,0:0:0:0:
448,192,179227,1,0,0:0:0:0:
192,192,179314,1,0,0:0:0:0:
448,192,179314,1,0,0:0:0:0:
448,192,179401,1,0,0:0:0:0:
320,192,179401,1,0,0:0:0:0:
64,192,179401,1,0,0:0:0:0:
64,192,179489,1,0,0:0:0:0:
320,192,179576,1,0,0:0:0:0:
192,192,179576,1,0,0:0:0:0:
448,192,179663,1,0,0:0:0:0:
64,192,179750,1,0,0:0:0:0:
320,192,179750,1,0,0:0:0:0:
192,192,179750,1,0,0:0:0:0:
192,192,179837,1,0,0:0:0:0:
448,192,179925,1,0,0:0:0:0:
64,192,179925,1,0,0:0:0:0:
320,192,179925,1,0,0:0:0:0:
320,192,180012,1,0,0:0:0:0:
448,192,180099,1,0,0:0:0:0:
64,192,180099,1,0,0:0:0:0:
192,192,180099,1,0,0:0:0:0:
64,192,180186,1,0,0:0:0:0:
448,192,180273,1,0,0:0:0:0:
192,192,180273,1,0,0:0:0:0:
320,192,180361,1,0,0:0:0:0:
448,192,180448,1,0,0:0:0:0:
192,192,180448,1,0,0:0:0:0:
64,192,180535,1,0,0:0:0:0:
320,192,180622,1,0,0:0:0:0:
192,192,180622,1,0,0:0:0:0:
192,192,180709,1,0,0:0:0:0:
320,192,180709,1,0,0:0:0:0:
64,192,180797,1,0,0:0:0:0:
448,192,180797,1,0,0:0:0:0:
320,192,180797,1,0,0:0:0:0:
64,192,180884,1,0,0:0:0:0:
192,192,180971,1,0,0:0:0:0:
448,192,180971,1,0,0:0:0:0:
320,192,181058,1,0,0:0:0:0:
64,192,181146,1,0,0:0:0:0:
448,192,181146,1,0,0:0:0:0:
192,192,181146,1,0,0:0:0:0:
192,192,181233,1,0,0:0:0:0:
320,192,181320,1,0,0:0:0:0:
64,192,181320,1,0,0:0:0:0:
448,192,181320,1,0,0:0:0:0:
448,192,181407,1,0,0:0:0:0:
64,192,181494,1,0,0:0:0:0:
192,192,181494,1,0,0:0:0:0:
320,192,181494,1,0,0:0:0:0:
64,192,181582,1,0,0:0:0:0:
320,192,181669,1,0,0:0:0:0:
192,192,181669,1,0,0:0:0:0:
448,192,181756,1,0,0:0:0:0:
320,192,181843,1,0,0:0:0:0:
192,192,181843,1,0,0:0:0:0:
64,192,181930,1,0,0:0:0:0:
320,192,182018,1,0,0:0:0:0:
448,192,182018,1,0,0:0:0:0:
192,192,182018,1,0,0:0:0:0:
448,192,182105,1,0,0:0:0:0:
320,192,182192,1,0,0:0:0:0:
192,192,182279,1,0,0:0:0:0:
64,192,182366,1,0,0:0:0:0:
448,192,182366,1,0,0:0:0:0:
320,192,182366,1,0,0:0:0:0:
64,192,182454,1,0,0:0:0:0:
192,192,182541,1,0,0:0:0:0:
448,192,182541,1,0,0:0:0:0:
320,192,182628,1,0,0:0:0:0:
192,192,182715,1,0,0:0:0:0:
448,192,182715,1,0,0:0:0:0:
192,192,182802,1,0,0:0:0:0:
448,192,182802,1,0,0:0:0:0:
448,192,182890,1,0,0:0:0:0:
64,192,182890,1,0,0:0:0:0:
320,192,182890,1,0,0:0:0:0:
64,192,182977,1,0,0:0:0:0:
448,192,183064,1,0,0:0:0:0:
192,192,183064,1,0,0:0:0:0:
320,192,183151,1,0,0:0:0:0:
448,192,183239,1,0,0:0:0:0:
192,192,183239,1,0,0:0:0:0:
64,192,183326,1,0,0:0:0:0:
448,192,183413,1,0,0:0:0:0:
64,192,183413,1,0,0:0:0:0:
192,192,183413,1,0,0:0:0:0:
320,192,183413,1,0,0:0:0:0:
320,192,183529,1,0,0:0:0:0:
320,192,183646,1,0,0:0:0:0:
64,192,183762,1,0,0:0:0:0:
448,192,183762,1,0,0:0:0:0:
64,192,183849,1,0,0:0:0:0:
192,192,183936,1,0,0:0:0:0:
448,192,183936,1,0,0:0:0:0:
320,192,183936,1,0,0:0:0:0:
448,192,184023,1,0,0:0:0:0:
64,192,184111,1,0,0:0:0:0:
192,192,184111,1,0,0:0:0:0:
320,192,184111,1,0,0:0:0:0:
64,192,184198,1,0,0:0:0:0:
448,192,184285,1,0,0:0:0:0:
320,192,184285,1,0,0:0:0:0:
448,192,184372,1,0,0:0:0:0:
320,192,184459,1,0,0:0:0:0:
64,192,184459,1,0,0:0:0:0:
192,192,184547,1,0,0:0:0:0:
64,192,184634,1,0,0:0:0:0:
320,192,184634,1,0,0:0:0:0:
448,192,184721,1,0,0:0:0:0:
192,192,184808,1,0,0:0:0:0:
320,192,184808,1,0,0:0:0:0:
320,192,184896,1,0,0:0:0:0:
192,192,184896,1,0,0:0:0:0:
448,192,184983,1,0,0:0:0:0:
64,192,184983,1,0,0:0:0:0:
192,192,184983,1,0,0:0:0:0:
448,192,185070,1,0,0:0:0:0:
64,192,185157,1,0,0:0:0:0:
320,192,185157,1,0,0:0:0:0:
192,192,185244,1,0,0:0:0:0:
448,192,185332,1,0,0:0:0:0:
320,192,185332,1,0,0:0:0:0:
64,192,185332,1,0,0:0:0:0:
320,192,185419,1,0,0:0:0:0:
64,192,185506,1,0,0:0:0:0:
192,192,185506,1,0,0:0:0:0:
448,192,185506,1,0,0:0:0:0:
64,192,185593,1,0,0:0:0:0:
448,192,185680,1,0,0:0:0:0:
320,192,185680,1,0,0:0:0:0:
448,192,185768,1,0,0:0:0:0:
192,192,185855,1,0,0:0:0:0:
320,192,185855,1,0,0:0:0:0:
64,192,185942,1,0,0:0:0:0:
320,192,186029,1,0,0:0:0:0:
192,192,186029,1,0,0:0:0:0:
448,192,186116,1,0,0:0:0:0:
64,192,186204,1,0,0:0:0:0:
320,192,186204,1,0,0:0:0:0:
320,192,186291,1,0,0:0:0:0:
64,192,186291,1,0,0:0:0:0:
448,192,186378,1,0,0:0:0:0:
320,192,186378,1,0,0:0:0:0:
192,192,186378,1,0,0:0:0:0:
192,192,186465,1,0,0:0:0:0:
320,192,186552,1,0,0:0:0:0:
64,192,186552,1,0,0:0:0:0:
448,192,186640,1,0,0:0:0:0:
192,192,186727,1,0,0:0:0:0:
320,192,186727,1,0,0:0:0:0:
64,192,186727,1,0,0:0:0:0:
64,192,186814,1,0,0:0:0:0:
448,192,186901,1,0,0:0:0:0:
320,192,186901,1,0,0:0:0:0:
192,192,186901,1,0,0:0:0:0:
320,192,186989,1,0,0:0:0:0:
64,192,187076,1,0,0:0:0:0:
192,192,187076,1,0,0:0:0:0:
192,192,187163,1,0,0:0:0:0:
448,192,187250,1,0,0:0:0:0:
64,192,187250,1,0,0:0:0:0:
320,192,187337,1,0,0:0:0:0:
448,192,187425,1,0,0:0:0:0:
64,192,187425,1,0,0:0:0:0:
320,192,187512,1,0,0:0:0:0:
64,192,187599,1,0,0:0:0:0:
448,192,187599,1,0,0:0:0:0:
192,192,187599,1,0,0:0:0:0:
64,192,187686,1,0,0:0:0:0:
192,192,187773,1,0,0:0:0:0:
320,192,187861,1,0,0:0:0:0:
64,192,187948,1,0,0:0:0:0:
448,192,187948,1,0,0:0:0:0:
448,192,188035,1,0,0:0:0:0:
64,192,188122,1,0,0:0:0:0:
320,192,188122,1,0,0:0:0:0:
64,192,188209,1,0,0:0:0:0:
320,192,188297,1,0,0:0:0:0:
192,192,188297,1,0,0:0:0:0:
448,192,188384,1,0,0:0:0:0:
192,192,188471,1,0,0:0:0:0:
320,192,188471,1,0,0:0:0:0:
64,192,188558,1,0,0:0:0:0:
448,192,188646,1,0,0:0:0:0:
192,192,188646,1,0,0:0:0:0:
448,192,188733,1,0,0:0:0:0:
64,192,188820,1,0,0:0:0:0:
320,192,188820,1,0,0:0:0:0:
192,192,188907,1,0,0:0:0:0:
320,192,188994,1,0,0:0:0:0:
64,192,188994,1,0,0:0:0:0:
448,192,189082,1,0,0:0:0:0:
192,192,189169,1,0,0:0:0:0:
320,192,189169,1,0,0:0:0:0:
192,192,189256,1,0,0:0:0:0:
320,192,189343,1,0,0:0:0:0:
64,192,189343,1,0,0:0:0:0:
448,192,189430,1,0,0:0:0:0:
192,192,189518,1,0,0:0:0:0:
64,192,189518,1,0,0:0:0:0:
320,192,189518,1,0,0:0:0:0:
64,192,189605,1,0,0:0:0:0:
448,192,189692,1,0,0:0:0:0:
192,192,189692,1,0,0:0:0:0:
320,192,189692,1,0,0:0:0:0:
320,192,189779,1,0,0:0:0:0:
64,192,189866,1,0,0:0:0:0:
192,192,189866,1,0,0:0:0:0:
64,192,189954,1,0,0:0:0:0:
448,192,190041,1,0,0:0:0:0:
192,192,190041,1,0,0:0:0:0:
320,192,190128,1,0,0:0:0:0:
448,192,190215,1,0,0:0:0:0:
192,192,190215,1,0,0:0:0:0:
64,192,190302,1,0,0:0:0:0:
320,192,190390,1,0,0:0:0:0:
192,192,190390,1,0,0:0:0:0:
192,192,190477,1,0,0:0:0:0:
320,192,190477,1,0,0:0:0:0:
64,192,190564,1,0,0:0:0:0:
448,192,190564,1,0,0:0:0:0:
320,192,190564,1,0,0:0:0:0:
64,192,190651,1,0,0:0:0:0:
448,192,190739,1,0,0:0:0:0:
192,192,190739,1,0,0:0:0:0:
320,192,190826,1,0,0:0:0:0:
64,192,190913,1,0,0:0:0:0:
192,192,190913,1,0,0:0:0:0:
448,192,190913,1,0,0:0:0:0:
192,192,191000,1,0,0:0:0:0:
64,192,191087,1,0,0:0:0:0:
448,192,191087,1,0,0:0:0:0:
320,192,191087,1,0,0:0:0:0:
448,192,191175,1,0,0:0:0:0:
64,192,191262,1,0,0:0:0:0:
192,192,191262,1,0,0:0:0:0:
64,192,191349,1,0,0:0:0:0:
320,192,191436,1,0,0:0:0:0:
192,192,191436,1,0,0:0:0:0:
448,192,191523,1,0,0:0:0:0:
192,192,191611,1,0,0:0:0:0:
320,192,191611,1,0,0:0:0:0:
64,192,191698,1,0,0:0:0:0:
448,192,191785,1,0,0:0:0:0:
192,192,191785,1,0,0:0:0:0:
192,192,191872,1,0,0:0:0:0:
448,192,191872,1,0,0:0:0:0:
448,192,191959,1,0,0:0:0:0:
64,192,191959,1,0,0:0:0:0:
320,192,191959,1,0,0:0:0:0:
64,192,192047,1,0,0:0:0:0:
448,192,192134,1,0,0:0:0:0:
192,192,192134,1,0,0:0:0:0:
320,192,192221,1,0,0:0:0:0:
448,192,192308,1,0,0:0:0:0:
64,192,192308,1,0,0:0:0:0:
192,192,192308,1,0,0:0:0:0:
192,192,192396,1,0,0:0:0:0:
448,192,192483,1,0,0:0:0:0:
320,192,192483,1,0,0:0:0:0:
64,192,192483,1,0,0:0:0:0:
320,192,192570,1,0,0:0:0:0:
192,192,192657,1,0,0:0:0:0:
64,192,192657,1,0,0:0:0:0:
64,192,192744,1,0,0:0:0:0:
448,192,192832,1,0,0:0:0:0:
192,192,192832,1,0,0:0:0:0:
320,192,192919,1,0,0:0:0:0:
448,192,193006,1,0,0:0:0:0:
192,192,193006,1,0,0:0:0:0:
64,192,193093,1,0,0:0:0:0:
448,192,193180,1,0,0:0:0:0:
320,192,193180,1,0,0:0:0:0:
192,192,193180,1,0,0:0:0:0:
448,192,193268,1,0,0:0:0:0:
320,192,193355,1,0,0:0:0:0:
192,192,193442,1,0,0:0:0:0:
320,192,193529,1,0,0:0:0:0:
64,192,193529,1,0,0:0:0:0:
64,192,193616,1,0,0:0:0:0:
448,192,193704,1,0,0:0:0:0:
192,192,193704,1,0,0:0:0:0:
320,192,193791,1,0,0:0:0:0:
448,192,193878,1,0,0:0:0:0:
192,192,193878,1,0,0:0:0:0:
448,192,193965,1,0,0:0:0:0:
192,192,193965,1,0,0:0:0:0:
448,192,194052,1,0,0:0:0:0:
64,192,194052,1,0,0:0:0:0:
320,192,194052,1,0,0:0:0:0:
64,192,194140,1,0,0:0:0:0:
192,192,194227,1,0,0:0:0:0:
448,192,194227,1,0,0:0:0:0:
320,192,194314,1,0,0:0:0:0:
192,192,194401,1,0,0:0:0:0:
448,192,194401,1,0,0:0:0:0:
64,192,194489,1,0,0:0:0:0:
64,192,194576,1,0,0:0:0:0:
320,192,194576,1,0,0:0:0:0:
448,192,194576,1,0,0:0:0:0:
192,192,194576,1,0,0:0:0:0:
320,192,194692,1,0,0:0:0:0:
320,192,194808,1,0,0:0:0:0:
448,192,194925,1,0,0:0:0:0:
192,192,194925,1,0,0:0:0:0:
192,192,195012,1,0,0:0:0:0:
448,192,195099,1,0,0:0:0:0:
320,192,195099,1,0,0:0:0:0:
64,192,195099,1,0,0:0:0:0:
320,192,195186,1,0,0:0:0:0:
448,192,195273,1,0,0:0:0:0:
64,192,195273,1,0,0:0:0:0:
192,192,195273,1,0,0:0:0:0:
64,192,195361,1,0,0:0:0:0:
448,192,195448,1,0,0:0:0:0:
320,192,195448,1,0,0:0:0:0:
448,192,195535,1,0,0:0:0:0:
64,192,195622,1,0,0:0:0:0:
320,192,195622,1,0,0:0:0:0:
192,192,195709,1,0,0:0:0:0:
320,192,195797,1,0,0:0:0:0:
64,192,195797,1,0,0:0:0:0:
448,192,195884,1,0,0:0:0:0:
320,192,195971,1,0,0:0:0:0:
192,192,195971,1,0,0:0:0:0:
320,192,196058,1,0,0:0:0:0:
192,192,196058,1,0,0:0:0:0:
448,192,196146,1,0,0:0:0:0:
64,192,196146,1,0,0:0:0:0:
192,192,196146,1,0,0:0:0:0:
448,192,196233,1,0,0:0:0:0:
64,192,196320,1,0,0:0:0:0:
320,192,196320,1,0,0:0:0:0:
192,192,196407,1,0,0:0:0:0:
448,192,196494,1,0,0:0:0:0:
64,192,196494,1,0,0:0:0:0:
320,192,196494,1,0,0:0:0:0:
320,192,196582,1,0,0:0:0:0:
448,192,196669,1,0,0:0:0:0:
64,192,196669,1,0,0:0:0:0:
192,192,196669,1,0,0:0:0:0:
64,192,196756,1,0,0:0:0:0:
448,192,196843,1,0,0:0:0:0:
320,192,196843,1,0,0:0:0:0:
320,192,196930,1,0,0:0:0:0:
448,192,197018,1,0,0:0:0:0:
64,192,197018,1,0,0:0:0:0:
192,192,197105,1,0,0:0:0:0:
448,192,197192,1,0,0:0:0:0:
64,192,197192,1,0,0:0:0:0:
320,192,197279,1,0,0:0:0:0:
448,192,197366,1,0,0:0:0:0:
192,192,197366,1,0,0:0:0:0:
192,192,197454,1,0,0:0:0:0:
448,192,197454,1,0,0:0:0:0:
192,192,197541,1,0,0:0:0:0:
64,192,197541,1,0,0:0:0:0:
320,192,197541,1,0,0:0:0:0:
320,192,197628,1,0,0:0:0:0:
192,192,197715,1,0,0:0:0:0:
448,192,197715,1,0,0:0:0:0:
64,192,197802,1,0,0:0:0:0:
320,192,197890,1,0,0:0:0:0:
192,192,197890,1,0,0:0:0:0:
448,192,197890,1,0,0:0:0:0:
448,192,197977,1,0,0:0:0:0:
320,192,198064,1,0,0:0:0:0:
192,192,198151,1,0,0:0:0:0:
64,192,198239,1,0,0:0:0:0:
448,192,198239,1,0,0:0:0:0:
320,192,198239,1,0,0:0:0:0:
448,192,198326,1,0,0:0:0:0:
320,192,198413,1,0,0:0:0:0:
192,192,198500,1,0,0:0:0:0:
64,192,198587,1,0,0:0:0:0:
320,192,198587,1,0,0:0:0:0:
448,192,198587,1,0,0:0:0:0:
448,192,198675,1,0,0:0:0:0:
320,192,198762,1,0,0:0:0:0:
192,192,198849,1,0,0:0:0:0:
320,192,198936,1,0,0:0:0:0:
448,192,198936,1,0,0:0:0:0:
64,192,198980,1,0,0:0:0:0:
192,192,199002,1,0,0:0:0:0:
320,192,199067,1,0,0:0:0:0:
448,192,199089,1,0,0:0:0:0:
192,192,199154,1,0,0:0:0:0:
64,192,199176,1,0,0:0:0:0:
448,192,199241,1,0,0:0:0:0:
320,192,199285,1,0,0:0:0:0:
192,192,199285,1,0,0:0:0:0:
192,192,199401,1,0,0:0:0:0:
448,192,199459,1,0,0:0:0:0:
192,192,199518,1,0,0:0:0:0:
64,192,199634,1,0,0:0:0:0:
448,192,199634,1,0,0:0:0:0:
320,192,199634,1,0,0:0:0:0:
192,192,199721,1,0,0:0:0:0:
448,192,199808,1,0,0:0:0:0:
192,192,199896,1,0,0:0:0:0:
64,192,199896,1,0,0:0:0:0:
448,192,199896,1,0,0:0:0:0:
320,192,199983,1,0,0:0:0:0:
64,192,200070,1,0,0:0:0:0:
320,192,200157,1,0,0:0:0:0:
448,192,200157,1,0,0:0:0:0:
64,192,200157,1,0,0:0:0:0:
192,192,200244,1,0,0:0:0:0:
448,192,200332,1,0,0:0:0:0:
192,192,200419,1,0,0:0:0:0:
64,192,200419,1,0,0:0:0:0:
448,192,200419,1,0,0:0:0:0:
320,192,200506,1,0,0:0:0:0:
64,192,200593,1,0,0:0:0:0:
448,192,200680,1,0,0:0:0:0:
192,192,200680,1,0,0:0:0:0:
64,192,200680,1,0,0:0:0:0:
320,192,200680,1,0,0:0:0:0:
192,192,200768,1,0,0:0:0:0:
448,192,200797,1,0,0:0:0:0:
64,192,200855,1,0,0:0:0:0:
448,192,200913,1,0,0:0:0:0:
192,192,200942,1,0,0:0:0:0:
64,192,201029,1,0,0:0:0:0:
320,192,201029,1,0,0:0:0:0:
448,192,201029,1,0,0:0:0:0:
64,192,201116,1,0,0:0:0:0:
448,192,201146,1,0,0:0:0:0:
192,192,201204,1,0,0:0:0:0:
448,192,201262,1,0,0:0:0:0:
320,192,201291,1,0,0:0:0:0:
192,192,201378,1,0,0:0:0:0:
448,192,201378,1,0,0:0:0:0:
64,192,201465,1,0,0:0:0:0:
448,192,201494,1,0,0:0:0:0:
192,192,201552,1,0,0:0:0:0:
448,192,201611,1,0,0:0:0:0:
64,192,201640,1,0,0:0:0:0:
320,192,201727,1,0,0:0:0:0:
192,192,201727,1,0,0:0:0:0:
448,192,201727,1,0,0:0:0:0:
192,192,201814,1,0,0:0:0:0:
448,192,201843,1,0,0:0:0:0:
64,192,201901,1,0,0:0:0:0:
448,192,201959,1,0,0:0:0:0:
192,192,201989,1,0,0:0:0:0:
320,192,202076,1,0,0:0:0:0:
64,192,202076,1,0,0:0:0:0:
448,192,202163,1,0,0:0:0:0:
64,192,202192,1,0,0:0:0:0:
320,192,202250,1,0,0:0:0:0:
64,192,202308,1,0,0:0:0:0:
448,192,202337,1,0,0:0:0:0:
192,192,202425,1,0,0:0:0:0:
320,192,202425,1,0,0:0:0:0:
64,192,202425,1,0,0:0:0:0:
320,192,202512,1,0,0:0:0:0:
64,192,202541,1,0,0:0:0:0:
192,192,202599,1,0,0:0:0:0:
64,192,202657,1,0,0:0:0:0:
320,192,202686,1,0,0:0:0:0:
448,192,202773,1,0,0:0:0:0:
64,192,202773,1,0,0:0:0:0:
320,192,202861,1,0,0:0:0:0:
64,192,202890,1,0,0:0:0:0:
448,192,202948,1,0,0:0:0:0:
64,192,203006,1,0,0:0:0:0:
320,192,203035,1,0,0:0:0:0:
192,192,203122,1,0,0:0:0:0:
448,192,203122,1,0,0:0:0:0:
64,192,203122,1,0,0:0:0:0:
448,192,203209,1,0,0:0:0:0:
64,192,203239,1,0,0:0:0:0:
320,192,203297,1,0,0:0:0:0:
64,192,203355,1,0,0:0:0:0:
192,192,203384,1,0,0:0:0:0:
320,192,203471,1,0,0:0:0:0:
448,192,203471,1,0,0:0:0:0:
192,192,203558,1,0,0:0:0:0:
448,192,203587,1,0,0:0:0:0:
192,192,203646,1,0,0:0:0:0:
448,192,203704,1,0,0:0:0:0:
64,192,203733,1,0,0:0:0:0:
192,192,203820,1,0,0:0:0:0:
320,192,203820,1,0,0:0:0:0:
448,192,203820,1,0,0:0:0:0:
192,192,203907,1,0,0:0:0:0:
448,192,203936,1,0,0:0:0:0:
64,192,203994,1,0,0:0:0:0:
448,192,204052,1,0,0:0:0:0:
320,192,204082,1,0,0:0:0:0:
64,192,204169,1,0,0:0:0:0:
192,192,204169,1,0,0:0:0:0:
448,192,204256,1,0,0:0:0:0:
192,192,204285,1,0,0:0:0:0:
448,192,204343,1,0,0:0:0:0:
192,192,204401,1,0,0:0:0:0:
320,192,204430,1,0,0:0:0:0:
448,192,204518,1,0,0:0:0:0:
64,192,204518,1,0,0:0:0:0:
192,192,204518,1,0,0:0:0:0:
448,192,204605,1,0,0:0:0:0:
192,192,204634,1,0,0:0:0:0:
320,192,204692,1,0,0:0:0:0:
192,192,204750,1,0,0:0:0:0:
448,192,204779,1,0,0:0:0:0:
64,192,204866,1,0,0:0:0:0:
320,192,204866,1,0,0:0:0:0:
64,192,204954,1,0,0:0:0:0:
320,192,204983,1,0,0:0:0:0:
192,192,205041,1,0,0:0:0:0:
320,192,205099,1,0,0:0:0:0:
64,192,205128,1,0,0:0:0:0:
448,192,205215,1,0,0:0:0:0:
320,192,205215,1,0,0:0:0:0:
192,192,205215,1,0,0:0:0:0:
192,192,205302,1,0,0:0:0:0:
320,192,205332,1,0,0:0:0:0:
64,192,205390,1,0,0:0:0:0:
320,192,205448,1,0,0:0:0:0:
192,192,205477,1,0,0:0:0:0:
448,192,205564,1,0,0:0:0:0:
64,192,205564,1,0,0:0:0:0:
448,192,205651,1,0,0:0:0:0:
64,192,205680,1,0,0:0:0:0:
320,192,205739,1,0,0:0:0:0:
64,192,205797,1,0,0:0:0:0:
448,192,205826,1,0,0:0:0:0:
320,192,205913,1,0,0:0:0:0:
192,192,205913,1,0,0:0:0:0:
64,192,205913,1,0,0:0:0:0:
320,192,206000,1,0,0:0:0:0:
64,192,206029,1,0,0:0:0:0:
448,192,206087,1,0,0:0:0:0:
64,192,206146,1,0,0:0:0:0:
320,192,206175,1,0,0:0:0:0:
192,192,206262,1,0,0:0:0:0:
448,192,206262,1,0,0:0:0:0:
192,192,206349,1,0,0:0:0:0:
448,192,206378,1,0,0:0:0:0:
64,192,206436,1,0,0:0:0:0:
448,192,206494,1,0,0:0:0:0:
192,192,206523,1,0,0:0:0:0:
64,192,206611,1,0,0:0:0:0:
320,192,206611,1,0,0:0:0:0:
448,192,206611,1,0,0:0:0:0:
64,192,206698,1,0,0:0:0:0:
448,192,206727,1,0,0:0:0:0:
192,192,206785,1,0,0:0:0:0:
448,192,206843,1,0,0:0:0:0:
320,192,206872,1,0,0:0:0:0:
192,192,206959,1,0,0:0:0:0:
448,192,206959,1,0,0:0:0:0:
64,192,207047,1,0,0:0:0:0:
448,192,207076,1,0,0:0:0:0:
192,192,207134,1,0,0:0:0:0:
448,192,207192,1,0,0:0:0:0:
64,192,207221,1,0,0:0:0:0:
320,192,207308,1,0,0:0:0:0:
192,192,207308,1,0,0:0:0:0:
448,192,207308,1,0,0:0:0:0:
192,192,207396,1,0,0:0:0:0:
448,192,207425,1,0,0:0:0:0:
64,192,207483,1,0,0:0:0:0:
448,192,207541,1,0,0:0:0:0:
192,192,207570,1,0,0:0:0:0:
320,192,207657,1,0,0:0:0:0:
64,192,207657,1,0,0:0:0:0:
448,192,207744,1,0,0:0:0:0:
64,192,207773,1,0,0:0:0:0:
320,192,207832,1,0,0:0:0:0:
64,192,207890,1,0,0:0:0:0:
448,192,207919,1,0,0:0:0:0:
192,192,208006,1,0,0:0:0:0:
320,192,208006,1,0,0:0:0:0:
64,192,208006,1,0,0:0:0:0:
320,192,208093,1,0,0:0:0:0:
64,192,208122,1,0,0:0:0:0:
192,192,208180,1,0,0:0:0:0:
64,192,208239,1,0,0:0:0:0:
320,192,208268,1,0,0:0:0:0:
448,192,208355,1,0,0:0:0:0:
64,192,208355,1,0,0:0:0:0:
320,192,208442,1,0,0:0:0:0:
64,192,208471,1,0,0:0:0:0:
448,192,208529,1,0,0:0:0:0:
64,192,208587,1,0,0:0:0:0:
320,192,208616,1,0,0:0:0:0:
192,192,208704,1,0,0:0:0:0:
448,192,208704,1,0,0:0:0:0:
64,192,208704,1,0,0:0:0:0:
448,192,208791,1,0,0:0:0:0:
64,192,208820,1,0,0:0:0:0:
320,192,208878,1,0,0:0:0:0:
64,192,208936,1,0,0:0:0:0:
192,192,208965,1,0,0:0:0:0:
320,192,209052,1,0,0:0:0:0:
448,192,209052,1,0,0:0:0:0:
192,192,209140,1,0,0:0:0:0:
448,192,209169,1,0,0:0:0:0:
192,192,209227,1,0,0:0:0:0:
448,192,209285,1,0,0:0:0:0:
64,192,209314,1,0,0:0:0:0:
192,192,209401,1,0,0:0:0:0:
320,192,209401,1,0,0:0:0:0:
448,192,209401,1,0,0:0:0:0:
192,192,209489,1,0,0:0:0:0:
448,192,209518,1,0,0:0:0:0:
64,192,209576,1,0,0:0:0:0:
448,192,209634,1,0,0:0:0:0:
320,192,209663,1,0,0:0:0:0:
64,192,209750,1,0,0:0:0:0:
192,192,209750,1,0,0:0:0:0:
448,192,209837,1,0,0:0:0:0:
192,192,209866,1,0,0:0:0:0:
448,192,209925,1,0,0:0:0:0:
192,192,209983,1,0,0:0:0:0:
320,192,210012,1,0,0:0:0:0:
448,192,210099,1,0,0:0:0:0:
64,192,210099,1,0,0:0:0:0:
192,192,210099,1,0,0:0:0:0:
448,192,210186,1,0,0:0:0:0:
192,192,210215,1,0,0:0:0:0:
320,192,210273,1,0,0:0:0:0:
192,192,210332,1,0,0:0:0:0:
448,192,210361,1,0,0:0:0:0:
64,192,210448,1,0,0:0:0:0:
320,192,210448,1,0,0:0:0:0:
64,192,210535,1,0,0:0:0:0:
320,192,210564,1,0,0:0:0:0:
192,192,210622,1,0,0:0:0:0:
320,192,210680,1,0,0:0:0:0:
64,192,210709,1,0,0:0:0:0:
448,192,210797,1,0,0:0:0:0:
320,192,210797,1,0,0:0:0:0:
192,192,210797,1,0,0:0:0:0:
192,192,210884,1,0,0:0:0:0:
320,192,210913,1,0,0:0:0:0:
64,192,210971,1,0,0:0:0:0:
320,192,211029,1,0,0:0:0:0:
192,192,211058,1,0,0:0:0:0:
448,192,211146,1,0,0:0:0:0:
64,192,211146,1,0,0:0:0:0:
448,192,211233,1,0,0:0:0:0:
64,192,211262,1,0,0:0:0:0:
320,192,211320,1,0,0:0:0:0:
64,192,211378,1,0,0:0:0:0:
448,192,211407,1,0,0:0:0:0:
320,192,211494,1,0,0:0:0:0:
192,192,211494,1,0,0:0:0:0:
64,192,211494,1,0,0:0:0:0:
320,192,211582,1,0,0:0:0:0:
64,192,211611,1,0,0:0:0:0:
448,192,211669,1,0,0:0:0:0:
64,192,211727,1,0,0:0:0:0:
320,192,211756,1,0,0:0:0:0:
192,192,211843,1,0,0:0:0:0:
448,192,211843,1,0,0:0:0:0:
192,192,211930,1,0,0:0:0:0:
448,192,211959,1,0,0:0:0:0:
64,192,212018,1,0,0:0:0:0:
448,192,212076,1,0,0:0:0:0:
192,192,212105,1,0,0:0:0:0:
320,192,212192,1,0,0:0:0:0:
64,192,212192,1,0,0:0:0:0:
448,192,212192,1,0,0:0:0:0:
64,192,212279,1,0,0:0:0:0:
448,192,212308,1,0,0:0:0:0:
192,192,212366,1,0,0:0:0:0:
448,192,212425,1,0,0:0:0:0:
64,192,212454,1,0,0:0:0:0:
320,192,212541,1,0,0:0:0:0:
192,192,212541,1,0,0:0:0:0:
448,192,212541,1,0,0:0:0:0:
192,192,212628,1,0,0:0:0:0:
448,192,212657,1,0,0:0:0:0:
64,192,212715,1,0,0:0:0:0:
448,192,212773,1,0,0:0:0:0:
192,192,212802,1,0,0:0:0:0:
320,192,212890,1,0,0:0:0:0:
64,192,212890,1,0,0:0:0:0:
448,192,212890,1,0,0:0:0:0:
64,192,212977,1,0,0:0:0:0:
448,192,213006,1,0,0:0:0:0:
192,192,213064,1,0,0:0:0:0:
448,192,213122,1,0,0:0:0:0:
64,192,213151,1,0,0:0:0:0:
320,192,213239,1,0,0:0:0:0:
192,192,213239,1,0,0:0:0:0:
320,192,213326,1,0,0:0:0:0:
192,192,213355,1,0,0:0:0:0:
448,192,213413,1,0,0:0:0:0:
192,192,213471,1,0,0:0:0:0:
320,192,213500,1,0,0:0:0:0:
64,192,213587,1,0,0:0:0:0:
448,192,213587,1,0,0:0:0:0:
192,192,213587,1,0,0:0:0:0:
448,192,213675,1,0,0:0:0:0:
192,192,213704,1,0,0:0:0:0:
320,192,213762,1,0,0:0:0:0:
192,192,213820,1,0,0:0:0:0:
448,192,213849,1,0,0:0:0:0:
64,192,213936,1,0,0:0:0:0:
320,192,213936,1,0,0:0:0:0:
192,192,213936,1,0,0:0:0:0:
320,192,214023,1,0,0:0:0:0:
192,192,214052,1,0,0:0:0:0:
448,192,214111,1,0,0:0:0:0:
192,192,214169,1,0,0:0:0:0:
320,192,214198,1,0,0:0:0:0:
64,192,214285,1,0,0:0:0:0:
448,192,214285,1,0,0:0:0:0:
192,192,214285,1,0,0:0:0:0:
448,192,214372,1,0,0:0:0:0:
192,192,214401,1,0,0:0:0:0:
320,192,214459,1,0,0:0:0:0:
192,192,214518,1,0,0:0:0:0:
448,192,214547,1,0,0:0:0:0:
64,192,214634,1,0,0:0:0:0:
320,192,214634,1,0,0:0:0:0:
64,192,214721,1,0,0:0:0:0:
320,192,214750,1,0,0:0:0:0:
192,192,214808,1,0,0:0:0:0:
320,192,214866,1,0,0:0:0:0:
64,192,214896,1,0,0:0:0:0:
448,192,214983,1,0,0:0:0:0:
192,192,214983,1,0,0:0:0:0:
320,192,214983,1,0,0:0:0:0:
192,192,215070,1,0,0:0:0:0:
320,192,215099,1,0,0:0:0:0:
64,192,215157,1,0,0:0:0:0:
320,192,215215,1,0,0:0:0:0:
192,192,215244,1,0,0:0:0:0:
448,192,215332,1,0,0:0:0:0:
64,192,215332,1,0,0:0:0:0:
320,192,215332,1,0,0:0:0:0:
64,192,215419,1,0,0:0:0:0:
320,192,215448,1,0,0:0:0:0:
192,192,215506,1,0,0:0:0:0:
320,192,215564,1,0,0:0:0:0:
64,192,215593,1,0,0:0:0:0:
448,192,215680,1,0,0:0:0:0:
192,192,215680,1,0,0:0:0:0:
320,192,215680,1,0,0:0:0:0:
192,192,215768,1,0,0:0:0:0:
320,192,215797,1,0,0:0:0:0:
64,192,215855,1,0,0:0:0:0:
320,192,215913,1,0,0:0:0:0:
192,192,215942,1,0,0:0:0:0:
64,192,216029,1,0,0:0:0:0:
448,192,216029,1,0,0:0:0:0:
448,192,216116,1,0,0:0:0:0:
64,192,216146,1,0,0:0:0:0:
320,192,216204,1,0,0:0:0:0:
64,192,216262,1,0,0:0:0:0:
448,192,216291,1,0,0:0:0:0:
192,192,216378,1,0,0:0:0:0:
320,192,216378,1,0,0:0:0:0:
64,192,216378,1,0,0:0:0:0:
320,192,216465,1,0,0:0:0:0:
64,192,216494,1,0,0:0:0:0:
448,192,216552,1,0,0:0:0:0:
64,192,216611,1,0,0:0:0:0:
320,192,216640,1,0,0:0:0:0:
192,192,216727,1,0,0:0:0:0:
448,192,216727,1,0,0:0:0:0:
64,192,216727,1,0,0:0:0:0:
448,192,216814,1,0,0:0:0:0:
64,192,216843,1,0,0:0:0:0:
320,192,216901,1,0,0:0:0:0:
64,192,216959,1,0,0:0:0:0:
448,192,216989,1,0,0:0:0:0:
192,192,217076,1,0,0:0:0:0:
320,192,217076,1,0,0:0:0:0:
64,192,217076,1,0,0:0:0:0:
320,192,217163,1,0,0:0:0:0:
64,192,217192,1,0,0:0:0:0:
448,192,217250,1,0,0:0:0:0:
64,192,217308,1,0,0:0:0:0:
320,192,217337,1,0,0:0:0:0:
448,192,217425,1,0,0:0:0:0:
64,192,217425,1,0,0:0:0:0:
192,192,217468,1,0,0:0:0:0:
320,192,217512,1,0,0:0:0:0:
448,192,217555,1,0,0:0:0:0:
192,192,217599,1,0,0:0:0:0:
64,192,217643,1,0,0:0:0:0:
320,192,217686,1,0,0:0:0:0:
192,192,217730,1,0,0:0:0:0:
448,192,217773,1,0,0:0:0:0:
320,192,217817,1,0,0:0:0:0:
64,192,217861,1,0,0:0:0:0:
448,192,217904,1,0,0:0:0:0:
192,192,217948,1,0,0:0:0:0:
320,192,217991,1,0,0:0:0:0:
64,192,218035,1,0,0:0:0:0:
192,192,218079,1,0,0:0:0:0:
320,192,218122,1,0,0:0:0:0:
448,192,218166,1,0,0:0:0:0:
192,192,218209,1,0,0:0:0:0:
64,192,218253,1,0,0:0:0:0:
320,192,218297,1,0,0:0:0:0:
64,192,218340,1,0,0:0:0:0:
192,192,218384,1,0,0:0:0:0:
448,192,218427,1,0,0:0:0:0:
320,192,218471,1,0,0:0:0:0:
64,192,218515,1,0,0:0:0:0:
448,192,218558,1,0,0:0:0:0:
320,192,218602,1,0,0:0:0:0:
192,192,218646,1,0,0:0:0:0:
64,192,218689,1,0,0:0:0:0:
448,192,218733,1,0,0:0:0:0:
192,192,218776,1,0,0:0:0:0:
320,192,218820,1,0,0:0:0:0:
64,192,218864,1,0,0:0:0:0:
320,192,218907,1,0,0:0:0:0:
64,192,218951,1,0,0:0:0:0:
192,192,218994,1,0,0:0:0:0:
320,192,219038,1,0,0:0:0:0:
448,192,219082,1,0,0:0:0:0:
192,192,219125,1,0,0:0:0:0:
64,192,219169,1,0,0:0:0:0:
320,192,219212,1,0,0:0:0:0:
448,192,219256,1,0,0:0:0:0:
192,192,219300,1,0,0:0:0:0:
320,192,219343,1,0,0:0:0:0:
448,192,219387,1,0,0:0:0:0:
192,192,219430,1,0,0:0:0:0:
64,192,219474,1,0,0:0:0:0:
192,192,219518,1,0,0:0:0:0:
448,192,219561,1,0,0:0:0:0:
320,192,219605,1,0,0:0:0:0:
64,192,219648,1,0,0:0:0:0:
448,192,219692,1,0,0:0:0:0:
320,192,219736,1,0,0:0:0:0:
192,192,219779,1,0,0:0:0:0:
64,192,219823,1,0,0:0:0:0:
448,192,219866,1,0,0:0:0:0:
192,192,219910,1,0,0:0:0:0:
320,192,219954,1,0,0:0:0:0:
448,192,219997,1,0,0:0:0:0:
192,192,220041,1,0,0:0:0:0:
448,192,220084,1,0,0:0:0:0:
320,192,220128,1,0,0:0:0:0:
192,192,220172,1,0,0:0:0:0:
64,192,220215,1,0,0:0:0:0:
448,192,220254,1,0,0:0:0:0:
320,192,220293,1,0,0:0:0:0:
192,192,220332,1,0,0:0:0:0:
64,192,220370,1,0,0:0:0:0:
320,192,220409,1,0,0:0:0:0:
448,192,220448,1,0,0:0:0:0:
192,192,220487,1,0,0:0:0:0:
320,192,220525,1,0,0:0:0:0:
64,192,220564,1,0,0:0:0:0:
192,192,220603,1,0,0:0:0:0:
448,192,220642,1,0,0:0:0:0:
320,192,220680,1,0,0:0:0:0:
64,192,220719,1,0,0:0:0:0:
448,192,220758,1,0,0:0:0:0:
192,192,220797,1,0,0:0:0:0:
320,192,220835,1,0,0:0:0:0:
64,192,220874,1,0,0:0:0:0:
192,192,220913,1,0,0:0:0:0:
320,192,220952,1,0,0:0:0:0:
448,192,220990,1,0,0:0:0:0:
64,192,221029,1,0,0:0:0:0:
192,192,221058,1,0,0:0:0:0:
320,192,221087,1,0,0:0:0:0:
448,192,221116,1,0,0:0:0:0:
64,192,221146,1,0,0:0:0:0:
192,192,221175,1,0,0:0:0:0:
320,192,221204,1,0,0:0:0:0:
448,192,221233,1,0,0:0:0:0:
64,192,221262,1,0,0:0:0:0:
192,192,221291,1,0,0:0:0:0:
320,192,221320,1,0,0:0:0:0:
448,192,221349,1,0,0:0:0:0:
64,192,221378,1,0,0:0:0:0:
192,192,221407,1,0,0:0:0:0:
320,192,221436,1,0,0:0:0:0:
448,192,221465,1,0,0:0:0:0:
64,192,221494,1,0,0:0:0:0:
192,192,221523,1,0,0:0:0:0:
320,192,221552,1,0,0:0:0:0:
448,192,221582,1,0,0:0:0:0:
192,192,221611,1,0,0:0:0:0:
64,192,221611,1,0,0:0:0:0:
64,192,221698,1,0,0:0:0:0:
320,192,221727,1,0,0:0:0:0:
192,192,221785,1,0,0:0:0:0:
448,192,221785,1,0,0:0:0:0:
448,192,221872,1,0,0:0:0:0:
320,192,221901,1,0,0:0:0:0:
64,192,221959,1,0,0:0:0:0:
192,192,221959,1,0,0:0:0:0:
192,192,222047,1,0,0:0:0:0:
320,192,222134,1,0,0:0:0:0:
64,192,222156,1,0,0:0:0:0:
448,192,222221,1,0,0:0:0:0:
192,192,222243,1,0,0:0:0:0:
320,192,222308,1,0,0:0:0:0:
448,192,222352,1,0,0:0:0:0:
192,192,222396,1,0,0:0:0:0:
448,192,222439,1,0,0:0:0:0:
320,192,222483,1,0,0:0:0:0:
64,192,222526,1,0,0:0:0:0:
192,192,222570,1,0,0:0:0:0:
320,192,222614,1,0,0:0:0:0:
64,192,222657,1,0,0:0:0:0:
192,192,222696,1,0,0:0:0:0:
448,192,222735,1,0,0:0:0:0:
320,192,222773,1,0,0:0:0:0:
192,192,222812,1,0,0:0:0:0:
448,192,222851,1,0,0:0:0:0:
320,192,222890,1,0,0:0:0:0:
192,192,222928,1,0,0:0:0:0:
64,192,222967,1,0,0:0:0:0:
320,192,223006,128,0,223246:0:0:0:0:
448,192,223006,128,0,223268:0:0:0:0:
64,192,223355,1,0,0:0:0:0:
192,192,223394,1,0,0:0:0:0:
64,192,223432,1,0,0:0:0:0:
320,192,223471,1,0,0:0:0:0:
448,192,223510,1,0,0:0:0:0:
192,192,223549,1,0,0:0:0:0:
448,192,223626,1,0,0:0:0:0:
320,192,223665,1,0,0:0:0:0:
448,192,223704,1,0,0:0:0:0:
192,192,223742,1,0,0:0:0:0:
64,192,223781,1,0,0:0:0:0:
320,192,223820,1,0,0:0:0:0:
64,192,223897,1,0,0:0:0:0:
192,192,223936,1,0,0:0:0:0:
64,192,223975,1,0,0:0:0:0:
320,192,224014,1,0,0:0:0:0:
448,192,224052,1,0,0:0:0:0:
192,192,224091,1,0,0:0:0:0:
448,192,224169,1,0,0:0:0:0:
320,192,224208,1,0,0:0:0:0:
448,192,224246,1,0,0:0:0:0:
192,192,224285,1,0,0:0:0:0:
64,192,224324,1,0,0:0:0:0:
192,192,224401,1,0,0:0:0:0:
320,192,224423,1,0,0:0:0:0:
64,192,224489,1,0,0:0:0:0:
192,192,224489,1,0,0:0:0:0:
448,192,224532,1,0,0:0:0:0:
64,192,224576,1,0,0:0:0:0:
192,192,224576,1,0,0:0:0:0:
320,192,224663,1,0,0:0:0:0:
192,192,224685,1,0,0:0:0:0:
64,192,224750,1,0,0:0:0:0:
320,192,224750,1,0,0:0:0:0:
448,192,224750,1,0,0:0:0:0:
320,192,224837,1,0,0:0:0:0:
448,192,224837,1,0,0:0:0:0:
192,192,224925,1,0,0:0:0:0:
320,192,224946,1,0,0:0:0:0:
64,192,225012,1,0,0:0:0:0:
192,192,225012,1,0,0:0:0:0:
448,192,225055,1,0,0:0:0:0:
64,192,225099,1,0,0:0:0:0:
192,192,225099,1,0,0:0:0:0:
320,192,225186,1,0,0:0:0:0:
192,192,225208,1,0,0:0:0:0:
320,192,225273,1,0,0:0:0:0:
448,192,225273,1,0,0:0:0:0:
64,192,225317,1,0,0:0:0:0:
320,192,225361,1,0,0:0:0:0:
448,192,225361,1,0,0:0:0:0:
192,192,225448,1,0,0:0:0:0:
320,192,225470,1,0,0:0:0:0:
64,192,225535,1,0,0:0:0:0:
192,192,225564,1,0,0:0:0:0:
320,192,225593,1,0,0:0:0:0:
448,192,225622,1,0,0:0:0:0:
64,192,225651,1,0,0:0:0:0:
192,192,225680,1,0,0:0:0:0:
320,192,225709,1,0,0:0:0:0:
448,192,225739,1,0,0:0:0:0:
64,192,225797,1,0,0:0:0:0:
192,192,225797,1,0,0:0:0:0:
192,192,225913,1,0,0:0:0:0:
448,192,225971,1,0,0:0:0:0:
320,192,226000,1,0,0:0:0:0:
192,192,226029,1,0,0:0:0:0:
64,192,226058,1,0,0:0:0:0:
448,192,226146,1,0,0:0:0:0:
320,192,226146,1,0,0:0:0:0:
64,192,226167,1,0,0:0:0:0:
192,192,226233,1,0,0:0:0:0:
320,192,226233,1,0,0:0:0:0:
448,192,226320,1,0,0:0:0:0:
192,192,226320,1,0,0:0:0:0:
64,192,226407,1,0,0:0:0:0:
320,192,226407,1,0,0:0:0:0:
192,192,226429,1,0,0:0:0:0:
448,192,226494,1,0,0:0:0:0:
320,192,226494,1,0,0:0:0:0:
64,192,226538,1,0,0:0:0:0:
448,192,226582,1,0,0:0:0:0:
320,192,226582,1,0,0:0:0:0:
64,192,226669,1,0,0:0:0:0:
192,192,226669,1,0,0:0:0:0:
448,192,226691,1,0,0:0:0:0:
320,192,226756,1,0,0:0:0:0:
192,192,226756,1,0,0:0:0:0:
64,192,226843,1,0,0:0:0:0:
448,192,226843,1,0,0:0:0:0:
320,192,226887,1,0,0:0:0:0:
64,192,226930,1,0,0:0:0:0:
448,192,226989,1,0,0:0:0:0:
192,192,226989,1,0,0:0:0:0:
320,192,227018,1,0,0:0:0:0:
448,192,227105,1,0,0:0:0:0:
64,192,227105,1,0,0:0:0:0:
192,192,227134,1,0,0:0:0:0:
320,192,227192,1,0,0:0:0:0:
448,192,227192,1,0,0:0:0:0:
64,192,227231,1,0,0:0:0:0:
192,192,227270,1,0,0:0:0:0:
448,192,227308,1,0,0:0:0:0:
320,192,227347,1,0,0:0:0:0:
192,192,227386,1,0,0:0:0:0:
64,192,227425,1,0,0:0:0:0:
320,192,227463,1,0,0:0:0:0:
192,192,227502,1,0,0:0:0:0:
448,192,227541,1,0,0:0:0:0:
64,192,227541,1,0,0:0:0:0:
320,192,227563,1,0,0:0:0:0:
192,192,227628,1,0,0:0:0:0:
448,192,227628,1,0,0:0:0:0:
64,192,227715,1,0,0:0:0:0:
320,192,227715,1,0,0:0:0:0:
448,192,227802,1,0,0:0:0:0:
192,192,227802,1,0,0:0:0:0:
320,192,227824,1,0,0:0:0:0:
64,192,227890,1,0,0:0:0:0:
192,192,227890,1,0,0:0:0:0:
448,192,227933,1,0,0:0:0:0:
64,192,227977,1,0,0:0:0:0:
192,192,227977,1,0,0:0:0:0:
448,192,228064,1,0,0:0:0:0:
320,192,228064,1,0,0:0:0:0:
64,192,228086,1,0,0:0:0:0:
192,192,228151,1,0,0:0:0:0:
320,192,228151,1,0,0:0:0:0:
448,192,228239,1,0,0:0:0:0:
64,192,228239,1,0,0:0:0:0:
192,192,228260,1,0,0:0:0:0:
448,192,228326,1,0,0:0:0:0:
320,192,228326,1,0,0:0:0:0:
320,192,228413,1,0,0:0:0:0:
192,192,228435,1,0,0:0:0:0:
192,192,228522,1,0,0:0:0:0:
448,192,228587,1,0,0:0:0:0:
64,192,228609,1,0,0:0:0:0:
320,192,228609,1,0,0:0:0:0:
448,192,228675,1,0,0:0:0:0:
64,192,228696,1,0,0:0:0:0:
320,192,228696,1,0,0:0:0:0:
192,192,228718,1,0,0:0:0:0:
448,192,228784,1,0,0:0:0:0:
64,192,228805,1,0,0:0:0:0:
320,192,228805,1,0,0:0:0:0:
192,192,228827,1,0,0:0:0:0:
448,192,228936,1,0,0:0:0:0:
320,192,228936,1,0,0:0:0:0:
192,192,228958,1,0,0:0:0:0:
320,192,229023,1,0,0:0:0:0:
64,192,229023,1,0,0:0:0:0:
448,192,229111,1,0,0:0:0:0:
192,192,229111,1,0,0:0:0:0:
320,192,229198,1,0,0:0:0:0:
64,192,229198,1,0,0:0:0:0:
192,192,229220,1,0,0:0:0:0:
448,192,229285,1,0,0:0:0:0:
320,192,229285,1,0,0:0:0:0:
64,192,229329,1,0,0:0:0:0:
448,192,229372,1,0,0:0:0:0:
320,192,229372,1,0,0:0:0:0:
64,192,229459,1,0,0:0:0:0:
192,192,229459,1,0,0:0:0:0:
448,192,229481,1,0,0:0:0:0:
320,192,229547,1,0,0:0:0:0:
192,192,229547,1,0,0:0:0:0:
320,192,229634,1,0,0:0:0:0:
448,192,229634,1,0,0:0:0:0:
64,192,229634,1,0,0:0:0:0:
448,192,229721,1,0,0:0:0:0:
64,192,229721,1,0,0:0:0:0:
192,192,229765,1,0,0:0:0:0:
320,192,229808,1,0,0:0:0:0:
448,192,229852,1,0,0:0:0:0:
192,192,229896,1,0,0:0:0:0:
64,192,229939,1,0,0:0:0:0:
448,192,229983,1,0,0:0:0:0:
320,192,230005,1,0,0:0:0:0:
192,192,230026,1,0,0:0:0:0:
448,192,230070,1,0,0:0:0:0:
64,192,230092,1,0,0:0:0:0:
192,192,230114,1,0,0:0:0:0:
320,192,230157,1,0,0:0:0:0:
64,192,230201,1,0,0:0:0:0:
320,192,230244,1,0,0:0:0:0:
192,192,230332,1,0,0:0:0:0:
64,192,230332,1,0,0:0:0:0:
448,192,230353,1,0,0:0:0:0:
64,192,230419,1,0,0:0:0:0:
320,192,230419,1,0,0:0:0:0:
192,192,230506,1,0,0:0:0:0:
448,192,230528,1,0,0:0:0:0:
64,192,230593,1,0,0:0:0:0:
320,192,230593,1,0,0:0:0:0:
192,192,230615,1,0,0:0:0:0:
320,192,230680,1,0,0:0:0:0:
448,192,230680,1,0,0:0:0:0:
64,192,230702,1,0,0:0:0:0:
192,192,230768,1,0,0:0:0:0:
448,192,230768,1,0,0:0:0:0:
192,192,230855,1,0,0:0:0:0:
320,192,230855,1,0,0:0:0:0:
64,192,230877,1,0,0:0:0:0:
192,192,230942,1,0,0:0:0:0:
448,192,230942,1,0,0:0:0:0:
64,192,231029,1,0,0:0:0:0:
320,192,231029,1,0,0:0:0:0:
448,192,231079,1,0,0:0:0:0:
320,192,231129,1,0,0:0:0:0:
192,192,231179,1,0,0:0:0:0:
64,192,231229,1,0,0:0:0:0:
192,192,231278,1,0,0:0:0:0:
64,192,231328,1,0,0:0:0:0:
448,192,231378,1,0,0:0:0:0:
320,192,231378,1,0,0:0:0:0:
192,192,231422,1,0,0:0:0:0:
320,192,231465,1,0,0:0:0:0:
448,192,231509,1,0,0:0:0:0:
64,192,231552,1,0,0:0:0:0:
192,192,231574,1,0,0:0:0:0:
320,192,231618,1,0,0:0:0:0:
448,192,231683,1,0,0:0:0:0:
192,192,231727,1,0,0:0:0:0:
64,192,231727,1,0,0:0:0:0:
320,192,231749,1,0,0:0:0:0:
192,192,231814,1,0,0:0:0:0:
448,192,231836,1,0,0:0:0:0:
320,192,231901,1,0,0:0:0:0:
64,192,231923,1,0,0:0:0:0:
320,192,231989,1,0,0:0:0:0:
448,192,231989,1,0,0:0:0:0:
192,192,232010,1,0,0:0:0:0:
64,192,232076,1,0,0:0:0:0:
448,192,232119,1,0,0:0:0:0:
64,192,232163,1,0,0:0:0:0:
320,192,232185,1,0,0:0:0:0:
320,192,232250,1,0,0:0:0:0:
192,192,232250,1,0,0:0:0:0:
448,192,232250,1,0,0:0:0:0:
192,192,232337,1,0,0:0:0:0:
64,192,232337,1,0,0:0:0:0:
448,192,232425,1,0,0:0:0:0:
320,192,232446,1,0,0:0:0:0:
192,192,232468,1,0,0:0:0:0:
448,192,232512,1,0,0:0:0:0:
320,192,232534,1,0,0:0:0:0:
192,192,232555,1,0,0:0:0:0:
64,192,232577,1,0,0:0:0:0:
192,192,232643,1,0,0:0:0:0:
448,192,232664,1,0,0:0:0:0:
320,192,232708,1,0,0:0:0:0:
64,192,232773,1,0,0:0:0:0:
192,192,232773,1,0,0:0:0:0:
448,192,232795,1,0,0:0:0:0:
320,192,232839,1,0,0:0:0:0:
64,192,232890,1,0,0:0:0:0:
192,192,232928,1,0,0:0:0:0:
448,192,232948,1,0,0:0:0:0:
320,192,233006,1,0,0:0:0:0:
192,192,233045,1,0,0:0:0:0:
64,192,233083,1,0,0:0:0:0:
320,192,233122,1,0,0:0:0:0:
448,192,233122,1,0,0:0:0:0:
64,192,233166,1,0,0:0:0:0:
192,192,233209,1,0,0:0:0:0:
448,192,233253,1,0,0:0:0:0:
320,192,233297,1,0,0:0:0:0:
64,192,233384,1,0,0:0:0:0:
320,192,233384,1,0,0:0:0:0:
192,192,233384,1,0,0:0:0:0:
192,192,233471,1,0,0:0:0:0:
448,192,233493,1,0,0:0:0:0:
320,192,233541,1,0,0:0:0:0:
64,192,233558,1,0,0:0:0:0:
448,192,233602,1,0,0:0:0:0:
192,192,233602,1,0,0:0:0:0:
320,192,233667,1,0,0:0:0:0:
64,192,233680,1,0,0:0:0:0:
448,192,233733,1,0,0:0:0:0:
192,192,233733,1,0,0:0:0:0:
64,192,233820,1,0,0:0:0:0:
320,192,233820,1,0,0:0:0:0:
192,192,233842,1,0,0:0:0:0:
448,192,233885,1,0,0:0:0:0:
320,192,233929,1,0,0:0:0:0:
64,192,233929,1,0,0:0:0:0:
192,192,233973,1,0,0:0:0:0:
448,192,233994,1,0,0:0:0:0:
320,192,234038,1,0,0:0:0:0:
64,192,234060,1,0,0:0:0:0:
192,192,234103,1,0,0:0:0:0:
448,192,234169,1,0,0:0:0:0:
64,192,234169,1,0,0:0:0:0:
320,192,234169,1,0,0:0:0:0:
448,192,234285,1,0,0:0:0:0:
320,192,234300,1,0,0:0:0:0:
192,192,234318,1,0,0:0:0:0:
320,192,234401,1,0,0:0:0:0:
192,192,234409,1,0,0:0:0:0:
448,192,234518,1,0,0:0:0:0:
64,192,234518,1,0,0:0:0:0:
320,192,234539,1,0,0:0:0:0:
448,192,234605,1,0,0:0:0:0:
64,192,234605,1,0,0:0:0:0:
192,192,234648,1,0,0:0:0:0:
320,192,234692,1,0,0:0:0:0:
64,192,234714,1,0,0:0:0:0:
192,192,234779,1,0,0:0:0:0:
448,192,234779,1,0,0:0:0:0:
320,192,234801,1,0,0:0:0:0:
64,192,234866,1,0,0:0:0:0:
448,192,234866,1,0,0:0:0:0:
320,192,234910,1,0,0:0:0:0:
64,192,234954,1,0,0:0:0:0:
192,192,234954,1,0,0:0:0:0:
448,192,235041,1,0,0:0:0:0:
64,192,235041,1,0,0:0:0:0:
320,192,235063,1,0,0:0:0:0:
320,192,235128,1,0,0:0:0:0:
192,192,235128,1,0,0:0:0:0:
192,192,235215,1,0,0:0:0:0:
64,192,235215,1,0,0:0:0:0:
448,192,235215,1,0,0:0:0:0:
320,192,235281,1,0,0:0:0:0:
448,192,235302,1,0,0:0:0:0:
64,192,235324,1,0,0:0:0:0:
320,192,235368,1,0,0:0:0:0:
192,192,235433,1,0,0:0:0:0:
64,192,235455,1,0,0:0:0:0:
192,192,235564,1,0,0:0:0:0:
320,192,235564,1,0,0:0:0:0:
448,192,235564,1,0,0:0:0:0:
64,192,235608,1,0,0:0:0:0:
448,192,235651,1,0,0:0:0:0:
320,192,235673,1,0,0:0:0:0:
448,192,235739,1,0,0:0:0:0:
64,192,235760,1,0,0:0:0:0:
192,192,235804,1,0,0:0:0:0:
320,192,235826,1,0,0:0:0:0:
64,192,235913,1,0,0:0:0:0:
192,192,235913,1,0,0:0:0:0:
448,192,235935,1,0,0:0:0:0:
192,192,236000,1,0,0:0:0:0:
320,192,236000,1,0,0:0:0:0:
64,192,236087,1,0,0:0:0:0:
448,192,236087,1,0,0:0:0:0:
192,192,236131,1,0,0:0:0:0:
320,192,236175,1,0,0:0:0:0:
448,192,236175,1,0,0:0:0:0:
64,192,236196,1,0,0:0:0:0:
448,192,236262,1,0,0:0:0:0:
64,192,236305,1,0,0:0:0:0:
320,192,236305,1,0,0:0:0:0:
192,192,236349,1,0,0:0:0:0:
64,192,236436,1,0,0:0:0:0:
320,192,236436,1,0,0:0:0:0:
448,192,236458,1,0,0:0:0:0:
64,192,236523,1,0,0:0:0:0:
192,192,236523,1,0,0:0:0:0:
320,192,236611,1,0,0:0:0:0:
192,192,236611,1,0,0:0:0:0:
448,192,236611,1,0,0:0:0:0:
64,192,236698,1,0,0:0:0:0:
320,192,236698,1,0,0:0:0:0:
448,192,236741,1,0,0:0:0:0:
320,192,236814,1,0,0:0:0:0:
192,192,236843,1,0,0:0:0:0:
64,192,236872,1,0,0:0:0:0:
192,192,236959,1,0,0:0:0:0:
448,192,236959,1,0,0:0:0:0:
320,192,236959,1,0,0:0:0:0:
448,192,237047,1,0,0:0:0:0:
192,192,237068,1,0,0:0:0:0:
320,192,237090,1,0,0:0:0:0:
64,192,237156,1,0,0:0:0:0:
192,192,237199,1,0,0:0:0:0:
320,192,237221,1,0,0:0:0:0:
448,192,237308,1,0,0:0:0:0:
320,192,237308,1,0,0:0:0:0:
64,192,237330,1,0,0:0:0:0:
320,192,237396,1,0,0:0:0:0:
192,192,237396,1,0,0:0:0:0:
448,192,237461,1,0,0:0:0:0:
192,192,237483,1,0,0:0:0:0:
192,192,237570,1,0,0:0:0:0:
320,192,237570,1,0,0:0:0:0:
64,192,237592,1,0,0:0:0:0:
448,192,237657,1,0,0:0:0:0:
320,192,237657,1,0,0:0:0:0:
64,192,237701,1,0,0:0:0:0:
448,192,237744,1,0,0:0:0:0:
192,192,237744,1,0,0:0:0:0:
320,192,237832,1,0,0:0:0:0:
192,192,237832,1,0,0:0:0:0:
64,192,237853,1,0,0:0:0:0:
320,192,237919,1,0,0:0:0:0:
448,192,237919,1,0,0:0:0:0:
64,192,238006,1,0,0:0:0:0:
448,192,238006,1,0,0:0:0:0:
192,192,238028,1,0,0:0:0:0:
320,192,238093,1,0,0:0:0:0:
64,192,238115,1,0,0:0:0:0:
192,192,238137,1,0,0:0:0:0:
448,192,238202,1,0,0:0:0:0:
320,192,238224,1,0,0:0:0:0:
192,192,238246,1,0,0:0:0:0:
64,192,238268,1,0,0:0:0:0:
448,192,238355,1,0,0:0:0:0:
320,192,238355,1,0,0:0:0:0:
192,192,238398,1,0,0:0:0:0:
64,192,238442,1,0,0:0:0:0:
192,192,238486,1,0,0:0:0:0:
320,192,238529,1,0,0:0:0:0:
448,192,238573,1,0,0:0:0:0:
320,192,238616,1,0,0:0:0:0:
448,192,238660,1,0,0:0:0:0:
64,192,238704,1,0,0:0:0:0:
192,192,238704,1,0,0:0:0:0:
320,192,238725,1,0,0:0:0:0:
192,192,238791,1,0,0:0:0:0:
448,192,238791,1,0,0:0:0:0:
64,192,238878,1,0,0:0:0:0:
192,192,238878,1,0,0:0:0:0:
320,192,238965,1,0,0:0:0:0:
448,192,238965,1,0,0:0:0:0:
192,192,238987,1,0,0:0:0:0:
64,192,239052,1,0,0:0:0:0:
320,192,239052,1,0,0:0:0:0:
192,192,239140,1,0,0:0:0:0:
448,192,239140,1,0,0:0:0:0:
320,192,239227,1,0,0:0:0:0:
64,192,239227,1,0,0:0:0:0:
448,192,239249,1,0,0:0:0:0:
192,192,239314,1,0,0:0:0:0:
64,192,239314,1,0,0:0:0:0:
192,192,239401,1,0,0:0:0:0:
320,192,239401,1,0,0:0:0:0:
448,192,239401,1,0,0:0:0:0:
320,192,239479,1,0,0:0:0:0:
192,192,239518,1,0,0:0:0:0:
448,192,239556,1,0,0:0:0:0:
320,192,239595,1,0,0:0:0:0:
192,192,239634,1,0,0:0:0:0:
64,192,239673,1,0,0:0:0:0:
448,192,239750,1,0,0:0:0:0:
320,192,239750,1,0,0:0:0:0:
64,192,239794,1,0,0:0:0:0:
192,192,239837,1,0,0:0:0:0:
448,192,239881,1,0,0:0:0:0:
192,192,239925,1,0,0:0:0:0:
320,192,239925,1,0,0:0:0:0:
64,192,239968,1,0,0:0:0:0:
320,192,240012,1,0,0:0:0:0:
64,192,240099,1,0,0:0:0:0:
192,192,240099,1,0,0:0:0:0:
448,192,240121,1,0,0:0:0:0:
192,192,240177,1,0,0:0:0:0:
320,192,240215,1,0,0:0:0:0:
64,192,240254,1,0,0:0:0:0:
448,192,240293,1,0,0:0:0:0:
320,192,240332,1,0,0:0:0:0:
64,192,240370,1,0,0:0:0:0:
192,192,240370,1,0,0:0:0:0:
192,192,240448,1,0,0:0:0:0:
448,192,240448,1,0,0:0:0:0:
320,192,240470,1,0,0:0:0:0:
64,192,240525,1,0,0:0:0:0:
448,192,240557,1,0,0:0:0:0:
320,192,240600,1,0,0:0:0:0:
64,192,240622,1,0,0:0:0:0:
192,192,240657,1,0,0:0:0:0:
448,192,240709,1,0,0:0:0:0:
320,192,240739,1,0,0:0:0:0:
192,192,240768,1,0,0:0:0:0:
64,192,240797,1,0,0:0:0:0:
448,192,240818,1,0,0:0:0:0:
320,192,240826,1,0,0:0:0:0:
192,192,240884,1,0,0:0:0:0:
448,192,240906,1,0,0:0:0:0:
64,192,240952,1,0,0:0:0:0:
192,192,240990,1,0,0:0:0:0:
320,192,241029,1,0,0:0:0:0:
64,192,241087,1,0,0:0:0:0:
192,192,241116,1,0,0:0:0:0:
448,192,241146,1,0,0:0:0:0:
320,192,241146,1,0,0:0:0:0:
320,192,241233,1,0,0:0:0:0:
64,192,241233,1,0,0:0:0:0:
192,192,241320,1,0,0:0:0:0:
448,192,241342,1,0,0:0:0:0:
64,192,241364,1,0,0:0:0:0:
320,192,241407,1,0,0:0:0:0:
192,192,241494,1,0,0:0:0:0:
64,192,241494,1,0,0:0:0:0:
448,192,241538,1,0,0:0:0:0:
320,192,241582,1,0,0:0:0:0:
192,192,241582,1,0,0:0:0:0:
448,192,241625,1,0,0:0:0:0:
64,192,241649,1,0,0:0:0:0:
320,192,241712,1,0,0:0:0:0:
192,192,241712,1,0,0:0:0:0:
64,192,241766,1,0,0:0:0:0:
448,192,241843,1,0,0:0:0:0:
320,192,241843,1,0,0:0:0:0:
192,192,241865,1,0,0:0:0:0:
448,192,241930,1,0,0:0:0:0:
320,192,241959,1,0,0:0:0:0:
64,192,241989,1,0,0:0:0:0:
448,192,242018,1,0,0:0:0:0:
192,192,242047,1,0,0:0:0:0:
320,192,242076,1,0,0:0:0:0:
64,192,242114,1,0,0:0:0:0:
192,192,242148,1,0,0:0:0:0:
448,192,242192,1,0,0:0:0:0:
320,192,242192,1,0,0:0:0:0:
64,192,242214,1,0,0:0:0:0:
320,192,242279,1,0,0:0:0:0:
192,192,242301,1,0,0:0:0:0:
64,192,242366,1,0,0:0:0:0:
448,192,242388,1,0,0:0:0:0:
192,192,242432,1,0,0:0:0:0:
320,192,242454,1,0,0:0:0:0:
320,192,242541,1,0,0:0:0:0:
192,192,242541,1,0,0:0:0:0:
64,192,242541,1,0,0:0:0:0:
448,192,242584,1,0,0:0:0:0:
64,192,242628,1,0,0:0:0:0:
448,192,242672,1,0,0:0:0:0:
320,192,242715,1,0,0:0:0:0:
192,192,242759,1,0,0:0:0:0:
64,192,242802,1,0,0:0:0:0:
448,192,242846,1,0,0:0:0:0:
320,192,242890,1,0,0:0:0:0:
192,192,242890,1,0,0:0:0:0:
320,192,242977,1,0,0:0:0:0:
192,192,243064,1,0,0:0:0:0:
64,192,243064,1,0,0:0:0:0:
448,192,243108,1,0,0:0:0:0:
192,192,243151,1,0,0:0:0:0:
64,192,243151,1,0,0:0:0:0:
448,192,243239,1,0,0:0:0:0:
320,192,243239,1,0,0:0:0:0:
64,192,243277,1,0,0:0:0:0:
320,192,243326,1,0,0:0:0:0:
192,192,243348,1,0,0:0:0:0:
448,192,243391,1,0,0:0:0:0:
64,192,243413,1,0,0:0:0:0:
192,192,243457,1,0,0:0:0:0:
320,192,243500,1,0,0:0:0:0:
448,192,243544,1,0,0:0:0:0:
64,192,243587,1,0,0:0:0:0:
192,192,243609,1,0,0:0:0:0:
448,192,243646,1,0,0:0:0:0:
64,192,243675,1,0,0:0:0:0:
320,192,243696,1,0,0:0:0:0:
448,192,243762,1,0,0:0:0:0:
192,192,243762,1,0,0:0:0:0:
320,192,243784,1,0,0:0:0:0:
192,192,243849,1,0,0:0:0:0:
448,192,243936,1,0,0:0:0:0:
320,192,243936,1,0,0:0:0:0:
64,192,243958,1,0,0:0:0:0:
448,192,244023,1,0,0:0:0:0:
192,192,244023,1,0,0:0:0:0:
64,192,244111,1,0,0:0:0:0:
192,192,244111,1,0,0:0:0:0:
448,192,244132,1,0,0:0:0:0:
320,192,244198,1,0,0:0:0:0:
64,192,244198,1,0,0:0:0:0:
448,192,244285,1,0,0:0:0:0:
320,192,244285,1,0,0:0:0:0:
64,192,244307,1,0,0:0:0:0:
448,192,244372,1,0,0:0:0:0:
192,192,244372,1,0,0:0:0:0:
64,192,244459,1,0,0:0:0:0:
192,192,244459,1,0,0:0:0:0:
448,192,244481,1,0,0:0:0:0:
64,192,244547,1,0,0:0:0:0:
320,192,244547,1,0,0:0:0:0:
448,192,244634,1,0,0:0:0:0:
320,192,244634,1,0,0:0:0:0:
64,192,244656,1,0,0:0:0:0:
448,192,244721,1,0,0:0:0:0:
192,192,244721,1,0,0:0:0:0:
320,192,244808,1,0,0:0:0:0:
192,192,244808,1,0,0:0:0:0:
448,192,244896,1,0,0:0:0:0:
64,192,244896,1,0,0:0:0:0:
320,192,244896,1,0,0:0:0:0:
64,192,244983,1,0,0:0:0:0:
192,192,244983,1,0,0:0:0:0:
320,192,244983,1,0,0:0:0:0:
448,192,245070,1,0,0:0:0:0:
320,192,245099,1,0,0:0:0:0:
192,192,245128,1,0,0:0:0:0:
64,192,245157,1,0,0:0:0:0:
64,192,245273,1,0,0:0:0:0:
192,192,245332,1,0,0:0:0:0:
448,192,245332,1,0,0:0:0:0:
320,192,245332,1,0,0:0:0:0:
448,192,245419,1,0,0:0:0:0:
320,192,245419,1,0,0:0:0:0:
64,192,245477,1,0,0:0:0:0:
192,192,245506,1,0,0:0:0:0:
320,192,245535,1,0,0:0:0:0:
448,192,245564,1,0,0:0:0:0:
192,192,245680,1,0,0:0:0:0:
320,192,245680,1,0,0:0:0:0:
64,192,245680,1,0,0:0:0:0:
448,192,245724,1,0,0:0:0:0:
64,192,245768,1,0,0:0:0:0:
320,192,245811,1,0,0:0:0:0:
192,192,245833,1,0,0:0:0:0:
64,192,245855,1,0,0:0:0:0:
192,192,245942,1,0,0:0:0:0:
448,192,245942,1,0,0:0:0:0:
64,192,245986,1,0,0:0:0:0:
448,192,246029,1,0,0:0:0:0:
192,192,246073,1,0,0:0:0:0:
320,192,246095,1,0,0:0:0:0:
448,192,246116,1,0,0:0:0:0:
192,192,246204,1,0,0:0:0:0:
64,192,246204,1,0,0:0:0:0:
320,192,246233,1,0,0:0:0:0:
64,192,246291,1,0,0:0:0:0:
448,192,246291,1,0,0:0:0:0:
448,192,246378,1,0,0:0:0:0:
320,192,246378,1,0,0:0:0:0:
192,192,246400,1,0,0:0:0:0:
320,192,246465,1,0,0:0:0:0:
64,192,246494,1,0,0:0:0:0:
192,192,246523,1,0,0:0:0:0:
448,192,246552,1,0,0:0:0:0:
64,192,246582,1,0,0:0:0:0:
192,192,246611,1,0,0:0:0:0:
448,192,246640,1,0,0:0:0:0:
64,192,246727,1,0,0:0:0:0:
192,192,246727,1,0,0:0:0:0:
320,192,246749,1,0,0:0:0:0:
64,192,246814,1,0,0:0:0:0:
448,192,246827,1,0,0:0:0:0:
320,192,246858,1,0,0:0:0:0:
192,192,246882,1,0,0:0:0:0:
448,192,246945,1,0,0:0:0:0:
320,192,246967,1,0,0:0:0:0:
64,192,246989,1,0,0:0:0:0:
192,192,247076,1,0,0:0:0:0:
320,192,247076,1,0,0:0:0:0:
64,192,247098,1,0,0:0:0:0:
192,192,247163,1,0,0:0:0:0:
448,192,247185,1,0,0:0:0:0:
320,192,247250,1,0,0:0:0:0:
64,192,247250,1,0,0:0:0:0:
448,192,247337,1,0,0:0:0:0:
320,192,247337,1,0,0:0:0:0:
192,192,247359,1,0,0:0:0:0:
320,192,247425,1,0,0:0:0:0:
64,192,247425,1,0,0:0:0:0:
192,192,247512,1,0,0:0:0:0:
64,192,247512,1,0,0:0:0:0:
448,192,247599,1,0,0:0:0:0:
320,192,247599,1,0,0:0:0:0:
64,192,247621,1,0,0:0:0:0:
448,192,247686,1,0,0:0:0:0:
192,192,247686,1,0,0:0:0:0:
192,192,247773,1,0,0:0:0:0:
320,192,247773,1,0,0:0:0:0:
64,192,247773,1,0,0:0:0:0:
448,192,247861,1,0,0:0:0:0:
320,192,247890,1,0,0:0:0:0:
192,192,247926,1,0,0:0:0:0:
64,192,247967,1,0,0:0:0:0:
320,192,248006,1,0,0:0:0:0:
192,192,248045,1,0,0:0:0:0:
64,192,248083,1,0,0:0:0:0:
448,192,248122,1,0,0:0:0:0:
320,192,248122,1,0,0:0:0:0:
192,192,248180,1,0,0:0:0:0:
448,192,248239,1,0,0:0:0:0:
192,192,248297,1,0,0:0:0:0:
448,192,248355,1,0,0:0:0:0:
192,192,248413,1,0,0:0:0:0:
448,192,248471,1,0,0:0:0:0:
320,192,248471,1,0,0:0:0:0:
64,192,248493,1,0,0:0:0:0:
192,192,248558,1,0,0:0:0:0:
320,192,248558,1,0,0:0:0:0:
320,192,248646,1,0,0:0:0:0:
64,192,248646,1,0,0:0:0:0:
448,192,248733,1,0,0:0:0:0:
192,192,248733,1,0,0:0:0:0:
64,192,248755,1,0,0:0:0:0:
320,192,248820,1,0,0:0:0:0:
192,192,248820,1,0,0:0:0:0:
192,192,248907,1,0,0:0:0:0:
448,192,248907,1,0,0:0:0:0:
448,192,248994,1,0,0:0:0:0:
64,192,248994,1,0,0:0:0:0:
320,192,249016,1,0,0:0:0:0:
320,192,249082,1,0,0:0:0:0:
192,192,249082,1,0,0:0:0:0:
192,192,249169,1,0,0:0:0:0:
64,192,249169,1,0,0:0:0:0:
448,192,249169,1,0,0:0:0:0:
448,192,249278,1,0,0:0:0:0:
320,192,249300,1,0,0:0:0:0:
192,192,249321,1,0,0:0:0:0:
448,192,249387,1,0,0:0:0:0:
320,192,249409,1,0,0:0:0:0:
192,192,249430,1,0,0:0:0:0:
64,192,249518,1,0,0:0:0:0:
448,192,249518,1,0,0:0:0:0:
320,192,249518,1,0,0:0:0:0:
192,192,249561,1,0,0:0:0:0:
64,192,249605,1,0,0:0:0:0:
192,192,249648,1,0,0:0:0:0:
320,192,249692,1,0,0:0:0:0:
448,192,249736,1,0,0:0:0:0:
320,192,249779,1,0,0:0:0:0:
448,192,249823,1,0,0:0:0:0:
192,192,249866,1,0,0:0:0:0:
64,192,249866,1,0,0:0:0:0:
320,192,249888,1,0,0:0:0:0:
192,192,249954,1,0,0:0:0:0:
64,192,249954,1,0,0:0:0:0:
192,192,250041,1,0,0:0:0:0:
448,192,250041,1,0,0:0:0:0:
448,192,250128,1,0,0:0:0:0:
64,192,250128,1,0,0:0:0:0:
320,192,250150,1,0,0:0:0:0:
192,192,250215,1,0,0:0:0:0:
320,192,250215,1,0,0:0:0:0:
320,192,250302,1,0,0:0:0:0:
64,192,250302,1,0,0:0:0:0:
192,192,250390,1,0,0:0:0:0:
448,192,250390,1,0,0:0:0:0:
320,192,250411,1,0,0:0:0:0:
64,192,250477,1,0,0:0:0:0:
192,192,250477,1,0,0:0:0:0:
64,192,250564,1,0,0:0:0:0:
448,192,250564,1,0,0:0:0:0:
320,192,250564,1,0,0:0:0:0:
192,192,250622,1,0,0:0:0:0:
448,192,250680,1,0,0:0:0:0:
320,192,250739,1,0,0:0:0:0:
64,192,250739,1,0,0:0:0:0:
192,192,250797,1,0,0:0:0:0:
320,192,250855,1,0,0:0:0:0:
192,192,250913,1,0,0:0:0:0:
448,192,250913,1,0,0:0:0:0:
64,192,250935,1,0,0:0:0:0:
192,192,251022,1,0,0:0:0:0:
448,192,251022,1,0,0:0:0:0:
64,192,251044,1,0,0:0:0:0:
192,192,251131,1,0,0:0:0:0:
448,192,251131,1,0,0:0:0:0:
64,192,251153,1,0,0:0:0:0:
448,192,251262,1,0,0:0:0:0:
320,192,251262,1,0,0:0:0:0:
64,192,251284,1,0,0:0:0:0:
192,192,251349,1,0,0:0:0:0:
320,192,251349,1,0,0:0:0:0:
448,192,251436,1,0,0:0:0:0:
192,192,251436,1,0,0:0:0:0:
320,192,251523,1,0,0:0:0:0:
448,192,251523,1,0,0:0:0:0:
64,192,251545,1,0,0:0:0:0:
320,192,251611,1,0,0:0:0:0:
192,192,251611,1,0,0:0:0:0:
448,192,251698,1,0,0:0:0:0:
192,192,251698,1,0,0:0:0:0:
64,192,251785,1,0,0:0:0:0:
320,192,251785,1,0,0:0:0:0:
448,192,251807,1,0,0:0:0:0:
64,192,251872,1,0,0:0:0:0:
192,192,251872,1,0,0:0:0:0:
448,192,251959,1,0,0:0:0:0:
320,192,251959,1,0,0:0:0:0:
192,192,251959,1,0,0:0:0:0:
448,192,252037,1,0,0:0:0:0:
320,192,252076,1,0,0:0:0:0:
192,192,252114,1,0,0:0:0:0:
64,192,252153,1,0,0:0:0:0:
448,192,252221,1,0,0:0:0:0:
192,192,252221,1,0,0:0:0:0:
448,192,252308,1,0,0:0:0:0:
320,192,252308,1,0,0:0:0:0:
192,192,252330,1,0,0:0:0:0:
320,192,252396,1,0,0:0:0:0:
64,192,252417,1,0,0:0:0:0:
192,192,252483,1,0,0:0:0:0:
448,192,252483,1,0,0:0:0:0:
192,192,252570,1,0,0:0:0:0:
320,192,252599,1,0,0:0:0:0:
448,192,252628,1,0,0:0:0:0:
64,192,252657,1,0,0:0:0:0:
320,192,252679,1,0,0:0:0:0:
64,192,252744,1,0,0:0:0:0:
192,192,252788,1,0,0:0:0:0:
448,192,252832,1,0,0:0:0:0:
320,192,252853,1,0,0:0:0:0:
448,192,252919,1,0,0:0:0:0:
64,192,252919,1,0,0:0:0:0:
192,192,252941,1,0,0:0:0:0:
320,192,253006,1,0,0:0:0:0:
64,192,253028,1,0,0:0:0:0:
192,192,253093,1,0,0:0:0:0:
320,192,253106,1,0,0:0:0:0:
64,192,253180,1,0,0:0:0:0:
192,192,253180,1,0,0:0:0:0:
448,192,253202,1,0,0:0:0:0:
320,192,253268,1,0,0:0:0:0:
192,192,253311,1,0,0:0:0:0:
320,192,253355,1,0,0:0:0:0:
448,192,253355,1,0,0:0:0:0:
64,192,253355,1,0,0:0:0:0:
192,192,253432,1,0,0:0:0:0:
448,192,253442,1,0,0:0:0:0:
64,192,253500,1,0,0:0:0:0:
192,192,253529,1,0,0:0:0:0:
320,192,253558,1,0,0:0:0:0:
448,192,253587,1,0,0:0:0:0:
320,192,253675,1,0,0:0:0:0:
64,192,253704,1,0,0:0:0:0:
192,192,253704,1,0,0:0:0:0:
448,192,253747,1,0,0:0:0:0:
192,192,253791,1,0,0:0:0:0:
320,192,253834,1,0,0:0:0:0:
64,192,253878,1,0,0:0:0:0:
448,192,253900,1,0,0:0:0:0:
320,192,253965,1,0,0:0:0:0:
192,192,253965,1,0,0:0:0:0:
64,192,253987,1,0,0:0:0:0:
192,192,254052,1,0,0:0:0:0:
448,192,254052,1,0,0:0:0:0:
320,192,254052,1,0,0:0:0:0:
320,192,254140,1,0,0:0:0:0:
64,192,254183,1,0,0:0:0:0:
192,192,254227,1,0,0:0:0:0:
448,192,254249,1,0,0:0:0:0:
64,192,254314,1,0,0:0:0:0:
320,192,254314,1,0,0:0:0:0:
192,192,254314,1,0,0:0:0:0:
64,192,254401,1,0,0:0:0:0:
320,192,254430,1,0,0:0:0:0:
192,192,254471,1,0,0:0:0:0:
448,192,254489,1,0,0:0:0:0:
320,192,254541,1,0,0:0:0:0:
64,192,254576,1,0,0:0:0:0:
192,192,254598,1,0,0:0:0:0:
448,192,254619,1,0,0:0:0:0:
320,192,254663,1,0,0:0:0:0:
64,192,254685,1,0,0:0:0:0:
448,192,254750,1,0,0:0:0:0:
192,192,254750,1,0,0:0:0:0:
320,192,254772,1,0,0:0:0:0:
64,192,254816,1,0,0:0:0:0:
448,192,254859,1,0,0:0:0:0:
192,192,254881,1,0,0:0:0:0:
320,192,254903,1,0,0:0:0:0:
64,192,254968,1,0,0:0:0:0:
192,192,255012,1,0,0:0:0:0:
448,192,255029,1,0,0:0:0:0:
192,192,255099,1,0,0:0:0:0:
64,192,255099,1,0,0:0:0:0:
320,192,255099,1,0,0:0:0:0:
320,192,255186,1,0,0:0:0:0:
192,192,255230,1,0,0:0:0:0:
64,192,255273,1,0,0:0:0:0:
448,192,255295,1,0,0:0:0:0:
192,192,255361,1,0,0:0:0:0:
448,192,255382,1,0,0:0:0:0:
64,192,255448,1,0,0:0:0:0:
192,192,255448,1,0,0:0:0:0:
320,192,255448,1,0,0:0:0:0:
320,192,255535,1,0,0:0:0:0:
64,192,255579,1,0,0:0:0:0:
192,192,255622,1,0,0:0:0:0:
448,192,255644,1,0,0:0:0:0:
320,192,255709,1,0,0:0:0:0:
64,192,255709,1,0,0:0:0:0:
448,192,255797,1,0,0:0:0:0:
320,192,255797,1,0,0:0:0:0:
192,192,255797,1,0,0:0:0:0:
64,192,255884,1,0,0:0:0:0:
192,192,255913,1,0,0:0:0:0:
320,192,255942,1,0,0:0:0:0:
448,192,255971,1,0,0:0:0:0:
64,192,255990,1,0,0:0:0:0:
320,192,256029,1,0,0:0:0:0:
192,192,256068,1,0,0:0:0:0:
64,192,256107,1,0,0:0:0:0:
192,192,256146,1,0,0:0:0:0:
320,192,256184,1,0,0:0:0:0:
448,192,256223,1,0,0:0:0:0:
192,192,256262,1,0,0:0:0:0:
448,192,256301,1,0,0:0:0:0:
320,192,256339,1,0,0:0:0:0:
64,192,256378,1,0,0:0:0:0:
192,192,256407,1,0,0:0:0:0:
320,192,256436,1,0,0:0:0:0:
448,192,256465,1,0,0:0:0:0:
64,192,256494,1,0,0:0:0:0:
192,192,256494,1,0,0:0:0:0:
320,192,256552,1,0,0:0:0:0:
64,192,256611,1,0,0:0:0:0:
448,192,256669,1,0,0:0:0:0:
64,192,256727,1,0,0:0:0:0:
320,192,256756,1,0,0:0:0:0:
192,192,256756,1,0,0:0:0:0:
320,192,256843,1,0,0:0:0:0:
448,192,256843,1,0,0:0:0:0:
192,192,256865,1,0,0:0:0:0:
64,192,256930,1,0,0:0:0:0:
448,192,256952,1,0,0:0:0:0:
320,192,257018,1,0,0:0:0:0:
64,192,257018,1,0,0:0:0:0:
192,192,257039,1,0,0:0:0:0:
448,192,257105,1,0,0:0:0:0:
64,192,257127,1,0,0:0:0:0:
320,192,257192,1,0,0:0:0:0:
192,192,257214,1,0,0:0:0:0:
64,192,257279,1,0,0:0:0:0:
448,192,257279,1,0,0:0:0:0:
320,192,257301,1,0,0:0:0:0:
64,192,257366,1,0,0:0:0:0:
192,192,257388,1,0,0:0:0:0:
320,192,257454,1,0,0:0:0:0:
64,192,257475,1,0,0:0:0:0:
192,192,257541,1,0,0:0:0:0:
320,192,257541,1,0,0:0:0:0:
448,192,257563,1,0,0:0:0:0:
64,192,257628,1,0,0:0:0:0:
320,192,257650,1,0,0:0:0:0:
448,192,257715,1,0,0:0:0:0:
192,192,257737,1,0,0:0:0:0:
448,192,257802,1,0,0:0:0:0:
192,192,257824,1,0,0:0:0:0:
64,192,257890,1,0,0:0:0:0:
320,192,257890,1,0,0:0:0:0:
448,192,257911,1,0,0:0:0:0:
192,192,257977,1,0,0:0:0:0:
320,192,257999,1,0,0:0:0:0:
64,192,258064,1,0,0:0:0:0:
192,192,258086,1,0,0:0:0:0:
320,192,258151,1,0,0:0:0:0:
448,192,258151,1,0,0:0:0:0:
64,192,258173,1,0,0:0:0:0:
192,192,258239,1,0,0:0:0:0:
448,192,258239,1,0,0:0:0:0:
320,192,258260,1,0,0:0:0:0:
64,192,258326,1,0,0:0:0:0:
192,192,258348,1,0,0:0:0:0:
448,192,258413,1,0,0:0:0:0:
320,192,258413,1,0,0:0:0:0:
64,192,258435,1,0,0:0:0:0:
448,192,258500,1,0,0:0:0:0:
192,192,258522,1,0,0:0:0:0:
64,192,258587,1,0,0:0:0:0:
320,192,258609,1,0,0:0:0:0:
192,192,258675,1,0,0:0:0:0:
448,192,258675,1,0,0:0:0:0:
64,192,258696,1,0,0:0:0:0:
448,192,258762,1,0,0:0:0:0:
320,192,258784,1,0,0:0:0:0:
192,192,258827,1,0,0:0:0:0:
448,192,258871,1,0,0:0:0:0:
192,192,258936,1,0,0:0:0:0:
64,192,258936,1,0,0:0:0:0:
320,192,258936,1,0,0:0:0:0:
448,192,258994,1,0,0:0:0:0:
320,192,259052,1,0,0:0:0:0:
192,192,259111,1,0,0:0:0:0:
64,192,259169,1,0,0:0:0:0:
192,192,259227,1,0,0:0:0:0:
64,192,259285,1,0,0:0:0:0:
448,192,259285,1,0,0:0:0:0:
320,192,259285,1,0,0:0:0:0:
320,192,259401,1,0,0:0:0:0:
192,192,259416,1,0,0:0:0:0:
192,192,259547,1,0,0:0:0:0:
448,192,259547,1,0,0:0:0:0:
64,192,259634,1,0,0:0:0:0:
192,192,259634,1,0,0:0:0:0:
320,192,259656,1,0,0:0:0:0:
448,192,259721,1,0,0:0:0:0:
192,192,259743,1,0,0:0:0:0:
64,192,259808,1,0,0:0:0:0:
320,192,259808,1,0,0:0:0:0:
448,192,259830,1,0,0:0:0:0:
64,192,259896,1,0,0:0:0:0:
320,192,259917,1,0,0:0:0:0:
192,192,259983,1,0,0:0:0:0:
448,192,260005,1,0,0:0:0:0:
64,192,260070,1,0,0:0:0:0:
192,192,260070,1,0,0:0:0:0:
320,192,260092,1,0,0:0:0:0:
448,192,260157,1,0,0:0:0:0:
64,192,260179,1,0,0:0:0:0:
320,192,260223,1,0,0:0:0:0:
192,192,260244,1,0,0:0:0:0:
64,192,260310,1,0,0:0:0:0:
448,192,260332,1,0,0:0:0:0:
320,192,260332,1,0,0:0:0:0:
448,192,260419,1,0,0:0:0:0:
64,192,260448,1,0,0:0:0:0:
192,192,260477,1,0,0:0:0:0:
320,192,260506,1,0,0:0:0:0:
448,192,260535,1,0,0:0:0:0:
192,192,260593,1,0,0:0:0:0:
64,192,260680,1,0,0:0:0:0:
192,192,260680,1,0,0:0:0:0:
448,192,260719,1,0,0:0:0:0:
320,192,260758,1,0,0:0:0:0:
64,192,260797,1,0,0:0:0:0:
448,192,260835,1,0,0:0:0:0:
320,192,260874,1,0,0:0:0:0:
192,192,260942,1,0,0:0:0:0:
64,192,260942,1,0,0:0:0:0:
64,192,261029,1,0,0:0:0:0:
448,192,261029,1,0,0:0:0:0:
320,192,261051,1,0,0:0:0:0:
448,192,261116,1,0,0:0:0:0:
192,192,261138,1,0,0:0:0:0:
320,192,261204,1,0,0:0:0:0:
64,192,261204,1,0,0:0:0:0:
192,192,261225,1,0,0:0:0:0:
64,192,261291,1,0,0:0:0:0:
320,192,261313,1,0,0:0:0:0:
192,192,261378,1,0,0:0:0:0:
448,192,261378,1,0,0:0:0:0:
448,192,261465,1,0,0:0:0:0:
64,192,261465,1,0,0:0:0:0:
192,192,261494,1,0,0:0:0:0:
320,192,261523,1,0,0:0:0:0:
64,192,261582,1,0,0:0:0:0:
448,192,261640,1,0,0:0:0:0:
320,192,261640,1,0,0:0:0:0:
192,192,261669,1,0,0:0:0:0:
64,192,261698,1,0,0:0:0:0:
64,192,261814,1,0,0:0:0:0:
448,192,261901,1,0,0:0:0:0:
320,192,261901,1,0,0:0:0:0:
64,192,261930,1,0,0:0:0:0:
192,192,261959,1,0,0:0:0:0:
320,192,261989,1,0,0:0:0:0:
448,192,262018,1,0,0:0:0:0:
192,192,262076,1,0,0:0:0:0:
64,192,262076,1,0,0:0:0:0:
320,192,262134,1,0,0:0:0:0:
192,192,262163,1,0,0:0:0:0:
448,192,262250,1,0,0:0:0:0:
320,192,262250,1,0,0:0:0:0:
320,192,262366,1,0,0:0:0:0:
64,192,262425,1,0,0:0:0:0:
192,192,262425,1,0,0:0:0:0:
448,192,262468,1,0,0:0:0:0:
320,192,262512,1,0,0:0:0:0:
64,192,262541,1,0,0:0:0:0:
448,192,262555,1,0,0:0:0:0:
320,192,262599,1,0,0:0:0:0:
64,192,262657,1,0,0:0:0:0:
192,192,262686,1,0,0:0:0:0:
320,192,262730,1,0,0:0:0:0:
192,192,262773,1,0,0:0:0:0:
448,192,262773,1,0,0:0:0:0:
64,192,262839,1,0,0:0:0:0:
448,192,262861,1,0,0:0:0:0:
192,192,262882,1,0,0:0:0:0:
320,192,262948,1,0,0:0:0:0:
64,192,262977,1,0,0:0:0:0:
448,192,263035,1,0,0:0:0:0:
320,192,263064,1,0,0:0:0:0:
192,192,263093,1,0,0:0:0:0:
64,192,263122,1,0,0:0:0:0:
448,192,263122,1,0,0:0:0:0:
320,192,263166,1,0,0:0:0:0:
64,192,263209,1,0,0:0:0:0:
448,192,263253,1,0,0:0:0:0:
192,192,263297,1,0,0:0:0:0:
320,192,263340,1,0,0:0:0:0:
448,192,263384,1,0,0:0:0:0:
320,192,263427,1,0,0:0:0:0:
192,192,263471,1,0,0:0:0:0:
64,192,263471,1,0,0:0:0:0:
448,192,263515,1,0,0:0:0:0:
64,192,263558,1,0,0:0:0:0:
320,192,263602,1,0,0:0:0:0:
192,192,263646,1,0,0:0:0:0:
64,192,263689,1,0,0:0:0:0:
192,192,263733,1,0,0:0:0:0:
320,192,263776,1,0,0:0:0:0:
64,192,263820,1,0,0:0:0:0:
448,192,263820,1,0,0:0:0:0:
192,192,263878,1,0,0:0:0:0:
320,192,263907,1,0,0:0:0:0:
448,192,263936,1,0,0:0:0:0:
192,192,263994,1,0,0:0:0:0:
64,192,264038,1,0,0:0:0:0:
320,192,264082,1,0,0:0:0:0:
448,192,264125,1,0,0:0:0:0:
192,192,264169,1,0,0:0:0:0:
320,192,264169,1,0,0:0:0:0:
64,192,264212,1,0,0:0:0:0:
448,192,264256,1,0,0:0:0:0:
320,192,264300,1,0,0:0:0:0:
192,192,264343,1,0,0:0:0:0:
64,192,264372,1,0,0:0:0:0:
448,192,264401,1,0,0:0:0:0:
192,192,264459,1,0,0:0:0:0:
320,192,264489,1,0,0:0:0:0:
64,192,264518,1,0,0:0:0:0:
448,192,264518,1,0,0:0:0:0:
192,192,264561,1,0,0:0:0:0:
320,192,264605,1,0,0:0:0:0:
64,192,264648,1,0,0:0:0:0:
320,192,264692,1,0,0:0:0:0:
192,192,264736,1,0,0:0:0:0:
448,192,264779,1,0,0:0:0:0:
192,192,264823,1,0,0:0:0:0:
320,192,264866,1,0,0:0:0:0:
448,192,264866,1,0,0:0:0:0:
64,192,264888,1,0,0:0:0:0:
64,192,264954,1,0,0:0:0:0:
320,192,264954,1,0,0:0:0:0:
448,192,265041,1,0,0:0:0:0:
192,192,265041,1,0,0:0:0:0:
64,192,265128,1,0,0:0:0:0:
192,192,265128,1,0,0:0:0:0:
448,192,265150,1,0,0:0:0:0:
448,192,265215,1,0,0:0:0:0:
192,192,265215,1,0,0:0:0:0:
64,192,265302,1,0,0:0:0:0:
320,192,265302,1,0,0:0:0:0:
448,192,265390,1,0,0:0:0:0:
320,192,265390,1,0,0:0:0:0:
64,192,265411,1,0,0:0:0:0:
64,192,265477,1,0,0:0:0:0:
320,192,265477,1,0,0:0:0:0:
448,192,265564,1,0,0:0:0:0:
192,192,265564,1,0,0:0:0:0:
64,192,265651,1,0,0:0:0:0:
192,192,265651,1,0,0:0:0:0:
448,192,265673,1,0,0:0:0:0:
448,192,265739,1,0,0:0:0:0:
192,192,265739,1,0,0:0:0:0:
64,192,265826,1,0,0:0:0:0:
320,192,265826,1,0,0:0:0:0:
448,192,265913,1,0,0:0:0:0:
320,192,265913,1,0,0:0:0:0:
64,192,265935,1,0,0:0:0:0:
64,192,266000,1,0,0:0:0:0:
320,192,266000,1,0,0:0:0:0:
448,192,266087,1,0,0:0:0:0:
192,192,266087,1,0,0:0:0:0:
64,192,266175,1,0,0:0:0:0:
192,192,266175,1,0,0:0:0:0:
320,192,266196,1,0,0:0:0:0:
448,192,266262,1,0,0:0:0:0:
192,192,266262,1,0,0:0:0:0:
320,192,266305,1,0,0:0:0:0:
448,192,266349,1,0,0:0:0:0:
64,192,266393,1,0,0:0:0:0:
320,192,266436,1,0,0:0:0:0:
448,192,266480,1,0,0:0:0:0:
320,192,266523,1,0,0:0:0:0:
192,192,266567,1,0,0:0:0:0:
64,192,266611,1,0,0:0:0:0:
192,192,266660,1,0,0:0:0:0:
64,192,266710,1,0,0:0:0:0:
320,192,266760,1,0,0:0:0:0:
192,192,266810,1,0,0:0:0:0:
448,192,266860,1,0,0:0:0:0:
192,192,266910,1,0,0:0:0:0:
320,192,266959,1,0,0:0:0:0:
64,192,266981,1,0,0:0:0:0:
192,192,267047,1,0,0:0:0:0:
448,192,267068,1,0,0:0:0:0:
320,192,267134,1,0,0:0:0:0:
64,192,267156,1,0,0:0:0:0:
192,192,267209,1,0,0:0:0:0:
448,192,267250,1,0,0:0:0:0:
64,192,267258,1,0,0:0:0:0:
192,192,267308,1,0,0:0:0:0:
320,192,267366,1,0,0:0:0:0:
448,192,267425,1,0,0:0:0:0:
320,192,267483,1,0,0:0:0:0:
448,192,267541,1,0,0:0:0:0:
320,192,267599,1,0,0:0:0:0:
448,192,267657,1,0,0:0:0:0:
192,192,267657,1,0,0:0:0:0:
64,192,267657,1,0,0:0:0:0:
