osu file format v14

[General]
AudioFilename: audio.mp3
AudioLeadIn: 0
PreviewTime: -1
Countdown: 0
SampleSet: Soft
StackLeniency: 0.7
Mode: 3
LetterboxInBreaks: 0
SpecialStyle: 0
WidescreenStoryboard: 0

[Editor]
DistanceSpacing: 0.85
BeatDivisor: 4
GridSize: 32
TimelineZoom: 2.2

[Metadata]
Title:Meganto Meteor
TitleUnicode:Meganto Meteor
Artist:Camellia
ArtistUnicode:Camellia
Creator:Firby_28
Version:Kataklysm
Source:
Tags:
BeatmapID:1510868
BeatmapSetID:715046

[Difficulty]
HPDrainRate:8
CircleSize:4
OverallDifficulty:7
ApproachRate:5
SliderMultiplier:1.4
SliderTickRate:1

[Events]
//Background and Video events
0,0,"maxresdefault (6).jpg",0,0
//Break Periods
//Storyboard Layer 0 (Background)
//Storyboard Layer 1 (Fail)
//Storyboard Layer 2 (Pass)
//Storyboard Layer 3 (Foreground)
//Storyboard Sound Samples

[TimingPoints]
1057,324.324324324324,4,2,0,40,1,0
1058,-40,4,2,0,40,0,0
1138,-119.047619047619,4,2,0,40,0,0
1381,-100,4,2,0,40,0,0
3002,-55.5555555555556,4,2,0,40,0,0
3043,-500,4,2,0,40,0,0
3084,-55.5555555555556,4,2,0,40,0,0
3125,-500,4,2,0,40,0,0
3165,-55.5555555555556,4,2,0,40,0,0
3206,-500,4,2,0,40,0,0
3246,-55.5555555555556,4,2,0,40,0,0
3287,-500,4,2,0,40,0,0
3327,-100,4,2,0,40,0,0
5029,-55.5555555555556,4,2,0,40,0,0
5050,-500,4,2,0,40,0,0
5070,-55.5555555555556,4,2,0,40,0,0
5091,-500,4,2,0,40,0,0
5111,-55.5555555555556,4,2,0,40,0,0
5132,-500,4,2,0,40,0,0
5151,-100,4,2,0,40,0,0
5192,-55.5555555555556,4,2,0,40,0,0
5213,-500,4,2,0,40,0,0
5232,-55.5555555555556,4,2,0,40,0,0
5253,-500,4,2,0,40,0,0
5273,-55.5555555555556,4,2,0,40,0,0
5294,-500,4,2,0,40,0,0
5313,-100,4,2,0,40,0,0
5354,-55.5555555555556,4,2,0,40,0,0
5375,-500,4,2,0,40,0,0
5394,-55.5555555555556,4,2,0,40,0,0
5415,-500,4,2,0,40,0,0
5435,-55.5555555555556,4,2,0,40,0,0
5456,-500,4,2,0,40,0,0
5475,-100,4,2,0,40,0,0
5516,-55.5555555555556,4,2,0,40,0,0
5537,-500,4,2,0,40,0,0
5597,-100,4,2,0,40,0,0
5759,-33.3333333333333,4,2,0,40,0,0
5921,-133.333333333333,4,2,0,40,0,0
6246,-33.3333333333333,4,2,0,40,0,0
6327,-294.117647058824,4,2,0,40,0,0
6570,-100,4,2,0,40,0,0
8192,-55.5555555555556,4,2,0,40,0,0
8232,-500,4,2,0,40,0,0
8273,-55.5555555555556,4,2,0,40,0,0
8313,-500,4,2,0,40,0,0
8354,-55.5555555555556,4,2,0,40,0,0
8394,-500,4,2,0,40,0,0
8435,-55.5555555555556,4,2,0,40,0,0
8475,-500,4,2,0,40,0,0
8516,-100,4,2,0,40,0,0
10259,-55.5555555555556,4,2,0,40,0,0
10279,-500,4,2,0,40,0,0
10300,-55.5555555555556,4,2,0,40,0,0
10320,-500,4,2,0,40,0,0
10340,-55.5555555555556,4,2,0,40,0,0
10361,-500,4,2,0,40,0,0
10381,-55.5555555555556,4,2,0,40,0,0
10401,-500,4,2,0,40,0,0
10421,-100,4,2,0,40,0,0
10462,-14.2857142857143,4,2,0,40,0,0
10466,-1000,4,2,0,40,0,0
10502,-14.2857142857143,4,2,0,40,0,0
10506,-1000,4,2,0,40,0,0
10543,-14.2857142857143,4,2,0,40,0,0
10547,-1000,4,2,0,40,0,0
10584,-14.2857142857143,4,2,0,40,0,0
10588,-1000,4,2,0,40,0,0
10624,-14.2857142857143,4,2,0,40,0,0
10628,-1000,4,2,0,40,0,0
10665,-14.2857142857143,4,2,0,40,0,0
10669,-1000,4,2,0,40,0,0
10705,-14.2857142857143,4,2,0,40,0,0
10709,-1000,4,2,0,40,0,0
10746,-14.2857142857143,4,2,0,40,0,0
10750,-1000,4,2,0,40,0,0
10786,-14.2857142857143,4,2,0,40,0,0
10790,-1000,4,2,0,40,0,0
10827,-14.2857142857143,4,2,0,40,0,0
10831,-1000,4,2,0,40,0,0
10867,-14.2857142857143,4,2,0,40,0,0
10871,-1000,4,2,0,40,0,0
10908,-14.2857142857143,4,2,0,40,0,0
10912,-1000,4,2,0,40,0,0
10948,-14.2857142857143,4,2,0,40,0,0
10952,-1000,4,2,0,40,0,0
11029,-66.6666666666667,4,2,0,40,0,0
11111,-100,4,2,0,40,0,0
11192,-200,4,2,0,40,0,0
11273,-400,4,2,0,40,0,0
11354,-1000,4,2,0,40,0,0
11435,-100,4,2,0,40,0,0
13462,-55.5555555555556,4,2,0,40,0,0
13502,-500,4,2,0,40,0,0
13543,-55.5555555555556,4,2,0,40,0,0
13583,-500,4,2,0,40,0,0
13624,-55.5555555555556,4,2,0,40,0,0
13664,-500,4,2,0,40,0,0
13705,-100,4,2,0,40,0,0
15408,-55.5555555555556,4,2,0,40,0,0
15428,-500,4,2,0,40,0,0
15448,-55.5555555555556,4,2,0,40,0,0
15468,-500,4,2,0,40,0,0
15489,-55.5555555555556,4,2,0,40,0,0
15509,-500,4,2,0,40,0,0
15529,-100,4,2,0,40,0,0
15570,-55.5555555555556,4,2,0,40,0,0
15611,-500,4,2,0,40,0,0
15651,-100,4,2,0,40,0,0
15732,-55.5555555555556,4,2,0,40,0,0
15752,-500,4,2,0,40,0,0
15773,-55.5555555555556,4,2,0,40,0,0
15793,-500,4,2,0,40,0,0
15813,-55.5555555555556,4,2,0,40,0,0
15833,-500,4,2,0,40,0,0
15854,-100,4,2,0,40,0,0
15894,-55.5555555555556,4,2,0,40,0,0
15914,-500,4,2,0,40,0,0
16624,-25,4,2,0,40,0,0
16665,-200,4,2,0,40,0,0
16908,-100,4,2,0,40,0,0
17273,-25,4,2,0,40,0,0
17314,-200,4,2,0,40,0,0
17556,-100,4,2,0,40,0,0
17921,-25,4,2,0,40,0,0
17962,-200,4,2,0,40,0,0
18205,-100,4,2,0,40,0,0
18570,-25,4,2,0,40,0,0
18611,-200,4,2,0,40,0,0
18854,-100,4,2,0,40,0,0
21327,-25,4,2,0,40,0,0
21408,-250,4,2,0,40,0,0
21813,-100,4,2,0,40,0,0
26516,-66.6666666666667,4,2,0,40,0,0
26597,-200,4,2,0,40,0,0
26678,-100,4,2,0,40,0,0
26759,-66.6666666666667,4,2,0,40,0,0
26840,-133.333333333333,4,2,0,40,0,0
27002,-55.5555555555556,4,2,0,40,0,0
27043,-500,4,2,0,40,0,0
27084,-55.5555555555556,4,2,0,40,0,0
27125,-500,4,2,0,40,0,0
27165,-55.5555555555556,4,2,0,40,0,0
27206,-500,4,2,0,40,0,0
27246,-55.5555555555556,4,2,0,40,0,0
27287,-500,4,2,0,40,0,0
27327,-55.5555555555556,4,2,0,40,0,0
27368,-500,4,2,0,40,0,0
27408,-55.5555555555556,4,2,0,40,0,0
27449,-500,4,2,0,40,0,0
27489,-55.5555555555556,4,2,0,40,0,0
27530,-500,4,2,0,40,0,0
27570,-55.5555555555556,4,2,0,40,0,0
27611,-500,4,2,0,40,0,0
27651,-100,4,2,0,40,0,0
29111,-55.5555555555556,4,2,0,40,0,0
29151,-500,4,2,0,40,0,0
29192,-55.5555555555556,4,2,0,40,0,0
29232,-500,4,2,0,40,0,0
29273,-100,4,2,0,40,0,0
34462,-33.3333333333333,4,2,0,40,0,0
34502,-294.117647058824,4,2,0,40,0,0
34624,-33.3333333333333,4,2,0,40,0,0
34665,-294.117647058824,4,2,0,40,0,0
34786,-100,4,2,0,40,0,0
37056,-55.5555555555556,4,2,0,40,0,0
37097,-500,4,2,0,40,0,0
37138,-55.5555555555556,4,2,0,40,0,0
37179,-500,4,2,0,40,0,0
37219,-55.5555555555556,4,2,0,40,0,0
37260,-500,4,2,0,40,0,0
37300,-55.5555555555556,4,2,0,40,0,0
37341,-500,4,2,0,40,0,0
37381,-33.3333333333333,4,2,0,40,0,0
37421,-294.117647058824,4,2,0,40,0,0
37543,-28.5714285714286,4,2,0,40,0,0
37584,-200,4,2,0,40,0,0
37786,-28.5714285714286,4,2,0,40,0,0
37827,-200,4,2,0,40,0,0
38029,-28.5714285714286,4,2,0,40,0,0
38070,-200,4,2,0,40,0,0
38273,-100,4,2,0,40,0,0
38840,-28.5714285714286,4,2,0,40,0,0
38881,-200,4,2,0,40,0,0
39084,-28.5714285714286,4,2,0,40,0,0
39125,-200,4,2,0,40,0,0
39327,-28.5714285714286,4,2,0,40,0,0
39368,-200,4,2,0,40,0,0
39570,-100,4,2,0,40,0,0
39975,-33.3333333333333,4,2,0,40,0,0
40016,-294.117647058824,4,2,0,40,0,0
40138,-28.5714285714286,4,2,0,40,0,0
40178,-200,4,2,0,40,0,0
40381,-28.5714285714286,4,2,0,40,0,0
40421,-200,4,2,0,40,0,0
40624,-28.5714285714286,4,2,0,40,0,0
40665,-200,4,2,0,40,0,0
40867,-100,4,2,0,40,0,0
41273,-55.5555555555556,4,2,0,40,0,0
41313,-500,4,2,0,40,0,0
41354,-55.5555555555556,4,2,0,40,0,0
41394,-500,4,2,0,40,0,0
41435,-55.5555555555556,4,2,0,40,0,0
41475,-500,4,2,0,40,0,0
41516,-55.5555555555556,4,2,0,40,0,0
41556,-500,4,2,0,40,0,0
41597,-55.5555555555556,4,2,0,40,0,0
41637,-500,4,2,0,40,0,0
41678,-55.5555555555556,4,2,0,40,0,0
41718,-500,4,2,0,40,0,0
41759,-55.5555555555556,4,2,0,40,0,0
41799,-500,4,2,0,40,0,0
41840,-100,4,2,0,40,0,0
41921,-33.3333333333333,4,2,0,40,0,0
41962,-294.117647058824,4,2,0,40,0,0
42084,-33.3333333333333,4,2,0,40,0,0
42125,-294.117647058824,4,2,0,40,0,0
42165,-100,4,2,0,40,0,0
42246,-33.3333333333333,4,2,0,40,0,0
42327,-294.117647058824,4,2,0,40,0,0
42570,-111.111111111111,4,2,0,40,0,0
51651,-55.5555555555556,4,2,0,40,0,0
51732,-500,4,2,0,40,0,0
51813,-55.5555555555556,4,2,0,40,0,0
51894,-500,4,2,0,40,0,0
51975,-55.5555555555556,4,2,0,40,0,0
52056,-500,4,2,0,40,0,0
52138,-55.5555555555556,4,2,0,40,0,0
52219,-500,4,2,0,40,0,0
52300,-55.5555555555556,4,2,0,40,0,0
52381,-500,4,2,0,40,0,0
52462,-55.5555555555556,4,2,0,40,0,0
52543,-500,4,2,0,40,0,0
52624,-55.5555555555556,4,2,0,40,0,0
52705,-500,4,2,0,40,0,0
52786,-55.5555555555556,4,2,0,40,0,0
52867,-500,4,2,0,40,0,0
52948,-111.111111111111,4,2,0,40,0,0
61543,-100,4,2,0,40,0,0
62029,-55.5555555555556,4,2,0,40,0,0
62111,-500,4,2,0,40,0,0
62192,-55.5555555555556,4,2,0,40,0,0
62273,-55.5555555555556,4,2,0,40,0,0
62274,-500,4,2,0,40,0,0
62354,-55.5555555555556,4,2,0,40,0,0
62355,-500,4,2,0,40,0,0
62436,-500,4,2,0,40,0,0
62516,-55.5555555555556,4,2,0,40,0,0
62597,-55.5555555555556,4,2,0,40,0,0
62598,-500,4,2,0,40,0,0
62678,-33.3333333333333,4,2,0,40,0,0
62759,-294.117647058824,4,2,0,40,0,0
62921,-100,4,2,0,40,0,0
63327,-111.111111111111,4,2,0,40,0,0
73705,-100,4,2,0,40,0,0
93165,-16.6666666666667,4,2,0,40,0,0
93813,-400,4,2,0,40,0,0
94138,-33.3333333333333,4,2,0,40,0,0
94178,-294.117647058824,4,2,0,40,0,0
94300,-55.5555555555556,4,2,0,40,0,0
94381,-500,4,2,0,40,0,0
94462,-33.3333333333333,4,2,0,40,0,0
94502,-294.117647058824,4,2,0,40,0,0
94624,-28.5714285714286,4,2,0,40,0,0
94665,-200,4,2,0,40,0,0
94867,-28.5714285714286,4,2,0,40,0,0
94908,-200,4,2,0,40,0,0
95111,-33.3333333333333,4,2,0,40,0,0
95151,-294.117647058824,4,2,0,40,0,0
95273,-28.5714285714286,4,2,0,40,0,0
95314,-200,4,2,0,40,0,0
95516,-28.5714285714286,4,2,0,40,0,0
95557,-200,4,2,0,40,0,0
95759,-33.3333333333333,4,2,0,40,0,0
95799,-294.117647058824,4,2,0,40,0,0
95921,-28.5714285714286,4,2,0,40,0,0
95962,-200,4,2,0,40,0,0
96165,-28.5714285714286,4,2,0,40,0,0
96206,-200,4,2,0,40,0,0
96408,-33.3333333333333,4,2,0,40,0,0
96448,-294.117647058824,4,2,0,40,0,0
96570,-100,4,2,0,40,0,0
96732,-33.3333333333333,4,2,0,40,0,0
96773,-294.117647058824,4,2,0,40,0,0
96894,-33.3333333333333,4,2,0,40,0,0
96935,-294.117647058824,4,2,0,40,0,0
97056,-33.3333333333333,4,2,0,40,0,0
97096,-294.117647058824,4,2,0,40,0,0
97219,-28.5714285714286,4,2,0,40,0,0
97260,-200,4,2,0,40,0,0
97462,-28.5714285714286,4,2,0,40,0,0
97503,-200,4,2,0,40,0,0
97705,-33.3333333333333,4,2,0,40,0,0
97745,-294.117647058824,4,2,0,40,0,0
97867,-28.5714285714286,4,2,0,40,0,0
97908,-200,4,2,0,40,0,0
98111,-28.5714285714286,4,2,0,40,0,0
98152,-200,4,2,0,40,0,0
98354,-33.3333333333333,4,2,0,40,0,0
98394,-294.117647058824,4,2,0,40,0,0
98516,-28.5714285714286,4,2,0,40,0,0
98557,-200,4,2,0,40,0,0
98759,-28.5714285714286,4,2,0,40,0,0
98800,-200,4,2,0,40,0,0
99002,-33.3333333333333,4,2,0,40,0,0
99042,-294.117647058824,4,2,0,40,0,0
99165,-100,4,2,0,40,0,0
99327,-55.5555555555556,4,2,0,40,0,0
99367,-500,4,2,0,40,0,0
99408,-55.5555555555556,4,2,0,40,0,0
99448,-500,4,2,0,40,0,0
99489,-55.5555555555556,4,2,0,40,0,0
99529,-500,4,2,0,40,0,0
99570,-55.5555555555556,4,2,0,40,0,0
99610,-500,4,2,0,40,0,0
99651,-55.5555555555556,4,2,0,40,0,0
99691,-500,4,2,0,40,0,0
99732,-55.5555555555556,4,2,0,40,0,0
99772,-500,4,2,0,40,0,0
99813,-55.5555555555556,4,2,0,40,0,0
99853,-500,4,2,0,40,0,0
99894,-55.5555555555556,4,2,0,40,0,0
99934,-500,4,2,0,40,0,0
99975,-55.5555555555556,4,2,0,40,0,0
100015,-500,4,2,0,40,0,0
100056,-55.5555555555556,4,2,0,40,0,0
100096,-500,4,2,0,40,0,0
100138,-55.5555555555556,4,2,0,40,0,0
100178,-500,4,2,0,40,0,0
100219,-55.5555555555556,4,2,0,40,0,0
100259,-500,4,2,0,40,0,0
100300,-55.5555555555556,4,2,0,40,0,0
100340,-500,4,2,0,40,0,0
100381,-55.5555555555556,4,2,0,40,0,0
100421,-500,4,2,0,40,0,0
100462,-55.5555555555556,4,2,0,40,0,0
100502,-500,4,2,0,40,0,0
100543,-55.5555555555556,4,2,0,40,0,0
100583,-500,4,2,0,40,0,0
100624,-55.5555555555556,4,2,0,40,0,0
100664,-500,4,2,0,40,0,0
100705,-55.5555555555556,4,2,0,40,0,0
100745,-500,4,2,0,40,0,0
100786,-55.5555555555556,4,2,0,40,0,0
100826,-500,4,2,0,40,0,0
100867,-55.5555555555556,4,2,0,40,0,0
100907,-500,4,2,0,40,0,0
100948,-55.5555555555556,4,2,0,40,0,0
100988,-500,4,2,0,40,0,0
101029,-55.5555555555556,4,2,0,40,0,0
101069,-500,4,2,0,40,0,0
101111,-55.5555555555556,4,2,0,40,0,0
101151,-500,4,2,0,40,0,0
101192,-55.5555555555556,4,2,0,40,0,0
101232,-500,4,2,0,40,0,0
101273,-55.5555555555556,4,2,0,40,0,0
101313,-500,4,2,0,40,0,0
101354,-55.5555555555556,4,2,0,40,0,0
101394,-500,4,2,0,40,0,0
101435,-55.5555555555556,4,2,0,40,0,0
101475,-500,4,2,0,40,0,0
101516,-55.5555555555556,4,2,0,40,0,0
101556,-500,4,2,0,40,0,0
101597,-55.5555555555556,4,2,0,40,0,0
101637,-500,4,2,0,40,0,0
101678,-55.5555555555556,4,2,0,40,0,0
101718,-500,4,2,0,40,0,0
101759,-55.5555555555556,4,2,0,40,0,0
101799,-500,4,2,0,40,0,0
101840,-55.5555555555556,4,2,0,40,0,0
101880,-500,4,2,0,40,0,0
101921,-55.5555555555556,4,2,0,40,0,0
101961,-500,4,2,0,40,0,0
102002,-55.5555555555556,4,2,0,40,0,0
102042,-500,4,2,0,40,0,0
102084,-55.5555555555556,4,2,0,40,0,0
102124,-500,4,2,0,40,0,0
102165,-55.5555555555556,4,2,0,40,0,0
102205,-500,4,2,0,40,0,0
102246,-55.5555555555556,4,2,0,40,0,0
102266,-500,4,2,0,40,0,0
102286,-55.5555555555556,4,2,0,40,0,0
102306,-500,4,2,0,40,0,0
102327,-55.5555555555556,4,2,0,40,0,0
102347,-500,4,2,0,40,0,0
102367,-55.5555555555556,4,2,0,40,0,0
102387,-500,4,2,0,40,0,0
102408,-55.5555555555556,4,2,0,40,0,0
102428,-500,4,2,0,40,0,0
102448,-55.5555555555556,4,2,0,40,0,0
102468,-500,4,2,0,40,0,0
102489,-55.5555555555556,4,2,0,40,0,0
102509,-500,4,2,0,40,0,0
102529,-55.5555555555556,4,2,0,40,0,0
102549,-500,4,2,0,40,0,0
102570,-55.5555555555556,4,2,0,40,0,0
102590,-500,4,2,0,40,0,0
102611,-55.5555555555556,4,2,0,40,0,0
102631,-500,4,2,0,40,0,0
102651,-55.5555555555556,4,2,0,40,0,0
102671,-500,4,2,0,40,0,0
102692,-55.5555555555556,4,2,0,40,0,0
102712,-500,4,2,0,40,0,0
102732,-55.5555555555556,4,2,0,40,0,0
102752,-500,4,2,0,40,0,0
102773,-55.5555555555556,4,2,0,40,0,0
102793,-500,4,2,0,40,0,0
102813,-55.5555555555556,4,2,0,40,0,0
102833,-500,4,2,0,40,0,0
102854,-55.5555555555556,4,2,0,40,0,0
102874,-500,4,2,0,40,0,0
102894,-55.5555555555556,4,2,0,40,0,0
102914,-500,4,2,0,40,0,0
102935,-55.5555555555556,4,2,0,40,0,0
102955,-500,4,2,0,40,0,0
102975,-55.5555555555556,4,2,0,40,0,0
102995,-500,4,2,0,40,0,0
103016,-55.5555555555556,4,2,0,40,0,0
103036,-500,4,2,0,40,0,0
103056,-55.5555555555556,4,2,0,40,0,0
103076,-500,4,2,0,40,0,0
103097,-55.5555555555556,4,2,0,40,0,0
103117,-500,4,2,0,40,0,0
103138,-55.5555555555556,4,2,0,40,0,0
103158,-500,4,2,0,40,0,0
103178,-55.5555555555556,4,2,0,40,0,0
103198,-500,4,2,0,40,0,0
103219,-55.5555555555556,4,2,0,40,0,0
103259,-500,4,2,0,40,0,0
103300,-55.5555555555556,4,2,0,40,0,0
103340,-500,4,2,0,40,0,0
103381,-55.5555555555556,4,2,0,40,0,0
103421,-500,4,2,0,40,0,0
103462,-55.5555555555556,4,2,0,40,0,0
103502,-500,4,2,0,40,0,0
103543,-100,4,2,0,40,0,0

[HitObjects]
64,192,1057,128,0,1381:0:0:0:0:
320,192,1057,1,0,0:0:0:0:
448,192,1381,1,0,0:0:0:0:
192,192,1543,1,0,0:0:0:0:
448,192,1705,1,0,0:0:0:0:
64,192,1705,1,0,0:0:0:0:
320,192,1867,1,0,0:0:0:0:
448,192,2029,1,0,0:0:0:0:
64,192,2029,1,0,0:0:0:0:
192,192,2192,1,0,0:0:0:0:
64,192,2354,1,0,0:0:0:0:
448,192,2354,1,0,0:0:0:0:
320,192,2435,1,0,0:0:0:0:
192,192,2516,1,0,0:0:0:0:
64,192,2597,1,0,0:0:0:0:
448,192,2678,1,0,0:0:0:0:
320,192,2759,1,0,0:0:0:0:
64,192,2840,1,0,0:0:0:0:
192,192,2921,1,0,0:0:0:0:
448,192,3002,1,0,0:0:0:0:
64,192,3084,1,0,0:0:0:0:
448,192,3165,1,0,0:0:0:0:
64,192,3246,1,0,0:0:0:0:
448,192,3327,1,0,0:0:0:0:
320,192,3408,1,0,0:0:0:0:
64,192,3489,1,0,0:0:0:0:
192,192,3570,1,0,0:0:0:0:
320,192,3651,1,0,0:0:0:0:
64,192,3732,1,0,0:0:0:0:
192,192,3813,1,0,0:0:0:0:
448,192,3894,1,0,0:0:0:0:
320,192,3975,1,0,0:0:0:0:
192,192,4056,1,0,0:0:0:0:
64,192,4138,1,0,0:0:0:0:
320,192,4219,1,0,0:0:0:0:
192,192,4300,1,0,0:0:0:0:
448,192,4381,1,0,0:0:0:0:
320,192,4462,1,0,0:0:0:0:
64,192,4543,1,0,0:0:0:0:
192,192,4624,1,0,0:0:0:0:
320,192,4705,1,0,0:0:0:0:
448,192,4786,1,0,0:0:0:0:
64,192,4867,1,0,0:0:0:0:
192,192,4948,1,0,0:0:0:0:
448,192,5029,1,0,0:0:0:0:
320,192,5070,1,0,0:0:0:0:
192,192,5111,1,0,0:0:0:0:
64,192,5192,128,0,5273:0:0:0:0:
448,192,5354,128,0,5435:0:0:0:0:
320,192,5394,1,0,0:0:0:0:
192,192,5435,1,0,0:0:0:0:
64,192,5516,128,0,5556:0:0:0:0:
320,192,5597,1,0,0:0:0:0:
192,192,5678,1,0,0:0:0:0:
448,192,5759,128,0,6246:0:0:0:0:
64,192,5759,1,0,0:0:0:0:
64,192,6246,128,0,6570:0:0:0:0:
192,192,6246,1,0,0:0:0:0:
320,192,6651,1,0,0:0:0:0:
448,192,6732,1,0,0:0:0:0:
320,192,6813,1,0,0:0:0:0:
192,192,6894,1,0,0:0:0:0:
64,192,6975,1,0,0:0:0:0:
320,192,7056,1,0,0:0:0:0:
192,192,7138,1,0,0:0:0:0:
320,192,7219,1,0,0:0:0:0:
64,192,7300,1,0,0:0:0:0:
192,192,7381,1,0,0:0:0:0:
320,192,7462,1,0,0:0:0:0:
448,192,7543,1,0,0:0:0:0:
64,192,7624,1,0,0:0:0:0:
320,192,7705,1,0,0:0:0:0:
192,192,7786,1,0,0:0:0:0:
64,192,7867,1,0,0:0:0:0:
192,192,7948,1,0,0:0:0:0:
320,192,8029,1,0,0:0:0:0:
448,192,8111,1,0,0:0:0:0:
64,192,8192,1,0,0:0:0:0:
320,192,8273,1,0,0:0:0:0:
192,192,8354,1,0,0:0:0:0:
448,192,8435,1,0,0:0:0:0:
64,192,8516,1,0,0:0:0:0:
448,192,8597,1,0,0:0:0:0:
320,192,8678,1,0,0:0:0:0:
64,192,8759,1,0,0:0:0:0:
192,192,8840,1,0,0:0:0:0:
448,192,8921,1,0,0:0:0:0:
320,192,9002,1,0,0:0:0:0:
192,192,9084,1,0,0:0:0:0:
64,192,9165,1,0,0:0:0:0:
320,192,9246,1,0,0:0:0:0:
64,192,9327,1,0,0:0:0:0:
192,192,9408,1,0,0:0:0:0:
64,192,9489,128,0,10138:0:0:0:0:
448,192,9570,1,0,0:0:0:0:
192,192,9651,1,0,0:0:0:0:
320,192,9732,1,0,0:0:0:0:
448,192,9813,1,0,0:0:0:0:
320,192,9894,1,0,0:0:0:0:
192,192,9975,1,0,0:0:0:0:
448,192,10056,1,0,0:0:0:0:
320,192,10138,1,0,0:0:0:0:
448,192,10259,1,0,0:0:0:0:
320,192,10300,1,0,0:0:0:0:
192,192,10340,1,0,0:0:0:0:
64,192,10381,1,0,0:0:0:0:
448,192,10462,128,0,11435:0:0:0:0:
320,192,10462,1,0,0:0:0:0:
192,192,11435,128,0,11597:0:0:0:0:
64,192,11435,128,0,11597:0:0:0:0:
64,192,11759,1,0,0:0:0:0:
448,192,11759,1,0,0:0:0:0:
320,192,11840,1,0,0:0:0:0:
192,192,11921,1,0,0:0:0:0:
448,192,12002,1,0,0:0:0:0:
64,192,12084,1,0,0:0:0:0:
320,192,12084,1,0,0:0:0:0:
192,192,12084,1,0,0:0:0:0:
448,192,12165,1,0,0:0:0:0:
192,192,12246,1,0,0:0:0:0:
320,192,12327,1,0,0:0:0:0:
64,192,12408,1,0,0:0:0:0:
448,192,12408,1,0,0:0:0:0:
192,192,12408,1,0,0:0:0:0:
320,192,12489,1,0,0:0:0:0:
192,192,12570,1,0,0:0:0:0:
64,192,12651,1,0,0:0:0:0:
192,192,12732,1,0,0:0:0:0:
320,192,12732,1,0,0:0:0:0:
448,192,12732,1,0,0:0:0:0:
64,192,12813,1,0,0:0:0:0:
320,192,12894,1,0,0:0:0:0:
192,192,12975,1,0,0:0:0:0:
64,192,13056,1,0,0:0:0:0:
320,192,13056,1,0,0:0:0:0:
448,192,13056,1,0,0:0:0:0:
192,192,13138,1,0,0:0:0:0:
320,192,13219,1,0,0:0:0:0:
448,192,13300,1,0,0:0:0:0:
64,192,13381,1,0,0:0:0:0:
320,192,13381,1,0,0:0:0:0:
192,192,13381,1,0,0:0:0:0:
448,192,13462,1,0,0:0:0:0:
192,192,13543,1,0,0:0:0:0:
320,192,13624,1,0,0:0:0:0:
64,192,13705,1,0,0:0:0:0:
448,192,13705,1,0,0:0:0:0:
320,192,13786,1,0,0:0:0:0:
192,192,13867,1,0,0:0:0:0:
320,192,13948,1,0,0:0:0:0:
64,192,14029,1,0,0:0:0:0:
192,192,14029,1,0,0:0:0:0:
448,192,14029,1,0,0:0:0:0:
320,192,14111,1,0,0:0:0:0:
64,192,14192,1,0,0:0:0:0:
192,192,14273,1,0,0:0:0:0:
64,192,14354,1,0,0:0:0:0:
320,192,14354,1,0,0:0:0:0:
448,192,14354,1,0,0:0:0:0:
192,192,14435,1,0,0:0:0:0:
320,192,14516,1,0,0:0:0:0:
448,192,14597,1,0,0:0:0:0:
320,192,14678,1,0,0:0:0:0:
192,192,14678,1,0,0:0:0:0:
64,192,14678,1,0,0:0:0:0:
448,192,14759,1,0,0:0:0:0:
320,192,14840,1,0,0:0:0:0:
192,192,14921,1,0,0:0:0:0:
64,192,15002,1,0,0:0:0:0:
320,192,15002,1,0,0:0:0:0:
448,192,15002,1,0,0:0:0:0:
192,192,15084,1,0,0:0:0:0:
448,192,15165,1,0,0:0:0:0:
320,192,15246,1,0,0:0:0:0:
192,192,15327,1,0,0:0:0:0:
64,192,15327,1,0,0:0:0:0:
448,192,15408,1,0,0:0:0:0:
320,192,15448,1,0,0:0:0:0:
192,192,15489,1,0,0:0:0:0:
64,192,15570,128,0,15651:0:0:0:0:
192,192,15651,1,0,0:0:0:0:
448,192,15732,1,0,0:0:0:0:
320,192,15773,1,0,0:0:0:0:
192,192,15813,1,0,0:0:0:0:
64,192,15894,128,0,15935:0:0:0:0:
448,192,15975,128,0,16624:0:0:0:0:
320,192,15975,1,0,0:0:0:0:
64,192,16624,128,0,16908:0:0:0:0:
192,192,16624,128,0,16908:0:0:0:0:
320,192,16948,1,0,0:0:0:0:
448,192,16948,1,0,0:0:0:0:
192,192,17273,128,0,17556:0:0:0:0:
448,192,17273,128,0,17556:0:0:0:0:
64,192,17597,1,0,0:0:0:0:
448,192,17597,1,0,0:0:0:0:
192,192,17921,128,0,18205:0:0:0:0:
64,192,17921,128,0,18205:0:0:0:0:
320,192,18246,1,0,0:0:0:0:
448,192,18246,1,0,0:0:0:0:
64,192,18570,128,0,18854:0:0:0:0:
448,192,18570,128,0,18854:0:0:0:0:
64,192,18894,1,0,0:0:0:0:
320,192,18894,1,0,0:0:0:0:
320,192,19219,1,0,0:0:0:0:
448,192,19219,1,0,0:0:0:0:
64,192,19381,1,0,0:0:0:0:
192,192,19421,1,0,0:0:0:0:
320,192,19462,1,0,0:0:0:0:
448,192,19502,1,0,0:0:0:0:
64,192,19543,1,0,0:0:0:0:
320,192,19584,1,0,0:0:0:0:
192,192,19624,1,0,0:0:0:0:
64,192,19665,1,0,0:0:0:0:
448,192,19705,1,0,0:0:0:0:
320,192,19705,1,0,0:0:0:0:
64,192,19786,1,0,0:0:0:0:
192,192,19867,1,0,0:0:0:0:
320,192,19948,1,0,0:0:0:0:
448,192,19948,1,0,0:0:0:0:
64,192,20029,1,0,0:0:0:0:
192,192,20111,1,0,0:0:0:0:
320,192,20111,1,0,0:0:0:0:
320,192,20192,1,0,0:0:0:0:
448,192,20192,1,0,0:0:0:0:
192,192,20273,1,0,0:0:0:0:
64,192,20354,1,0,0:0:0:0:
320,192,20435,1,0,0:0:0:0:
192,192,20516,1,0,0:0:0:0:
448,192,20516,1,0,0:0:0:0:
64,192,20597,1,0,0:0:0:0:
320,192,20678,1,0,0:0:0:0:
192,192,20759,1,0,0:0:0:0:
64,192,20759,1,0,0:0:0:0:
320,192,20840,1,0,0:0:0:0:
448,192,20840,1,0,0:0:0:0:
192,192,20921,1,0,0:0:0:0:
64,192,21002,1,0,0:0:0:0:
192,192,21043,1,0,0:0:0:0:
320,192,21084,1,0,0:0:0:0:
448,192,21124,1,0,0:0:0:0:
64,192,21165,1,0,0:0:0:0:
192,192,21205,1,0,0:0:0:0:
320,192,21246,1,0,0:0:0:0:
448,192,21286,1,0,0:0:0:0:
64,192,21327,128,0,21813:0:0:0:0:
192,192,21327,1,0,0:0:0:0:
448,192,21813,1,0,0:0:0:0:
320,192,21813,1,0,0:0:0:0:
192,192,21894,1,0,0:0:0:0:
64,192,21975,1,0,0:0:0:0:
192,192,22056,1,0,0:0:0:0:
64,192,22138,1,0,0:0:0:0:
448,192,22138,1,0,0:0:0:0:
320,192,22138,1,0,0:0:0:0:
448,192,22219,1,0,0:0:0:0:
320,192,22300,1,0,0:0:0:0:
192,192,22381,1,0,0:0:0:0:
64,192,22462,1,0,0:0:0:0:
320,192,22462,1,0,0:0:0:0:
448,192,22543,1,0,0:0:0:0:
64,192,22624,1,0,0:0:0:0:
192,192,22705,1,0,0:0:0:0:
64,192,22786,1,0,0:0:0:0:
320,192,22786,1,0,0:0:0:0:
448,192,22786,1,0,0:0:0:0:
448,192,22867,1,0,0:0:0:0:
320,192,22948,1,0,0:0:0:0:
192,192,23029,1,0,0:0:0:0:
64,192,23111,1,0,0:0:0:0:
448,192,23111,1,0,0:0:0:0:
320,192,23192,1,0,0:0:0:0:
192,192,23273,1,0,0:0:0:0:
64,192,23354,1,0,0:0:0:0:
192,192,23435,1,0,0:0:0:0:
320,192,23435,1,0,0:0:0:0:
448,192,23435,1,0,0:0:0:0:
192,192,23516,1,0,0:0:0:0:
448,192,23597,1,0,0:0:0:0:
192,192,23678,1,0,0:0:0:0:
64,192,23759,1,0,0:0:0:0:
320,192,23759,1,0,0:0:0:0:
448,192,23840,1,0,0:0:0:0:
320,192,23921,1,0,0:0:0:0:
192,192,24002,1,0,0:0:0:0:
64,192,24084,1,0,0:0:0:0:
320,192,24084,1,0,0:0:0:0:
448,192,24084,1,0,0:0:0:0:
64,192,24165,1,0,0:0:0:0:
320,192,24246,1,0,0:0:0:0:
192,192,24327,1,0,0:0:0:0:
448,192,24408,1,0,0:0:0:0:
320,192,24408,1,0,0:0:0:0:
64,192,24489,1,0,0:0:0:0:
192,192,24570,1,0,0:0:0:0:
320,192,24651,1,0,0:0:0:0:
64,192,24732,1,0,0:0:0:0:
192,192,24732,1,0,0:0:0:0:
448,192,24732,1,0,0:0:0:0:
448,192,24813,1,0,0:0:0:0:
64,192,24894,1,0,0:0:0:0:
320,192,24975,1,0,0:0:0:0:
192,192,25056,1,0,0:0:0:0:
64,192,25056,1,0,0:0:0:0:
448,192,25138,1,0,0:0:0:0:
192,192,25219,1,0,0:0:0:0:
64,192,25300,1,0,0:0:0:0:
192,192,25381,1,0,0:0:0:0:
320,192,25381,1,0,0:0:0:0:
448,192,25381,1,0,0:0:0:0:
192,192,25462,1,0,0:0:0:0:
320,192,25543,1,0,0:0:0:0:
448,192,25624,1,0,0:0:0:0:
192,192,25705,1,0,0:0:0:0:
64,192,25705,1,0,0:0:0:0:
448,192,25786,1,0,0:0:0:0:
320,192,25867,1,0,0:0:0:0:
192,192,25948,1,0,0:0:0:0:
64,192,26029,1,0,0:0:0:0:
320,192,26029,1,0,0:0:0:0:
448,192,26029,1,0,0:0:0:0:
320,192,26111,1,0,0:0:0:0:
192,192,26192,1,0,0:0:0:0:
64,192,26273,1,0,0:0:0:0:
192,192,26354,1,0,0:0:0:0:
320,192,26354,1,0,0:0:0:0:
448,192,26516,128,0,26678:0:0:0:0:
64,192,26516,1,0,0:0:0:0:
320,192,26678,1,0,0:0:0:0:
64,192,26759,128,0,27002:0:0:0:0:
448,192,27002,128,0,27246:0:0:0:0:
320,192,27084,1,0,0:0:0:0:
192,192,27165,1,0,0:0:0:0:
64,192,27246,1,0,0:0:0:0:
448,192,27327,128,0,27570:0:0:0:0:
320,192,27408,1,0,0:0:0:0:
192,192,27489,1,0,0:0:0:0:
64,192,27570,1,0,0:0:0:0:
320,192,27651,1,0,0:0:0:0:
448,192,27651,1,0,0:0:0:0:
192,192,27732,1,0,0:0:0:0:
64,192,27813,1,0,0:0:0:0:
192,192,27894,1,0,0:0:0:0:
320,192,27975,1,0,0:0:0:0:
448,192,27975,1,0,0:0:0:0:
64,192,27975,1,0,0:0:0:0:
448,192,28056,1,0,0:0:0:0:
64,192,28138,1,0,0:0:0:0:
192,192,28219,1,0,0:0:0:0:
320,192,28300,1,0,0:0:0:0:
448,192,28300,1,0,0:0:0:0:
192,192,28381,1,0,0:0:0:0:
64,192,28462,1,0,0:0:0:0:
448,192,28462,1,0,0:0:0:0:
320,192,28543,1,0,0:0:0:0:
192,192,28624,1,0,0:0:0:0:
64,192,28624,1,0,0:0:0:0:
448,192,28624,1,0,0:0:0:0:
64,192,28705,1,0,0:0:0:0:
320,192,28786,1,0,0:0:0:0:
192,192,28867,1,0,0:0:0:0:
448,192,28948,1,0,0:0:0:0:
64,192,28948,1,0,0:0:0:0:
320,192,29029,1,0,0:0:0:0:
64,192,29111,1,0,0:0:0:0:
448,192,29192,1,0,0:0:0:0:
192,192,29273,1,0,0:0:0:0:
64,192,29273,1,0,0:0:0:0:
320,192,29273,1,0,0:0:0:0:
320,192,29354,1,0,0:0:0:0:
192,192,29435,1,0,0:0:0:0:
64,192,29516,1,0,0:0:0:0:
192,192,29597,1,0,0:0:0:0:
320,192,29597,1,0,0:0:0:0:
448,192,29597,1,0,0:0:0:0:
64,192,29678,1,0,0:0:0:0:
320,192,29759,1,0,0:0:0:0:
64,192,29840,1,0,0:0:0:0:
192,192,29840,1,0,0:0:0:0:
320,192,29921,1,0,0:0:0:0:
448,192,29921,1,0,0:0:0:0:
192,192,30002,1,0,0:0:0:0:
64,192,30084,1,0,0:0:0:0:
320,192,30084,1,0,0:0:0:0:
448,192,30165,1,0,0:0:0:0:
320,192,30246,1,0,0:0:0:0:
64,192,30327,1,0,0:0:0:0:
192,192,30327,1,0,0:0:0:0:
320,192,30408,1,0,0:0:0:0:
192,192,30489,1,0,0:0:0:0:
448,192,30489,1,0,0:0:0:0:
64,192,30570,1,0,0:0:0:0:
320,192,30570,1,0,0:0:0:0:
448,192,30651,1,0,0:0:0:0:
192,192,30651,1,0,0:0:0:0:
64,192,30732,1,0,0:0:0:0:
192,192,30732,1,0,0:0:0:0:
448,192,30813,1,0,0:0:0:0:
192,192,30894,1,0,0:0:0:0:
64,192,30894,1,0,0:0:0:0:
320,192,30975,1,0,0:0:0:0:
448,192,30975,1,0,0:0:0:0:
192,192,31056,1,0,0:0:0:0:
64,192,31056,1,0,0:0:0:0:
320,192,31138,1,0,0:0:0:0:
448,192,31138,1,0,0:0:0:0:
192,192,31219,1,0,0:0:0:0:
64,192,31219,1,0,0:0:0:0:
320,192,31300,1,0,0:0:0:0:
448,192,31300,1,0,0:0:0:0:
192,192,31381,1,0,0:0:0:0:
64,192,31381,1,0,0:0:0:0:
64,192,31462,1,0,0:0:0:0:
192,192,31462,1,0,0:0:0:0:
320,192,31543,1,0,0:0:0:0:
448,192,31543,1,0,0:0:0:0:
192,192,31624,1,0,0:0:0:0:
320,192,31705,1,0,0:0:0:0:
192,192,31786,1,0,0:0:0:0:
320,192,31867,1,0,0:0:0:0:
64,192,31948,1,0,0:0:0:0:
448,192,32029,1,0,0:0:0:0:
64,192,32111,1,0,0:0:0:0:
448,192,32192,1,0,0:0:0:0:
320,192,32192,1,0,0:0:0:0:
192,192,32273,1,0,0:0:0:0:
64,192,32354,1,0,0:0:0:0:
192,192,32435,1,0,0:0:0:0:
320,192,32516,1,0,0:0:0:0:
448,192,32516,1,0,0:0:0:0:
192,192,32597,1,0,0:0:0:0:
64,192,32678,1,0,0:0:0:0:
192,192,32759,1,0,0:0:0:0:
320,192,32840,1,0,0:0:0:0:
448,192,32840,1,0,0:0:0:0:
192,192,32921,1,0,0:0:0:0:
64,192,33002,1,0,0:0:0:0:
192,192,33084,1,0,0:0:0:0:
320,192,33165,1,0,0:0:0:0:
448,192,33165,1,0,0:0:0:0:
192,192,33246,1,0,0:0:0:0:
64,192,33327,1,0,0:0:0:0:
192,192,33408,1,0,0:0:0:0:
320,192,33489,1,0,0:0:0:0:
448,192,33489,1,0,0:0:0:0:
192,192,33570,1,0,0:0:0:0:
64,192,33651,1,0,0:0:0:0:
320,192,33732,1,0,0:0:0:0:
192,192,33813,1,0,0:0:0:0:
64,192,33813,1,0,0:0:0:0:
320,192,33894,1,0,0:0:0:0:
448,192,33975,1,0,0:0:0:0:
320,192,34056,1,0,0:0:0:0:
192,192,34138,1,0,0:0:0:0:
64,192,34138,1,0,0:0:0:0:
320,192,34219,1,0,0:0:0:0:
448,192,34300,1,0,0:0:0:0:
320,192,34381,1,0,0:0:0:0:
64,192,34462,128,0,34624:0:0:0:0:
192,192,34462,1,0,0:0:0:0:
448,192,34624,1,0,0:0:0:0:
320,192,34624,128,0,34786:0:0:0:0:
64,192,34786,1,0,0:0:0:0:
448,192,34786,1,0,0:0:0:0:
192,192,34867,1,0,0:0:0:0:
448,192,34948,1,0,0:0:0:0:
320,192,35029,1,0,0:0:0:0:
192,192,35111,1,0,0:0:0:0:
448,192,35111,1,0,0:0:0:0:
64,192,35192,1,0,0:0:0:0:
192,192,35273,1,0,0:0:0:0:
448,192,35354,1,0,0:0:0:0:
192,192,35435,1,0,0:0:0:0:
64,192,35435,1,0,0:0:0:0:
320,192,35516,1,0,0:0:0:0:
448,192,35597,1,0,0:0:0:0:
64,192,35678,1,0,0:0:0:0:
192,192,35759,1,0,0:0:0:0:
448,192,35759,1,0,0:0:0:0:
320,192,35840,1,0,0:0:0:0:
192,192,35921,1,0,0:0:0:0:
64,192,36002,1,0,0:0:0:0:
192,192,36084,1,0,0:0:0:0:
320,192,36084,1,0,0:0:0:0:
448,192,36165,1,0,0:0:0:0:
64,192,36246,1,0,0:0:0:0:
192,192,36327,1,0,0:0:0:0:
448,192,36408,1,0,0:0:0:0:
320,192,36408,1,0,0:0:0:0:
64,192,36489,1,0,0:0:0:0:
320,192,36570,1,0,0:0:0:0:
192,192,36651,1,0,0:0:0:0:
64,192,36732,1,0,0:0:0:0:
448,192,36732,1,0,0:0:0:0:
320,192,36813,1,0,0:0:0:0:
64,192,36894,1,0,0:0:0:0:
192,192,36975,1,0,0:0:0:0:
320,192,37056,1,0,0:0:0:0:
448,192,37056,1,0,0:0:0:0:
64,192,37138,1,0,0:0:0:0:
192,192,37138,1,0,0:0:0:0:
320,192,37219,1,0,0:0:0:0:
448,192,37219,1,0,0:0:0:0:
192,192,37300,1,0,0:0:0:0:
64,192,37300,1,0,0:0:0:0:
320,192,37381,1,0,0:0:0:0:
448,192,37381,1,0,0:0:0:0:
64,192,37543,1,0,0:0:0:0:
192,192,37543,1,0,0:0:0:0:
448,192,37786,1,0,0:0:0:0:
64,192,37786,1,0,0:0:0:0:
320,192,37786,1,0,0:0:0:0:
192,192,38029,1,0,0:0:0:0:
64,192,38029,1,0,0:0:0:0:
320,192,38029,1,0,0:0:0:0:
320,192,38273,1,0,0:0:0:0:
448,192,38273,1,0,0:0:0:0:
192,192,38273,1,0,0:0:0:0:
64,192,38840,1,0,0:0:0:0:
192,192,38840,1,0,0:0:0:0:
448,192,38840,1,0,0:0:0:0:
192,192,39084,1,0,0:0:0:0:
448,192,39084,1,0,0:0:0:0:
320,192,39084,1,0,0:0:0:0:
64,192,39327,1,0,0:0:0:0:
192,192,39327,1,0,0:0:0:0:
320,192,39327,1,0,0:0:0:0:
192,192,39570,1,0,0:0:0:0:
64,192,39570,1,0,0:0:0:0:
448,192,39570,1,0,0:0:0:0:
320,192,39975,1,0,0:0:0:0:
448,192,39975,1,0,0:0:0:0:
192,192,39975,1,0,0:0:0:0:
64,192,40138,1,0,0:0:0:0:
192,192,40138,1,0,0:0:0:0:
192,192,40381,1,0,0:0:0:0:
320,192,40381,1,0,0:0:0:0:
64,192,40381,1,0,0:0:0:0:
192,192,40624,1,0,0:0:0:0:
320,192,40624,1,0,0:0:0:0:
448,192,40624,1,0,0:0:0:0:
64,192,40867,1,0,0:0:0:0:
192,192,40867,1,0,0:0:0:0:
320,192,41029,1,0,0:0:0:0:
448,192,41029,1,0,0:0:0:0:
192,192,41111,1,0,0:0:0:0:
64,192,41111,1,0,0:0:0:0:
448,192,41273,1,0,0:0:0:0:
448,192,41354,1,0,0:0:0:0:
64,192,41435,1,0,0:0:0:0:
448,192,41516,1,0,0:0:0:0:
64,192,41597,1,0,0:0:0:0:
448,192,41678,1,0,0:0:0:0:
64,192,41759,1,0,0:0:0:0:
448,192,41921,1,0,0:0:0:0:
448,192,42084,1,0,0:0:0:0:
64,192,42246,128,0,42570:0:0:0:0:
448,192,42570,1,0,0:0:0:0:
320,192,42570,1,0,0:0:0:0:
192,192,42732,128,0,42813:0:0:0:0:
64,192,43056,128,0,43138:0:0:0:0:
448,192,43381,128,0,43462:0:0:0:0:
192,192,43543,1,0,0:0:0:0:
320,192,43705,1,0,0:0:0:0:
64,192,43867,128,0,43948:0:0:0:0:
192,192,44029,1,0,0:0:0:0:
448,192,44192,1,0,0:0:0:0:
320,192,44354,1,0,0:0:0:0:
192,192,44516,1,0,0:0:0:0:
64,192,44678,1,0,0:0:0:0:
192,192,44840,128,0,44921:0:0:0:0:
448,192,45002,1,0,0:0:0:0:
64,192,45165,1,0,0:0:0:0:
192,192,45165,1,0,0:0:0:0:
320,192,45327,1,0,0:0:0:0:
192,192,45489,1,0,0:0:0:0:
64,192,45651,1,0,0:0:0:0:
448,192,45651,1,0,0:0:0:0:
320,192,45813,1,0,0:0:0:0:
192,192,45975,1,0,0:0:0:0:
64,192,45975,1,0,0:0:0:0:
448,192,46138,1,0,0:0:0:0:
64,192,46300,1,0,0:0:0:0:
192,192,46462,1,0,0:0:0:0:
448,192,46624,1,0,0:0:0:0:
320,192,46786,128,0,46867:0:0:0:0:
192,192,46948,1,0,0:0:0:0:
64,192,47111,128,0,47192:0:0:0:0:
320,192,47273,1,0,0:0:0:0:
448,192,47435,128,0,47516:0:0:0:0:
320,192,47597,1,0,0:0:0:0:
64,192,47759,1,0,0:0:0:0:
192,192,47759,1,0,0:0:0:0:
448,192,47921,1,0,0:0:0:0:
320,192,47921,1,0,0:0:0:0:
64,192,48084,1,0,0:0:0:0:
192,192,48246,128,0,48327:0:0:0:0:
448,192,48246,128,0,48327:0:0:0:0:
64,192,48408,1,0,0:0:0:0:
192,192,48570,128,0,48651:0:0:0:0:
320,192,48570,128,0,48651:0:0:0:0:
448,192,48732,1,0,0:0:0:0:
64,192,48894,128,0,48975:0:0:0:0:
192,192,49056,128,0,49138:0:0:0:0:
448,192,49219,128,0,49300:0:0:0:0:
192,192,49381,1,0,0:0:0:0:
64,192,49543,1,0,0:0:0:0:
192,192,49705,1,0,0:0:0:0:
320,192,49867,1,0,0:0:0:0:
192,192,50029,128,0,50111:0:0:0:0:
64,192,50029,128,0,50111:0:0:0:0:
320,192,50192,1,0,0:0:0:0:
192,192,50354,128,0,50435:0:0:0:0:
448,192,50354,128,0,50435:0:0:0:0:
64,192,50516,1,0,0:0:0:0:
320,192,50516,1,0,0:0:0:0:
192,192,50678,1,0,0:0:0:0:
448,192,50840,1,0,0:0:0:0:
320,192,50840,1,0,0:0:0:0:
64,192,51002,1,0,0:0:0:0:
320,192,51165,1,0,0:0:0:0:
448,192,51165,1,0,0:0:0:0:
192,192,51327,1,0,0:0:0:0:
448,192,51489,1,0,0:0:0:0:
64,192,51651,128,0,51732:0:0:0:0:
192,192,51651,128,0,51732:0:0:0:0:
448,192,51813,1,0,0:0:0:0:
64,192,51975,1,0,0:0:0:0:
192,192,52138,128,0,52219:0:0:0:0:
448,192,52300,1,0,0:0:0:0:
192,192,52462,1,0,0:0:0:0:
64,192,52624,1,0,0:0:0:0:
192,192,52786,128,0,52867:0:0:0:0:
320,192,52948,1,0,0:0:0:0:
448,192,52948,1,0,0:0:0:0:
64,192,53111,1,0,0:0:0:0:
320,192,53111,1,0,0:0:0:0:
448,192,53273,1,0,0:0:0:0:
64,192,53435,1,0,0:0:0:0:
192,192,53435,1,0,0:0:0:0:
448,192,53597,1,0,0:0:0:0:
320,192,53759,1,0,0:0:0:0:
192,192,53759,1,0,0:0:0:0:
64,192,53921,1,0,0:0:0:0:
320,192,54084,1,0,0:0:0:0:
192,192,54246,1,0,0:0:0:0:
64,192,54246,1,0,0:0:0:0:
448,192,54408,1,0,0:0:0:0:
320,192,54570,128,0,54651:0:0:0:0:
192,192,54732,1,0,0:0:0:0:
64,192,54894,128,0,54975:0:0:0:0:
192,192,55056,1,0,0:0:0:0:
448,192,55219,128,0,55300:0:0:0:0:
320,192,55219,1,0,0:0:0:0:
192,192,55381,1,0,0:0:0:0:
64,192,55543,1,0,0:0:0:0:
448,192,55543,1,0,0:0:0:0:
320,192,55705,1,0,0:0:0:0:
192,192,55705,1,0,0:0:0:0:
64,192,55867,1,0,0:0:0:0:
192,192,56029,1,0,0:0:0:0:
320,192,56029,1,0,0:0:0:0:
448,192,56192,1,0,0:0:0:0:
192,192,56354,128,0,56435:0:0:0:0:
64,192,56354,1,0,0:0:0:0:
448,192,56516,1,0,0:0:0:0:
192,192,56678,1,0,0:0:0:0:
320,192,56840,1,0,0:0:0:0:
192,192,57002,1,0,0:0:0:0:
64,192,57165,128,0,57246:0:0:0:0:
192,192,57327,1,0,0:0:0:0:
448,192,57489,128,0,57570:0:0:0:0:
64,192,57651,1,0,0:0:0:0:
192,192,57813,128,0,57894:0:0:0:0:
448,192,57975,1,0,0:0:0:0:
64,192,58138,128,0,58219:0:0:0:0:
448,192,58138,128,0,58219:0:0:0:0:
192,192,58300,1,0,0:0:0:0:
320,192,58300,1,0,0:0:0:0:
448,192,58462,1,0,0:0:0:0:
64,192,58624,1,0,0:0:0:0:
192,192,58624,1,0,0:0:0:0:
448,192,58786,128,0,58867:0:0:0:0:
64,192,58948,1,0,0:0:0:0:
320,192,58948,1,0,0:0:0:0:
192,192,59111,1,0,0:0:0:0:
448,192,59273,1,0,0:0:0:0:
320,192,59435,1,0,0:0:0:0:
448,192,59597,1,0,0:0:0:0:
192,192,59759,1,0,0:0:0:0:
64,192,59759,128,0,59840:0:0:0:0:
320,192,59921,1,0,0:0:0:0:
192,192,60084,128,0,60165:0:0:0:0:
448,192,60246,1,0,0:0:0:0:
64,192,60408,128,0,60489:0:0:0:0:
192,192,60408,128,0,60489:0:0:0:0:
448,192,60570,1,0,0:0:0:0:
320,192,60732,128,0,60813:0:0:0:0:
192,192,60732,128,0,60813:0:0:0:0:
64,192,60894,1,0,0:0:0:0:
448,192,60894,1,0,0:0:0:0:
192,192,61056,1,0,0:0:0:0:
320,192,61219,128,0,61300:0:0:0:0:
448,192,61219,128,0,61300:0:0:0:0:
64,192,61381,1,0,0:0:0:0:
320,192,61543,1,0,0:0:0:0:
448,192,61543,1,0,0:0:0:0:
192,192,61624,1,0,0:0:0:0:
64,192,61624,1,0,0:0:0:0:
320,192,61705,1,0,0:0:0:0:
448,192,61705,1,0,0:0:0:0:
192,192,61786,1,0,0:0:0:0:
64,192,61786,1,0,0:0:0:0:
320,192,61867,1,0,0:0:0:0:
448,192,61867,1,0,0:0:0:0:
192,192,61948,1,0,0:0:0:0:
64,192,61948,1,0,0:0:0:0:
448,192,62029,128,0,62921:0:0:0:0:
320,192,62029,128,0,62921:0:0:0:0:
64,192,63002,1,0,0:0:0:0:
192,192,63002,1,0,0:0:0:0:
320,192,63084,1,0,0:0:0:0:
448,192,63084,1,0,0:0:0:0:
64,192,63165,1,0,0:0:0:0:
192,192,63165,1,0,0:0:0:0:
320,192,63246,1,0,0:0:0:0:
448,192,63246,1,0,0:0:0:0:
192,192,63327,1,0,0:0:0:0:
64,192,63327,1,0,0:0:0:0:
448,192,63489,128,0,63570:0:0:0:0:
64,192,63651,1,0,0:0:0:0:
192,192,63813,128,0,63894:0:0:0:0:
448,192,64138,128,0,64219:0:0:0:0:
64,192,64300,1,0,0:0:0:0:
192,192,64462,128,0,64543:0:0:0:0:
448,192,64624,128,0,64705:0:0:0:0:
192,192,64786,128,0,64867:0:0:0:0:
64,192,64948,1,0,0:0:0:0:
448,192,64948,1,0,0:0:0:0:
192,192,65111,1,0,0:0:0:0:
320,192,65273,1,0,0:0:0:0:
448,192,65435,128,0,65516:0:0:0:0:
64,192,65597,1,0,0:0:0:0:
192,192,65597,1,0,0:0:0:0:
448,192,65759,1,0,0:0:0:0:
64,192,65921,1,0,0:0:0:0:
320,192,66084,1,0,0:0:0:0:
192,192,66246,1,0,0:0:0:0:
64,192,66246,1,0,0:0:0:0:
448,192,66408,1,0,0:0:0:0:
64,192,66570,1,0,0:0:0:0:
192,192,66732,1,0,0:0:0:0:
320,192,66894,1,0,0:0:0:0:
448,192,66894,1,0,0:0:0:0:
64,192,67056,1,0,0:0:0:0:
192,192,67219,1,0,0:0:0:0:
320,192,67381,1,0,0:0:0:0:
64,192,67543,1,0,0:0:0:0:
448,192,67543,1,0,0:0:0:0:
320,192,67705,1,0,0:0:0:0:
192,192,67867,1,0,0:0:0:0:
64,192,68029,1,0,0:0:0:0:
320,192,68192,1,0,0:0:0:0:
448,192,68192,1,0,0:0:0:0:
64,192,68354,1,0,0:0:0:0:
192,192,68516,128,0,68597:0:0:0:0:
448,192,68678,128,0,68759:0:0:0:0:
320,192,68840,1,0,0:0:0:0:
64,192,68840,1,0,0:0:0:0:
448,192,69002,1,0,0:0:0:0:
320,192,69165,1,0,0:0:0:0:
64,192,69327,1,0,0:0:0:0:
192,192,69489,1,0,0:0:0:0:
448,192,69489,1,0,0:0:0:0:
64,192,69651,1,0,0:0:0:0:
320,192,69813,1,0,0:0:0:0:
192,192,69975,1,0,0:0:0:0:
320,192,70138,1,0,0:0:0:0:
448,192,70138,1,0,0:0:0:0:
64,192,70300,1,0,0:0:0:0:
320,192,70462,1,0,0:0:0:0:
192,192,70624,1,0,0:0:0:0:
448,192,70624,1,0,0:0:0:0:
64,192,70786,1,0,0:0:0:0:
320,192,70786,1,0,0:0:0:0:
448,192,70948,1,0,0:0:0:0:
192,192,71111,1,0,0:0:0:0:
64,192,71273,1,0,0:0:0:0:
192,192,71435,1,0,0:0:0:0:
448,192,71435,1,0,0:0:0:0:
64,192,71597,1,0,0:0:0:0:
320,192,71759,1,0,0:0:0:0:
192,192,71921,1,0,0:0:0:0:
448,192,71921,1,0,0:0:0:0:
320,192,72084,1,0,0:0:0:0:
448,192,72084,1,0,0:0:0:0:
64,192,72246,1,0,0:0:0:0:
448,192,72408,128,0,72489:0:0:0:0:
192,192,72408,1,0,0:0:0:0:
320,192,72570,1,0,0:0:0:0:
192,192,72732,1,0,0:0:0:0:
64,192,72732,1,0,0:0:0:0:
448,192,72894,1,0,0:0:0:0:
320,192,73056,1,0,0:0:0:0:
192,192,73219,1,0,0:0:0:0:
64,192,73219,1,0,0:0:0:0:
320,192,73381,1,0,0:0:0:0:
448,192,73381,1,0,0:0:0:0:
192,192,73543,1,0,0:0:0:0:
64,192,73705,1,0,0:0:0:0:
320,192,73705,1,0,0:0:0:0:
448,192,73705,1,0,0:0:0:0:
192,192,73867,1,0,0:0:0:0:
448,192,74029,1,0,0:0:0:0:
64,192,74029,1,0,0:0:0:0:
320,192,74029,1,0,0:0:0:0:
320,192,74192,1,0,0:0:0:0:
64,192,74354,1,0,0:0:0:0:
192,192,74354,1,0,0:0:0:0:
320,192,74516,1,0,0:0:0:0:
192,192,74516,1,0,0:0:0:0:
448,192,74678,1,0,0:0:0:0:
64,192,74678,1,0,0:0:0:0:
192,192,74678,1,0,0:0:0:0:
192,192,74840,1,0,0:0:0:0:
320,192,75002,1,0,0:0:0:0:
64,192,75002,1,0,0:0:0:0:
192,192,75165,1,0,0:0:0:0:
448,192,75327,1,0,0:0:0:0:
64,192,75327,1,0,0:0:0:0:
320,192,75327,1,0,0:0:0:0:
320,192,75489,1,0,0:0:0:0:
64,192,75651,1,0,0:0:0:0:
320,192,75813,1,0,0:0:0:0:
448,192,75813,1,0,0:0:0:0:
448,192,75975,1,0,0:0:0:0:
64,192,75975,1,0,0:0:0:0:
192,192,75975,1,0,0:0:0:0:
192,192,76138,1,0,0:0:0:0:
320,192,76300,1,0,0:0:0:0:
64,192,76300,1,0,0:0:0:0:
192,192,76462,1,0,0:0:0:0:
448,192,76624,1,0,0:0:0:0:
64,192,76624,1,0,0:0:0:0:
320,192,76624,1,0,0:0:0:0:
320,192,76786,1,0,0:0:0:0:
64,192,76948,1,0,0:0:0:0:
320,192,77111,1,0,0:0:0:0:
192,192,77111,1,0,0:0:0:0:
448,192,77273,1,0,0:0:0:0:
64,192,77273,1,0,0:0:0:0:
320,192,77273,1,0,0:0:0:0:
192,192,77435,1,0,0:0:0:0:
64,192,77597,1,0,0:0:0:0:
448,192,77597,1,0,0:0:0:0:
320,192,77759,1,0,0:0:0:0:
448,192,77921,1,0,0:0:0:0:
64,192,77921,1,0,0:0:0:0:
192,192,77921,1,0,0:0:0:0:
320,192,78084,1,0,0:0:0:0:
64,192,78246,1,0,0:0:0:0:
448,192,78246,1,0,0:0:0:0:
320,192,78408,1,0,0:0:0:0:
192,192,78408,1,0,0:0:0:0:
448,192,78570,1,0,0:0:0:0:
64,192,78570,1,0,0:0:0:0:
192,192,78570,1,0,0:0:0:0:
320,192,78732,1,0,0:0:0:0:
448,192,78813,1,0,0:0:0:0:
64,192,78894,1,0,0:0:0:0:
192,192,78894,1,0,0:0:0:0:
320,192,79056,1,0,0:0:0:0:
448,192,79219,1,0,0:0:0:0:
64,192,79219,1,0,0:0:0:0:
192,192,79219,1,0,0:0:0:0:
320,192,79300,1,0,0:0:0:0:
192,192,79381,1,0,0:0:0:0:
64,192,79543,1,0,0:0:0:0:
448,192,79543,1,0,0:0:0:0:
320,192,79705,1,0,0:0:0:0:
192,192,79705,1,0,0:0:0:0:
448,192,79867,1,0,0:0:0:0:
64,192,79867,1,0,0:0:0:0:
320,192,79867,1,0,0:0:0:0:
192,192,80029,1,0,0:0:0:0:
320,192,80192,1,0,0:0:0:0:
64,192,80192,1,0,0:0:0:0:
448,192,80354,1,0,0:0:0:0:
448,192,80516,1,0,0:0:0:0:
64,192,80516,1,0,0:0:0:0:
192,192,80516,1,0,0:0:0:0:
320,192,80678,1,0,0:0:0:0:
64,192,80840,1,0,0:0:0:0:
320,192,81002,1,0,0:0:0:0:
192,192,81002,1,0,0:0:0:0:
448,192,81165,1,0,0:0:0:0:
64,192,81165,1,0,0:0:0:0:
320,192,81165,1,0,0:0:0:0:
64,192,81489,1,0,0:0:0:0:
448,192,81489,1,0,0:0:0:0:
320,192,81651,1,0,0:0:0:0:
448,192,81813,1,0,0:0:0:0:
64,192,81813,1,0,0:0:0:0:
192,192,81813,1,0,0:0:0:0:
192,192,81975,1,0,0:0:0:0:
64,192,82138,1,0,0:0:0:0:
320,192,82300,1,0,0:0:0:0:
448,192,82300,1,0,0:0:0:0:
448,192,82462,1,0,0:0:0:0:
64,192,82462,1,0,0:0:0:0:
320,192,82462,1,0,0:0:0:0:
192,192,82624,1,0,0:0:0:0:
64,192,82786,1,0,0:0:0:0:
192,192,82786,1,0,0:0:0:0:
448,192,82786,1,0,0:0:0:0:
448,192,82948,1,0,0:0:0:0:
320,192,82989,1,0,0:0:0:0:
192,192,83029,1,0,0:0:0:0:
64,192,83070,1,0,0:0:0:0:
448,192,83111,1,0,0:0:0:0:
320,192,83111,1,0,0:0:0:0:
64,192,83192,1,0,0:0:0:0:
192,192,83192,1,0,0:0:0:0:
64,192,83354,1,0,0:0:0:0:
192,192,83354,1,0,0:0:0:0:
320,192,83435,1,0,0:0:0:0:
448,192,83435,1,0,0:0:0:0:
64,192,83516,1,0,0:0:0:0:
192,192,83556,1,0,0:0:0:0:
320,192,83597,1,0,0:0:0:0:
448,192,83638,1,0,0:0:0:0:
64,192,83678,1,0,0:0:0:0:
192,192,83678,1,0,0:0:0:0:
320,192,83759,1,0,0:0:0:0:
448,192,83759,1,0,0:0:0:0:
320,192,83840,1,0,0:0:0:0:
448,192,83840,1,0,0:0:0:0:
192,192,83921,1,0,0:0:0:0:
64,192,83921,1,0,0:0:0:0:
64,192,84084,1,0,0:0:0:0:
448,192,84084,1,0,0:0:0:0:
320,192,84165,1,0,0:0:0:0:
192,192,84246,1,0,0:0:0:0:
64,192,84327,1,0,0:0:0:0:
448,192,84408,1,0,0:0:0:0:
320,192,84408,1,0,0:0:0:0:
64,192,84489,1,0,0:0:0:0:
192,192,84570,1,0,0:0:0:0:
320,192,84651,1,0,0:0:0:0:
448,192,84732,1,0,0:0:0:0:
64,192,84732,1,0,0:0:0:0:
320,192,84813,1,0,0:0:0:0:
192,192,84894,1,0,0:0:0:0:
64,192,84975,1,0,0:0:0:0:
320,192,85056,1,0,0:0:0:0:
192,192,85056,1,0,0:0:0:0:
448,192,85138,1,0,0:0:0:0:
192,192,85219,1,0,0:0:0:0:
320,192,85300,1,0,0:0:0:0:
64,192,85381,1,0,0:0:0:0:
192,192,85381,1,0,0:0:0:0:
448,192,85462,1,0,0:0:0:0:
64,192,85543,1,0,0:0:0:0:
192,192,85624,1,0,0:0:0:0:
448,192,85705,1,0,0:0:0:0:
320,192,85705,1,0,0:0:0:0:
192,192,85786,1,0,0:0:0:0:
64,192,85867,1,0,0:0:0:0:
320,192,85948,1,0,0:0:0:0:
192,192,86029,1,0,0:0:0:0:
448,192,86029,1,0,0:0:0:0:
64,192,86111,1,0,0:0:0:0:
192,192,86192,1,0,0:0:0:0:
320,192,86273,1,0,0:0:0:0:
448,192,86354,1,0,0:0:0:0:
192,192,86354,1,0,0:0:0:0:
64,192,86435,1,0,0:0:0:0:
448,192,86516,1,0,0:0:0:0:
192,192,86597,1,0,0:0:0:0:
320,192,86678,1,0,0:0:0:0:
64,192,86678,1,0,0:0:0:0:
448,192,86759,1,0,0:0:0:0:
320,192,86840,1,0,0:0:0:0:
192,192,86921,1,0,0:0:0:0:
448,192,87002,1,0,0:0:0:0:
64,192,87002,1,0,0:0:0:0:
192,192,87084,1,0,0:0:0:0:
320,192,87165,1,0,0:0:0:0:
192,192,87246,1,0,0:0:0:0:
64,192,87327,1,0,0:0:0:0:
320,192,87327,1,0,0:0:0:0:
448,192,87408,1,0,0:0:0:0:
320,192,87489,1,0,0:0:0:0:
64,192,87570,1,0,0:0:0:0:
448,192,87651,1,0,0:0:0:0:
192,192,87651,1,0,0:0:0:0:
320,192,87732,1,0,0:0:0:0:
192,192,87813,1,0,0:0:0:0:
320,192,87894,1,0,0:0:0:0:
64,192,87975,1,0,0:0:0:0:
448,192,87975,1,0,0:0:0:0:
192,192,88056,1,0,0:0:0:0:
320,192,88138,1,0,0:0:0:0:
64,192,88219,1,0,0:0:0:0:
448,192,88300,1,0,0:0:0:0:
192,192,88300,1,0,0:0:0:0:
320,192,88381,1,0,0:0:0:0:
64,192,88462,1,0,0:0:0:0:
320,192,88543,1,0,0:0:0:0:
192,192,88624,1,0,0:0:0:0:
448,192,88624,1,0,0:0:0:0:
320,192,88705,1,0,0:0:0:0:
192,192,88786,1,0,0:0:0:0:
64,192,88867,1,0,0:0:0:0:
448,192,88948,1,0,0:0:0:0:
192,192,88948,1,0,0:0:0:0:
320,192,89029,1,0,0:0:0:0:
64,192,89111,1,0,0:0:0:0:
192,192,89192,1,0,0:0:0:0:
320,192,89273,1,0,0:0:0:0:
448,192,89273,1,0,0:0:0:0:
192,192,89354,1,0,0:0:0:0:
448,192,89435,1,0,0:0:0:0:
320,192,89516,1,0,0:0:0:0:
64,192,89597,1,0,0:0:0:0:
192,192,89597,1,0,0:0:0:0:
448,192,89678,1,0,0:0:0:0:
64,192,89759,1,0,0:0:0:0:
320,192,89840,1,0,0:0:0:0:
192,192,89921,1,0,0:0:0:0:
448,192,89921,1,0,0:0:0:0:
64,192,90002,1,0,0:0:0:0:
192,192,90084,1,0,0:0:0:0:
320,192,90165,1,0,0:0:0:0:
448,192,90246,1,0,0:0:0:0:
192,192,90246,1,0,0:0:0:0:
64,192,90327,1,0,0:0:0:0:
192,192,90408,1,0,0:0:0:0:
320,192,90489,1,0,0:0:0:0:
448,192,90570,1,0,0:0:0:0:
64,192,90570,1,0,0:0:0:0:
320,192,90651,1,0,0:0:0:0:
192,192,90732,1,0,0:0:0:0:
64,192,90813,1,0,0:0:0:0:
320,192,90894,1,0,0:0:0:0:
448,192,90894,1,0,0:0:0:0:
192,192,90975,1,0,0:0:0:0:
64,192,91056,1,0,0:0:0:0:
320,192,91138,1,0,0:0:0:0:
192,192,91219,1,0,0:0:0:0:
448,192,91219,1,0,0:0:0:0:
64,192,91300,1,0,0:0:0:0:
192,192,91381,1,0,0:0:0:0:
320,192,91462,1,0,0:0:0:0:
64,192,91543,1,0,0:0:0:0:
448,192,91543,1,0,0:0:0:0:
320,192,91624,1,0,0:0:0:0:
192,192,91705,1,0,0:0:0:0:
64,192,91786,1,0,0:0:0:0:
192,192,91867,1,0,0:0:0:0:
320,192,91867,1,0,0:0:0:0:
448,192,91948,1,0,0:0:0:0:
320,192,92029,1,0,0:0:0:0:
192,192,92111,1,0,0:0:0:0:
448,192,92192,1,0,0:0:0:0:
64,192,92192,1,0,0:0:0:0:
192,192,92273,1,0,0:0:0:0:
320,192,92354,1,0,0:0:0:0:
64,192,92435,1,0,0:0:0:0:
320,192,92516,1,0,0:0:0:0:
192,192,92516,1,0,0:0:0:0:
448,192,92597,1,0,0:0:0:0:
192,192,92678,1,0,0:0:0:0:
320,192,92759,1,0,0:0:0:0:
64,192,92840,1,0,0:0:0:0:
448,192,92840,1,0,0:0:0:0:
320,192,92921,1,0,0:0:0:0:
192,192,93002,1,0,0:0:0:0:
64,192,93084,1,0,0:0:0:0:
192,192,93165,1,0,0:0:0:0:
448,192,93165,128,0,94138:0:0:0:0:
64,192,94138,128,0,94300:0:0:0:0:
192,192,94300,1,0,0:0:0:0:
320,192,94462,1,0,0:0:0:0:
448,192,94462,1,0,0:0:0:0:
64,192,94462,1,0,0:0:0:0:
192,192,94462,1,0,0:0:0:0:
64,192,94624,1,0,0:0:0:0:
192,192,94624,1,0,0:0:0:0:
320,192,94624,1,0,0:0:0:0:
448,192,94624,1,0,0:0:0:0:
64,192,94867,1,0,0:0:0:0:
192,192,94867,1,0,0:0:0:0:
320,192,94867,1,0,0:0:0:0:
448,192,94867,1,0,0:0:0:0:
64,192,95111,1,0,0:0:0:0:
320,192,95111,1,0,0:0:0:0:
448,192,95111,1,0,0:0:0:0:
192,192,95111,1,0,0:0:0:0:
64,192,95273,1,0,0:0:0:0:
192,192,95273,1,0,0:0:0:0:
320,192,95273,1,0,0:0:0:0:
448,192,95273,1,0,0:0:0:0:
64,192,95516,1,0,0:0:0:0:
192,192,95516,1,0,0:0:0:0:
320,192,95516,1,0,0:0:0:0:
448,192,95516,1,0,0:0:0:0:
64,192,95759,1,0,0:0:0:0:
192,192,95759,1,0,0:0:0:0:
320,192,95759,1,0,0:0:0:0:
448,192,95759,1,0,0:0:0:0:
64,192,95921,1,0,0:0:0:0:
192,192,95921,1,0,0:0:0:0:
320,192,95921,1,0,0:0:0:0:
448,192,95921,1,0,0:0:0:0:
448,192,96165,1,0,0:0:0:0:
320,192,96165,1,0,0:0:0:0:
192,192,96165,1,0,0:0:0:0:
64,192,96165,1,0,0:0:0:0:
64,192,96408,1,0,0:0:0:0:
192,192,96408,1,0,0:0:0:0:
320,192,96408,1,0,0:0:0:0:
448,192,96408,1,0,0:0:0:0:
64,192,96570,1,0,0:0:0:0:
192,192,96570,1,0,0:0:0:0:
320,192,96570,1,0,0:0:0:0:
448,192,96570,1,0,0:0:0:0:
448,192,96732,128,0,97056:0:0:0:0:
64,192,96894,128,0,97056:0:0:0:0:
320,192,97056,1,0,0:0:0:0:
192,192,97056,1,0,0:0:0:0:
64,192,97219,1,0,0:0:0:0:
192,192,97219,1,0,0:0:0:0:
448,192,97219,1,0,0:0:0:0:
320,192,97219,1,0,0:0:0:0:
64,192,97462,1,0,0:0:0:0:
192,192,97462,1,0,0:0:0:0:
320,192,97462,1,0,0:0:0:0:
448,192,97462,1,0,0:0:0:0:
64,192,97705,1,0,0:0:0:0:
192,192,97705,1,0,0:0:0:0:
320,192,97705,1,0,0:0:0:0:
448,192,97705,1,0,0:0:0:0:
64,192,97867,1,0,0:0:0:0:
192,192,97867,1,0,0:0:0:0:
320,192,97867,1,0,0:0:0:0:
448,192,97867,1,0,0:0:0:0:
64,192,98111,1,0,0:0:0:0:
192,192,98111,1,0,0:0:0:0:
320,192,98111,1,0,0:0:0:0:
448,192,98111,1,0,0:0:0:0:
64,192,98354,1,0,0:0:0:0:
192,192,98354,1,0,0:0:0:0:
320,192,98354,1,0,0:0:0:0:
448,192,98354,1,0,0:0:0:0:
64,192,98516,1,0,0:0:0:0:
192,192,98516,1,0,0:0:0:0:
320,192,98516,1,0,0:0:0:0:
448,192,98516,1,0,0:0:0:0:
64,192,98759,1,0,0:0:0:0:
192,192,98759,1,0,0:0:0:0:
320,192,98759,1,0,0:0:0:0:
448,192,98759,1,0,0:0:0:0:
64,192,99002,1,0,0:0:0:0:
192,192,99002,1,0,0:0:0:0:
320,192,99002,1,0,0:0:0:0:
448,192,99002,1,0,0:0:0:0:
64,192,99165,1,0,0:0:0:0:
192,192,99165,1,0,0:0:0:0:
448,192,99165,1,0,0:0:0:0:
320,192,99165,1,0,0:0:0:0:
64,192,99327,1,0,0:0:0:0:
448,192,99408,1,0,0:0:0:0:
64,192,99489,1,0,0:0:0:0:
448,192,99570,1,0,0:0:0:0:
64,192,99651,1,0,0:0:0:0:
192,192,99651,1,0,0:0:0:0:
448,192,99732,1,0,0:0:0:0:
320,192,99813,1,0,0:0:0:0:
64,192,99813,1,0,0:0:0:0:
192,192,99894,1,0,0:0:0:0:
320,192,99975,1,0,0:0:0:0:
448,192,99975,1,0,0:0:0:0:
64,192,100056,1,0,0:0:0:0:
192,192,100138,1,0,0:0:0:0:
320,192,100138,1,0,0:0:0:0:
448,192,100219,1,0,0:0:0:0:
320,192,100300,1,0,0:0:0:0:
64,192,100300,1,0,0:0:0:0:
192,192,100381,1,0,0:0:0:0:
320,192,100462,1,0,0:0:0:0:
448,192,100462,1,0,0:0:0:0:
192,192,100543,1,0,0:0:0:0:
64,192,100624,1,0,0:0:0:0:
448,192,100624,1,0,0:0:0:0:
320,192,100705,1,0,0:0:0:0:
192,192,100786,1,0,0:0:0:0:
64,192,100786,1,0,0:0:0:0:
320,192,100867,1,0,0:0:0:0:
448,192,100948,1,0,0:0:0:0:
64,192,100948,1,0,0:0:0:0:
192,192,101029,1,0,0:0:0:0:
320,192,101111,1,0,0:0:0:0:
448,192,101111,1,0,0:0:0:0:
192,192,101192,1,0,0:0:0:0:
64,192,101273,1,0,0:0:0:0:
448,192,101273,1,0,0:0:0:0:
320,192,101354,1,0,0:0:0:0:
192,192,101435,1,0,0:0:0:0:
64,192,101435,1,0,0:0:0:0:
320,192,101516,1,0,0:0:0:0:
448,192,101597,1,0,0:0:0:0:
64,192,101597,1,0,0:0:0:0:
192,192,101678,1,0,0:0:0:0:
320,192,101759,1,0,0:0:0:0:
448,192,101759,1,0,0:0:0:0:
192,192,101840,1,0,0:0:0:0:
64,192,101921,1,0,0:0:0:0:
448,192,101921,1,0,0:0:0:0:
320,192,102002,1,0,0:0:0:0:
192,192,102084,1,0,0:0:0:0:
64,192,102084,1,0,0:0:0:0:
320,192,102165,1,0,0:0:0:0:
448,192,102246,1,0,0:0:0:0:
320,192,102286,1,0,0:0:0:0:
192,192,102327,1,0,0:0:0:0:
64,192,102367,1,0,0:0:0:0:
448,192,102408,1,0,0:0:0:0:
320,192,102448,1,0,0:0:0:0:
192,192,102489,1,0,0:0:0:0:
64,192,102529,1,0,0:0:0:0:
448,192,102570,1,0,0:0:0:0:
320,192,102611,1,0,0:0:0:0:
192,192,102651,1,0,0:0:0:0:
64,192,102692,1,0,0:0:0:0:
448,192,102732,1,0,0:0:0:0:
320,192,102773,1,0,0:0:0:0:
192,192,102813,1,0,0:0:0:0:
64,192,102854,1,0,0:0:0:0:
448,192,102894,1,0,0:0:0:0:
320,192,102935,1,0,0:0:0:0:
192,192,102975,1,0,0:0:0:0:
64,192,103016,1,0,0:0:0:0:
448,192,103056,1,0,0:0:0:0:
320,192,103097,1,0,0:0:0:0:
192,192,103138,1,0,0:0:0:0:
64,192,103178,1,0,0:0:0:0:
448,192,103219,1,0,0:0:0:0:
64,192,103300,1,0,0:0:0:0:
448,192,103381,1,0,0:0:0:0:
64,192,103462,1,0,0:0:0:0:
448,192,103543,1,0,0:0:0:0:
320,192,103543,1,0,0:0:0:0:
