osu file format v14

[General]
AudioFilename: audio.mp3
AudioLeadIn: 0
PreviewTime: 206695
Countdown: 1
SampleSet: Soft
StackLeniency: 0.2
Mode: 0
LetterboxInBreaks: 0
WidescreenStoryboard: 1

[Editor]
Bookmarks: 1995,27595,53195,78822,104395,129995,155595,181195,206795,232422,258022
DistanceSpacing: 0.4
BeatDivisor: 8
GridSize: 32
TimelineZoom: 3.399998

[Metadata]
Title:Maze of Vignere Square
TitleUnicode:Maze of Vignere Square
Artist:Camellia
ArtistUnicode:かめりあ
Creator:Megafan
Version:Insane
Source:osu!
Tags:かめるかめりあ kamelcamellia cyphisonia ep cametek dubstep
BeatmapID:1893736
BeatmapSetID:903784

[Difficulty]
HPDrainRate:4
CircleSize:3.8
OverallDifficulty:7.5
ApproachRate:9
SliderMultiplier:1.8
SliderTickRate:1

[Events]
//Background and Video events
0,0,"70133000_p0.png",0,0
//Break Periods
//Storyboard Layer 0 (Background)
//Storyboard Layer 1 (Fail)
//Storyboard Layer 2 (Pass)
//Storyboard Layer 3 (Foreground)
//Storyboard Sound Samples

[TimingPoints]
2022,400,4,2,1,25,1,0
2022,-303.030303030303,4,2,1,25,0,0
27222,-200,4,2,2,25,0,0
27422,-200,4,2,1,25,0,0
47222,-200,4,2,1,30,0,0
47622,-149.253731343284,4,2,1,35,0,0
48022,-149.253731343284,4,2,1,40,0,0
48422,-149.253731343284,4,2,1,45,0,0
48822,-149.253731343284,4,2,1,50,0,0
49222,-149.253731343284,4,2,1,55,0,0
49622,-149.253731343284,4,2,1,60,0,0
52622,-149.253731343284,4,2,2,50,0,0
53222,-66.6666666666667,4,2,1,70,0,0
53622,-100,4,2,1,70,0,0
59222,-66.6666666666667,4,2,1,70,0,0
60022,-100,4,2,1,70,0,0
62822,-66.6666666666667,4,2,1,70,0,0
63222,-80,4,2,1,70,0,0
65622,-80,4,2,2,70,0,0
66022,-66.6666666666667,4,2,1,70,0,0
66422,-90.9090909090909,4,2,1,70,0,0
72422,-66.6666666666667,4,2,1,70,0,0
72822,-80,4,2,1,70,0,0
73322,-90.9090909090909,4,2,1,70,0,0
75622,-80,4,2,1,45,0,0
78422,-133.333333333333,4,2,1,70,0,0
78822,-100,4,2,1,70,0,0
91622,-80,4,2,1,70,0,0
92022,-133.333333333333,4,2,1,45,0,0
94822,-72.992700729927,4,2,1,70,0,0
95222,-113.636363636364,4,2,1,45,0,0
103822,-100,4,2,2,45,0,0
104422,-200,4,2,1,70,0,1
105522,-100,4,2,1,70,0,1
105922,-200,4,2,1,70,0,1
108422,-80,4,2,1,70,0,1
109122,-200,4,2,1,70,0,1
110022,-100,4,2,1,70,0,1
110622,-66.6666666666667,4,2,1,70,0,1
110822,-200,4,2,1,70,0,1
115222,-100,4,2,1,70,0,1
117222,-200,4,2,1,70,0,1
118322,-100,4,2,1,70,0,1
118722,-200,4,2,1,70,0,1
121222,-80,4,2,1,70,0,1
121922,-200,4,2,1,70,0,1
122822,-100,4,2,1,70,0,1
123422,-66.6666666666667,4,2,1,70,0,1
123622,-200,4,2,1,70,0,1
126622,-133.333333333333,4,2,1,45,0,0
155622,-303.030303030303,4,2,1,25,0,0
180822,-303.030303030303,4,2,2,45,0,0
181222,-303.030303030303,4,2,1,45,0,0
194022,-200,4,2,1,45,0,0
200422,-100,4,2,1,50,0,0
204022,-100,4,2,1,40,0,0
204422,-100,4,2,1,30,0,0
204822,-100,4,2,1,20,0,0
205222,-100,4,2,1,45,0,0
206222,-100,4,2,2,45,0,0
206822,-66.6666666666667,4,2,1,70,0,1
208022,-60.2409638554217,4,2,1,70,0,1
208422,-66.6666666666667,4,2,1,70,0,1
210622,-100,4,2,1,70,0,1
211022,-57.1428571428571,4,2,1,70,0,1
211622,-66.6666666666667,4,2,1,70,0,1
212822,-100,4,2,1,70,0,1
213022,-50,4,2,1,70,0,1
213222,-66.6666666666667,4,2,1,70,0,1
218022,-58.8235294117647,4,2,1,70,0,1
218722,-66.6666666666667,4,2,1,70,0,1
220822,-60.2409638554217,4,2,1,70,0,1
221222,-66.6666666666667,4,2,1,70,0,1
223422,-100,4,2,1,70,0,1
223822,-57.1428571428571,4,2,1,70,0,1
224422,-66.6666666666667,4,2,1,70,0,1
225622,-100,4,2,1,70,0,1
225822,-50,4,2,1,70,0,1
226222,-100,4,2,1,70,0,1
228622,-200,4,2,1,70,0,1
229622,-100,4,2,1,50,0,0
230422,-66.6666666666667,4,2,1,50,0,0
230822,-66.6666666666667,4,2,1,30,0,0
231222,-66.6666666666667,4,2,1,45,0,0
231622,-66.6666666666667,4,2,1,60,0,0
232022,-66.6666666666667,4,2,1,70,0,0
232422,-100,4,2,1,70,0,0
233922,-66.6666666666667,4,2,1,70,0,0
234622,-100,4,2,1,70,0,0
235622,-66.6666666666667,4,2,1,70,0,0
239322,-100,4,2,1,70,0,0
240022,-66.6666666666667,4,2,1,70,0,0
241022,-100,4,2,1,70,0,0
242022,-66.6666666666667,4,2,1,70,0,0
242622,-100,4,2,1,70,0,0
242822,-66.6666666666667,4,2,1,70,0,0
245222,-100,4,2,1,70,0,0
246722,-66.6666666666667,4,2,1,70,0,0
247422,-100,4,2,1,70,0,0
248422,-66.6666666666667,4,2,1,70,0,0
250922,-100,4,2,1,70,0,0
251622,-66.6666666666667,4,2,1,70,0,0
252522,-100,4,2,1,70,0,0
253122,-66.6666666666667,4,2,1,70,0,0
253822,-100,4,2,1,70,0,0
254822,-66.6666666666667,4,2,1,70,0,0
264822,-133.333333333333,4,2,1,45,0,0
270422,-133.333333333333,4,2,2,45,0,0
270822,-133.333333333333,4,2,1,25,0,0
271622,-303.030303030303,4,2,1,25,0,0

[Colours]
Combo1 : 131,218,153
Combo2 : 233,158,233
Combo3 : 127,127,252
Combo4 : 222,183,143

[HitObjects]
114,134,2022,6,0,P|396:261|124:115,2,950.399997099609,4|4|4,0:0|0:0|0:0,0:0:0:0:
256,192,15622,6,0,P|273:217|350:199,1,118.799999637451
163,182,17222,2,0,P|212:156|256:192,1,118.799999637451
70,172,18822,2,0,P|113:208|163:182,1,118.799999637451
256,192,21222,5,4,0:0:0:0:
256,192,22022,6,0,P|239:166|162:185,1,118.799999637451
348,201,23622,2,0,P|298:227|255:191,1,118.799999637451
441,211,25222,2,0,P|397:175|348:201,1,118.799999637451
259,231,26822,6,0,L|216:255,1,44.5499998640442
174,259,27222,2,2,L|135:239,2,22.5,8|8|2,0:0|0:0|0:0,0:0:0:0:
62,208,27622,1,4,0:0:0:0:
62,52,28422,6,0,P|139:50|192:120,1,157.5
183,114,29222,2,0,P|185:191|115:244,1,157.5
122,233,30022,2,0,P|187:192|268:226,1,157.5,0|0,2:0|0:0,0:0:0:0:
256,225,30822,2,0,P|328:248|393:208,1,157.5,0|0,2:0|0:0,0:0:0:0:
386,203,31622,2,0,P|329:253|331:330,1,157.5,0|0,2:0|0:0,0:0:0:0:
340,325,32422,2,0,P|236:211|159:345,1,360,0|4,2:0|0:0,0:0:0:0:
53,164,34822,6,0,P|104:140|127:226,1,157.5
127,218,35622,2,0,P|141:287|210:269,1,157.5
213,261,36422,2,0,P|269:207|342:239,1,157.5
342,238,37222,2,0,P|414:252|457:187,1,157.5
457,180,38022,2,0,P|415:87|366:60,1,157.5
361,58,38822,2,0,P|305:87|396:308,1,360,0|6,0:0|0:0,0:0:0:0:
478,265,40622,5,0,0:0:0:0:
478,244,40822,2,0,L|465:199,1,45,8|0,0:0|0:0,0:0:0:0:
387,151,41222,2,0,P|337:141|286:160,1,90,2|8,0:0|0:0,0:0:0:0:
213,215,41822,1,0,0:0:0:0:
253,312,42022,2,0,P|291:345|344:354,1,90,2|8,0:0|0:0,0:0:0:0:
341,246,42622,1,0,0:0:0:0:
262,187,42822,2,0,L|200:186,1,45,2|0,0:0|0:0,0:0:0:0:
103,121,43222,2,0,L|165:120,1,45,8|0,0:0|0:0,0:0:0:0:
249,72,43622,6,0,P|271:69|347:100,1,90,2|8,0:0|0:0,0:0:0:0:
398,201,44222,1,2,0:0:0:0:
457,332,44422,2,0,P|426:333|400:325,1,45,2|2,0:0|0:0,0:0:0:0:
296,243,44822,2,0,P|327:242|353:250,1,45,8|2,0:0|0:0,0:0:0:0:
310,352,45222,5,2,0:0:0:0:
205,311,45422,1,2,0:0:0:0:
276,225,45622,2,0,P|307:224|333:232,1,45,8|2,0:0|0:0,0:0:0:0:
412,329,46022,1,2,0:0:0:0:
476,234,46222,1,2,0:0:0:0:
407,158,46422,2,0,P|398:123|405:98,1,45,8|2,0:0|0:0,0:0:0:0:
299,67,46822,5,8,0:0:0:0:
280,59,46922,1,2,0:0:0:0:
261,56,47022,1,2,0:0:0:0:
241,56,47122,1,2,0:0:0:0:
222,61,47222,1,8,0:0:0:0:
204,70,47322,1,2,0:0:0:0:
189,81,47422,1,2,0:0:0:0:
176,96,47522,1,2,0:0:0:0:
169,116,47622,6,0,P|170:143|177:164,3,30.1499985738374,8|2|2|2,0:0|0:0|0:0|0:0,0:0:0:0:
153,220,48022,2,0,P|152:247|145:268,3,30.1499985738374,8|2|2|2,0:0|0:0|0:0|0:0,0:0:0:0:
119,340,48422,5,8,0:0:0:0:
144,344,48522,1,2,0:0:0:0:
171,342,48622,1,2,0:0:0:0:
196,334,48722,1,2,0:0:0:0:
218,320,48822,1,8,0:0:0:0:
239,304,48922,1,2,0:0:0:0:
262,291,49022,1,2,0:0:0:0:
287,282,49122,1,2,0:0:0:0:
313,281,49222,6,0,P|324:295|329:314,3,30.1499985738374,8|2|2|2,0:0|0:0|0:0|0:0,0:0:0:0:
354,205,49622,2,0,P|343:191|338:171,3,30.1499985738374,8|2|2|2,0:0|0:0|0:0|0:0,0:0:0:0:
403,279,50022,1,8,0:0:0:0:
256,192,50122,12,2,51622,0:0:0:0:
62,225,52622,6,0,P|84:225|106:222,1,30.1499985738374,8|8,0:0|0:0,0:0:0:0:
162,156,52822,2,0,P|128:155|81:147,1,60.2999971476747,8|8,0:0|0:0,0:0:0:0:
229,72,53222,6,0,P|296:122|289:265,1,202.500007724762,6|0,0:0|0:0,0:0:0:0:
291,259,53622,6,0,P|313:303|398:285,1,135
418,224,54022,1,8,0:0:0:0:
411,212,54122,2,0,P|409:151|434:121,1,90
451,119,54422,2,0,P|453:58|400:1,1,135
320,34,54822,1,2,0:0:0:0:
311,44,54922,2,0,P|305:91|332:152,1,90
282,199,55222,6,0,P|285:224|280:248,5,30
247,271,55622,1,8,0:0:0:0:
214,264,55722,1,0,0:0:0:0:
188,243,55822,1,0,0:0:0:0:
173,213,55922,1,0,0:0:0:0:
173,179,56022,1,0,0:0:0:0:
95,325,56222,1,0,0:0:0:0:
21,233,56422,5,2,0:0:0:0:
178,93,56622,1,0,0:0:0:0:
178,93,56722,1,0,0:0:0:0:
178,93,56822,2,0,P|187:141|159:196,1,90
0,92,57222,1,8,0:0:0:0:
261,66,57422,1,0,0:0:0:0:
261,66,57522,1,0,0:0:0:0:
261,66,57622,2,0,P|271:96|275:133,2,45
173,178,58022,5,2,0:0:0:0:
307,189,58222,2,0,P|327:210|336:256,1,45
277,293,58422,1,0,0:0:0:0:
457,241,58622,1,0,0:0:0:0:
469,232,58722,1,2,0:0:0:0:
481,223,58822,2,0,L|490:160,1,45,8|0,0:0|0:0,0:0:0:0:
441,64,59022,2,0,L|450:127,1,45
353,303,59222,6,0,L|372:157,1,135.000005149842
203,330,59622,6,0,B|202:270|226:219|226:219|230:167|217:126,1,202.500007724762,2|0,0:0|0:0,0:0:0:0:
183,113,60022,6,0,P|140:96|82:161,1,135
106,236,60422,1,8,0:0:0:0:
113,252,60522,2,0,P|91:334|67:354,1,90
152,376,60822,5,0,0:0:0:0:
189,351,60922,1,0,0:0:0:0:
232,339,61022,1,0,0:0:0:0:
277,342,61122,1,0,0:0:0:0:
318,360,61222,2,0,P|373:349|402:272,1,135,2|0,0:0|0:0,0:0:0:0:
353,228,61622,6,0,P|347:203|352:186,5,30
392,133,62022,1,8,0:0:0:0:
399,100,62122,1,0,0:0:0:0:
388,69,62222,1,0,0:0:0:0:
362,48,62322,1,0,0:0:0:0:
328,45,62422,2,0,P|298:51|276:70,1,45
211,150,62622,2,0,P|241:144|263:124,1,45
196,59,62822,6,0,B|158:75|120:47|120:47|90:76|90:76|51:49|9:66,1,202.500007724762,2|0,0:0|0:0,0:0:0:0:
40,146,63222,6,0,L|41:183,5,37.5
111,231,63622,2,0,L|114:287,1,56.25,8|0,0:0|0:0,0:0:0:0:
134,242,63822,2,0,L|137:298,1,56.25
157,253,64022,2,0,L|160:309,1,56.25
180,264,64222,2,0,L|183:320,1,56.25,0|2,0:0|0:0,0:0:0:0:
282,359,64422,6,0,P|323:274|380:260,1,112.5,0|2,0:0|0:0,0:0:0:0:
453,181,64722,2,0,P|358:187|318:145,1,112.5,0|2,0:0|0:0,0:0:0:0:
214,122,65022,2,0,P|267:200|250:256,1,112.5,0|2,0:0|0:0,0:0:0:0:
370,349,65422,1,2,0:0:0:0:
266,213,65622,1,8,0:0:0:0:
226,201,65722,1,8,0:0:0:0:
185,205,65822,1,8,0:0:0:0:
149,227,65922,1,8,0:0:0:0:
124,261,66022,6,0,B|113:276|118:299|118:299|84:223|-2:179,1,202.500007724762,6|0,0:0|0:0,0:0:0:0:
22,135,66422,2,0,P|32:90|123:113,1,148.50000453186
196,119,66822,1,8,0:0:0:0:
210,132,66922,2,0,P|261:119|266:60,1,99.0000030212403
269,2,67222,2,0,P|304:70|389:84,1,148.50000453186
466,27,67622,1,2,0:0:0:0:
448,36,67722,2,0,P|396:69|378:137,1,99.0000030212403
405,185,68022,6,0,P|375:179|355:191,5,33.0000010070801
314,230,68422,1,8,0:0:0:0:
298,196,68522,1,0,0:0:0:0:
272,170,68622,1,0,0:0:0:0:
239,153,68722,1,0,0:0:0:0:
202,148,68822,1,0,0:0:0:0:
191,275,69022,1,0,0:0:0:0:
65,202,69222,5,2,0:0:0:0:
86,72,69422,1,0,0:0:0:0:
86,72,69522,1,0,0:0:0:0:
86,72,69622,2,0,P|29:103|-13:86,1,99.0000030212403
151,0,70022,5,8,0:0:0:0:
287,62,70222,1,0,0:0:0:0:
287,62,70322,1,0,0:0:0:0:
287,62,70422,2,0,P|303:94|300:130,2,49.5000015106202
241,184,70822,5,2,0:0:0:0:
380,317,71022,2,0,P|390:284|397:258,1,49.5000015106202
418,161,71222,1,0,0:0:0:0:
218,337,71422,1,0,0:0:0:0:
203,339,71522,1,2,0:0:0:0:
188,341,71622,2,0,L|103:277,1,99.0000030212403,8|2,0:0|0:0,0:0:0:0:
186,276,71922,2,0,L|101:212,1,99.0000030212403,8|2,0:0|0:0,0:0:0:0:
28,221,72222,1,8,0:0:0:0:
161,151,72422,6,0,B|185:140|221:141|221:141|270:132|287:57|221:34,1,202.500007724762,2|0,0:0|0:0,0:0:0:0:
260,30,72822,2,0,P|332:59|415:10,1,168.75,2|0,0:0|0:0,0:0:0:0:
491,48,73222,5,8,0:0:0:0:
500,71,73322,2,0,L|496:194,1,99.0000030212403
501,247,73622,1,0,0:0:0:0:
479,291,73722,1,0,0:0:0:0:
442,323,73822,1,0,0:0:0:0:
395,339,73922,1,0,0:0:0:0:
346,336,74022,2,0,B|342:311|322:295|322:295|353:241|316:247|351:175,1,148.50000453186,2|0,0:0|0:0,0:0:0:0:
316,124,74422,6,0,P|296:116|270:115,5,33.0000010070801
223,162,74822,1,8,0:0:0:0:
191,180,74922,1,0,0:0:0:0:
155,176,75022,1,0,0:0:0:0:
128,151,75122,1,0,0:0:0:0:
122,116,75222,2,0,P|140:81|158:62,1,49.5000015106202
259,72,75422,2,0,P|280:104|287:129,1,49.5000015106202
236,265,75622,6,0,B|208:296|208:296|202:332|202:332|170:365|170:365|206:333|276:316,1,225,2|8,0:0|0:0,0:0:0:0:
437,355,76222,1,0,0:0:0:0:
437,355,76322,1,0,0:0:0:0:
437,355,76422,2,0,P|453:261|442:201,1,112.5,2|0,0:0|0:0,0:0:0:0:
363,251,76722,1,0,0:0:0:0:
363,251,76822,2,0,P|347:157|358:97,1,112.5,8|0,0:0|0:0,0:0:0:0:
181,46,77222,6,0,L|174:117,1,56.25,2|0,0:0|0:0,0:0:0:0:
86,103,77422,2,0,L|93:174,1,56.25,2|0,0:0|0:0,0:0:0:0:
185,185,77622,2,0,L|178:256,1,56.25,8|0,0:0|0:0,0:0:0:0:
90,242,77822,2,0,L|97:313,1,56.25,2|0,0:0|0:0,0:0:0:0:
165,347,78022,1,8,0:0:0:0:
191,356,78122,1,2,0:0:0:0:
219,360,78222,1,2,0:0:0:0:
247,357,78322,1,2,0:0:0:0:
273,348,78422,6,0,P|289:316|247:329,1,101.250003862381,2|0,0:0|0:0,0:0:0:0:
229,240,78822,6,0,P|279:190|393:221,1,180,6|0,0:0|0:0,0:0:0:0:
442,332,79422,1,0,0:0:0:0:
500,148,79622,2,0,P|450:98|327:227,1,270,8|0,0:0|0:0,0:0:0:0:
400,273,80422,2,0,P|417:232|413:188,1,90,2|0,0:0|0:0,0:0:0:0:
256,120,80822,2,0,P|239:161|243:205,1,90
325,173,81222,1,8,0:0:0:0:
197,11,81422,5,0,0:0:0:0:
387,66,81622,1,0,0:0:0:0:
197,199,81822,1,0,0:0:0:0:
280,92,82022,6,0,P|298:103|311:159,1,45,2|0,0:0|0:0,0:0:0:0:
329,208,82222,1,0,0:0:0:0:
106,185,82422,1,0,0:0:0:0:
106,185,82522,1,0,0:0:0:0:
106,185,82622,2,0,P|88:255|96:307,2,90,0|8|0,0:0|0:0|0:0,0:0:0:0:
180,74,83222,6,0,L|127:72,1,45
5,48,83422,2,0,L|49:49,1,45
267,23,83622,5,2,0:0:0:0:
270,114,83822,5,0,0:0:0:0:
273,199,84022,6,0,P|234:267|190:276,1,90
138,272,84322,1,2,0:0:0:0:
123,251,84422,2,0,P|45:232|-2:283,1,135,8|0,0:0|0:0,0:0:0:0:
64,327,84822,2,0,P|69:308|72:286,6,22.5
140,370,85222,6,0,B|218:372|218:372|319:320,1,180,2|0,0:0|0:0,0:0:0:0:
333,198,85822,1,0,0:0:0:0:
239,106,86022,2,0,B|205:234|205:234|308:325,1,270,8|0,0:0|0:0,0:0:0:0:
407,214,86822,2,0,B|376:183|376:183|332:197,1,90,2|0,0:0|0:0,0:0:0:0:
307,325,87222,2,0,B|349:313|349:313|358:269,1,90
393,105,87622,1,8,0:0:0:0:
205,234,87822,5,0,0:0:0:0:
240,71,88022,1,0,0:0:0:0:
358,268,88222,1,0,0:0:0:0:
198,155,88422,2,0,P|146:181|128:220,1,90,2|0,0:0|0:0,0:0:0:0:
63,376,88822,6,0,L|117:343,1,45
164,307,89022,1,0,0:0:0:0:
164,307,89122,1,0,0:0:0:0:
164,307,89222,2,0,P|237:310|292:293,1,90,8|0,0:0|0:0,0:0:0:0:
404,246,89522,2,0,P|331:249|276:232,1,90
282,163,89822,1,0,0:0:0:0:
277,149,89922,2,0,P|311:108|345:127,1,90,2|0,0:0|0:0,0:0:0:0:
395,171,90222,1,2,0:0:0:0:
205,95,90422,6,0,P|154:117|134:163,1,90,8|0,0:0|0:0,0:0:0:0:
46,216,90722,2,0,P|52:160|22:120,1,90,2|0,0:0|0:0,0:0:0:0:
14,115,91022,1,2,0:0:0:0:
133,173,91222,1,8,0:0:0:0:
137,145,91322,2,0,P|163:109|205:95,1,90,2|0,0:0|0:0,0:0:0:0:
297,174,91622,6,0,B|308:207|308:207|293:237|293:237|308:270|308:270|284:304|297:358,1,168.75,6|0,0:0|0:0,0:0:0:0:
374,319,92022,6,0,P|391:263|384:241,1,67.5000025749208,8|0,0:0|0:0,0:0:0:0:
123,189,92422,2,0,P|161:243|223:266,1,135.000005149842,2|8,0:0|0:0,0:0:0:0:
238,142,93022,5,0,0:0:0:0:
223,266,93222,1,2,0:0:0:0:
325,135,93422,1,0,0:0:0:0:
342,258,93622,1,8,0:0:0:0:
407,105,93822,1,0,0:0:0:0:
455,220,94022,2,0,P|464:274|462:312,1,67.5000025749208,2|0,0:0|0:0,0:0:0:0:
404,352,94322,1,0,0:0:0:0:
387,354,94422,1,8,0:0:0:0:
286,205,94622,1,0,0:0:0:0:
210,325,94822,6,0,B|197:302|205:274|205:274|181:250|181:250|188:196|146:150,1,184.950005220909,6|0,0:0|0:0,0:0:0:0:
99,88,95222,6,0,P|144:79|162:43,1,79.2000024169922,8|0,0:0|0:0,0:0:0:0:
16,123,95622,2,0,P|12:194|62:287,1,158.400004833984,2|8,0:0|0:0,0:0:0:0:
155,330,96222,5,0,0:0:0:0:
154,197,96422,1,2,0:0:0:0:
322,197,96622,1,0,0:0:0:0:
207,264,96822,1,8,0:0:0:0:
124,119,97022,1,0,0:0:0:0:
239,184,97222,2,0,P|270:123|257:86,1,79.2000024169922,2|0,0:0|0:0,0:0:0:0:
225,26,97522,1,0,0:0:0:0:
236,16,97622,2,0,P|277:5|340:16,1,79.2000024169922,8|0,0:0|0:0,0:0:0:0:
444,76,98022,5,12,0:0:0:0:
456,102,98122,1,2,0:0:0:0:
461,132,98222,1,2,0:0:0:0:
458,161,98322,1,2,0:0:0:0:
447,189,98422,1,8,0:0:0:0:
434,215,98522,1,2,0:0:0:0:
429,245,98622,1,2,0:0:0:0:
432,274,98722,1,2,0:0:0:0:
443,302,98822,6,0,P|428:321|389:336,3,39.6000012084961,8|2|2|2,0:0|0:0|0:0|0:0,0:0:0:0:
335,325,99222,2,0,P|316:310|301:271,3,39.6000012084961,8|2|2|2,0:0|0:0|0:0|0:0,0:0:0:0:
312,213,99622,5,8,0:0:0:0:
308,174,99722,1,2,0:0:0:0:
285,142,99822,1,2,0:0:0:0:
248,128,99922,1,2,0:0:0:0:
210,136,100022,1,8,0:0:0:0:
179,111,100122,1,2,0:0:0:0:
140,104,100222,1,2,0:0:0:0:
104,121,100322,1,2,0:0:0:0:
83,153,100422,6,0,P|81:177|84:215,3,39.6000012084961,8|2|2|2,0:0|0:0|0:0|0:0,0:0:0:0:
136,264,100822,2,0,P|138:288|135:326,3,39.6000012084961,8|2|2|2,0:0|0:0|0:0|0:0,0:0:0:0:
64,353,101222,1,8,0:0:0:0:
256,192,101322,12,0,102822,0:0:0:0:
222,254,103822,6,0,P|229:239|227:201,1,45,8|8,0:0|0:0,0:0:0:0:
186,43,104022,2,0,P|173:94|187:141,1,90,8|8,0:0|0:0,0:0:0:0:
413,223,104422,6,0,P|390:170|329:218,1,157.5,6|0,0:0|0:0,0:0:0:0:
364,290,105222,1,8,0:0:0:0:
245,101,105522,6,0,P|228:99|183:159,1,90
190,236,105822,1,0,0:0:0:0:
190,236,105922,6,0,P|137:293|94:228,1,180,2|0,0:0|0:0,0:0:0:0:
148,162,106822,1,8,0:0:0:0:
67,78,107022,5,0,0:0:0:0:
73,69,107122,2,0,P|102:59|120:65,1,45
197,84,107422,2,0,P|204:86|220:82,1,22.5
300,70,107622,6,0,P|362:61|409:78,1,112.5,2|0,0:0|0:0,0:0:0:0:
492,151,108222,5,0,0:0:0:0:
492,151,108322,1,0,0:0:0:0:
492,151,108422,2,0,P|497:173|488:219,1,56.25,8|0,0:0|0:0,0:0:0:0:
408,318,108622,6,0,B|366:279|366:279|419:176,1,168.75
483,66,109022,1,0,0:0:0:0:
475,56,109122,6,0,B|402:44|433:79|358:71,1,112.5,2|0,0:0|0:0,0:0:0:0:
201,68,109822,1,0,0:0:0:0:
201,68,109922,1,0,0:0:0:0:
201,68,110022,2,0,P|210:123|197:208,1,135,8|0,0:0|0:0,0:0:0:0:
201,68,110622,6,0,P|216:90|263:117,1,67.5000025749208
344,117,110822,6,0,P|389:130|353:214,1,157.5,2|0,0:0|0:0,0:0:0:0:
286,179,111622,1,8,0:0:0:0:
433,360,111922,5,0,0:0:0:0:
433,360,112022,1,0,0:0:0:0:
433,360,112122,1,0,0:0:0:0:
379,295,112322,6,0,B|309:291|333:321|271:316|271:316|243:291|205:292,1,180,2|0,0:0|0:0,0:0:0:0:
209,374,113222,1,8,0:0:0:0:
64,220,113422,6,0,L|63:203,6,11.25
136,172,113822,6,0,B|133:110|133:110|127:96|127:96|124:41|124:41|167:61|202:45,1,202.5,2|0,0:0|0:0,0:0:0:0:
278,25,114822,5,8,0:0:0:0:
295,38,114922,1,0,0:0:0:0:
307,57,115022,1,0,0:0:0:0:
312,79,115122,1,0,0:0:0:0:
307,101,115222,2,0,P|304:122|311:156,2,45
396,48,115522,6,0,P|477:73|487:157,1,180,2|0,0:0|0:0,0:0:0:0:
430,217,116022,1,8,0:0:0:0:
162,241,116322,2,0,P|192:225|289:266,2,135,2|2|2,0:0|0:0|0:0,0:0:0:0:
198,133,117222,6,0,P|165:150|58:105,1,157.5,2|0,0:0|0:0,0:0:0:0:
139,61,118022,1,8,0:0:0:0:
3,182,118322,6,0,P|7:225|40:265,1,90
153,293,118622,1,0,0:0:0:0:
186,280,118722,6,0,P|140:237|23:277,1,180,2|0,0:0|0:0,0:0:0:0:
104,321,119622,1,8,0:0:0:0:
247,210,119822,5,0,0:0:0:0:
256,216,119922,2,0,P|266:245|260:263,1,45
241,340,120222,2,0,P|239:347|243:363,1,22.5,2|0,0:0|0:0,0:0:0:0:
321,314,120422,6,0,B|381:295|381:295|400:298|400:298|432:288,1,112.5,2|0,0:0|0:0,0:0:0:0:
512,219,121022,5,0,0:0:0:0:
512,219,121122,1,0,0:0:0:0:
512,219,121222,2,0,L|487:160,1,56.25,8|0,0:0|0:0,0:0:0:0:
363,91,121422,2,0,B|382:56|435:18|479:16|479:16|465:23|454:30,1,168.75
510,97,121822,1,0,0:0:0:0:
510,109,121922,6,0,P|484:143|417:135,1,112.5,2|0,0:0|0:0,0:0:0:0:
276,1,122622,5,0,0:0:0:0:
276,1,122722,1,0,0:0:0:0:
276,1,122822,2,0,P|269:59|283:152,1,135,8|0,0:0|0:0,0:0:0:0:
276,1,123422,2,0,P|244:24|204:34,1,67.5000025749208
85,66,123622,6,0,B|65:72|40:72|40:72|21:132|64:182,1,157.5,2|0,0:0|0:0,0:0:0:0:
139,139,124422,1,8,0:0:0:0:
0,282,124722,5,0,0:0:0:0:
0,282,124822,1,0,0:0:0:0:
0,282,124922,1,0,0:0:0:0:
65,384,125122,6,0,P|88:338|209:308,1,180,2|0,0:0|0:0,0:0:0:0:
274,356,126022,1,8,0:0:0:0:
289,199,126222,6,0,L|287:184,6,11.25
355,247,126622,1,2,0:0:0:0:
256,192,126722,12,0,129622,0:0:0:0:
402,206,130022,6,0,L|416:340,1,135.000005149842,2|0,0:0|0:0,0:0:0:0:
314,384,130622,1,0,0:0:0:0:
155,223,130822,2,0,P|244:210|301:297,1,202.500007724762,8|0,0:0|0:0,0:0:0:0:
175,349,131622,6,0,L|212:293,1,67.5000025749208,2|0,0:0|0:0,0:0:0:0:
407,195,132022,2,0,L|370:251,1,67.5000025749208
261,175,132422,2,0,P|269:110|401:59,1,202.500007724762,8|0,0:0|0:0,0:0:0:0:
360,153,133222,5,2,0:0:0:0:
234,37,133422,2,0,P|204:31|110:98,1,135.000005149842
107,267,134022,2,0,P|193:222|202:126,1,202.500007724762,8|0,0:0|0:0,0:0:0:0:
109,164,134822,5,2,0:0:0:0:
82,349,135022,1,0,0:0:0:0:
93,357,135122,1,0,0:0:0:0:
104,365,135222,2,0,L|135:331,2,33.7500012874604
243,242,135622,5,8,0:0:0:0:
401,267,135822,1,0,0:0:0:0:
390,275,135922,1,0,0:0:0:0:
379,283,136022,2,0,L|347:249,2,33.7500012874604
240,324,136422,5,2,0:0:0:0:
309,159,136622,2,0,P|375:150|434:182,1,135.000005149842
372,322,137222,2,0,P|358:291|355:257,1,67.5000025749208,8|0,0:0|0:0,0:0:0:0:
418,118,137622,2,0,P|431:148|434:182,1,67.5000025749208
306,177,138022,6,0,P|298:74|373:-5,1,202.500007724762,2|0,0:0|0:0,0:0:0:0:
507,77,138822,1,8,0:0:0:0:
403,118,139022,2,0,P|354:24|363:-11,1,135.000005149842
273,84,139622,6,0,P|244:154|110:195,1,202.500007724762,2|0,0:0|0:0,0:0:0:0:
30,113,140422,1,8,0:0:0:0:
157,69,140622,1,0,0:0:0:0:
132,200,140822,2,0,P|145:227|241:218,1,135.000005149842,2|0,0:0|0:0,0:0:0:0:
195,151,141422,5,2,0:0:0:0:
82,271,141622,2,0,B|89:300|89:300|173:324,2,101.250003862381,8|2|2,0:0|0:0|0:0,0:0:0:0:
198,140,142422,1,8,0:0:0:0:
299,270,142622,1,8,0:0:0:0:
306,248,142722,1,8,0:0:0:0:
316,229,142822,6,0,P|383:198|429:230,1,135.000005149842,2|0,0:0|0:0,0:0:0:0:
435,332,143422,1,0,0:0:0:0:
512,225,143622,2,0,P|512:134|492:71,1,135.000005149842,8|0,0:0|0:0,0:0:0:0:
377,36,144222,1,0,0:0:0:0:
283,162,144422,6,0,P|332:158|358:125,1,67.5000025749208,2|0,0:0|0:0,0:0:0:0:
377,36,144822,2,0,P|328:40|302:73,1,67.5000025749208
236,222,145222,2,0,P|139:229|73:143,1,202.500007724762,8|0,0:0|0:0,0:0:0:0:
181,128,146022,5,2,0:0:0:0:
316,258,146222,2,0,L|295:347,1,67.5000025749208
188,345,146622,1,0,0:0:0:0:
236,222,146822,2,0,P|306:172|376:192,1,135.000005149842,8|0,0:0|0:0,0:0:0:0:
418,272,147422,1,0,0:0:0:0:
350,177,147622,5,2,0:0:0:0:
419,58,147822,1,0,0:0:0:0:
414,46,147922,1,0,0:0:0:0:
408,33,148022,2,0,L|363:45,2,33.7500012874604
226,71,148422,5,8,0:0:0:0:
350,177,148622,1,0,0:0:0:0:
335,177,148722,1,0,0:0:0:0:
322,179,148822,2,0,L|311:133,2,33.7500012874604
269,1,149222,5,2,0:0:0:0:
261,219,149422,2,0,P|225:250|128:272,1,135.000005149842
21,150,150022,1,8,0:0:0:0:
95,53,150222,2,0,P|126:88|148:186,1,135.000005149842
141,272,150822,5,2,0:0:0:0:
166,166,151022,2,0,P|213:142|249:139,1,67.5000025749208
349,143,151422,1,0,0:0:0:0:
320,317,151622,1,8,0:0:0:0:
235,249,151822,2,0,P|272:175|337:147,1,135.000005149842
381,237,152422,5,2,0:0:0:0:
316,151,152622,2,0,P|311:102|362:21,1,135.000005149842
512,70,153222,2,0,P|481:93|429:91,1,67.5000025749208,8|0,0:0|0:0,0:0:0:0:
351,28,153622,2,0,P|324:7|292:0,1,67.5000025749208,2|0,0:0|0:0,0:0:0:0:
130,78,154022,6,0,B|55:152|59:290|110:381|214:346|227:263|193:232|156:218,1,405.000015449525,2|0,0:0|0:0,0:0:0:0:
290,105,155622,6,0,B|414:107|389:36|509:27|509:27|419:134|469:247|469:247|492:187|430:136|348:159|348:257|348:257|316:205|251:188|251:188|224:221|172:226,1,920.699997190247,6|0,0:0|0:0,0:0:0:0:
170,117,162022,2,0,B|98:80|5:149|38:247|38:247|90:196|153:196|133:247|210:236|251:188|251:188|221:321|358:372|358:372|326:318|354:272|354:285|383:223|335:172,1,920.699997190247
126,11,168422,5,4,0:0:0:0:
201,91,168622,2,0,L|200:109,4,14.8499999546814
292,36,169222,5,0,0:0:0:0:
288,146,169422,2,0,L|273:159,4,14.8499999546814
390,171,170022,5,0,0:0:0:0:
310,247,170222,2,0,L|291:246,4,14.8499999546814
363,337,170822,5,0,0:0:0:0:
253,333,171022,2,0,L|238:319,4,14.8499999546814
113,323,171622,5,0,0:0:0:0:
192,248,171822,1,0,0:0:0:0:
192,248,171922,1,0,0:0:0:0:
192,248,172022,2,0,L|210:248,2,14.8499999546814
138,157,172422,5,0,0:0:0:0:
248,161,172622,1,0,0:0:0:0:
248,161,172722,1,0,0:0:0:0:
248,161,172822,2,0,L|260:174,2,14.8499999546814
273,59,173222,5,0,0:0:0:0:
348,139,173422,1,0,0:0:0:0:
348,139,173522,1,0,0:0:0:0:
348,139,173622,2,0,L|347:157,2,14.8499999546814
439,86,174022,5,0,0:0:0:0:
435,196,174222,1,0,0:0:0:0:
435,196,174322,1,0,0:0:0:0:
435,196,174422,2,0,L|420:209,2,14.8499999546814
423,334,174822,5,4,0:0:0:0:
347,254,175022,2,0,L|347:235,4,14.8499999546814
256,309,175622,5,0,0:0:0:0:
260,199,175822,2,0,L|273:186,4,14.8499999546814
158,173,176422,5,0,0:0:0:0:
238,98,176622,2,0,L|256:98,4,14.8499999546814
185,8,177222,5,0,0:0:0:0:
295,12,177422,2,0,L|308:26,4,14.8499999546814
434,23,178022,5,0,0:0:0:0:
354,99,178222,1,0,0:0:0:0:
354,99,178322,1,0,0:0:0:0:
354,99,178422,2,0,L|373:100,2,14.8499999546814
409,190,178822,5,0,0:0:0:0:
299,186,179022,1,0,0:0:0:0:
299,186,179122,1,0,0:0:0:0:
299,186,179222,2,0,L|312:200,2,14.8499999546814
273,288,179622,5,0,0:0:0:0:
198,208,179822,1,0,0:0:0:0:
198,208,179922,1,0,0:0:0:0:
198,208,180022,2,0,L|198:227,2,14.8499999546814
108,261,180422,5,0,0:0:0:0:
112,151,180622,1,0,0:0:0:0:
112,151,180722,1,0,0:0:0:0:
112,151,180822,2,0,L|126:137,1,14.8499999546814,8|8,0:0|0:0,0:0:0:0:
168,81,181022,2,0,L|182:67,1,14.8499999546814,8|8,0:0|0:0,0:0:0:0:
256,23,181222,6,0,B|321:43|314:124|290:94|260:138|299:237|383:225|433:156|400:88|338:65|295:93|238:151|228:218,1,445.499998640442,6|0,0:0|0:0,0:0:0:0:
289,271,184422,6,0,B|286:311|222:369|148:336|140:287|140:287|184:194|99:145|99:145|65:167|27:162,1,445.499998640442
44,70,187622,6,0,B|67:33|131:28|123:37|177:61|216:28|216:28|188:56|192:102|192:102|241:71|319:70|371:110,1,445.499998640442
420,186,190822,6,0,B|345:231|360:170|289:212|289:212|321:290|257:283|282:363|282:363|317:310|376:299|376:299|360:321|355:336,1,445.499998640442
505,375,194022,6,0,L|492:319,3,45,6|2|8|2,0:0|0:0|0:0|0:0,0:0:0:0:
420,186,194822,2,0,L|433:130,3,45,2|2|8|2,0:0|0:0|0:0|0:0,0:0:0:0:
322,20,195622,6,0,P|331:55|331:83,1,45,2|2,0:0|0:0,0:0:0:0:
214,172,196022,2,0,P|216:149|223:128,1,45,8|2,0:0|0:0,0:0:0:0:
327,216,196422,2,0,P|326:252|319:279,1,45,2|2,0:0|0:0,0:0:0:0:
198,356,196822,2,0,P|195:333|196:311,1,45,8|2,0:0|0:0,0:0:0:0:
358,127,197222,6,0,L|403:157,1,45,2|2,0:0|0:0,0:0:0:0:
511,230,197622,1,8,0:0:0:0:
451,334,197822,2,0,L|420:379,2,45,2|2|2,0:0|0:0|0:0,0:0:0:0:
375,229,198422,2,0,P|351:228|317:235,1,45,8|2,0:0|0:0,0:0:0:0:
260,268,198722,5,0,0:0:0:0:
260,286,198822,2,0,L|256:339,1,45,2|2,0:0|0:0,0:0:0:0:
59,162,199222,2,0,P|83:161|117:168,1,45,8|2,0:0|0:0,0:0:0:0:
174,201,199522,5,0,0:0:0:0:
174,219,199622,2,0,L|178:272,1,45,2|2,0:0|0:0,0:0:0:0:
187,354,200022,1,8,0:0:0:0:
385,257,200222,5,2,0:0:0:0:
385,257,200322,1,0,0:0:0:0:
385,257,200422,2,0,P|452:229|498:234,1,90,8|8,0:0|0:0,0:0:0:0:
360,344,200922,6,0,P|302:299|283:257,1,90,2|2,0:0|0:0,0:0:0:0:
298,214,201222,2,0,P|270:178|231:156,1,90,8|8,0:0|0:0,0:0:0:0:
67,303,201722,6,0,P|134:275|179:280,1,90,2|2,0:0|0:0,0:0:0:0:
210,314,202022,2,0,P|254:307|293:285,1,90,8|8,0:0|0:0,0:0:0:0:
249,70,202522,6,0,P|239:142|212:179,1,90,2|2,0:0|0:0,0:0:0:0:
167,188,202822,2,0,P|150:229|149:274,1,90,8|8,0:0|0:0,0:0:0:0:
67,303,203122,2,0,P|39:267|0:245,1,90,8|2,0:0|0:0,0:0:0:0:
15,166,203422,1,2,0:0:0:0:
15,166,203522,1,2,0:0:0:0:
15,166,203622,6,8,L|46:116,3,45
103,68,204022,2,8,L|116:111,3,45
162,185,204422,2,8,L|175:141,3,45
221,67,204822,2,8,L|225:98,6,22.5
235,164,205222,1,2,0:0:0:0:
17,372,206222,6,0,P|26:338|26:308,1,45,8|8,0:0|0:0,0:0:0:0:
75,180,206422,2,0,P|74:227|86:278,1,90,8|8,0:0|0:0,0:0:0:0:
260,187,206822,6,0,P|336:117|522:124,2,270.000010299683,2|8|2,0:0|0:0|0:0,0:0:0:0:
428,257,207822,1,0,0:0:0:0:
426,290,207922,1,0,0:0:0:0:
407,318,208022,2,0,P|334:340|269:304,1,149.40000216568,8|0,0:0|0:0,0:0:0:0:
248,219,208322,1,0,0:0:0:0:
262,194,208422,6,0,P|282:112|132:47,2,270.000010299683,2|8|2,0:0|0:0|0:0,0:0:0:0:
60,170,209422,1,0,0:0:0:0:
42,186,209522,1,0,0:0:0:0:
29,208,209622,2,0,P|26:245|35:286,1,67.5000025749208,8|0,0:0|0:0,0:0:0:0:
169,384,209822,2,0,P|172:347|163:306,1,67.5000025749208,2|0,0:0|0:0,0:0:0:0:
141,191,210022,6,0,B|175:120|260:127|247:155|318:161|376:85,1,270.000010299683,2|8,0:0|0:0,0:0:0:0:
281,53,210522,1,0,0:0:0:0:
276,49,210622,2,0,P|254:43|228:44,1,45
224,231,210822,1,2,0:0:0:0:
373,88,211022,6,0,P|394:124|389:189,1,78.7500007510185
402,249,211222,2,0,P|390:288|411:350,1,78.7500007510185,8|0,0:0|0:0,0:0:0:0:
486,289,211422,1,0,0:0:0:0:
486,289,211522,1,0,0:0:0:0:
486,289,211622,6,0,P|392:246|230:315,1,270.000010299683,2|8,0:0|0:0,0:0:0:0:
70,306,212222,5,0,0:0:0:0:
66,311,212322,1,0,0:0:0:0:
62,316,212422,2,0,P|128:346|242:297,1,202.500007724762,2|0,0:0|0:0,0:0:0:0:
276,196,212822,2,0,P|249:161|232:156,1,45,8|0,0:0|0:0,0:0:0:0:
162,196,213022,2,0,P|217:168|232:119,1,90
247,51,213222,6,0,B|268:21|268:21|388:12|467:123,2,270.000010299683,2|8|2,0:0|0:0|0:0,0:0:0:0:
495,219,214222,1,0,0:0:0:0:
495,219,214322,1,0,0:0:0:0:
495,219,214422,2,0,P|502:252|493:292,1,67.5000025749208,8|0,0:0|0:0,0:0:0:0:
207,292,214722,1,0,0:0:0:0:
214,301,214822,6,0,P|287:273|176:223,2,270.000010299683,2|8|2,0:0|0:0|0:0,0:0:0:0:
105,277,215822,2,0,P|84:233|90:196,1,67.5000025749208
125,136,216022,2,0,P|155:75|124:0,1,135.000005149842,8|0,0:0|0:0,0:0:0:0:
256,151,216422,6,0,B|395:234|364:119|517:203,1,270.000010299683,2|8,0:0|0:0,0:0:0:0:
254,346,217222,5,2,0:0:0:0:
297,371,217322,1,0,0:0:0:0:
346,384,217422,1,0,0:0:0:0:
397,382,217522,1,0,0:0:0:0:
445,366,217622,2,0,P|459:322|457:296,1,67.5000025749208,8|0,0:0|0:0,0:0:0:0:
320,212,217822,2,0,P|320:245|332:276,1,67.5000025749208
457,301,218022,6,0,B|446:190|446:190|391:154|391:154|377:22,1,306.000005836487,2|8,0:0|0:0,0:0:0:0:
196,252,218722,5,0,0:0:0:0:
196,252,218822,2,0,L|170:324,1,67.5000025749208,2|0,0:0|0:0,0:0:0:0:
327,254,219022,2,0,L|301:182,1,67.5000025749208
173,188,219222,2,0,L|195:251,1,67.5000025749208,8|0,0:0|0:0,0:0:0:0:
304,190,219422,2,0,L|326:126,1,67.5000025749208
402,41,219622,6,0,B|467:72|493:158|455:233|455:233|459:204|450:179,2,270.000010299683,2|8|2,0:0|0:0|0:0,0:0:0:0:
379,214,220622,5,0,0:0:0:0:
348,227,220722,1,0,0:0:0:0:
314,224,220822,2,0,P|240:181|196:128,1,149.40000216568,8|0,0:0|0:0,0:0:0:0:
136,39,221122,1,0,0:0:0:0:
110,41,221222,6,0,B|45:72|19:158|56:233|56:233|67:207|62:179,2,270.000010299683,2|8|2,0:0|0:0|0:0,0:0:0:0:
272,111,222222,5,0,0:0:0:0:
273,135,222322,1,0,0:0:0:0:
267,159,222422,2,0,P|242:187|207:209,1,67.5000025749208,8|0,0:0|0:0,0:0:0:0:
79,322,222622,2,0,P|103:293|138:271,1,67.5000025749208,2|0,0:0|0:0,0:0:0:0:
294,246,222822,6,0,B|360:230|414:234|361:292|436:328|494:309|512:248|483:206,1,270.000010299683,2|8,0:0|0:0,0:0:0:0:
415,165,223322,1,0,0:0:0:0:
415,165,223422,2,0,L|422:116,1,45
486,40,223622,1,2,0:0:0:0:
466,253,223822,6,0,P|423:266|358:252,1,78.7500007510185
291,143,224022,2,0,P|323:173|344:237,1,78.7500007510185,8|0,0:0|0:0,0:0:0:0:
306,288,224222,1,0,0:0:0:0:
306,288,224322,1,0,0:0:0:0:
306,288,224422,6,0,B|278:299|251:294|251:294|165:194|170:270|74:174,1,270.000010299683,2|8,0:0|0:0,0:0:0:0:
194,51,225022,5,0,0:0:0:0:
193,44,225122,1,0,0:0:0:0:
192,38,225222,2,0,P|123:63|77:178,1,202.500007724762,2|0,0:0|0:0,0:0:0:0:
173,203,225622,2,0,P|216:210|229:209,1,45,8|0,0:0|0:0,0:0:0:0:
285,95,225822,2,0,P|241:99|206:153,1,90
190,285,226022,5,2,0:0:0:0:
262,235,226222,2,0,P|341:231|361:244,2,90
420,319,226822,1,8,0:0:0:0:
478,200,227022,1,0,0:0:0:0:
478,200,227122,1,0,0:0:0:0:
478,200,227222,2,0,L|476:149,1,45
422,31,227522,6,0,P|400:80|403:166,1,135,2|0,0:0|0:0,0:0:0:0:
324,180,228022,2,0,P|303:152|255:126,1,90,2|0,0:0|0:0,0:0:0:0:
164,150,228422,1,8,0:0:0:0:
254,259,228622,2,0,L|256:275,6,11.25
204,346,229022,5,2,0:0:0:0:
36,157,229822,5,0,0:0:0:0:
31,171,229922,1,0,0:0:0:0:
28,192,230022,2,0,P|33:230|60:283,1,90
243,249,230422,2,0,P|235:194|197:119,1,135.000005149842
163,325,230822,5,8,0:0:0:0:
188,346,230922,1,2,0:0:0:0:
219,359,231022,1,2,0:0:0:0:
253,360,231122,1,2,0:0:0:0:
285,350,231222,5,8,0:0:0:0:
324,334,231322,1,2,0:0:0:0:
366,330,231422,1,2,0:0:0:0:
407,335,231522,1,2,0:0:0:0:
446,352,231622,5,10,0:0:0:0:
492,332,231722,1,2,0:0:0:0:
512,289,231822,1,2,0:0:0:0:
505,240,231922,1,2,0:0:0:0:
467,208,232022,6,0,P|420:207|376:225,1,67.5000025749208,8|0,0:0|0:0,0:0:0:0:
467,208,232422,6,0,P|373:225|320:286,1,180,2|0,0:0|0:0,0:0:0:0:
137,119,233222,6,0,P|181:120|222:157,1,90,8|0,0:0|0:0,0:0:0:0:
253,235,233522,1,0,0:0:0:0:
237,254,233622,2,0,L|131:270,1,90
24,215,233922,6,0,B|69:208|69:208|85:196|85:196|100:203|100:203|152:196,1,135.000005149842,2|0,0:0|0:0,0:0:0:0:
216,147,234222,2,0,P|237:106|225:58,1,67.5000025749208
140,36,234422,5,2,0:0:0:0:
140,36,234522,1,0,0:0:0:0:
140,35,234622,2,0,P|121:48|104:63,1,45
8,143,234822,2,0,P|20:161|35:178,3,45,8|0|0|0,0:0|0:0|0:0|0:0,0:0:0:0:
115,211,235222,2,0,P|102:229|87:246,3,45
0,325,235622,6,0,B|86:343|86:343|155:335,1,135.000005149842,2|0,0:0|0:0,0:0:0:0:
353,308,236022,1,0,0:0:0:0:
353,308,236122,1,0,0:0:0:0:
353,308,236222,2,0,L|368:159,1,135.000005149842,0|8,0:0|0:0,0:0:0:0:
248,205,236522,1,0,0:0:0:0:
248,205,236622,2,0,L|233:56,1,135.000005149842
320,2,236922,2,0,L|327:69,1,67.5000025749208,2|0,0:0|0:0,0:0:0:0:
361,240,237122,2,0,L|367:173,1,67.5000025749208,2|0,0:0|0:0,0:0:0:0:
367,172,237622,6,0,P|309:199|247:247,1,135.000005149842,2|0,0:0|0:0,0:0:0:0:
199,314,237922,1,2,0:0:0:0:
154,313,238022,1,8,0:0:0:0:
119,287,238122,2,0,B|111:252|111:252|136:220,1,67.5000025749208
368,317,238422,2,0,P|406:241|389:170,1,135.000005149842,8|0,0:0|0:0,0:0:0:0:
511,353,238822,6,0,P|487:281|503:158,1,202.500007724762,2|0,0:0|0:0,0:0:0:0:
493,65,239222,1,0,0:0:0:0:
480,51,239322,2,0,P|438:36|419:38,1,45
338,79,239522,1,0,0:0:0:0:
328,100,239622,2,0,L|304:145,1,45,8|0,0:0|0:0,0:0:0:0:
206,163,239822,2,0,L|227:123,1,45
197,2,240022,2,0,L|129:127,1,135.000005149842
79,215,240322,6,0,B|58:241|27:257|27:257|31:292|14:340,1,135.000005149842,2|0,0:0|0:0,0:0:0:0:
91,370,240622,2,0,P|149:370|169:360,1,67.5000025749208
224,286,240822,5,2,0:0:0:0:
224,286,240922,1,0,0:0:0:0:
224,286,241022,2,0,L|275:278,1,45
383,245,241222,2,0,L|332:237,3,45,8|0|0|0,0:0|0:0|0:0|0:0,0:0:0:0:
271,169,241622,2,0,L|322:161,1,45
427,114,241822,2,0,L|382:120,1,45,2|0,0:0|0:0,0:0:0:0:
201,147,242022,6,0,P|173:111|201:30,2,135.000005149842,2|0|0,0:0|0:0|0:0,0:0:0:0:
260,167,242522,1,0,0:0:0:0:
271,169,242622,2,0,P|288:205|289:227,1,45
205,297,242822,2,0,P|254:252|320:245,1,135.000005149842,8|0,0:0|0:0,0:0:0:0:
413,192,243122,2,0,P|428:257|400:318,2,135.000005149842,0|2|2,0:0|0:0|0:0,0:0:0:0:
156,342,243822,5,2,0:0:0:0:
143,308,243922,2,0,P|147:268|169:238,2,67.5000025749208,8|0|0,0:0|0:0|0:0,0:0:0:0:
232,303,244222,1,8,0:0:0:0:
253,273,244322,2,0,L|263:198,1,67.5000025749208,2|0,0:0|0:0,0:0:0:0:
244,89,244522,2,0,P|187:87|187:174,1,135.000005149842,8|0,0:0|0:0,0:0:0:0:
267,185,244822,1,8,0:0:0:0:
267,185,244922,1,2,0:0:0:0:
267,185,245022,1,8,0:0:0:0:
447,30,245222,6,0,L|462:215,1,180,2|0,0:0|0:0,0:0:0:0:
461,209,246022,2,0,P|437:249|402:274,1,90,8|0,0:0|0:0,0:0:0:0:
293,283,246322,1,0,0:0:0:0:
294,257,246422,2,0,L|307:164,1,90
257,54,246722,6,0,B|249:113|249:113|238:127|238:127|230:186,1,135.000005149842,2|0,0:0|0:0,0:0:0:0:
220,250,247022,2,0,L|229:183,1,67.5000025749208
162,94,247222,5,2,0:0:0:0:
162,94,247322,1,0,0:0:0:0:
162,94,247422,2,0,P|131:108|113:132,1,45
58,207,247622,5,8,0:0:0:0:
59,218,247722,1,0,0:0:0:0:
60,229,247822,1,0,0:0:0:0:
61,240,247922,1,0,0:0:0:0:
63,251,248022,1,0,0:0:0:0:
64,262,248122,1,0,0:0:0:0:
65,274,248222,1,0,0:0:0:0:
66,285,248322,1,0,0:0:0:0:
70,314,248422,6,0,P|114:329|180:272,1,135.000005149842,2|0,0:0|0:0,0:0:0:0:
149,63,248822,1,0,0:0:0:0:
149,63,248922,1,0,0:0:0:0:
149,63,249022,2,0,P|257:43|300:59,1,135.000005149842,0|8,0:0|0:0,0:0:0:0:
384,121,249322,1,0,0:0:0:0:
384,121,249422,2,0,P|293:183|274:224,1,135.000005149842
356,282,249722,2,0,P|328:236|289:220,1,67.5000025749208,2|0,0:0|0:0,0:0:0:0:
207,315,249922,2,0,P|260:313|294:287,1,67.5000025749208
483,133,250222,5,0,0:0:0:0:
483,133,250322,1,0,0:0:0:0:
494,262,250522,5,0,0:0:0:0:
494,262,250622,2,0,P|473:297|430:312,1,67.5000025749208,0|2,0:0|0:0,0:0:0:0:
319,309,250822,5,8,0:0:0:0:
315,301,250922,2,0,L|315:197,1,90,2|0,0:0|0:0,0:0:0:0:
256,149,251222,2,0,L|256:103,1,45,8|0,0:0|0:0,0:0:0:0:
377,105,251422,2,0,L|377:59,1,45,8|0,0:0|0:0,0:0:0:0:
239,18,251622,6,0,B|176:38|176:38|132:112,1,135.000005149842,2|0,0:0|0:0,0:0:0:0:
0,184,252022,2,0,P|76:174|22:229,1,202.500007724762,2|0,0:0|0:0,0:0:0:0:
21,310,252422,5,8,0:0:0:0:
29,327,252522,2,0,P|67:340|93:332,1,45
163,260,252722,1,0,0:0:0:0:
170,243,252823,2,0,P|189:232|276:272,1,90
325,346,253122,6,0,P|414:336|455:276,1,135.000005149842,2|0,0:0|0:0,0:0:0:0:
463,216,253422,2,0,P|451:185|407:171,1,67.5000025749208
299,179,253622,1,2,0:0:0:0:
299,179,253722,1,0,0:0:0:0:
299,179,253822,2,0,L|284:110,1,45
237,34,254022,5,8,0:0:0:0:
224,32,254122,1,0,0:0:0:0:
211,31,254222,1,0,0:0:0:0:
198,32,254322,1,0,0:0:0:0:
186,35,254422,1,0,0:0:0:0:
173,39,254522,1,0,0:0:0:0:
161,47,254622,2,0,P|144:82|142:118,1,45,2|8,0:0|0:0,0:0:0:0:
209,262,254822,6,0,P|255:168|276:57,2,202.500007724762,2|8|8,0:0|0:0|0:0,0:0:0:0:
359,153,255622,2,0,P|254:160|147:197,2,202.500007724762,2|8|8,0:0|0:0|0:0,0:0:0:0:
190,78,256422,2,0,P|248:164|334:238,2,202.500007724762,2|8|8,0:0|0:0|0:0,0:0:0:0:
324,36,257222,6,0,P|373:51|424:98,1,90.0000034332277,2|8,0:0|0:0,0:0:0:0:
507,139,257488,2,8,P|469:173|437:186,2,45.0000017166138
326,245,257755,2,0,P|314:195|329:127,1,90.0000034332277,8|8,0:0|0:0,0:0:0:0:
327,29,258022,5,2,0:0:0:0:
256,192,258222,12,4,264422,0:0:0:0:
365,101,264822,6,0,L|373:141,4,33.7500012874604
271,175,265622,2,0,L|263:215,4,33.7500012874604
413,234,266422,2,0,L|373:226,4,33.7500012874604
354,376,267222,2,0,L|362:336,4,33.7500012874604
212,317,268022,2,0,L|252:325,4,33.7500012874604
113,219,268822,2,0,L|79:212,4,33.7500012874604
238,159,269622,2,0,L|278:167,4,33.7500012874604
382,185,270222,5,2,0:0:0:0:
387,192,270322,1,2,0:0:0:0:
396,205,270422,1,8,0:0:0:0:
398,230,270522,1,8,0:0:0:0:
394,254,270622,1,8,0:0:0:0:
382,277,270722,1,8,0:0:0:0:
365,295,270822,1,6,0:0:0:0:
256,192,271622,6,0,P|239:217|162:199,1,118.799999637451
349,182,273222,2,0,P|300:156|256:192,1,118.799999637451
442,172,274822,2,0,P|399:208|349:182,1,118.799999637451
256,192,277222,5,4,0:0:0:0:
256,192,278022,6,0,P|273:166|350:185,1,118.799999637451
164,201,279622,2,0,P|214:227|257:191,1,118.799999637451
71,211,281222,2,0,P|115:175|164:201,1,118.799999637451
