osu file format v14

[General]
AudioFilename: audio.mp3
AudioLeadIn: 0
PreviewTime: 206695
Countdown: 1
SampleSet: Soft
StackLeniency: 0.2
Mode: 0
LetterboxInBreaks: 0
WidescreenStoryboard: 0

[Editor]
Bookmarks: 1995,27595,53195,78822,104395,129995,155595,181195,206795,232422,258022
DistanceSpacing: 0.2
BeatDivisor: 8
GridSize: 16
TimelineZoom: 3.799998

[Metadata]
Title:Maze of Vignere Square
TitleUnicode:Maze of Vignere Square
Artist:Camellia
ArtistUnicode:かめりあ
Creator:Megafan
Version:Indecipherable
Source:osu!
Tags:かめるかめりあ kamelcamellia cyphisonia ep cametek dubstep
BeatmapID:1886672
BeatmapSetID:903784

[Difficulty]
HPDrainRate:5
CircleSize:4.4
OverallDifficulty:9
ApproachRate:9.5
SliderMultiplier:2
SliderTickRate:1

[Events]
//Background and Video events
0,0,"70133000_p0.png",0,0
//Break Periods
//Storyboard Layer 0 (Background)
//Storyboard Layer 1 (Fail)
//Storyboard Layer 2 (Pass)
//Storyboard Layer 3 (Foreground)
//Storyboard Sound Samples

[TimingPoints]
2022,400,4,2,1,50,1,0
2022,-303.030303030303,4,2,1,50,0,0
15622,-400,4,2,1,50,0,0
26822,-192.307692307692,4,2,1,50,0,0
27222,-192.307692307692,4,2,2,60,0,0
27422,-192.307692307692,4,2,1,60,0,0
27622,-192.307692307692,4,2,1,50,0,0
40422,-192.307692307692,4,2,1,10,0,0
40822,-163.934426229508,4,2,1,15,0,0
41622,-163.934426229508,4,2,1,20,0,0
42422,-163.934426229508,4,2,1,25,0,0
43222,-163.934426229508,4,2,1,30,0,0
44022,-163.934426229508,4,2,1,35,0,0
44822,-163.934426229508,4,2,1,40,0,0
45622,-163.934426229508,4,2,1,45,0,0
46422,-163.934426229508,4,2,1,50,0,0
50072,-163.934426229508,4,2,1,25,0,0
51622,-192.307692307692,4,2,1,50,0,0
52622,-66.6666666666667,4,2,2,50,0,0
53222,-50,4,2,1,70,0,0
53622,-66.6666666666667,4,2,1,70,0,0
54422,-57.1428571428571,4,2,1,70,0,0
54922,-66.6666666666667,4,2,1,70,0,0
56622,-50,4,2,1,70,0,0
57872,-50,4,2,1,5,0,0
58022,-50,4,2,1,70,0,0
58222,-57.1428571428571,4,2,1,70,0,0
58722,-100,4,2,1,70,0,0
58822,-50,4,2,1,70,0,0
60022,-66.6666666666667,4,2,1,70,0,0
60822,-50,4,2,1,70,0,0
60922,-66.6666666666667,4,2,1,70,0,0
61022,-100,4,2,1,70,0,0
61072,-133.333333333333,4,2,1,5,0,0
61122,-133.333333333333,4,2,1,70,0,0
61172,-133.333333333333,4,2,1,5,0,0
61222,-133.333333333333,4,2,1,70,0,0
61622,-66.6666666666667,4,2,1,70,0,0
62222,-42.9184549356223,4,2,1,70,0,0
62422,-66.6666666666667,4,2,1,70,0,0
62822,-50,4,2,1,70,0,0
63622,-66.6666666666667,4,2,1,70,0,0
65722,-66.6666666666667,4,2,2,70,0,0
66022,-50,4,2,1,70,0,0
66422,-57.1428571428571,4,2,1,70,0,0
67222,-50,4,2,1,70,0,0
68022,-57.1428571428571,4,2,1,70,0,0
69422,-50,4,2,1,70,0,0
70672,-50,4,2,1,5,0,0
70822,-50,4,2,1,70,0,0
71022,-57.1428571428571,4,2,1,70,0,0
71522,-100,4,2,1,70,0,0
71622,-50,4,2,1,70,0,0
72822,-66.6666666666667,4,2,1,70,0,0
73622,-50,4,2,1,70,0,0
73722,-66.6666666666667,4,2,1,70,0,0
73822,-100,4,2,1,70,0,0
73872,-133.333333333333,4,2,1,5,0,0
73922,-133.333333333333,4,2,1,70,0,0
73972,-133.333333333333,4,2,1,5,0,0
74022,-133.333333333333,4,2,1,70,0,0
74422,-66.6666666666667,4,2,1,70,0,0
75022,-57.1428571428571,4,2,1,70,0,0
75122,-50,4,2,1,70,0,0
75222,-42.9184549356223,4,2,1,70,0,0
75622,-66.6666666666667,4,2,1,45,0,0
77222,-100,4,2,1,70,0,0
78422,-66.6666666666667,4,2,1,70,0,0
78822,-100,4,2,1,70,0,0
81422,-50,4,2,1,70,0,0
82222,-66.6666666666667,4,2,1,70,0,0
84022,-50,4,2,1,70,0,0
84322,-100,4,2,1,70,0,0
84422,-50,4,2,1,70,0,0
84822,-100,4,2,1,70,0,0
85222,-100,4,2,1,70,0,0
87822,-50,4,2,1,70,0,0
88622,-66.6666666666667,4,2,1,70,0,0
88822,-133.333333333333,4,2,1,70,0,0
89022,-66.6666666666667,4,2,1,70,0,0
89222,-50,4,2,1,70,0,0
89922,-100,4,2,1,70,0,0
90722,-66.6666666666667,4,2,1,70,0,0
91322,-50,4,2,1,70,0,0
91622,-66.6666666666667,4,2,1,70,0,0
92022,-100,4,2,1,45,0,0
94822,-66.6666666666667,4,2,1,70,0,0
95222,-100,4,2,1,45,0,0
101272,-100,4,2,1,25,0,0
102822,-192.307692307692,4,2,1,70,0,0
103822,-66.6666666666667,4,2,2,70,0,0
104422,-100,4,2,1,70,0,1
105522,-50,4,2,1,70,0,1
105922,-100,4,2,1,70,0,1
107122,-133.333333333333,4,2,1,70,0,1
107622,-100,4,2,1,70,0,1
108422,-50,4,2,1,70,0,1
109122,-100,4,2,1,70,0,1
110022,-66.6666666666667,4,2,1,70,0,1
110622,-42.9184549356223,4,2,1,70,0,1
110822,-100,4,2,1,70,0,1
113422,-25,4,2,1,45,0,1
113822,-100,4,2,1,70,0,1
115522,-80,4,2,1,70,0,1
116022,-66.6666666666667,4,2,1,70,0,1
117222,-100,4,2,1,70,0,1
118322,-50,4,2,1,70,0,1
118722,-100,4,2,1,70,0,1
119922,-133.333333333333,4,2,1,70,0,1
120422,-100,4,2,1,70,0,1
121222,-50,4,2,1,70,0,1
121922,-100,4,2,1,70,0,1
122822,-66.6666666666667,4,2,1,70,0,1
123422,-42.9184549356223,4,2,1,70,0,1
123622,-100,4,2,1,70,0,1
126222,-25,4,2,1,45,0,1
126522,-25,4,2,1,70,0,0
126622,-100,4,2,1,70,0,1
126722,-100,4,2,1,50,0,0
129622,-100,4,2,2,50,0,0
129822,-100,4,2,1,50,0,0
130022,-100,4,2,1,50,0,0
155622,-303.030303030303,4,2,1,25,0,0
155672,-303.030303030303,4,2,1,5,0,0
162022,-303.030303030303,4,2,1,25,0,0
162072,-303.030303030303,4,2,1,5,0,0
168422,-303.030303030303,4,2,1,25,0,0
180822,-303.030303030303,4,2,2,60,0,0
181222,-158.730158730159,4,2,1,45,0,0
194022,-133.333333333333,4,2,1,60,0,0
200422,-50,4,2,1,70,0,0
200622,-151.515151515152,4,2,1,70,0,0
201222,-40,4,2,1,70,0,0
201422,-120.481927710843,4,2,1,70,0,0
202022,-33.3333333333333,4,2,1,70,0,0
202222,-100,4,2,1,70,0,0
202822,-28.5714285714286,4,2,1,70,0,0
203122,-33.3333333333333,4,2,1,70,0,0
203422,-40,4,2,1,70,0,0
204022,-40,4,2,1,60,0,0
204422,-40,4,2,1,50,0,0
204822,-100,4,2,1,40,0,0
205222,-192.307692307692,4,2,1,70,0,0
206222,-66.6666666666667,4,2,2,70,0,0
206822,-66.6666666666667,4,2,1,70,0,1
208122,-57.1428571428571,4,2,1,70,0,1
208422,-66.6666666666667,4,2,1,70,0,1
210022,-59.8802395209581,4,2,1,70,0,1
210822,-100,4,2,1,70,0,1
211022,-42.9184549356223,4,2,1,70,0,1
211622,-59.8802395209581,4,2,1,70,0,1
212022,-66.6666666666667,4,2,1,70,0,1
212422,-59.8802395209581,4,2,1,70,0,1
213022,-33.3333333333333,4,2,1,70,0,1
213222,-66.6666666666667,4,2,1,70,0,1
214522,-133.333333333333,4,2,1,70,0,1
214822,-66.6666666666667,4,2,1,70,0,1
215822,-25,4,2,1,70,0,1
216222,-66.6666666666667,4,2,1,70,0,1
218022,-57.1428571428571,4,2,1,70,0,1
218422,-59.8802395209581,4,2,1,70,0,1
219622,-66.6666666666667,4,2,1,70,0,1
220922,-57.1428571428571,4,2,1,70,0,1
221222,-66.6666666666667,4,2,1,70,0,1
222822,-59.8802395209581,4,2,1,70,0,1
223622,-100,4,2,1,70,0,1
223822,-42.9184549356223,4,2,1,70,0,1
224422,-59.8802395209581,4,2,1,70,0,1
224822,-66.6666666666667,4,2,1,70,0,1
225222,-59.8802395209581,4,2,1,70,0,1
225822,-33.3333333333333,4,2,1,70,0,1
226222,-100,4,2,1,70,0,1
228622,-25,4,2,1,45,0,1
228922,-25,4,2,1,70,0,0
229022,-50,4,2,1,70,0,1
229622,-100,4,2,1,70,0,0
229922,-50,4,2,1,70,0,0
230022,-33.3333333333333,4,2,1,70,0,0
230422,-25,4,2,1,70,0,0
230622,-50,4,2,1,70,0,0
230822,-50,4,2,1,15,0,0
231222,-50,4,2,1,30,0,0
231622,-50,4,2,1,45,0,0
232122,-25,4,2,1,70,0,0
232422,-66.6666666666667,4,2,1,70,0,0
233222,-50,4,2,1,70,0,0
233922,-42.9184549356223,4,2,1,70,0,0
234222,-100,4,2,1,70,0,0
235622,-66.6666666666667,4,2,1,70,0,0
235822,-133.333333333333,4,2,1,70,0,0
236022,-66.6666666666667,4,2,1,70,0,0
236922,-100,4,2,1,70,0,0
237222,-66.6666666666667,4,2,1,70,0,0
238822,-57.1428571428571,4,2,1,70,0,0
240022,-100,4,2,1,70,0,0
240322,-42.9184549356223,4,2,1,70,0,0
240622,-100,4,2,1,70,0,0
242022,-80,4,2,1,70,0,0
242222,-66.6666666666667,4,2,1,70,0,0
243122,-33.3333333333333,4,2,1,70,0,0
243322,-50,4,2,1,70,0,0
243522,-100,4,2,1,70,0,0
244522,-66.6666666666667,4,2,1,70,0,0
246022,-50,4,2,1,70,0,0
246722,-42.9184549356223,4,2,1,70,0,0
247022,-100,4,2,1,70,0,0
248422,-66.6666666666667,4,2,1,70,0,0
248622,-133.333333333333,4,2,1,70,0,0
248822,-66.6666666666667,4,2,1,70,0,0
249722,-100,4,2,1,70,0,0
250022,-66.6666666666667,4,2,1,70,0,0
251222,-50,4,2,1,70,0,0
251822,-100,4,2,1,70,0,0
252022,-50,4,2,1,70,0,0
252522,-100,4,2,1,70,0,0
253122,-50,4,2,1,70,0,0
255622,-42.9184549356223,4,2,1,70,0,0
256422,-37.593984962406,4,2,1,70,0,0
257222,-33.3333333333333,4,2,1,70,0,0
258122,-33.3333333333333,4,2,1,45,0,0
265222,-200,4,2,1,45,0,0
270422,-200,4,2,2,45,0,0
270822,-400,4,2,1,30,0,0
282022,-303.030303030303,4,2,1,30,0,0
282122,-303.030303030303,4,2,1,5,0,0

[Colours]
Combo1 : 131,218,153
Combo2 : 233,158,233
Combo3 : 127,127,252
Combo4 : 222,183,143

[HitObjects]
132,268,2022,6,0,B|80:240|-4:213|-36:353|64:429|174:358|218:242|223:123|223:123|260:215|260:215|303:100|386:96|469:107|473:253|324:270|291:190|314:85|398:45,1,1055.99999677734,4|0,0:0|0:0,0:0:0:0:
256,192,8522,12,4,14822,0:0:0:0:
117,102,15622,6,0,P|102:135|105:208,1,100
326,5,17222,2,0,P|341:38|338:111,1,100
179,315,18822,2,0,P|175:265|194:219,1,100
153,165,22022,6,0,P|150:214|168:261,1,100
365,182,23622,2,0,P|384:136|380:87,1,100
121,25,25222,2,0,P|117:74|136:120,1,100
379,199,26822,6,0,P|401:231|411:273,1,77.9999995239258
376,341,27222,1,8,0:0:0:0:
369,340,27322,1,8,0:0:0:0:
363,338,27422,1,2,0:0:0:0:
497,146,27622,5,4,0:0:0:0:
209,283,28022,5,0,0:0:0:0:
206,290,28122,2,0,L|224:315,2,25.9999998413086
164,220,28422,6,0,P|149:166|104:125,1,103.999999365234
72,59,28922,2,0,L|41:62,2,25.9999998413086
154,58,29222,6,0,P|207:72|265:53,1,103.999999365234
339,59,29722,2,0,L|351:30,2,25.9999998413086
299,131,30022,6,0,P|260:170|247:230,1,103.999999365234
298,306,30522,1,0,0:0:0:0:
298,306,30622,2,0,L|337:305,1,25.9999998413086
439,294,30822,6,0,P|463:254|457:217,1,77.9999995239258
410,163,31222,2,0,L|362:174,1,25.9999998413086
475,108,31422,2,0,L|523:119,1,25.9999998413086
410,53,31622,6,0,P|350:39|313:39,1,77.9999995239258
261,78,32022,1,0,0:0:0:0:
255,96,32122,1,0,0:0:0:0:
252,116,32222,1,0,0:0:0:0:
251,136,32322,1,0,0:0:0:0:
191,190,32422,6,0,P|158:214|109:203,1,77.9999995239258
99,125,32822,2,0,L|129:100,1,25.9999998413086
39,217,33022,2,0,L|18:233,1,25.9999998413086
370,309,33422,5,0,0:0:0:0:
376,321,33522,1,0,0:0:0:0:
372,334,33622,1,0,0:0:0:0:
350,348,33722,1,0,0:0:0:0:
326,357,33822,1,0,0:0:0:0:
300,361,33922,1,0,0:0:0:0:
292,355,34022,1,4,0:0:0:0:
361,128,34322,5,0,0:0:0:0:
365,133,34422,2,0,L|357:170,1,25.9999998413086
290,192,34622,2,0,L|298:229,1,25.9999998413086
226,257,34822,6,0,P|165:259|127:212,1,103.999999365234
178,166,35322,2,0,P|192:155|195:141,2,25.9999998413086
93,144,35622,6,0,P|121:90|181:80,1,103.999999365234,0|0,0:3|0:3,0:3:0:0:
195,147,36122,2,0,P|197:164|207:174,2,25.9999998413086,0|0|0,0:3|0:3|0:3,0:3:0:0:
256,84,36422,6,0,P|288:135|266:192,1,103.999999365234,0|0,0:3|0:3,0:3:0:0:
202,170,36922,2,0,P|185:162|172:166,2,25.9999998413086,0|0|0,0:3|0:3|0:3,0:3:0:0:
226,257,37222,6,0,P|193:308|201:344,1,77.9999995239258,0|0,0:3|0:3,0:3:0:0:
267,356,37622,2,0,L|308:348,1,25.9999998413086
422,301,37822,2,0,L|396:306,1,25.9999998413086
328,259,38022,6,0,L|359:170,1,77.9999995239258
378,96,38422,1,0,0:0:0:0:
396,88,38522,1,0,0:0:0:0:
415,86,38622,1,0,0:0:0:0:
435,90,38722,1,0,0:0:0:0:
502,148,38822,6,0,P|502:180|453:219,1,77.9999995239258
379,191,39222,2,0,P|360:188|342:174,1,25.9999998413086
260,110,39422,2,0,P|279:113|297:127,1,25.9999998413086
69,146,39822,5,0,0:0:0:0:
66,151,39922,1,0,0:0:0:0:
63,156,40022,1,0,0:0:0:0:
39,143,40122,1,0,0:0:0:0:
21,125,40222,1,0,0:0:0:0:
10,101,40322,1,0,0:0:0:0:
13,95,40422,1,6,0:0:0:0:
0,254,40622,1,2,0:0:0:0:
106,246,40822,6,0,P|143:279|154:307,1,60.9999974868775,8|2,0:0|0:0,0:0:0:0:
227,337,41222,2,0,P|264:304|275:276,1,60.9999974868775,2|2,0:0|0:0,0:0:0:0:
348,246,41622,2,0,P|385:279|396:307,1,60.9999974868775,8|2,0:0|0:0,0:0:0:0:
269,293,42022,5,2,0:0:0:0:
396,149,42222,1,2,0:0:0:0:
307,48,42422,2,0,L|249:74,1,60.9999974868775,8|2,0:0|0:0,0:0:0:0:
79,90,42822,2,0,L|137:116,1,60.9999974868775,2|2,0:0|0:0,0:0:0:0:
307,132,43222,2,0,L|249:158,1,60.9999974868775,8|2,0:0|0:0,0:0:0:0:
143,216,43622,5,2,0:0:0:0:
232,241,43822,1,2,0:0:0:0:
59,341,44022,5,8,0:0:0:0:
148,316,44222,1,2,0:0:0:0:
148,316,44322,1,0,0:0:0:0:
148,316,44422,1,2,0:0:0:0:
54,191,44622,1,2,0:0:0:0:
232,241,44822,5,8,0:0:0:0:
227,91,45022,1,2,0:0:0:0:
453,191,45222,5,2,0:0:0:0:
458,341,45422,1,2,0:0:0:0:
232,241,45622,5,8,0:0:0:0:
453,191,45822,1,2,0:0:0:0:
453,191,45922,1,0,0:0:0:0:
453,191,46022,1,2,0:0:0:0:
185,158,46222,1,2,0:0:0:0:
506,261,46422,5,8,0:0:0:0:
458,341,46622,1,2,0:0:0:0:
345,270,46822,5,8,0:0:0:0:
320,288,46922,1,2,0:0:0:0:
308,316,47022,1,2,0:0:0:0:
311,346,47122,1,2,0:0:0:0:
299,316,47222,5,8,0:0:0:0:
265,317,47322,1,2,0:0:0:0:
237,336,47422,1,2,0:0:0:0:
222,366,47522,1,2,0:0:0:0:
228,330,47622,5,8,0:0:0:0:
195,312,47722,1,2,0:0:0:0:
158,315,47822,1,2,0:0:0:0:
128,335,47922,1,2,0:0:0:0:
153,305,48022,5,8,0:0:0:0:
132,269,48122,1,2,0:0:0:0:
95,252,48222,1,2,0:0:0:0:
55,255,48322,1,2,0:0:0:0:
0,269,48422,5,8,0:0:0:0:
23,229,48522,1,2,0:0:0:0:
66,213,48622,1,2,0:0:0:0:
110,221,48722,1,2,0:0:0:0:
109,233,48822,5,8,0:0:0:0:
156,242,48922,1,2,0:0:0:0:
201,223,49022,1,2,0:0:0:0:
231,182,49122,1,2,0:0:0:0:
220,176,49222,5,8,0:0:0:0:
251,131,49322,1,2,0:0:0:0:
301,112,49422,1,2,0:0:0:0:
354,121,49522,1,2,0:0:0:0:
351,133,49622,5,8,0:0:0:0:
406,154,49722,1,2,0:0:0:0:
465,141,49822,1,2,0:0:0:0:
507,99,49922,1,2,0:0:0:0:
454,44,50022,6,8,L|436:25,6,15.2499993717194
356,38,50422,2,8,L|345:49,6,15.2499993717194
257,54,50822,2,8,L|247:43,6,15.2499993717194
159,48,51222,2,8,L|148:59,6,15.2499993717194
83,115,51622,6,0,P|100:177|104:113,1,181.99999888916,2|0,0:0|0:0,0:0:0:0:
86,42,52422,1,0,0:0:0:0:
29,227,52622,6,0,L|18:279,1,37.5000014305115
40,239,52722,2,0,L|29:291,1,37.5000014305115
51,251,52822,2,0,L|35:326,1,75.0000028610231,8|8,0:0|0:0,0:0:0:0:
186,373,53022,2,0,L|170:299,1,75.0000028610231,8|8,0:0|0:0,0:0:0:0:
96,144,53222,6,0,B|71:81|116:28|201:33|251:74|203:144|283:175|310:112|287:45|247:84|223:120,1,300,6|0,0:0|0:0,0:0:0:0:
194,167,53622,6,0,P|181:234|249:277,1,150.000005722046
292,204,53922,1,0,0:0:0:0:
373,178,54022,5,0,0:0:0:0:
352,103,54122,2,0,P|301:68|298:129,1,150.000005722046
435,127,54422,2,0,P|421:24|351:102,1,262.500002503395
375,171,54822,1,2,0:0:0:0:
462,181,54922,2,0,P|497:131|436:128,1,150.000005722046
308,206,55222,6,0,P|289:206|257:193,2,50.0000019073487
410,241,55422,2,0,P|427:252|460:261,2,50.0000019073487
379,160,55622,1,8,0:0:0:0:
147,128,55755,1,0,0:0:0:0:
142,131,55822,2,0,P|170:138|205:127,2,50.0000019073487
120,185,56022,2,0,P|135:209|208:214,1,75.0000028610231
62,207,56222,2,0,P|54:233|103:289,1,75.0000028610231
113,300,56422,5,2,0:0:0:0:
255,189,56622,6,0,L|286:258,1,50
278,253,56722,2,0,L|309:184,1,50
309,184,56822,2,0,P|341:234|359:305,1,100
512,363,57022,2,0,P|480:313|461:241,1,100
437,70,57222,1,8,0:0:0:0:
216,310,57422,6,0,P|221:333|253:343,1,50
260,336,57522,2,0,P|283:337|303:310,1,50
298,301,57622,2,0,P|307:278|286:251,1,50
278,253,57722,2,0,P|259:237|227:248,1,50
226,259,57822,2,0,P|205:271|206:305,1,50
127,180,58022,5,2,0:0:0:0:
238,23,58222,6,0,B|212:-1|212:-1|206:17,1,43.7500004172325
209,6,58322,2,0,B|173:7|173:7|182:24,1,43.7500004172325
177,14,58422,2,0,B|129:66|129:66|144:71,1,87.500000834465
321,122,58622,5,0,0:0:0:0:
316,131,58722,2,2,L|347:140,1,25,0|2,0:0|0:0,0:0:0:0:
311,137,58822,2,0,P|327:212|366:252,1,100,8|0,0:0|0:0,0:0:0:0:
251,83,59022,2,0,P|216:151|168:179,1,100
257,260,59222,6,0,B|348:377|348:377|479:290,1,300
390,172,59622,6,0,B|407:138|390:49|342:121|338:41|356:-3|356:-3|400:-6|423:33|407:86|364:89,1,300,2|0,0:0|0:0,0:0:0:0:
251,132,60022,6,0,P|225:74|288:77,1,150.000005722046
325,143,60322,1,0,0:0:0:0:
307,219,60422,1,8,0:0:0:0:
365,266,60522,2,0,P|427:270|401:212,1,150.000005722046
305,177,60822,6,0,L|242:192,1,50
247,191,60922,2,0,L|184:206,1,37.5000014305115
190,204,61022,2,0,L|149:213,1,25
133,218,61122,2,0,L|98:226,1,18.7500007152558
75,233,61222,1,2,0:0:0:0:
82,262,61322,2,0,P|73:301|40:296,1,75.0000028610231
68,204,61622,6,0,P|63:164|71:140,2,50.0000019073487
132,119,61822,2,0,P|137:79|129:55,2,50.0000019073487
68,34,62022,1,8,0:0:0:0:
443,137,62222,6,0,P|414:144|386:138,1,58.2500023331643
377,118,62322,2,0,P|348:110|320:116,1,58.2500023331643
311,136,62422,2,0,P|274:142|240:128,1,75.0000028610231
313,213,62622,2,0,P|347:206|388:225,1,75.0000028610231
494,341,62822,6,0,B|420:367|420:367|358:336|358:336|273:361|294:301|184:334,1,300,2|0,0:0|0:0,0:0:0:0:
119,317,63221,5,0,0:0:0:0:
117,311,63288,1,0,0:0:0:0:
116,306,63356,1,0,0:0:0:0:
109,300,63421,5,0,0:0:0:0:
108,294,63488,1,0,0:0:0:0:
107,288,63556,1,0,0:0:0:0:
96,274,63622,6,0,P|50:238|-2:268,1,75.0000028610231,8|0,0:0|0:0,0:0:0:0:
100,161,63822,2,0,P|153:139|154:78,1,75.0000028610231
195,220,64022,2,0,P|187:277|239:308,1,75.0000028610231
257,335,64222,1,0,0:0:0:0:
306,257,64322,5,2,0:0:0:0:
325,237,64422,2,0,P|383:228|438:268,1,75.0000028610231
269,192,64622,5,2,0:0:0:0:
292,177,64722,2,0,P|350:183|393:236,1,75.0000028610231,0|8,0:0|0:0,0:0:0:0:
250,120,64922,5,0,0:0:0:0:
276,111,65022,2,0,P|330:132|358:194,1,75.0000028610231,0|2,0:0|0:0,0:0:0:0:
404,228,65222,2,0,P|452:261|519:249,1,75.0000028610231
336,82,65422,2,0,P|359:136|335:200,1,75.0000028610231,2|0,0:0|0:0,0:0:0:0:
366,281,65622,5,8,0:0:0:0:
305,322,65722,1,8,0:0:0:0:
232,320,65822,1,8,0:0:0:0:
172,276,65922,1,8,0:0:0:0:
150,206,66022,6,0,B|130:149|25:113|-40:194|22:267|84:277|109:214|94:134,1,300,2|0,0:0|0:0,0:0:0:0:
112,58,66422,6,0,B|197:43|197:43|299:91,1,175.00000166893
367,126,66722,1,0,0:0:0:0:
282,156,66822,1,8,0:0:0:0:
351,215,66922,2,0,B|380:296|380:296|473:360,1,175.00000166893
477,227,67222,2,0,B|424:83|424:83|260:-30,1,300
210,0,67622,1,2,0:0:0:0:
227,96,67722,2,0,B|256:177|256:177|349:241,1,175.00000166893
265,276,68022,6,0,L|184:220,2,58.3333338896433
196,342,68222,2,0,L|115:397,2,58.3333338896433
140,275,68422,1,8,0:0:0:0:
280,287,68522,1,0,0:0:0:0:
267,295,68622,2,0,L|186:350,2,58.3333338896433
198,229,68822,2,0,L|117:173,1,87.500000834465
4,93,69022,2,0,L|76:142,1,87.500000834465
291,296,69222,5,2,0:0:0:0:
233,182,69422,6,0,P|255:167|293:172,1,50
303,163,69522,2,0,P|285:142|247:137,1,50
239,138,69622,2,0,P|265:113|364:136,1,100
512,195,69822,2,0,P|486:219|387:196,1,100
267,15,70022,5,8,0:0:0:0:
151,223,70222,6,0,P|156:200|188:190,1,50
107,249,70322,2,0,P|130:248|150:275,1,50
69,214,70422,2,0,P|78:237|57:264,1,50
89,166,70522,2,0,P|70:182|38:170,1,50
141,172,70622,2,0,P|120:160|121:126,1,50
0,31,70822,5,2,0:0:0:0:
15,276,71022,6,0,B|26:295|26:295|11:318,1,43.7500004172325
14,313,71122,2,0,B|35:318|35:318|39:339,1,43.7500004172325
39,339,71222,2,0,B|77:317|77:317|113:340,1,87.500000834465
198,292,71422,5,0,0:0:0:0:
206,286,71522,2,0,P|226:290|232:299,1,25,2|2,0:0|0:0,0:0:0:0:
214,281,71622,2,0,P|266:265|318:283,1,100,8|0,0:0|0:0,0:0:0:0:
145,164,71822,5,2,0:0:0:0:
129,192,71922,2,0,P|181:207|233:189,1,100,8|0,0:0|0:0,0:0:0:0:
67,109,72122,5,2,0:0:0:0:
51,81,72222,2,0,P|103:65|155:83,1,100,8|0,0:0|0:0,0:0:0:0:
302,162,72422,6,0,B|439:176|415:40|315:116|348:231|453:264,1,300,2|0,0:0|0:0,0:0:0:0:
309,249,72822,2,0,B|365:288|402:367|298:437|313:327|354:321|409:328,1,225.000008583069,2|0,0:0|0:0,0:0:0:0:
478,304,73222,1,8,0:0:0:0:
416,245,73322,2,0,P|417:170|482:166,1,150.000005722046
476,94,73622,6,0,L|413:79,1,50.0000019073487
418,80,73722,2,0,L|353:81,1,37.5000014305115
359,82,73822,2,0,L|318:94,1,25
302,98,73922,2,0,L|271:117,1,18.7500007152558
249,128,74022,1,2,0:0:0:0:
231,183,74122,2,0,P|243:214|267:188,1,75.0000028610231
180,135,74422,6,0,P|161:137|133:157,2,50.0000019073487
90,94,74622,2,0,P|71:92|43:72,2,50.0000019073487
59,167,74822,5,8,0:0:0:0:
64,248,74922,2,0,L|47:310,1,37.5000014305115
124,301,75022,2,0,L|155:356,1,43.7500004172325
205,296,75122,2,0,L|267:313,1,50
258,236,75222,6,0,L|391:160,1,116.500004666329
483,108,75422,2,0,L|366:174,1,116.500004666329
296,120,75622,6,0,B|254:108|254:108|216:130|216:130|134:98|214:88|107:43,1,225.000008583069,2|0,0:0|0:0,0:0:0:0:
37,86,76022,2,0,P|15:114|5:155,1,75.0000028610231,8|0,0:0|0:0,0:0:0:0:
64,248,76222,2,0,P|53:279|36:306,2,50.0000019073487
56,232,76422,1,2,0:0:0:0:
178,288,76622,2,0,P|182:306|167:333,1,37.5000014305115
183,282,76722,2,0,P|195:295|195:326,1,37.5000014305115
185,276,76822,2,0,P|217:286|247:335,1,75.0000028610231,8|0,0:0|0:0,0:0:0:0:
185,196,77022,2,0,P|218:188|268:216,1,75.0000028610231
321,253,77222,6,0,P|349:245|380:210,3,50,2|2|2|2,0:0|0:0|0:0|0:0,0:0:0:0:
414,136,77622,2,0,P|406:108|371:77,3,50,8|2|2|2,0:0|0:0|0:0|0:0,0:0:0:0:
316,74,78022,1,2,0:0:0:0:
267,78,78122,1,2,0:0:0:0:
231,113,78222,1,2,0:0:0:0:
228,162,78322,1,2,0:0:0:0:
255,202,78422,2,0,P|220:137|85:161,1,225.000008583069
84,239,78822,6,0,P|100:282|137:219,1,150,6|0,0:0|0:0,0:0:0:0:
103,155,79222,2,0,P|93:122|95:93,1,50
244,6,79422,2,0,P|253:38|251:67,1,50
255,202,79622,2,0,P|356:220|301:133,1,250,8|0,0:0|0:0,0:0:0:0:
206,133,80222,6,0,P|231:106|252:102,1,50
438,183,80422,2,0,P|413:156|392:152,1,50,2|0,0:0|0:0,0:0:0:0:
206,233,80622,2,0,P|237:213|258:214,1,50
438,283,80822,2,0,P|406:263|385:264,1,50
206,333,81022,2,0,P|241:322|261:329,1,50
438,383,81222,2,0,P|402:372|382:379,1,50,8|0,0:0|0:0,0:0:0:0:
174,347,81422,6,0,P|133:321|105:265,1,100
219,120,81622,2,0,P|216:168|182:220,1,100
0,195,81822,2,0,P|43:172|105:176,1,100
286,245,82022,5,2,0:0:0:0:
358,92,82222,2,0,B|367:112|367:112|339:172,1,75.0000028610231
286,282,82422,5,0,0:0:0:0:
286,319,82522,1,0,0:0:0:0:
350,368,82622,2,0,L|422:336,1,75.0000028610231
477,215,82822,5,8,0:0:0:0:
477,178,82922,1,0,0:0:0:0:
413,129,83022,2,0,L|341:161,1,75.0000028610231
223,279,83222,5,0,0:0:0:0:
170,229,83322,1,0,0:0:0:0:
169,156,83422,1,0,0:0:0:0:
117,105,83522,1,0,0:0:0:0:
119,31,83622,1,2,0:0:0:0:
256,192,83822,5,0,0:0:0:0:
203,68,84022,6,0,P|258:57|328:77,1,100
389,150,84222,1,0,0:0:0:0:
379,172,84322,2,0,L|406:184,1,25,2|2,0:0|0:0,0:0:0:0:
364,192,84422,2,0,P|376:240|405:292,1,100,8|0,0:0|0:0,0:0:0:0:
234,251,84622,2,0,P|269:216|300:165,1,100
361,351,84822,6,0,P|355:374|355:393,1,25
347,345,84922,2,0,P|341:368|341:387,1,25
333,339,85022,2,0,P|327:362|327:381,1,25
319,333,85122,2,0,P|313:356|313:375,1,25
277,321,85222,6,0,B|239:323|210:352|210:352|173:354|133:323,1,150,2|0,0:0|0:0,0:0:0:0:
101,262,85622,2,0,P|85:247|52:236,1,50
136,175,85822,2,0,P|152:160|185:149,1,50
42,125,86022,2,0,P|16:72|135:87,1,250,8|0,0:0|0:0,0:0:0:0:
136,175,86622,6,0,P|152:190|185:201,1,50
376,175,86822,2,0,P|360:190|327:201,1,50,2|0,0:0|0:0,0:0:0:0:
138,255,87022,2,0,P|157:265|192:267,1,50
378,255,87222,2,0,P|358:265|323:267,1,50
139,335,87422,2,0,P|161:339|195:333,1,50
380,335,87622,2,0,P|358:339|324:333,1,50,8|0,0:0|0:0,0:0:0:0:
59,312,87822,6,0,P|69:222|135:146,1,100
192,26,88022,2,0,P|182:116|116:192,1,100
231,362,88222,2,0,P|221:272|155:196,1,100
92,54,88422,5,2,0:0:0:0:
271,175,88622,2,0,B|308:175|308:175|368:153,1,75.0000028610231
428,58,88822,6,0,L|395:56,1,18.7500007152558
425,85,88922,2,0,L|392:83,1,18.7500007152558
431,130,89022,2,0,L|474:127,1,37.5000014305115
434,157,89122,2,0,L|476:154,1,37.5000014305115
396,210,89222,2,0,P|385:278|430:337,1,100,8|0,0:0|0:0,0:0:0:0:
470,339,89422,5,0,0:0:0:0:
407,218,89522,2,0,P|346:193|227:265,1,200
213,350,89822,5,0,0:0:0:0:
131,298,89922,2,0,P|134:263|166:293,1,100,2|0,0:0|0:0,0:0:0:0:
47,320,90222,2,0,P|35:306|57:305,1,50,2|0,0:0|0:0,0:0:0:0:
74,227,90422,5,8,0:0:0:0:
115,152,90522,1,0,0:0:0:0:
94,69,90622,1,0,0:0:0:0:
22,23,90722,2,2,B|121:7|73:65|189:30,1,150.000005722046,2|0,0:0|0:0,0:0:0:0:
255,13,91022,1,2,0:0:0:0:
296,270,91222,5,8,0:0:0:0:
371,227,91322,2,0,B|429:187|378:183|448:144|448:144|483:163|491:213|468:244,1,200,2|0,0:0|0:0,0:0:0:0:
430,306,91622,6,0,P|439:376|476:292,1,225.000008583069,6|0,0:0|0:0,0:0:0:0:
138,257,92022,2,0,P|174:249|187:255,1,50,8|0,0:0|0:0,0:0:0:0:
265,177,92222,2,0,P|240:173|218:184,1,50
75,113,92422,2,0,P|125:137|150:179,1,100,2|0,0:0|0:0,0:0:0:0:
39,290,92822,1,8,0:0:0:0:
278,307,93022,6,0,P|261:296|244:266,1,50
234,77,93222,2,0,P|251:87|268:118,1,50,2|0,0:0|0:0,0:0:0:0:
167,268,93422,2,0,P|168:248|185:218,1,50
344,115,93622,2,0,P|343:135|326:165,1,50,8|0,0:0|0:0,0:0:0:0:
145,153,93822,2,0,P|163:144|197:144,1,50
366,230,94022,2,0,P|348:239|304:152,1,150,2|0,0:0|0:0,0:0:0:0:
371,97,94422,2,0,P|407:88|427:94,1,50,8|0,0:0|0:0,0:0:0:0:
293,63,94622,2,0,P|283:40|263:25,1,50
86,102,94822,6,0,P|23:41|110:45,1,225.000008583069,6|0,0:0|0:0,0:0:0:0:
159,145,95222,6,0,P|153:172|139:205,1,50,8|0,0:0|0:0,0:0:0:0:
25,268,95422,2,0,P|51:259|86:255,1,50
214,256,95622,2,0,B|297:258|259:304|366:294,1,150,2|0,0:0|0:0,0:0:0:0:
442,283,96022,1,8,0:0:0:0:
360,116,96222,6,0,P|349:148|345:181,1,50
341,342,96422,2,0,P|352:310|356:277,1,50,2|0,0:0|0:0,0:0:0:0:
256,81,96622,2,0,P|267:113|271:146,1,50
275,342,96822,2,0,P|264:310|260:277,1,50,8|0,0:0|0:0,0:0:0:0:
171,48,97022,2,0,P|160:80|156:113,1,50
161,263,97222,2,0,P|184:204|116:217,1,150,2|0,0:0|0:0,0:0:0:0:
77,273,97622,2,0,P|49:285|13:288,1,50,8|0,0:0|0:0,0:0:0:0:
34,131,97822,2,0,P|58:135|81:146,1,50
190,203,98022,5,12,0:0:0:0:
217,208,98122,1,2,0:0:0:0:
242,196,98222,1,2,0:0:0:0:
255,170,98322,1,2,0:0:0:0:
311,170,98422,5,8,0:0:0:0:
319,199,98522,1,2,0:0:0:0:
305,227,98622,1,2,0:0:0:0:
277,241,98722,1,2,0:0:0:0:
270,304,98822,5,8,0:0:0:0:
307,311,98922,1,2,0:0:0:0:
339,294,99022,1,2,0:0:0:0:
356,262,99122,1,2,0:0:0:0:
430,260,99222,5,8,0:0:0:0:
440,299,99322,1,2,0:0:0:0:
422,335,99422,1,2,0:0:0:0:
385,353,99522,1,2,0:0:0:0:
297,296,99622,5,8,0:0:0:0:
263,269,99722,1,2,0:0:0:0:
229,241,99822,1,2,0:0:0:0:
196,214,99922,1,2,0:0:0:0:
217,251,100022,5,8,0:0:0:0:
247,216,100122,1,2,0:0:0:0:
277,180,100222,1,2,0:0:0:0:
307,144,100322,1,2,0:0:0:0:
266,171,100422,5,8,0:0:0:0:
304,203,100522,1,2,0:0:0:0:
345,234,100622,1,2,0:0:0:0:
385,269,100722,1,2,0:0:0:0:
352,226,100822,5,8,0:0:0:0:
316,269,100922,1,2,0:0:0:0:
281,314,101022,1,2,0:0:0:0:
243,357,101122,1,2,0:0:0:0:
177,344,101222,6,8,L|141:340,6,25
74,307,101622,2,8,L|109:303,6,25
206,266,102022,2,8,L|170:262,6,25
51,224,102422,2,8,L|86:220,6,25
184,176,102822,6,0,P|227:137|157:153,1,181.99999888916,2|0,0:0|0:0,0:0:0:0:
118,209,103622,1,0,0:0:0:0:
7,160,103822,6,0,L|-4:108,1,37.5000014305115
18,148,103922,2,0,L|7:96,1,37.5000014305115
29,136,104022,2,0,L|13:61,1,75.0000028610231,8|8,0:0|0:0,0:0:0:0:
164,14,104222,2,0,L|148:88,1,75.0000028610231,8|8,0:0|0:0,0:0:0:0:
140,298,104422,6,0,B|298:386|438:258|370:223|313:223|285:308,1,350,6|0,0:0|0:0,0:0:0:0:
366,365,105222,2,0,P|408:364|445:322,1,100,8|0,0:0|0:0,0:0:0:0:
468,222,105522,6,0,B|485:202|485:202|503:225,2,50
377,123,105722,2,0,B|360:143|360:143|342:120,1,50
345,91,105822,1,0,0:0:0:0:
303,81,105922,6,0,B|238:50|170:94|212:123|121:165|66:93|66:93|100:59|165:64|190:103|164:120,1,400,2|0,0:0|0:0,0:0:0:0:
130,201,106822,2,0,P|121:243|129:259,1,50,8|0,0:0|0:0,0:0:0:0:
191,310,107022,5,0,0:0:0:0:
191,310,107072,1,0,0:0:0:0:
191,310,107122,2,0,L|235:302,1,37.5000014305115
302,254,107322,5,0,0:0:0:0:
216,191,107422,1,0,0:0:0:0:
336,182,107522,1,0,0:0:0:0:
283,136,107622,6,0,B|279:68|326:39|382:43|406:88|364:127,1,200,2|0,0:0|0:0,0:0:0:0:
393,198,108122,6,0,P|415:192|429:197,1,25
395,210,108222,2,0,P|400:232|395:246,1,25
364,236,108322,1,0,0:0:0:0:
303,186,108422,2,0,P|239:182|193:194,1,100,8|0,0:0|0:0,0:0:0:0:
78,239,108622,6,0,B|42:246|51:311|142:309|190:235|188:120|129:54,1,300
114,26,108972,1,0,0:0:0:0:
114,26,109022,1,0,0:0:0:0:
89,107,109122,6,0,B|169:124|140:67|240:93|240:93|285:121|331:92,1,250,2|0,0:0|0:0,0:0:0:0:
13,291,109822,5,0,0:0:0:0:
114,297,109922,1,0,0:0:0:0:
171,204,110022,2,0,P|192:225|179:340,1,150.000005722046,8|0,0:0|0:0,0:0:0:0:
327,207,110322,2,0,P|297:207|225:297,1,150.000005722046
437,317,110622,2,0,B|463:289|463:289|463:183,1,116.500004666329
458,168,110822,6,0,B|462:66|404:138|362:32|433:-17|495:6|572:116|378:175|438:46|314:135,1,350,2|0,0:0|0:0,0:0:0:0:
279,182,111622,2,0,P|241:202|178:199,1,100,8|0,0:0|0:0,0:0:0:0:
169,187,111922,5,0,0:0:0:0:
101,127,112022,1,0,0:0:0:0:
64,139,112122,2,0,B|53:157|62:180|62:180|72:154,1,50
69,54,112322,6,0,B|125:44|169:5|169:5|191:82|264:100|262:27|347:38|391:67|369:125|308:118|324:65,1,400,2|0,0:0|0:0,0:0:0:0:
418,0,113222,2,0,P|431:-3|478:23,1,50,8|0,0:0|0:0,0:0:0:0:
498,85,113422,6,0,P|488:128|451:153,12,50
407,241,113822,6,0,B|405:286|471:315|534:280|532:149|462:104|326:193|383:288|291:225|243:158|246:119|285:82,1,450,2|0,0:0|0:0,0:0:0:0:
248,25,114822,5,8,0:0:0:0:
198,86,114922,1,0,0:0:0:0:
119,92,115022,1,0,0:0:0:0:
69,153,115122,1,0,0:0:0:0:
126,208,115222,2,0,L|119:250,1,25
162,207,115322,2,0,L|157:182,1,25
202,230,115422,1,0,0:0:0:0:
266,286,115522,6,0,B|333:306|333:306|383:297|383:297|439:313|439:313|441:244,1,250,2|0,0:0|0:0,0:0:0:0:
392,172,116022,2,0,P|396:123|456:161,1,150.000005722046,8|0,0:0|0:0,0:0:0:0:
338,226,116322,6,0,B|276:237|276:237|192:216,1,150.000005722046,2|0,0:0|0:0,0:0:0:0:
282,142,116622,2,0,B|198:121|198:121|136:132,1,150.000005722046,2|0,0:0|0:0,0:0:0:0:
191,215,116922,2,0,B|129:226|129:226|45:205,1,150.000005722046,2|0,0:0|0:0,0:0:0:0:
135,132,117222,6,0,B|163:216|122:328|122:328|172:276|215:299|209:371|139:361|171:327,1,350,6|0,0:0|0:0,0:0:0:0:
239,266,118022,2,0,P|275:263|244:299,1,100,8|0,0:0|0:0,0:0:0:0:
122,327,118322,6,0,P|104:326|112:300,2,50
29,220,118522,1,0,0:0:0:0:
58,220,118622,2,0,P|75:219|67:193,1,50
87,206,118722,6,0,B|169:128|181:207|280:99|280:99|236:136|160:130|132:65,1,400,2|0,0:0|0:0,0:0:0:0:
218,27,119622,6,0,P|254:13|289:12,1,50,8|0,0:0|0:0,0:0:0:0:
382,46,119822,1,0,0:0:0:0:
382,46,119872,1,0,0:0:0:0:
382,46,119922,2,0,P|392:63|394:90,1,37.5000014305115
341,138,120122,5,0,0:0:0:0:
388,205,120222,1,2,0:0:0:0:
341,272,120322,1,0,0:0:0:0:
388,341,120422,6,0,B|337:371|299:354|299:354|320:349|320:349|298:379|244:378,1,200,2|0,0:0|0:0,0:0:0:0:
190,329,120922,6,0,P|173:335|161:355,1,25
185,315,121022,2,0,P|168:307|146:312,1,25
212,296,121122,1,0,0:0:0:0:
164,212,121222,2,0,P|122:209|67:267,1,100,8|0,0:0|0:0,0:0:0:0:
25,339,121422,6,0,P|77:232|24:124,1,200
12,115,121672,1,0,0:0:0:0:
12,115,121722,1,0,0:0:0:0:
93,94,121822,1,0,0:0:0:0:
135,23,121922,6,0,B|213:3|241:76|208:63|263:103|313:96|313:96|291:77|262:83,1,250,2|0,0:0|0:0,0:0:0:0:
507,13,122622,5,0,0:0:0:0:
502,114,122722,1,0,0:0:0:0:
402,165,122822,2,0,B|312:204|390:245|270:279,1,150.000005722046,8|0,0:0|0:0,0:0:0:0:
197,175,123122,2,0,P|254:256|303:256,1,150.000005722046
452,260,123422,2,0,B|480:282|480:282|482:326|482:326|451:356,1,116.500004666329
308,358,123622,6,0,B|243:388|171:360|171:360|175:354|175:354|130:330|79:348|79:348|143:322|145:262,1,350,2|0,0:0|0:0,0:0:0:0:
128,198,124422,2,0,P|104:179|27:178,1,100,8|0,0:0|0:0,0:0:0:0:
22,161,124722,5,0,0:0:0:0:
73,94,124822,1,0,0:0:0:0:
62,75,124922,2,0,B|38:65|23:69|23:69|41:52,1,50
151,33,125122,6,0,B|215:13|266:47|266:47|271:33|271:33|327:70|384:50|384:50|415:120|351:191,1,400,2|0,0:0|0:0,0:0:0:0:
400,248,126022,2,0,P|382:282|385:309,1,50,8|0,0:0|0:0,0:0:0:0:
325,367,126222,6,0,P|320:342|306:322,12,50
233,273,126622,2,0,B|126:256|162:307|64:285|64:285|77:162|77:162|169:172|126:120|240:133|240:133|390:161|398:44|256:54|290:200|290:200|373:210|412:148|412:148|415:266|475:326|475:326|519:256|507:161|507:161|420:220|383:372,1,1500
322,348,129722,1,8,0:0:0:0:
313,314,129822,1,2,0:0:0:0:
149,202,130022,5,6,0:0:0:0:
67,374,130222,2,0,L|81:266,1,100
53,372,130622,2,0,L|60:312,1,50
20,151,130822,1,8,0:0:0:0:
117,86,131022,6,0,P|166:67|231:82,1,100
113,71,131422,2,0,P|141:58|179:56,1,50
179,176,131622,1,2,0:0:0:0:
386,12,131822,6,0,P|337:37|277:57,1,100
402,18,132222,2,0,P|353:43|313:56,1,50
111,147,132422,1,8,0:0:0:0:
169,263,132622,6,0,P|178:301|140:355,1,100
185,259,133022,2,0,P|198:300|191:331,1,50
101,292,133222,1,2,0:0:0:0:
243,212,133422,6,0,L|376:214,1,100
241,199,133822,2,0,L|334:200,1,50
512,195,134022,1,8,0:0:0:0:
394,272,134222,6,0,P|376:308|382:373,1,100
385,265,134622,2,0,P|367:299|361:344,1,50
463,329,134822,1,2,0:0:0:0:
429,173,135022,6,0,P|417:137|385:79,1,100
445,167,135422,2,0,P|429:130|416:110,1,50
453,243,135622,1,8,0:0:0:0:
215,171,135822,6,0,P|224:147|236:126,1,50
304,30,136022,2,0,P|295:53|283:75,1,50
184,141,136222,2,0,P|192:117|204:95,1,50
263,22,136422,1,2,0:0:0:0:
328,247,136622,6,0,B|309:268|309:268|204:276,1,100
338,259,137022,2,0,B|318:281|318:281|257:286,1,50
79,291,137222,1,8,0:0:0:0:
122,150,137422,6,0,P|178:116|240:152,1,100
116,135,137822,2,0,P|152:107|171:105,1,50
185,193,138022,1,2,0:0:0:0:
3,247,138222,6,0,L|-1:130,1,100
20,252,138622,2,0,L|17:193,1,50
13,11,138822,1,8,0:0:0:0:
139,118,139022,6,0,P|208:143|253:123,1,100
130,136,139422,2,0,P|173:159|213:156,1,50
196,56,139622,1,2,0:0:0:0:
337,155,139822,6,0,P|370:211|391:271,1,100
330,168,140222,2,0,P|363:224|372:250,1,50
383,365,140422,1,8,0:0:0:0:
248,281,140622,6,0,P|264:218|276:193,1,50
350,159,140822,1,2,0:0:0:0:
261,310,141022,2,0,P|185:315|129:309,1,100
425,279,141422,1,2,0:0:0:0:
323,184,141622,6,0,B|313:112|313:112|327:60,1,100,8|0,0:0|0:0,0:0:0:0:
244,125,141922,2,0,B|186:169|186:169|134:183,1,100,2|0,0:0|0:0,0:0:0:0:
119,172,142222,1,2,0:0:0:0:
344,52,142422,1,8,0:0:0:0:
335,306,142622,1,8,0:0:0:0:
281,273,142722,1,8,0:0:0:0:
337,242,142822,1,6,0:0:0:0:
119,172,143022,6,0,P|90:253|118:327,1,150
122,310,143422,2,0,P|136:281|155:258,1,50
266,166,143622,1,8,0:0:0:0:
166,66,143822,6,0,P|118:64|57:159,1,150
61,150,144222,2,0,P|113:150|133:139,1,50
186,76,144422,1,2,0:0:0:0:
323,153,144622,6,0,P|342:227|255:283,1,150
312,276,145022,2,0,P|348:263|390:270,1,50
512,361,145222,1,8,0:0:0:0:
317,356,145422,6,0,B|211:357|280:317|153:308,1,150
186,297,145822,2,0,P|135:292|96:305,1,50
156,384,146022,1,2,0:0:0:0:
0,380,146222,6,0,P|23:280|67:222,1,150
40,222,146622,2,0,P|68:181|73:163,1,50
0,33,146822,1,8,0:0:0:0:
114,126,147022,6,0,P|185:134|250:80,1,150
265,89,147422,2,0,P|265:52|255:32,1,50
163,45,147622,1,2,0:0:0:0:
242,196,147822,6,0,P|249:227|246:273,2,50
170,277,148122,1,0,0:0:0:0:
161,288,148222,2,0,P|154:319|157:365,1,50
10,187,148422,1,8,0:0:0:0:
54,343,148622,6,0,P|89:303|91:269,1,50
59,86,148822,2,0,P|76:136|104:155,1,50
279,218,149022,2,0,P|226:207|196:222,1,50
127,218,149222,1,2,0:0:0:0:
237,144,149422,6,0,P|289:116|287:23,1,150
313,33,149822,2,0,P|351:28|383:29,1,50
512,137,150022,1,8,0:0:0:0:
408,291,150222,6,0,P|377:207|401:128,1,150
399,166,150622,2,0,P|375:225|351:227,1,50
276,167,150822,1,2,0:0:0:0:
271,349,151022,6,0,P|320:321|263:275,1,150
248,266,151422,2,0,P|216:250|190:225,1,50
127,58,151622,1,8,0:0:0:0:
149,178,151822,6,0,P|125:243|44:288,1,150
79,288,152222,2,0,P|109:299|129:326,1,50
54,384,152422,1,2,0:0:0:0:
27,203,152622,6,0,B|60:107|86:159|116:79,1,150
119,59,153022,2,0,P|99:34|68:31,1,50
185,194,153222,1,8,0:0:0:0:
269,70,153422,1,0,0:0:0:0:
441,209,153622,6,0,P|437:287|394:359,1,150,2|0,0:0|0:0,0:0:0:0:
381,359,154022,6,0,B|403:179|258:13|95:14|2:110|25:267|156:325|238:242,1,750,2|0,0:0|0:0,0:0:0:0:
169,180,155622,6,0,B|114:249|158:346|243:345|289:314|289:314|237:371|154:373|91:339|58:294|58:294|121:220|20:160|109:88|172:88|172:88|213:40|292:46|292:46|333:83|384:72,1,1022.99999687805
453,0,162022,6,0,B|538:3|540:80|487:132|487:94|455:150|484:215|484:215|440:132|327:133|306:213|306:213|340:214|340:214|350:257|319:301|311:252|271:281|249:348|291:383|357:339|316:273|236:265|236:265|197:314|115:285|115:285|156:217|206:216,1,1039.4999968277,4|0,0:0|0:0,0:0:0:0:
241,196,168422,5,4,0:0:0:0:
158,192,168622,1,0,0:0:0:0:
119,120,168822,2,0,L|91:120,2,16.499999949646
162,50,169222,1,0,0:0:0:0:
245,54,169422,1,0,0:0:0:0:
283,125,169622,2,0,L|299:125,2,16.499999949646
322,198,170022,5,0,0:0:0:0:
404,201,170222,1,0,0:0:0:0:
447,132,170422,2,0,L|463:132,2,16.499999949646
409,59,170822,1,0,0:0:0:0:
326,56,171022,1,0,0:0:0:0:
283,125,171222,2,0,L|266:125,2,16.499999949646
238,199,171622,5,0,0:0:0:0:
200,124,171822,2,0,L|213:105,2,16.499999949646
244,54,172122,1,0,0:0:0:0:
244,54,172222,1,0,0:0:0:0:
326,56,172422,1,0,0:0:0:0:
364,130,172622,2,0,L|354:143,2,16.499999949646
322,198,172922,1,0,0:0:0:0:
322,198,173022,1,0,0:0:0:0:
278,269,173222,5,0,0:0:0:0:
316,340,173422,2,0,L|338:341,2,16.499999949646
398,344,173722,1,0,0:0:0:0:
398,344,173822,1,0,0:0:0:0:
441,274,174022,1,0,0:0:0:0:
403,201,174222,2,0,L|386:199,2,16.499999949646
322,198,174522,1,0,0:0:0:0:
322,198,174622,1,0,0:0:0:0:
281,127,174822,5,4,0:0:0:0:
326,56,175022,1,0,0:0:0:0:
326,56,175122,1,0,0:0:0:0:
326,56,175222,2,0,L|355:56,1,16.499999949646
409,59,175422,1,0,0:0:0:0:
448,131,175622,1,0,0:0:0:0:
403,201,175822,1,0,0:0:0:0:
403,201,175922,1,0,0:0:0:0:
403,201,176022,2,0,L|386:201,1,16.499999949646
323,199,176222,1,0,0:0:0:0:
240,196,176422,5,0,0:0:0:0:
197,265,176622,1,0,0:0:0:0:
197,265,176722,1,0,0:0:0:0:
197,265,176822,2,0,L|211:290,1,16.499999949646
235,338,177022,1,0,0:0:0:0:
317,340,177222,1,0,0:0:0:0:
361,270,177422,1,0,0:0:0:0:
361,270,177522,1,0,0:0:0:0:
361,270,177622,2,0,L|352:255,1,16.499999949646
323,199,177822,1,0,0:0:0:0:
241,196,178022,5,0,0:0:0:0:
158,192,178222,1,0,0:0:0:0:
119,120,178422,2,0,L|91:120,2,16.499999949646
162,50,178822,1,0,0:0:0:0:
245,54,179022,1,0,0:0:0:0:
283,125,179222,2,0,L|299:125,2,16.499999949646
322,198,179622,5,0,0:0:0:0:
404,201,179822,1,0,0:0:0:0:
447,132,180022,2,0,L|463:132,2,16.499999949646
409,59,180422,1,0,0:0:0:0:
326,56,180622,1,0,0:0:0:0:
241,196,180822,5,8,0:0:0:0:
158,192,180922,1,8,0:0:0:0:
119,120,181022,1,8,0:0:0:0:
162,50,181122,1,8,0:0:0:0:
245,54,181222,6,0,B|322:199|322:199|403:203|403:203|448:132|448:132|410:59|410:59|325:56|325:56|240:197|240:197|159:192|159:192|119:120|119:120|161:50|161:50|205:127,1,976.499970199586,6|0,0:0|0:0,0:0:0:0:
250,253,184422,6,0,P|222:282|192:282,1,62.9999980773926
174,284,184722,2,0,B|79:285|153:324|29:328|29:328|-2:294|22:263|65:260|65:260|38:245|31:216,1,314.999990386963
40,134,185822,1,0,0:0:0:0:
48,122,185922,2,0,P|124:118|96:199,1,188.999994232178
198,223,186622,1,0,0:0:0:0:
195,208,186722,2,0,P|246:151|284:228,1,188.999994232178
372,174,187422,1,0,0:0:0:0:
358,164,187522,6,0,B|306:118|356:52|418:60|435:113|435:113|457:215|497:151|530:242|516:327|447:347|388:294|422:249|422:249|315:301|370:207|221:240|222:295|233:353|287:379|392:331|381:226|241:218|170:231|112:333,1,1007.99996923828
57,368,190822,6,0,B|18:295|29:187|29:187|98:122|75:30|75:30|98:46|120:59,1,409.499987503052
191,92,192222,1,0,0:0:0:0:
191,92,192322,1,0,0:0:0:0:
191,92,192422,2,0,B|327:89|251:144|408:147,1,220.499993270874
350,228,193222,2,0,B|271:229|314:197|224:196,1,125.999996154785
145,229,193722,2,0,P|169:256|189:257,2,31.4999990386963
123,115,194022,6,0,P|181:88|207:101,1,75.0000028610231,6|2,0:0|0:0,0:0:0:0:
280,320,194422,2,0,P|227:283|225:254,1,75.0000028610231,8|2,0:0|0:0,0:0:0:0:
380,82,194822,1,2,0:0:0:0:
369,150,195022,1,2,0:0:0:0:
280,320,195222,2,0,P|227:283|225:254,1,75.0000028610231,8|2,0:0|0:0,0:0:0:0:
411,243,195622,5,2,0:0:0:0:
189,170,195822,1,2,0:0:0:0:
487,123,196022,1,8,0:0:0:0:
225,276,196222,1,2,0:0:0:0:
321,47,196422,2,0,P|330:96|329:144,1,75.0000028610231,2|2,0:0|0:0,0:0:0:0:
132,372,196822,2,0,P|135:322|149:276,1,75.0000028610231,8|2,0:0|0:0,0:0:0:0:
191,155,197222,5,2,0:0:0:0:
291,317,197422,1,2,0:0:0:0:
0,344,197622,1,8,0:0:0:0:
61,164,197822,1,2,0:0:0:0:
141,297,198022,2,0,P|212:269|225:250,1,75.0000028610231,2|2,0:0|0:0,0:0:0:0:
283,62,198422,2,0,P|281:100|289:130,1,37.5000014305115,8|0,0:0|0:0,0:0:0:0:
363,215,198622,2,0,P|365:177|357:147,1,37.5000014305115,2|0,0:0|0:0,0:0:0:0:
207,86,198822,6,0,P|175:110|173:158,1,75.0000028610231,2|2,0:0|0:0,0:0:0:0:
362,233,199222,1,8,0:0:0:0:
287,46,199422,2,0,P|309:39|328:37,1,37.5000014305115,2|0,0:0|0:0,0:0:0:0:
512,121,199622,2,0,P|458:142|415:125,1,75.0000028610231,2|2,0:0|0:0,0:0:0:0:
219,21,200022,1,8,0:0:0:0:
156,168,200222,1,2,0:0:0:0:
166,201,200322,1,0,0:0:0:0:
189,228,200422,6,0,L|342:259,1,100,8|0,0:0|0:0,0:0:0:0:
385,267,200622,6,0,L|316:253,1,65.999999798584,8|0,0:0|0:0,0:0:0:0:
287,247,200922,1,8,0:0:0:0:
402,54,201122,5,2,0:0:0:0:
402,54,201172,1,2,0:0:0:0:
402,54,201222,2,0,L|254:85,1,125,8|0,0:0|0:0,0:0:0:0:
156,104,201422,6,0,L|245:85,1,83.0000012031555,8|0,0:0|0:0,0:0:0:0:
279,79,201722,1,8,0:0:0:0:
452,330,201922,5,2,0:0:0:0:
452,330,201972,1,2,0:0:0:0:
452,330,202022,2,0,L|486:153,1,150.000005722046,8|0,0:0|0:0,0:0:0:0:
508,34,202222,2,0,L|486:146,1,100,8|0,0:0|0:0,0:0:0:0:
480,182,202522,1,8,0:0:0:0:
216,0,202722,5,2,0:0:0:0:
216,0,202772,1,2,0:0:0:0:
216,0,202822,2,0,L|246:189,1,175.00000166893,8|0,0:0|0:0,0:0:0:0:
270,344,203022,5,8,0:0:0:0:
200,316,203122,2,0,L|245:165,1,150.000005722046,8|0,0:0|0:0,0:0:0:0:
384,149,203322,5,8,0:0:0:0:
400,170,203422,2,0,P|406:234|392:255,2,62.5,8|2|2,0:0|0:0|0:0,0:0:0:0:
322,101,203622,5,8,0:0:0:0:
251,69,203722,1,8,0:0:0:0:
173,68,203822,1,8,0:0:0:0:
102,99,203922,1,8,0:0:0:0:
49,156,204022,5,8,0:0:0:0:
103,131,204122,1,8,0:0:0:0:
163,130,204222,1,8,0:0:0:0:
219,154,204322,1,8,0:0:0:0:
260,198,204422,5,8,0:0:0:0:
218,178,204522,1,8,0:0:0:0:
171,177,204622,1,8,0:0:0:0:
127,196,204722,1,8,0:0:0:0:
96,230,204822,6,8,L|108:261,1,25
128,214,204922,2,8,L|128:247,1,25
165,213,205022,2,8,L|154:244,1,25
199,228,205122,2,8,L|178:253,1,25
238,284,205222,6,0,P|287:239|222:254,1,181.99999888916,2|0,0:0|0:0,0:0:0:0:
147,309,206022,1,0,0:0:0:0:
282,121,206222,6,0,L|326:149,1,37.5000014305115
282,137,206322,2,0,L|326:165,1,37.5000014305115
283,153,206422,2,0,L|347:194,1,75.0000028610231,8|8,0:0|0:0,0:0:0:0:
274,335,206622,2,0,L|232:271,1,75.0000028610231,8|8,0:0|0:0,0:0:0:0:
95,190,206822,6,0,P|200:107|333:169,1,225.000008583069,6|0,0:0|0:0,0:0:0:0:
347,213,207222,2,0,P|297:337|151:350,1,225.000008583069,8|0,0:0|0:0,0:0:0:0:
97,323,207622,2,0,L|218:234,1,150.000005722046,2|0,0:0|0:0,0:0:0:0:
282,121,207922,6,0,P|256:107|234:100,1,37.5000014305115
182,137,208022,1,8,0:0:0:0:
100,103,208122,2,0,P|73:115|47:154,1,43.7500004172325
29,197,208222,1,0,0:0:0:0:
90,257,208322,1,0,0:0:0:0:
167,218,208422,6,0,B|307:228|229:280|383:295,1,225.000008583069,2|0,0:0|0:0,0:0:0:0:
509,250,208822,2,0,B|365:235|443:184|302:173,1,225.000008583069,8|0,0:0|0:0,0:0:0:0:
325,284,209222,2,0,P|296:300|234:316,1,75.0000028610231,2|0,0:0|0:0,0:0:0:0:
131,251,209422,5,0,0:0:0:0:
131,251,209472,1,0,0:0:0:0:
131,251,209522,2,0,L|119:207,1,37.5000014305115
103,123,209622,5,8,0:0:0:0:
217,212,209722,1,0,0:0:0:0:
197,113,209822,5,2,0:0:0:0:
303,173,209922,1,0,0:0:0:0:
291,103,210022,6,0,B|366:77|366:77|418:92|418:92|493:76|493:76|453:117|461:181,1,250.499992164231,2|0,0:0|0:0,0:0:0:0:
490,214,210422,2,0,P|488:242|463:299,1,83.4999973880769,8|0,0:0|0:0,0:0:0:0:
448,312,210622,1,0,0:0:0:0:
385,231,210722,1,0,0:0:0:0:
338,239,210822,2,0,P|326:259|330:294,1,50,2|0,0:0|0:0,0:0:0:0:
269,217,211022,6,0,P|230:116|196:85,1,116.500004666329
153,72,211222,1,8,0:0:0:0:
96,135,211322,1,0,0:0:0:0:
96,135,211372,1,0,0:0:0:0:
96,135,211422,1,0,0:0:0:0:
146,215,211522,1,0,0:0:0:0:
62,257,211622,6,0,P|31:286|140:291,1,250.499992164231,2|0,0:0|0:0,0:0:0:0:
150,201,212022,2,0,P|173:178|229:159,1,75.0000028610231,8|0,0:0|0:0,0:0:0:0:
371,212,212222,1,0,0:0:0:0:
416,286,212322,1,0,0:0:0:0:
329,287,212422,2,0,P|291:238|340:135,1,166.999994776154,2|0,0:0|0:0,0:0:0:0:
432,93,212722,1,0,0:0:0:0:
490,135,212822,2,0,P|466:192|418:211,1,83.4999973880769,8|0,0:0|0:0,0:0:0:0:
221,254,213022,6,0,B|210:182|210:182|251:105,1,150.000005722046
289,3,213222,6,0,B|162:-24|210:61|73:33,1,225.000008583069,2|0,0:0|0:0,0:0:0:0:
50,119,213622,2,0,B|181:163|97:213|220:253,1,225.000008583069,8|0,0:0|0:0,0:0:0:0:
288,199,214022,2,0,P|287:123|345:69,1,150.000005722046,2|0,0:0|0:0,0:0:0:0:
438,61,214322,5,0,0:0:0:0:
407,163,214422,1,8,0:0:0:0:
422,206,214522,2,0,P|422:231|384:268,1,75.0000028610231
211,275,214822,6,0,P|188:185|279:206,1,225.000008583069,2|0,0:0|0:0,0:0:0:0:
113,276,215222,2,0,P|161:196|211:275,1,225.000008583069,8|0,0:0|0:0,0:0:0:0:
13,199,215622,2,0,P|44:190|36:222,1,75.0000028610231,2|0,0:0|0:0,0:0:0:0:
14,330,215822,6,0,B|7:356|7:356|36:353,4,50
113,276,216022,2,0,B|137:269|137:269|135:299,4,50,8|0|0|0|0,0:0|0:0|0:0|0:0|0:0,0:0:0:0:
196,383,216222,6,0,P|229:380|266:348,1,75.0000028610231
312,254,216422,2,0,B|365:119|389:202|449:68,1,225.000008583069,2|0,0:0|0:0,0:0:0:0:
489,193,216822,2,0,B|372:106|458:105|344:12,1,225.000008583069,8|0,0:0|0:0,0:0:0:0:
264,3,217222,5,2,0:0:0:0:
203,45,217322,1,0,0:0:0:0:
181,115,217422,1,0,0:0:0:0:
180,190,217522,1,0,0:0:0:0:
155,260,217622,1,8,0:0:0:0:
87,328,217722,2,0,P|54:310|43:289,1,37.5000014305115
63,235,217822,2,0,P|95:215|118:216,1,37.5000014305115
155,260,217922,2,0,P|155:297|143:317,1,37.5000014305115
215,353,218022,6,0,B|226:280|263:245|263:245|281:243|281:243|322:183|322:117,1,262.500002503395,2|0,0:0|0:0,0:0:0:0:
379,63,218422,2,0,P|470:64|398:149,1,250.499992164231,8|0,0:0|0:0,0:0:0:0:
302,77,218822,6,0,B|257:55|257:55|170:69,1,83.4999973880769,2|0,0:0|0:0,0:0:0:0:
202,175,219022,2,0,B|157:197|157:197|70:183,1,83.4999973880769
305,54,219222,2,0,B|260:32|260:32|173:46,1,83.4999973880769,8|0,0:0|0:0,0:0:0:0:
205,198,219422,2,0,B|160:220|160:220|73:206,1,83.4999973880769
12,146,219622,6,0,B|4:125|14:109|14:109|46:156|22:212|18:183|-3:234|29:288,1,225.000008583069,6|0,0:0|0:0,0:0:0:0:
118,313,220022,2,0,B|173:282|180:227|162:250|169:189|220:165|220:165|221:183|204:198,1,225.000008583069,8|0,0:0|0:0,0:0:0:0:
109,165,220422,2,0,L|162:14,1,150.000005722046,2|0,0:0|0:0,0:0:0:0:
234,33,220722,6,0,P|262:59|275:63,1,37.5000014305115
333,67,220822,1,8,0:0:0:0:
308,143,220922,2,0,P|304:170|308:212,1,43.7500004172325
307,257,221022,1,0,0:0:0:0:
386,286,221122,1,0,0:0:0:0:
458,242,221222,6,0,B|418:194|413:113|467:59|505:103|444:158,1,225.000008583069,2|0,0:0|0:0,0:0:0:0:
358,191,221622,2,0,B|295:185|234:131|234:55|292:59|288:141,1,225.000008583069,8|0,0:0|0:0,0:0:0:0:
251,225,222022,2,0,P|201:250|153:247,1,75.0000028610231,2|0,0:0|0:0,0:0:0:0:
64,231,222222,5,0,0:0:0:0:
64,231,222272,1,0,0:0:0:0:
64,231,222322,2,0,P|50:202|53:179,1,37.5000014305115
38,116,222422,5,8,0:0:0:0:
117,132,222522,1,0,0:0:0:0:
97,34,222622,5,2,0:0:0:0:
141,101,222722,1,0,0:0:0:0:
196,17,222822,6,0,B|252:12|293:56|293:56|345:74|389:56|389:56|406:35|438:22,1,250.499992164231,2|0,0:0|0:0,0:0:0:0:
467,120,223222,6,0,P|440:166|451:232,1,83.4999973880769,8|0,0:0|0:0,0:0:0:0:
458,236,223422,1,0,0:0:0:0:
357,233,223522,1,0,0:0:0:0:
338,249,223622,2,0,P|327:275|329:298,1,50,2|0,0:0|0:0,0:0:0:0:
236,355,223822,6,0,B|249:345|249:345|249:261|249:261|231:250,1,116.500004666329
144,304,224022,1,8,0:0:0:0:
79,362,224122,1,0,0:0:0:0:
79,362,224172,1,0,0:0:0:0:
79,362,224222,1,0,0:0:0:0:
21,297,224322,1,0,0:0:0:0:
87,235,224422,6,0,B|97:142|35:78|35:78|74:115|143:95,1,250.499992164231,2|0,0:0|0:0,0:0:0:0:
191,69,224822,2,0,P|252:59|284:78,1,75.0000028610231,8|0,0:0|0:0,0:0:0:0:
236,220,225022,5,0,0:0:0:0:
162,265,225122,1,0,0:0:0:0:
162,176,225222,2,0,P|211:138|314:187,1,166.999994776154,2|0,0:0|0:0,0:0:0:0:
372,250,225522,1,0,0:0:0:0:
446,295,225622,2,0,P|456:225|427:185,1,83.4999973880769,8|0,0:0|0:0,0:0:0:0:
369,104,225822,6,0,B|356:70|367:43|367:43|346:10|346:10|273:3|311:53|211:41,1,225.000008583069
214,33,226022,1,6,0:0:0:0:
83,121,226222,6,0,P|72:154|89:233,1,100
75,104,226622,2,0,P|64:137|63:170,1,50
123,311,226822,1,8,0:0:0:0:
304,75,227022,5,0,0:0:0:0:
324,174,227122,1,0,0:0:0:0:
218,114,227222,1,0,0:0:0:0:
226,192,227322,6,0,B|226:217|226:217|204:232,1,50
147,162,227522,1,2,0:0:0:0:
438,167,227822,6,0,P|465:215|472:241,1,50
464,294,228022,1,2,0:0:0:0:
366,107,228222,2,0,P|339:155|332:181,1,50
340,351,228422,1,8,0:0:0:0:
87,305,228622,6,0,P|93:281|63:276,12,50
155,343,229022,6,0,B|216:360|257:304|242:306|265:264|306:262|306:262|306:257|306:257|307:262|307:262|343:261|343:261|343:266|343:266|344:261|344:261|362:259|382:231|374:238|412:185|460:219|458:264|432:282|415:259,1,400,2|0,0:0|0:0,0:0:0:0:
80,135,229822,2,0,P|90:129|125:131,1,25,0|0,2:0|0:0,0:0:0:0:
80,135,229922,2,0,P|91:138|119:177,1,50,0|0,2:0|0:0,0:0:0:0:
80,135,230022,2,0,P|100:174|58:285,1,150.000005722046
176,384,230222,2,0,P|156:345|198:234,1,150.000005722046
363,119,230422,2,0,P|400:117|366:143,2,100
324,241,230622,2,0,P|305:242|322:229,2,50
453,307,230822,5,8,0:0:0:0:
457,305,230922,1,2,0:0:0:0:
453,303,231022,1,2,0:0:0:0:
457,309,231122,1,2,0:0:0:0:
449,302,231222,5,8,0:0:0:0:
460,309,231322,1,2,0:0:0:0:
459,296,231422,1,2,0:0:0:0:
450,315,231522,1,2,0:0:0:0:
456,285,231622,5,8,0:0:0:0:
453,326,231722,1,2,0:0:0:0:
487,303,231822,1,2,0:0:0:0:
422,308,231922,1,2,0:0:0:0:
357,332,232022,1,8,0:0:0:0:
292,318,232122,6,0,L|304:218,1,100
304,218,232422,6,0,P|221:173|218:270,1,225.000008583069,2|0,0:0|0:0,0:0:0:0:
214,267,233222,6,0,B|156:187|156:187|54:212,1,200,8|0,0:0|0:0,0:0:0:0:
9,285,233522,1,0,0:0:0:0:
122,322,233622,2,0,B|144:289|121:261|121:261|99:233|121:202|121:202|145:171|118:137,1,200
0,24,233922,6,0,L|268:76,1,233.000009332657,2|0,0:0|0:0,0:0:0:0:
306,81,234222,2,0,P|325:66|332:33,1,50
330,180,234422,2,0,P|311:195|304:228,1,50,2|0,0:0|0:0,0:0:0:0:
345,319,234622,1,0,0:0:0:0:
356,331,234722,1,0,0:0:0:0:
367,349,234822,5,8,0:0:0:0:
408,322,234922,1,0,0:0:0:0:
434,279,235022,1,0,0:0:0:0:
437,230,235122,1,0,0:0:0:0:
416,170,235222,5,0,0:0:0:0:
419,120,235322,1,0,0:0:0:0:
444,77,235422,1,0,0:0:0:0:
486,51,235522,1,0,0:0:0:0:
512,142,235622,6,0,P|468:160|425:170,1,75.0000028610231,2|0,0:0|0:0,0:0:0:0:
332,180,235822,2,0,P|313:185|296:192,1,37.5000014305115
204,239,236022,2,0,P|214:270|237:261,2,37.5000014305115
241,107,236222,2,0,P|235:36|215:13,1,75.0000028610231
36,80,236422,6,0,L|144:105,1,75.0000028610231,8|0,0:0|0:0,0:0:0:0:
405,163,236622,2,0,L|297:188,1,75.0000028610231
268,312,236822,1,0,0:0:0:0:
278,328,236922,2,0,P|299:335|337:333,1,50,2|0,0:0|0:0,0:0:0:0:
230,230,237122,1,2,0:0:0:0:
191,254,237222,2,0,P|173:281|164:338,1,75.0000028610231
73,303,237422,6,0,P|56:343|56:393,2,50.0000019073487
103,207,237622,2,0,P|113:183|163:120,1,75.0000028610231,2|0,0:0|0:0,0:0:0:0:
219,72,237822,1,0,0:0:0:0:
257,38,237922,2,0,P|278:35|309:41,1,37.5000014305115,2|2,0:0|0:0,0:0:0:0:
355,85,238022,1,8,0:0:0:0:
375,123,238122,2,0,P|384:179|303:236,1,150.000005722046,2|0,0:0|0:0,0:0:0:0:
266,349,238422,2,0,P|256:292|337:235,1,150.000005722046,8|0,0:0|0:0,0:0:0:0:
201,310,238822,6,0,P|126:322|0:191,1,262.500002503395,2|0,0:0|0:0,0:0:0:0:
47,113,239222,1,0,0:0:0:0:
117,102,239322,2,0,P|136:92|171:107,1,43.7500004172325
147,136,239422,2,0,P|167:142|181:177,1,43.7500004172325
99,203,239522,1,0,0:0:0:0:
126,277,239622,1,8,0:0:0:0:
207,289,239722,2,0,P|249:286|313:262,1,87.500000834465
390,246,239922,2,0,P|350:232|329:214,1,43.7500004172325
382,224,240022,6,0,P|388:167|440:149,1,100
512,71,240322,6,0,L|274:35,1,233.000009332657,2|0,0:0|0:0,0:0:0:0:
174,126,240622,2,0,P|208:122|229:109,1,50
106,52,240822,2,0,P|72:56|51:69,1,50,2|0,0:0|0:0,0:0:0:0:
31,153,241022,1,0,0:0:0:0:
19,167,241122,1,0,0:0:0:0:
1,175,241222,5,8,0:0:0:0:
28,216,241322,1,0,0:0:0:0:
71,242,241422,1,0,0:0:0:0:
120,245,241522,1,0,0:0:0:0:
180,224,241622,5,0,0:0:0:0:
230,227,241722,1,0,0:0:0:0:
273,252,241822,1,2,0:0:0:0:
256,259,241922,1,0,0:0:0:0:
241,271,242022,6,0,P|243:302|258:330,1,62.5,2|0,0:0|0:0,0:0:0:0:
477,301,242222,2,0,P|452:273|418:257,1,75.0000028610231
338,234,242422,1,0,0:0:0:0:
369,156,242522,2,0,L|339:110,2,37.5000014305115
449,185,242722,1,0,0:0:0:0:
480,107,242822,6,0,B|467:52|436:78|424:13,1,112.500004291535,8|0,0:0|0:0,0:0:0:0:
437,12,243022,1,0,0:0:0:0:
482,113,243122,2,0,B|411:68|406:127|324:72,1,150
236,32,243322,2,0,P|209:28|139:92,1,100,2|0,0:0|0:0,0:0:0:0:
164,165,243522,6,0,P|164:105|133:74,1,100,2|0,0:0|0:0,0:0:0:0:
68,123,243822,1,2,0:0:0:0:
9,177,243922,1,8,0:0:0:0:
12,226,244022,1,0,0:0:0:0:
16,276,244122,1,0,0:0:0:0:
84,324,244222,1,8,0:0:0:0:
150,281,244322,2,0,P|170:293|178:317,1,50,2|0,0:0|0:0,0:0:0:0:
250,368,244522,6,0,P|257:283|313:240,1,150.000005722046,8|0,0:0|0:0,0:0:0:0:
411,224,244822,1,8,0:0:0:0:
391,311,244922,1,2,0:0:0:0:
430,234,245022,2,0,P|439:183|398:161,1,75.0000028610231,8|0,0:0|0:0,0:0:0:0:
282,117,245222,6,0,P|355:134|309:43,1,225.000008583069,2|0,0:0|0:0,0:0:0:0:
316,40,246022,6,0,B|418:12|418:12|521:67,1,200,8|0,0:0|0:0,0:0:0:0:
476,151,246322,1,0,0:0:0:0:
383,124,246422,2,0,B|359:166|359:166|374:215|374:215|354:262|354:262|371:310,1,200
283,359,246722,6,0,L|44:256,1,233.000009332657,2|0,0:0|0:0,0:0:0:0:
22,192,247022,2,0,P|9:153|10:130,1,50
141,218,247222,2,0,P|154:179|153:156,1,50,2|0,0:0|0:0,0:0:0:0:
147,75,247422,1,0,0:0:0:0:
142,63,247522,1,0,0:0:0:0:
137,51,247622,5,8,0:0:0:0:
199,29,247722,1,0,0:0:0:0:
264,40,247822,1,0,0:0:0:0:
317,80,247922,1,0,0:0:0:0:
130,37,248022,5,0,0:0:0:0:
199,13,248122,1,0,0:0:0:0:
270,25,248222,1,0,0:0:0:0:
328,69,248322,1,0,0:0:0:0:
405,80,248422,6,0,P|433:68|464:25,1,75.0000028610231,2|0,0:0|0:0,0:0:0:0:
479,193,248622,2,0,P|478:209|487:236,1,37.5000014305115
418,303,248822,2,0,P|413:319|391:345,2,37.5000014305115
363,201,249022,2,0,P|306:186|269:199,1,75.0000028610231
174,347,249222,2,0,P|215:305|222:266,1,75.0000028610231,8|0,0:0|0:0,0:0:0:0:
142,110,249422,2,0,P|157:166|187:192,1,75.0000028610231
257,104,249622,5,0,0:0:0:0:
271,85,249722,2,0,P|266:53|244:31,1,50,2|0,0:0|0:0,0:0:0:0:
136,9,249922,5,0,0:0:0:0:
94,63,250022,2,0,P|60:61|33:29,1,75.0000028610231,2|0,0:0|0:0,0:0:0:0:
194,118,250222,5,0,0:0:0:0:
130,119,250322,2,0,P|101:100|94:59,1,75.0000028610231
190,242,250522,5,0,0:0:0:0:
88,199,250622,1,0,0:0:0:0:
102,309,250722,2,0,P|71:328|56:332,2,37.5000014305115,2|2|8,0:0|0:0|0:0,0:0:0:0:
184,330,250922,2,0,P|220:325|347:372,1,150.000005722046,2|0,0:0|0:0,0:0:0:0:
436,347,251222,2,0,B|442:272|442:272|428:239,1,100,8|0,0:0|0:0,0:0:0:0:
358,118,251422,2,0,B|351:192|351:192|365:225,1,100,8|0,0:0|0:0,0:0:0:0:
438,257,251622,5,2,0:0:0:0:
282,140,251822,2,0,P|261:154|258:186,1,50
280,312,252022,6,0,P|195:252|53:358,1,300,2|0,0:0|0:0,0:0:0:0:
6,258,252422,1,8,0:0:0:0:
20,223,252522,2,0,P|22:193|11:165,1,50
77,31,252722,1,0,0:0:0:0:
54,61,252822,2,0,P|53:102|93:71,1,100
228,42,253122,6,0,B|290:32|351:84|338:128|278:170|251:105,1,200,2|0,0:0|0:0,0:0:0:0:
171,174,253422,2,0,P|147:190|149:277,1,100
213,316,253622,2,0,P|241:317|291:245,1,100,2|0,0:0|0:0,0:0:0:0:
310,141,253822,1,0,0:0:0:0:
314,128,253922,1,0,0:0:0:0:
319,116,254022,5,8,0:0:0:0:
379,146,254122,1,0,0:0:0:0:
417,199,254222,1,0,0:0:0:0:
426,265,254322,1,0,0:0:0:0:
324,102,254422,6,0,P|367:117|409:163,1,100
418,281,254622,1,2,0:0:0:0:
346,289,254722,1,8,0:0:0:0:
274,297,254822,6,0,P|152:263|74:182,1,200,2|0,0:0|0:0,0:0:0:0:
255,103,255122,2,0,P|286:224|255:331,1,200,8|0,0:0|0:0,0:0:0:0:
98,216,255422,2,0,P|144:157|195:123,1,100,8|0,0:0|0:0,0:0:0:0:
255,103,255622,6,0,P|371:166|468:144,1,233.000009332657,2|0,0:0|0:0,0:0:0:0:
323,304,255922,2,0,P|328:190|254:104,1,233.000009332657,8|0,0:0|0:0,0:0:0:0:
464,147,256222,2,0,P|408:165|362:200,1,116.500004666329,8|0,0:0|0:0,0:0:0:0:
323,304,256422,6,0,L|45:277,1,265.999989041138,2|0,0:0|0:0,0:0:0:0:
213,62,256722,2,0,L|328:314,1,265.999989041138,8|0,0:0|0:0,0:0:0:0:
59,278,257022,2,0,L|135:168,1,132.999994520569,8|0,0:0|0:0,0:0:0:0:
213,62,257222,6,0,P|278:135|320:226,1,200.000007629395,2|8,0:0|0:0,0:0:0:0:
167,287,257488,2,0,P|194:245|230:209,2,100.000003814697,8|8|8,0:0|0:0|0:0,0:0:0:0:
426,265,257755,2,0,P|327:283|229:273,1,200.000007629395,8|8,0:0|0:0,0:0:0:0:
84,66,258022,5,6,0:0:0:0:
256,192,258122,12,0,264422,0:0:0:0:
183,169,264822,5,0,0:0:0:0:
170,183,264922,1,0,0:0:0:0:
161,199,265022,1,0,0:0:0:0:
157,217,265122,1,0,0:0:0:0:
158,239,265222,2,0,P|179:274|182:316,1,75
241,356,265622,5,0,0:0:0:0:
255,368,265722,1,0,0:0:0:0:
271,377,265822,1,0,0:0:0:0:
289,381,265922,1,0,0:0:0:0:
311,381,266022,2,0,P|346:360|388:357,1,75
428,298,266422,5,0,0:0:0:0:
440,284,266522,1,0,0:0:0:0:
449,268,266622,1,0,0:0:0:0:
453,250,266722,1,0,0:0:0:0:
453,228,266822,2,0,P|432:193|429:151,1,75
370,111,267222,5,0,0:0:0:0:
356,99,267322,1,0,0:0:0:0:
340,90,267422,1,0,0:0:0:0:
322,86,267522,1,0,0:0:0:0:
300,86,267622,2,0,P|265:107|223:110,1,75
183,169,268022,5,0,0:0:0:0:
195,183,268122,1,0,0:0:0:0:
204,199,268222,1,0,0:0:0:0:
208,217,268322,1,0,0:0:0:0:
208,239,268422,2,0,P|187:274|184:316,1,75
241,356,268822,5,0,0:0:0:0:
255,344,268922,1,0,0:0:0:0:
271,335,269022,1,0,0:0:0:0:
289,331,269122,1,0,0:0:0:0:
311,331,269222,2,0,P|346:352|388:355,1,75
428,298,269622,5,0,0:0:0:0:
416,284,269722,1,0,0:0:0:0:
407,268,269822,1,0,0:0:0:0:
403,250,269922,1,0,0:0:0:0:
403,228,270022,6,0,P|444:200|471:165,1,75
471,104,270422,1,8,0:0:0:0:
433,107,270522,1,8,0:0:0:0:
396,110,270622,1,8,0:0:0:0:
219,323,270822,5,4,0:0:0:0:
138,69,271622,6,0,P|111:106|102:162,1,100
421,151,273222,2,0,P|402:109|358:73,1,100
208,355,274822,2,0,P|254:360|307:340,1,100
362,75,278022,6,0,P|400:106|421:151,1,100
101,158,279622,2,0,P|109:109|137:69,1,100
304,342,281222,2,0,P|258:359|209:355,1,87.5
169,354,282022,6,0,B|153:263|173:210|173:210|155:214|155:214|172:156|148:90|148:90|130:123|72:151|72:151|75:232|93:292|93:292|39:303|39:303|14:228|15:151|15:151|35:119|35:119|9:84|9:84|59:28|135:14|135:14|228:57|311:23|311:23|250:83|284:171|398:164|410:78|410:78|396:184|447:133|429:252,1,1583.99999516602
