osu file format v14

[General]
AudioFilename: audio.mp3
AudioLeadIn: 0
PreviewTime: 111003
Countdown: 0
SampleSet: Normal
StackLeniency: 0.7
Mode: 1
LetterboxInBreaks: 0
WidescreenStoryboard: 0

[Editor]
Bookmarks: 15300,35510,55721,75931,111300,131510
DistanceSpacing: 0.7
BeatDivisor: 12
GridSize: 32
TimelineZoom: 4.199998

[Metadata]
Title:Maboroshi
TitleUnicode:Maboroshi
Artist:Camellia
ArtistUnicode:かめりあ
Creator:Eyenine
Version:Spectre
Source:Cytus II
Tags:まぼろし cametek かめるかめりあ kamelcamellia 大箭将也 大箭マサヤ masaya oya ooya edp neko#ΦωΦ neko#owo maimaiでらっくす+ maimai dx+ maimai deluxe plus cytus 2 rayark oriental hardcore electronic instrumental rhythm video game two
BeatmapID:4178400
BeatmapSetID:2008589

[Difficulty]
HPDrainRate:7
CircleSize:5
OverallDifficulty:7
ApproachRate:8
SliderMultiplier:1.4
SliderTickRate:1

[Events]
//Background and Video events
0,0,"sakuranomorinomankainosita.jpg",0,40
//Break Periods
//Storyboard Layer 0 (Background)
//Storyboard Layer 1 (Fail)
//Storyboard Layer 2 (Pass)
//Storyboard Layer 3 (Foreground)
//Storyboard Layer 4 (Overlay)
//Storyboard Sound Samples

[TimingPoints]
161,315.789473684211,4,1,0,50,1,0
161,-133.333333333333,4,1,0,50,0,0
15292,-79.9999999999999,4,1,0,80,0,0
15371,-100,4,1,0,80,0,0
15766,-79.9999999999999,4,1,0,80,0,0
15845,-100,4,1,0,80,0,0
16555,-79.9999999999999,4,1,0,80,0,0
16634,-100,4,1,0,80,0,0
17029,-79.9999999999999,4,1,0,80,0,0
17108,-100,4,1,0,80,0,0
17792,-79.9999999999999,4,1,0,80,0,0
17871,-100,4,1,0,80,0,0
18292,-79.9999999999999,4,1,0,80,0,0
18371,-100,4,1,0,80,0,0
20345,-79.9999999999999,4,1,0,80,0,0
20424,-100,4,1,0,80,0,0
20818,-79.9999999999999,4,1,0,80,0,0
20897,-100,4,1,0,80,0,0
21608,-79.9999999999999,4,1,0,80,0,0
21687,-100,4,1,0,80,0,0
22082,-79.9999999999999,4,1,0,80,0,0
22161,-100,4,1,0,80,0,0
22871,-79.9999999999999,4,1,0,80,0,0
22950,-100,4,1,0,80,0,0
23345,-79.9999999999999,4,1,0,80,0,0
23424,-100,4,1,0,80,0,0
25397,-79.9999999999999,4,1,0,80,0,0
25476,-100,4,1,0,80,0,0
25871,-79.9999999999999,4,1,0,80,0,0
25950,-100,4,1,0,80,0,0
26661,-79.9999999999999,4,1,0,80,0,0
26740,-100,4,1,0,80,0,0
27134,-79.9999999999999,4,1,0,80,0,0
27213,-100,4,1,0,80,0,0
27924,-79.9999999999999,4,1,0,80,0,0
28003,-100,4,1,0,80,0,0
28397,-79.9999999999999,4,1,0,80,0,0
28476,-100,4,1,0,80,0,0
30450,-79.9999999999999,4,1,0,80,0,0
30529,-100,4,1,0,80,0,0
30631,-99.793144,4,1,0,80,0,0
30710,-99.63779,4,1,0,80,0,0
30789,-99.48267,4,1,0,80,0,0
30868,-99.32781,4,1,0,80,0,0
30947,-99.17318,4,1,0,80,0,0
31105,-98.86464,4,1,0,80,0,0
31263,-98.55707,4,1,0,80,0,0
31421,-98.25044,4,1,0,80,0,0
31579,-97.94478,4,1,0,80,0,0
31658,-97.792305,4,1,0,80,0,0
31736,-97.64199,4,1,0,80,0,0
31815,-97.489975,4,1,0,80,0,0
31894,-97.33821,4,1,0,80,0,0
32052,-97.035385,4,1,0,80,0,0
32210,-96.7335,4,1,0,80,0,0
32289,-96.58291,4,1,0,80,0,0
32368,-96.432556,4,1,0,80,0,0
32526,-96.13254,4,1,0,80,0,0
32684,-95.833466,4,1,0,80,0,0
32736,-95.73524,4,1,0,80,0,0
32789,-95.63523,4,1,0,80,0,0
32842,-95.535324,4,1,0,80,0,0
33000,-95.16457,4,1,0,80,0,0
33158,-93.672966,4,1,0,80,0,0
33236,-92.94523,4,1,0,80,0,0
33315,-92.21393,4,1,0,80,0,0
33473,-90.768555,4,1,0,80,0,0
33631,-89.34584,4,1,0,80,0,0
33789,-87.94542,4,1,0,80,0,0
33868,-87.25346,4,1,0,80,0,0
33947,-86.56695,4,1,0,80,0,0
34026,-85.88583,4,1,0,80,0,0
34105,-85.21008,4,1,0,80,0,0
34263,-83.87448,4,1,0,80,0,0
34342,-83.21456,4,1,0,80,0,0
34421,-82.559814,4,1,0,80,0,0
34500,-81.91023,4,1,0,80,0,0
34579,-81.26577,4,1,0,80,0,0
34631,-80.84433,4,1,0,80,0,0
34684,-80.41703,4,1,0,80,0,0
34736,-79.99999,4,1,0,80,0,0
34818,-100,4,1,0,60,0,0
34894,-86.95651,4,1,0,60,0,0
34973,-88.48902,4,1,0,60,0,0
35052,-90.04852,4,1,0,60,0,0
35131,-91.63552,4,1,0,60,0,0
35210,-93.25048,4,1,0,60,0,0
35289,-94.893906,4,1,0,60,0,0
35368,-96.566284,4,1,0,60,0,0
35421,-97.70474,4,1,0,60,0,0
35473,-98.83478,4,1,0,60,0,0
35503,-100,4,1,0,70,0,0
35526,-100,4,1,0,70,0,0
55713,-86.9565217391304,4,1,0,80,0,0
55766,-100,4,1,0,80,0,0
58424,-133.333333333333,4,1,0,50,0,0
60739,-100,4,1,0,100,0,0
60766,-86.9565217391304,4,1,0,80,0,0
60819,-100,4,1,0,80,0,0
63397,-133.333333333333,4,1,0,50,0,0
65792,-100,4,1,0,100,0,0
65818,-86.9565217391304,4,1,0,80,0,0
65871,-100,4,1,0,80,0,0
68529,-133.333333333333,4,1,0,50,0,0
70845,-100,4,1,0,100,0,0
70871,-86.9565217391304,4,1,0,80,0,0
70924,-100,4,1,0,80,0,0
73421,-100,4,1,0,80,0,0
73500,-99.3936,4,1,0,80,0,0
73579,-98.79086,4,1,0,80,0,0
73631,-98.39613,4,1,0,80,0,0
73684,-97.99542,4,1,0,80,0,0
73736,-97.60387,4,1,0,80,0,0
73894,-96.423706,4,1,0,80,0,0
73973,-95.83898,4,1,0,80,0,0
74052,-95.25781,4,1,0,80,0,0
74105,-94.86989,4,1,0,80,0,0
74158,-94.48354,4,1,0,80,0,0
74210,-94.106026,4,1,0,80,0,0
74368,-92.96815,4,1,0,80,0,0
74447,-92.40439,4,1,0,80,0,0
74526,-91.84405,4,1,0,80,0,0
74684,-90.73352,4,1,0,80,0,0
74763,-90.18331,4,1,0,80,0,0
74842,-89.63644,4,1,0,80,0,0
74894,-89.278275,4,1,0,80,0,0
74947,-88.9147,4,1,0,80,0,0
75000,-88.552605,4,1,0,80,0,0
75079,-88.015625,4,1,0,80,0,0
75158,-87.481895,4,1,0,80,0,0
75236,-86.95809,4,1,0,80,0,0
75315,-86.43078,4,1,0,80,0,0
75368,-86.0788,4,1,0,80,0,0
75421,-85.72825,4,1,0,80,0,0
75473,-85.38571,4,1,0,80,0,0
75552,-84.86793,4,1,0,80,0,0
75631,-84.35328,4,1,0,80,0,0
75710,-83.84176,4,1,0,80,0,0
75789,-83.333336,4,1,0,80,0,0
75924,-80,4,1,0,80,0,0
76029,-100,4,1,0,50,0,0
77211,-103.45866,4,1,0,50,0,0
78474,-107.27677,4,1,0,50,0,0
79737,-111.23578,4,1,0,50,0,0
79894,-111.73803,4,1,0,50,0,0
80052,-112.24575,4,1,0,50,0,0
80210,-112.755775,4,1,0,50,0,0
80368,-113.26812,4,1,0,50,0,0
80526,-113.7828,4,1,0,50,0,0
80684,-114.29982,4,1,0,50,0,0
80842,-114.81918,4,1,0,50,0,0
81000,-115.34091,4,1,0,50,0,0
82263,-119.597534,4,1,0,50,0,0
83368,-123.450294,4,1,0,50,0,0
83397,-123.73045,4,1,0,50,0,0
83450,-123.87122,4,1,0,50,0,0
83526,-124.011246,4,1,0,50,0,0
84316,-127.42719,4,1,0,50,0,0
84790,-128.59152,4,1,0,50,0,0
86052,-133.33333,4,1,0,50,0,0
96134,-79.9999999999999,4,1,0,80,0,0
96187,-100,4,1,0,80,0,0
96608,-79.9999999999999,4,1,0,80,0,0
96661,-100,4,1,0,80,0,0
97397,-79.9999999999999,4,1,0,80,0,0
97450,-100,4,1,0,80,0,0
97871,-79.9999999999999,4,1,0,80,0,0
97924,-100,4,1,0,80,0,0
98661,-79.9999999999999,4,1,0,80,0,0
98714,-100,4,1,0,80,0,0
99134,-79.9999999999999,4,1,0,80,0,0
99187,-100,4,1,0,80,0,0
101187,-79.9999999999999,4,1,0,80,0,0
101240,-100,4,1,0,80,0,0
101368,-99.74457,4,1,0,80,0,0
101447,-99.590836,4,1,0,80,0,0
101526,-99.43735,4,1,0,80,0,0
101684,-99.13108,4,1,0,80,0,0
101842,-98.82576,4,1,0,80,0,0
102000,-98.52137,4,1,0,80,0,0
102158,-98.21792,4,1,0,80,0,0
102236,-98.06847,4,1,0,80,0,0
102315,-97.91732,4,1,0,80,0,0
102394,-97.7664,4,1,0,80,0,0
102473,-97.61573,4,1,0,80,0,0
102631,-97.31507,4,1,0,80,0,0
102789,-97.01534,4,1,0,80,0,0
102947,-96.71654,4,1,0,80,0,0
103026,-96.567474,4,1,0,80,0,0
103105,-96.41864,4,1,0,80,0,0
103263,-96.12168,4,1,0,80,0,0
103421,-95.825615,4,1,0,80,0,0
103473,-95.72838,4,1,0,80,0,0
103526,-95.62938,4,1,0,80,0,0
103579,-95.53047,4,1,0,80,0,0
103736,-95.213974,4,1,0,80,0,0
103894,-93.95247,4,1,0,80,0,0
103973,-93.32799,4,1,0,80,0,0
104052,-92.70767,4,1,0,80,0,0
104210,-91.47935,4,1,0,80,0,0
104368,-90.26732,4,1,0,80,0,0
104447,-89.667336,4,1,0,80,0,0
104526,-89.07134,4,1,0,80,0,0
104605,-88.47931,4,1,0,80,0,0
104684,-87.89121,4,1,0,80,0,0
104763,-87.30702,4,1,0,80,0,0
104842,-86.726715,4,1,0,80,0,0
104921,-86.15026,4,1,0,80,0,0
105000,-85.57765,4,1,0,80,0,0
105079,-85.00884,4,1,0,80,0,0
105158,-84.44381,4,1,0,80,0,0
105236,-83.88962,4,1,0,80,0,0
105315,-83.33202,4,1,0,80,0,0
105394,-82.77814,4,1,0,80,0,0
105473,-82.227936,4,1,0,80,0,0
105552,-81.6814,4,1,0,80,0,0
105631,-81.13847,4,1,0,80,0,0
105684,-80.776276,4,1,0,80,0,0
105736,-80.42246,4,1,0,80,0,0
105789,-80.06345,4,1,0,80,0,0
105868,-79.53129,4,1,0,80,0,0
105947,-79.00267,4,1,0,80,0,0
106000,-78.649994,4,1,0,80,0,0
106052,-78.305504,4,1,0,80,0,0
106105,-77.95595,4,1,0,80,0,0
106158,-77.60794,4,1,0,80,0,0
106210,-77.26801,4,1,0,80,0,0
106263,-76.92308,4,1,0,80,0,0
106424,-133.333333333333,4,1,0,70,0,0
108789,-133.33333,4,1,0,70,0,0
108868,-131.22137,4,1,0,71,0,0
108947,-129.14288,4,1,0,71,0,0
109026,-127.0973,4,1,0,72,0,0
109105,-125.084114,4,1,0,73,0,0
109184,-123.10282,4,1,0,73,0,0
109263,-121.15292,4,1,0,74,0,0
109342,-119.23392,4,1,0,74,0,0
109421,-117.345276,4,1,0,75,0,0
109500,-115.48657,4,1,0,76,0,0
109579,-113.65732,4,1,0,76,0,0
109658,-111.857025,4,1,0,77,0,0
109736,-110.107506,4,1,0,77,0,0
109815,-108.363434,4,1,0,78,0,0
109894,-106.646996,4,1,0,79,0,0
109973,-104.95774,4,1,0,79,0,0
110052,-103.29525,4,1,0,80,0,0
110131,-101.6591,4,1,0,81,0,0
110210,-100.04885,4,1,0,81,0,0
110289,-98.46412,4,1,0,82,0,0
110368,-96.90447,4,1,0,82,0,0
110447,-95.369545,4,1,0,83,0,0
110526,-93.85892,4,1,0,84,0,0
110605,-92.37223,4,1,0,84,0,0
110684,-90.90909,4,1,0,85,0,0
111000,-111.1111,4,1,0,85,0,0
111079,-107.522484,4,1,0,85,0,0
111158,-104.15841,4,1,0,85,0,0
111210,-102.05665,4,1,0,85,0,0
111263,-100,4,1,0,85,0,0
111318,-80,4,1,0,100,0,1
111345,-86.9565217391304,4,1,0,100,0,1
121424,-86.9565217391304,4,1,0,100,0,0
121503,-133.333333333333,4,1,0,100,0,0
122371,-80,4,1,0,100,0,1
122661,-86.9565217391304,4,1,0,100,0,1
128976,-80,4,1,0,100,0,1
129158,-93.023254,4,1,0,100,0,1
129210,-92.36536,4,1,0,100,0,1
129263,-91.699585,4,1,0,100,0,1
129315,-91.05105,4,1,0,100,0,1
129394,-90.07455,4,1,0,100,0,1
129473,-89.1085,4,1,0,100,0,1
129526,-88.4662,4,1,0,100,0,1
129579,-87.82855,4,1,0,100,0,1
129631,-87.20739,4,1,0,100,0,1
129710,-86.27211,4,1,0,100,0,1
129789,-85.34684,4,1,0,100,0,1
129842,-84.73167,4,1,0,100,0,1
129894,-84.1324,4,1,0,100,0,1
129947,-83.52599,4,1,0,100,0,1
130000,-82.6446280991736,4,1,0,100,0,1
130052,-82.33747,4,1,0,100,0,1
130105,-81.74398,4,1,0,100,0,1
130158,-81.15478,4,1,0,100,0,1
130210,-80.580826,4,1,0,100,0,1
130263,-79.99999,4,1,0,100,0,1
130421,-90.90909,4,1,0,100,0,1
130579,-95.59372,4,1,0,100,0,1
130736,-100.48781,4,1,0,100,0,1
130815,-103.044395,4,1,0,100,0,1
130894,-105.66604,4,1,0,100,0,1
131052,-111.11111,4,1,0,100,0,1
131187,-100,4,1,0,100,0,1
131503,-80,4,1,0,100,0,1
131529,-80,4,1,0,100,0,0
131582,-95.2380952380952,4,1,0,90,0,0
139082,-80,4,1,0,90,0,0
139134,-95.2380952380952,4,1,0,90,0,0
139263,-100,4,1,0,90,0,0
139342,-99.174225,4,1,0,90,0,0
139421,-98.35525,4,1,0,90,0,0
139579,-96.73756,4,1,0,90,0,0
139658,-95.93872,4,1,0,90,0,0
139736,-95.156456,4,1,0,90,0,0
139815,-94.370674,4,1,0,90,0,0
139894,-93.59138,4,1,0,90,0,0
139973,-92.81852,4,1,0,90,0,0
140052,-92.05203,4,1,0,90,0,0
140210,-90.53802,4,1,0,90,0,0
140289,-89.79036,4,1,0,90,0,0
140368,-89.0489,4,1,0,90,0,0
140447,-88.313545,4,1,0,90,0,0
140526,-87.58427,4,1,0,90,0,0
140605,-86.86101,4,1,0,90,0,0
140684,-86.14372,4,1,0,90,0,0
140763,-85.432365,4,1,0,90,0,0
140842,-84.72688,4,1,0,90,0,0
140921,-84.02722,4,1,0,90,0,0
141000,-83.333336,4,1,0,90,0,0
141634,-76.9230769230769,4,1,0,100,0,1
141661,-95.2380952380952,4,1,0,100,0,1
142082,-76.9230769230769,4,1,0,100,0,1
142134,-95.2380952380952,4,1,0,100,0,1
142871,-76.9230769230769,4,1,0,100,0,1
142923,-95.2380952380952,4,1,0,100,0,1
143345,-76.9230769230769,4,1,0,100,0,1
143397,-95.2380952380952,4,1,0,100,0,1
144134,-76.9230769230769,4,1,0,100,0,1
144186,-95.2380952380952,4,1,0,100,0,1
144608,-76.9230769230769,4,1,0,100,0,1
144660,-95.2380952380952,4,1,0,100,0,1
145397,-76.9230769230769,4,1,0,100,0,1
145449,-95.2380952380952,4,1,0,100,0,1
145871,-76.9230769230769,4,1,0,100,0,1
145923,-95.2380952380952,4,1,0,100,0,1
146661,-76.9230769230769,4,1,0,100,0,1
146713,-95.2380952380952,4,1,0,100,0,1
147134,-76.9230769230769,4,1,0,100,0,1
147186,-95.2380952380952,4,1,0,100,0,1
147924,-76.9230769230769,4,1,0,100,0,1
147976,-95.2380952380952,4,1,0,100,0,1
148397,-76.9230769230769,4,1,0,100,0,1
148449,-95.2380952380952,4,1,0,100,0,1
149210,-86.95651,4,1,0,100,0,1
149289,-86.45976,4,1,0,100,0,1
149368,-85.96584,4,1,0,100,0,1
149421,-85.636055,4,1,0,100,0,1
149473,-85.31373,4,1,0,100,0,1
149526,-84.98644,4,1,0,100,0,1
149605,-84.50093,4,1,0,100,0,1
149684,-84.0182,4,1,0,100,0,1
149763,-83.53822,4,1,0,100,0,1
149842,-83.061005,4,1,0,100,0,1
149894,-82.74837,4,1,0,100,0,1
149947,-82.43092,4,1,0,100,0,1
150000,-82.1147,4,1,0,100,0,1
150079,-81.64561,4,1,0,100,0,1
150158,-81.179184,4,1,0,100,0,1
150236,-80.72128,4,1,0,100,0,1
150315,-80.26015,4,1,0,100,0,1
150394,-79.80164,4,1,0,100,0,1
150473,-79.34575,4,1,0,100,0,1
150526,-79.04136,4,1,0,100,0,1
150579,-78.73815,4,1,0,100,0,1
150631,-78.44178,4,1,0,100,0,1
150684,-78.14086,4,1,0,100,0,1
150736,-77.84675,4,1,0,100,0,1
150789,-77.5481,4,1,0,100,0,1
150868,-77.105095,4,1,0,100,0,1
150947,-76.664604,4,1,0,100,0,1
151000,-76.370514,4,1,0,100,0,1
151052,-76.08306,4,1,0,100,0,1
151105,-75.79118,4,1,0,100,0,1
151158,-75.500435,4,1,0,100,0,1
151210,-75.216255,4,1,0,100,0,1
151263,-74.92771,4,1,0,100,0,1
151342,-74.499664,4,1,0,100,0,1
151421,-74.07407,4,1,0,100,0,1
151739,-66.6666666666667,4,1,0,100,0,0
152052,-90.90909,4,1,0,100,0,0
152526,-92.61056,4,1,0,98,0,0
152842,-93.76253,4,1,0,96,0,0
153000,-94.34388,4,1,0,95,0,0
153158,-94.92884,4,1,0,94,0,0
153315,-95.51368,4,1,0,94,0,0
153473,-96.10589,4,1,0,93,0,0
153789,-97.30134,4,1,0,91,0,0
154105,-98.51165,4,1,0,90,0,0
154263,-99.12245,4,1,0,89,0,0
154421,-99.73703,4,1,0,88,0,0
154579,-100.35542,4,1,0,87,0,0
154894,-101.59976,4,1,0,85,0,0
155052,-102.2297,4,1,0,85,0,0
155368,-103.50133,4,1,0,83,0,0
155526,-104.14305,4,1,0,82,0,0
155684,-104.788765,4,1,0,81,0,0
156000,-106.09223,4,1,0,80,0,0
156315,-107.407684,4,1,0,78,0,0
156394,-107.74015,4,1,0,78,0,0
156473,-108.07364,4,1,0,77,0,0
156631,-108.74372,4,1,0,77,0,0
156789,-109.41795,4,1,0,76,0,0
156947,-110.09637,4,1,0,75,0,0
157263,-111.46584,4,1,0,73,0,0
157342,-111.81087,4,1,0,73,0,0
157421,-112.15697,4,1,0,73,0,0
157579,-112.85236,4,1,0,72,0,0
157736,-113.54764,4,1,0,71,0,0
157894,-114.251656,4,1,0,70,0,0
158053,-114.96453,4,1,0,69,0,0
158210,-115.67282,4,1,0,69,0,0
158526,-117.11165,4,1,0,67,0,0
158842,-118.5684,4,1,0,65,0,0
159000,-119.30354,4,1,0,65,0,0
159158,-120.04324,4,1,0,64,0,0
159316,-120.787544,4,1,0,63,0,0
159473,-121.53171,4,1,0,62,0,0
159631,-122.285225,4,1,0,61,0,0
159789,-123.04343,4,1,0,60,0,0
159868,-123.42428,4,1,0,60,0,0
159947,-123.80631,4,1,0,60,0,0
160105,-124.573944,4,1,0,59,0,0
160263,-125.34634,4,1,0,58,0,0
160421,-126.123505,4,1,0,57,0,0
160579,-126.9055,4,1,0,56,0,0
160736,-127.68734,4,1,0,56,0,0
160815,-128.08257,4,1,0,55,0,0
160894,-128.47903,4,1,0,55,0,0
160973,-128.87672,4,1,0,54,0,0
161052,-129.27563,4,1,0,54,0,0
161131,-129.67578,4,1,0,54,0,0
161210,-130.07718,4,1,0,53,0,0
161289,-130.47981,4,1,0,53,0,0
161368,-130.8837,4,1,0,52,0,0
161447,-131.2888,4,1,0,52,0,0
161526,-131.69519,4,1,0,52,0,0
161631,-132.23727,4,1,0,51,0,0
161736,-132.78156,4,1,0,51,0,0
161842,-133.33333,4,1,0,50,0,0

[HitObjects]
352,128,5213,5,8,0:0:0:0:
352,128,5371,1,8,0:0:0:0:
160,128,5529,1,0,0:0:0:0:
160,128,5687,1,0,0:0:0:0:
352,128,6161,1,8,0:0:0:0:
352,128,6318,1,8,0:0:0:0:
160,128,6476,1,0,0:0:0:0:
160,128,6634,1,0,0:0:0:0:
352,128,7739,1,8,0:0:0:0:
352,128,7897,1,8,0:0:0:0:
160,128,8055,1,0,0:0:0:0:
160,128,8213,1,0,0:0:0:0:
352,128,8687,1,8,0:0:0:0:
352,128,8845,1,8,0:0:0:0:
160,128,9003,1,0,0:0:0:0:
352,128,9161,1,8,0:0:0:0:
352,128,10266,1,8,0:0:0:0:
160,128,10424,1,0,0:0:0:0:
352,128,10582,1,8,0:0:0:0:
160,128,10739,1,0,0:0:0:0:
352,128,11213,1,8,0:0:0:0:
160,128,11371,1,0,0:0:0:0:
352,128,11529,1,8,0:0:0:0:
160,128,11687,1,0,0:0:0:0:
160,128,12634,1,0,0:0:0:0:
160,128,12687,1,0,0:0:0:0:
160,128,12739,1,0,0:0:0:0:
352,128,12792,1,8,0:0:0:0:
160,128,12950,1,0,0:0:0:0:
160,128,13108,1,0,0:0:0:0:
352,128,13266,1,8,0:0:0:0:
160,128,13582,1,0,0:0:0:0:
160,128,13634,1,0,0:0:0:0:
160,128,13687,1,0,0:0:0:0:
352,128,13739,1,8,0:0:0:0:
160,128,13897,1,0,0:0:0:0:
160,128,14055,1,0,0:0:0:0:
352,128,14213,1,8,0:0:0:0:
160,128,14371,1,0,0:0:0:0:
352,128,14424,1,8,0:0:0:0:
352,128,14476,1,8,0:0:0:0:
160,128,14529,1,0,0:0:0:0:
352,128,14608,1,8,0:0:0:0:
352,128,14687,1,8,0:0:0:0:
160,128,14766,1,0,0:0:0:0:
160,128,14845,1,0,0:0:0:0:
352,128,14924,1,8,0:0:0:0:
352,128,15003,1,8,0:0:0:0:
160,128,15082,1,0,0:0:0:0:
352,128,15161,1,8,0:0:0:0:
352,128,15239,1,8,0:0:0:0:
160,256,15318,1,4,0:0:0:0:
160,128,15634,1,0,0:0:0:0:
160,128,15713,1,0,0:0:0:0:
352,256,15792,1,12,0:0:0:0:
160,128,16108,1,0,0:0:0:0:
352,128,16266,1,8,0:0:0:0:
352,128,16424,1,8,0:0:0:0:
160,256,16582,1,4,0:0:0:0:
352,128,16739,1,8,0:0:0:0:
160,128,16897,1,0,0:0:0:0:
160,128,16976,1,0,0:0:0:0:
352,256,17055,1,12,0:0:0:0:
160,128,17371,1,0,0:0:0:0:
352,128,17529,1,8,0:0:0:0:
160,128,17687,1,0,0:0:0:0:
352,256,17845,1,12,0:0:0:0:
352,128,18003,1,8,0:0:0:0:
160,128,18161,1,0,0:0:0:0:
160,128,18239,1,0,0:0:0:0:
352,256,18318,1,12,0:0:0:0:
160,128,18634,1,0,0:0:0:0:
352,128,18792,1,8,0:0:0:0:
352,128,18950,1,8,0:0:0:0:
160,128,19108,1,0,0:0:0:0:
352,128,19266,1,8,0:0:0:0:
352,128,19345,1,8,0:0:0:0:
160,128,19424,1,0,0:0:0:0:
160,128,19503,1,0,0:0:0:0:
160,128,19582,1,0,0:0:0:0:
352,128,19661,1,8,0:0:0:0:
160,128,19739,1,0,0:0:0:0:
160,128,19818,1,0,0:0:0:0:
352,128,19897,1,8,0:0:0:0:
352,128,19976,1,8,0:0:0:0:
160,128,20055,1,0,0:0:0:0:
160,128,20213,1,0,0:0:0:0:
352,256,20371,1,12,0:0:0:0:
352,128,20687,1,8,0:0:0:0:
352,128,20766,1,8,0:0:0:0:
160,256,20845,1,4,0:0:0:0:
160,128,21161,1,0,0:0:0:0:
352,128,21318,1,8,0:0:0:0:
160,128,21397,1,0,0:0:0:0:
352,128,21476,1,8,0:0:0:0:
160,256,21634,1,4,0:0:0:0:
352,128,21792,1,8,0:0:0:0:
160,128,21950,1,0,0:0:0:0:
160,128,22029,1,0,0:0:0:0:
352,256,22108,1,12,0:0:0:0:
160,128,22424,1,0,0:0:0:0:
352,128,22582,1,8,0:0:0:0:
160,128,22739,1,0,0:0:0:0:
160,128,22792,1,0,0:0:0:0:
160,128,22845,1,0,0:0:0:0:
352,256,22897,1,12,0:0:0:0:
352,128,23055,1,8,0:0:0:0:
160,128,23213,1,0,0:0:0:0:
160,128,23292,1,0,0:0:0:0:
352,256,23371,1,12,0:0:0:0:
160,128,23687,1,0,0:0:0:0:
160,128,23739,1,0,0:0:0:0:
160,128,23792,1,0,0:0:0:0:
352,128,23845,1,8,0:0:0:0:
352,128,24003,1,8,0:0:0:0:
160,128,24161,1,0,0:0:0:0:
352,128,24318,1,8,0:0:0:0:
160,128,24634,1,0,0:0:0:0:
160,128,24713,1,0,0:0:0:0:
352,128,24792,1,8,0:0:0:0:
160,128,24871,1,0,0:0:0:0:
352,128,24950,1,8,0:0:0:0:
352,128,25029,1,8,0:0:0:0:
160,128,25108,1,0,0:0:0:0:
352,128,25187,1,8,0:0:0:0:
352,128,25266,1,8,0:0:0:0:
352,128,25345,1,8,0:0:0:0:
160,256,25424,1,4,0:0:0:0:
160,128,25582,1,0,0:0:0:0:
352,128,25739,1,8,0:0:0:0:
352,128,25818,1,8,0:0:0:0:
160,256,25897,1,4,0:0:0:0:
160,128,26213,1,0,0:0:0:0:
160,128,26292,1,0,0:0:0:0:
352,128,26371,1,8,0:0:0:0:
160,128,26450,1,0,0:0:0:0:
352,128,26529,1,8,0:0:0:0:
160,256,26687,1,4,0:0:0:0:
352,128,26845,1,8,0:0:0:0:
160,128,27003,1,0,0:0:0:0:
160,128,27082,1,0,0:0:0:0:
352,256,27161,1,12,0:0:0:0:
160,128,27476,1,0,0:0:0:0:
352,128,27634,1,8,0:0:0:0:
160,128,27792,1,0,0:0:0:0:
352,256,27950,1,12,0:0:0:0:
352,128,28108,1,8,0:0:0:0:
160,128,28266,1,0,0:0:0:0:
160,128,28345,1,0,0:0:0:0:
352,256,28424,1,12,0:0:0:0:
160,128,28739,1,0,0:0:0:0:
160,128,28818,1,0,0:0:0:0:
352,128,28897,1,8,0:0:0:0:
160,128,28976,1,0,0:0:0:0:
352,128,29055,1,8,0:0:0:0:
352,128,29134,1,8,0:0:0:0:
160,128,29213,1,0,0:0:0:0:
352,128,29371,1,8,0:0:0:0:
352,128,29450,1,8,0:0:0:0:
160,128,29529,1,0,0:0:0:0:
160,128,29608,1,0,0:0:0:0:
160,128,29687,1,0,0:0:0:0:
352,128,29766,1,8,0:0:0:0:
160,128,29845,1,0,0:0:0:0:
160,128,29924,1,0,0:0:0:0:
352,128,30003,1,8,0:0:0:0:
352,128,30082,1,8,0:0:0:0:
160,128,30161,1,0,0:0:0:0:
352,128,30239,1,8,0:0:0:0:
160,128,30318,1,0,0:0:0:0:
160,128,30397,1,0,0:0:0:0:
352,256,30476,1,12,0:0:0:0:
160,128,30634,1,0,0:0:0:0:
160,128,30713,1,0,0:0:0:0:
352,128,30792,1,8,0:0:0:0:
160,128,30871,1,0,0:0:0:0:
352,128,30950,1,8,0:0:0:0:
160,128,31108,1,0,0:0:0:0:
160,128,31266,1,0,0:0:0:0:
352,128,31424,1,8,0:0:0:0:
160,128,31582,1,0,0:0:0:0:
160,128,31661,1,0,0:0:0:0:
352,128,31739,1,8,0:0:0:0:
160,128,31818,1,0,0:0:0:0:
352,128,31897,1,8,0:0:0:0:
160,128,32055,1,0,0:0:0:0:
160,128,32213,1,0,0:0:0:0:
352,128,32292,1,8,0:0:0:0:
160,128,32371,1,0,0:0:0:0:
352,128,32529,1,8,0:0:0:0:
160,128,32687,1,0,0:0:0:0:
160,128,32739,1,0,0:0:0:0:
160,128,32792,1,0,0:0:0:0:
160,128,32845,1,0,0:0:0:0:
352,128,33003,1,8,0:0:0:0:
160,128,33161,1,0,0:0:0:0:
160,128,33239,1,0,0:0:0:0:
352,128,33318,1,8,0:0:0:0:
352,128,33476,1,8,0:0:0:0:
160,128,33634,1,0,0:0:0:0:
352,128,33792,1,8,0:0:0:0:
160,128,33871,1,0,0:0:0:0:
352,128,33950,1,8,0:0:0:0:
352,128,34029,1,8,0:0:0:0:
160,128,34108,1,0,0:0:0:0:
352,128,34266,1,8,0:0:0:0:
160,128,34345,1,0,0:0:0:0:
352,128,34424,1,8,0:0:0:0:
160,128,34503,1,0,0:0:0:0:
352,128,34582,1,8,0:0:0:0:
160,128,34634,1,0,0:0:0:0:
160,128,34687,1,0,0:0:0:0:
352,128,34739,1,8,0:0:0:0:
160,128,34897,1,0,0:0:0:0:
352,128,34976,1,8,0:0:0:0:
352,128,35055,1,8,0:0:0:0:
160,128,35134,1,0,0:0:0:0:
352,128,35213,1,8,0:0:0:0:
160,128,35292,1,0,0:0:0:0:
352,128,35371,1,8,0:0:0:0:
352,128,35424,1,8,0:0:0:0:
352,128,35476,1,8,0:0:0:0:
160,256,35529,1,4,0:0:0:0:
160,128,35687,1,0,0:0:0:0:
352,128,35845,1,8,0:0:0:0:
160,128,36003,1,0,0:0:0:0:
352,128,36082,1,8,0:0:0:0:
160,128,36161,1,0,0:0:0:0:
352,128,36318,1,8,0:0:0:0:
160,128,36476,1,0,0:0:0:0:
160,128,36555,1,0,0:0:0:0:
352,128,36634,1,8,0:0:0:0:
352,128,36713,1,8,0:0:0:0:
160,128,36792,1,0,0:0:0:0:
160,128,36950,1,0,0:0:0:0:
352,128,37108,1,8,0:0:0:0:
160,128,37266,1,0,0:0:0:0:
352,128,37345,1,8,0:0:0:0:
160,128,37424,1,0,0:0:0:0:
160,128,37503,1,0,0:0:0:0:
352,128,37582,1,8,0:0:0:0:
160,128,37739,1,0,0:0:0:0:
352,128,37818,1,8,0:0:0:0:
352,128,37897,1,8,0:0:0:0:
352,128,37976,1,8,0:0:0:0:
160,128,38055,1,0,0:0:0:0:
160,128,38213,1,0,0:0:0:0:
352,128,38371,1,8,0:0:0:0:
160,128,38529,1,0,0:0:0:0:
160,128,38608,1,0,0:0:0:0:
352,128,38687,1,8,0:0:0:0:
160,128,38766,1,0,0:0:0:0:
352,128,38845,1,8,0:0:0:0:
160,128,39003,1,0,0:0:0:0:
160,128,39082,1,0,0:0:0:0:
352,128,39161,1,8,0:0:0:0:
160,128,39318,1,0,0:0:0:0:
352,128,39476,1,8,0:0:0:0:
160,128,39555,1,0,0:0:0:0:
352,128,39634,1,8,0:0:0:0:
160,128,39792,1,0,0:0:0:0:
352,128,39871,1,8,0:0:0:0:
352,128,39950,1,8,0:0:0:0:
160,128,40029,1,0,0:0:0:0:
160,128,40108,1,0,0:0:0:0:
352,128,40187,1,8,0:0:0:0:
160,128,40266,1,0,0:0:0:0:
352,128,40345,1,8,0:0:0:0:
352,128,40424,1,8,0:0:0:0:
352,128,40503,1,8,0:0:0:0:
160,128,40582,1,0,0:0:0:0:
160,128,40739,1,0,0:0:0:0:
352,128,40897,1,8,0:0:0:0:
160,128,41055,1,0,0:0:0:0:
160,128,41134,1,0,0:0:0:0:
352,128,41213,1,8,0:0:0:0:
352,128,41292,1,8,0:0:0:0:
160,128,41371,1,0,0:0:0:0:
160,128,41529,1,0,0:0:0:0:
160,128,41608,1,0,0:0:0:0:
352,128,41687,1,8,0:0:0:0:
160,128,41845,1,0,0:0:0:0:
160,128,42003,1,0,0:0:0:0:
352,128,42161,1,8,0:0:0:0:
160,128,42318,1,0,0:0:0:0:
352,128,42397,1,8,0:0:0:0:
160,128,42476,1,0,0:0:0:0:
160,128,42555,1,0,0:0:0:0:
352,128,42634,1,8,0:0:0:0:
160,128,42792,1,0,0:0:0:0:
352,128,42871,1,8,0:0:0:0:
160,128,42950,1,0,0:0:0:0:
352,128,43029,1,8,0:0:0:0:
160,128,43108,1,0,0:0:0:0:
160,128,43187,1,0,0:0:0:0:
352,128,43266,1,8,0:0:0:0:
352,128,43424,1,8,0:0:0:0:
160,128,43582,1,0,0:0:0:0:
160,128,43661,1,0,0:0:0:0:
352,128,43739,1,8,0:0:0:0:
160,128,43818,1,0,0:0:0:0:
352,128,43897,1,8,0:0:0:0:
160,128,44055,1,0,0:0:0:0:
160,128,44134,1,0,0:0:0:0:
352,128,44213,1,8,0:0:0:0:
352,128,44292,1,8,0:0:0:0:
160,128,44371,1,0,0:0:0:0:
352,128,44450,1,8,0:0:0:0:
160,128,44529,1,0,0:0:0:0:
352,128,44687,1,8,0:0:0:0:
160,128,44845,1,0,0:0:0:0:
352,128,44924,1,8,0:0:0:0:
352,128,45003,1,8,0:0:0:0:
160,128,45082,1,0,0:0:0:0:
352,128,45161,1,8,0:0:0:0:
160,128,45239,1,0,0:0:0:0:
352,128,45318,1,8,0:0:0:0:
352,128,45424,1,8,0:0:0:0:
352,128,45529,1,8,0:0:0:0:
160,256,45634,1,4,0:0:0:0:
160,128,45792,1,0,0:0:0:0:
352,128,45950,1,8,0:0:0:0:
160,128,46108,1,0,0:0:0:0:
352,128,46187,1,8,0:0:0:0:
160,128,46266,1,0,0:0:0:0:
352,128,46424,1,8,0:0:0:0:
160,128,46582,1,0,0:0:0:0:
160,128,46661,1,0,0:0:0:0:
352,128,46739,1,8,0:0:0:0:
160,128,46897,1,0,0:0:0:0:
160,128,46976,1,0,0:0:0:0:
160,128,47055,1,0,0:0:0:0:
352,128,47213,1,8,0:0:0:0:
160,128,47371,1,0,0:0:0:0:
352,128,47450,1,8,0:0:0:0:
160,128,47529,1,0,0:0:0:0:
160,128,47608,1,0,0:0:0:0:
352,128,47687,1,8,0:0:0:0:
160,128,47845,1,0,0:0:0:0:
352,128,47924,1,8,0:0:0:0:
160,128,48003,1,0,0:0:0:0:
160,128,48082,1,0,0:0:0:0:
160,128,48161,1,0,0:0:0:0:
352,128,48318,1,8,0:0:0:0:
160,128,48397,1,0,0:0:0:0:
352,128,48476,1,8,0:0:0:0:
160,128,48634,1,0,0:0:0:0:
160,128,48713,1,0,0:0:0:0:
352,128,48792,1,8,0:0:0:0:
160,128,48871,1,0,0:0:0:0:
352,128,48950,1,8,0:0:0:0:
160,128,49108,1,0,0:0:0:0:
160,128,49187,1,0,0:0:0:0:
352,128,49266,1,8,0:0:0:0:
352,128,49345,1,8,0:0:0:0:
160,128,49424,1,0,0:0:0:0:
352,128,49582,1,8,0:0:0:0:
352,128,49739,1,8,0:0:0:0:
160,128,49897,1,0,0:0:0:0:
352,128,49976,1,8,0:0:0:0:
352,128,50055,1,8,0:0:0:0:
160,128,50134,1,0,0:0:0:0:
160,128,50213,1,0,0:0:0:0:
160,128,50292,1,0,0:0:0:0:
352,128,50371,1,8,0:0:0:0:
160,128,50450,1,0,0:0:0:0:
352,128,50529,1,8,0:0:0:0:
352,128,50608,1,8,0:0:0:0:
160,128,50687,1,0,0:0:0:0:
352,128,50766,1,8,0:0:0:0:
160,128,50845,1,0,0:0:0:0:
352,128,51003,1,8,0:0:0:0:
160,128,51161,1,0,0:0:0:0:
352,128,51239,1,8,0:0:0:0:
352,128,51318,1,8,0:0:0:0:
160,128,51397,1,0,0:0:0:0:
160,128,51476,1,0,0:0:0:0:
352,128,51634,1,8,0:0:0:0:
160,128,51713,1,0,0:0:0:0:
352,128,51792,1,8,0:0:0:0:
352,128,51871,1,8,0:0:0:0:
160,128,51950,1,0,0:0:0:0:
160,128,52108,1,0,0:0:0:0:
352,128,52266,1,8,0:0:0:0:
160,128,52424,1,0,0:0:0:0:
352,128,52503,1,8,0:0:0:0:
160,128,52582,1,0,0:0:0:0:
160,128,52661,1,0,0:0:0:0:
352,128,52739,1,8,0:0:0:0:
352,128,52897,1,8,0:0:0:0:
160,128,52976,1,0,0:0:0:0:
352,128,53055,1,8,0:0:0:0:
160,128,53213,1,0,0:0:0:0:
352,128,53371,1,8,0:0:0:0:
160,128,53529,1,0,0:0:0:0:
352,128,53687,1,8,0:0:0:0:
160,128,53766,1,0,0:0:0:0:
160,128,53845,1,0,0:0:0:0:
160,128,54003,1,0,0:0:0:0:
352,128,54161,1,8,0:0:0:0:
160,128,54239,1,0,0:0:0:0:
352,128,54318,1,8,0:0:0:0:
352,128,54397,1,8,0:0:0:0:
160,128,54476,1,0,0:0:0:0:
160,128,54634,1,0,0:0:0:0:
352,128,54713,1,8,0:0:0:0:
352,128,54792,1,8,0:0:0:0:
160,128,54871,1,0,0:0:0:0:
160,128,54950,1,0,0:0:0:0:
160,128,55029,1,0,0:0:0:0:
352,128,55108,1,8,0:0:0:0:
352,128,55187,1,8,0:0:0:0:
160,128,55266,1,0,0:0:0:0:
160,128,55345,1,0,0:0:0:0:
352,128,55424,1,8,0:0:0:0:
352,128,55503,1,8,0:0:0:0:
160,128,55582,1,0,0:0:0:0:
352,256,55739,1,12,0:0:0:0:
160,128,55897,1,0,0:0:0:0:
352,128,55950,1,8,0:0:0:0:
160,128,56003,1,0,0:0:0:0:
160,128,56055,1,0,0:0:0:0:
352,128,56213,1,8,0:0:0:0:
160,128,56371,1,0,0:0:0:0:
352,128,56424,1,8,0:0:0:0:
160,128,56476,1,0,0:0:0:0:
160,128,56529,1,0,0:0:0:0:
352,128,56687,1,8,0:0:0:0:
160,128,56766,1,0,0:0:0:0:
352,128,56845,1,8,0:0:0:0:
160,128,57003,1,0,0:0:0:0:
160,128,57161,1,0,0:0:0:0:
160,128,57239,1,0,0:0:0:0:
352,128,57318,1,8,0:0:0:0:
160,128,57476,1,0,0:0:0:0:
352,128,57555,1,8,0:0:0:0:
160,128,57634,1,0,0:0:0:0:
352,128,57792,1,8,0:0:0:0:
160,128,57950,1,0,0:0:0:0:
160,128,58029,1,0,0:0:0:0:
160,128,58108,1,0,0:0:0:0:
160,128,58187,1,0,0:0:0:0:
352,128,58266,1,8,0:0:0:0:
352,128,58582,1,8,0:0:0:0:
160,128,58739,1,0,0:0:0:0:
160,128,58818,1,0,0:0:0:0:
352,128,58897,1,8,0:0:0:0:
160,128,59055,1,0,0:0:0:0:
352,128,59134,1,8,0:0:0:0:
160,128,59213,1,0,0:0:0:0:
352,128,59371,1,8,0:0:0:0:
160,128,59424,1,0,0:0:0:0:
160,128,59476,1,0,0:0:0:0:
352,128,59529,1,8,0:0:0:0:
160,128,59687,1,0,0:0:0:0:
352,128,59739,1,8,0:0:0:0:
352,128,59792,1,8,0:0:0:0:
160,128,59845,1,0,0:0:0:0:
352,128,60003,1,8,0:0:0:0:
352,128,60055,1,8,0:0:0:0:
352,128,60108,1,8,0:0:0:0:
160,128,60161,1,0,0:0:0:0:
160,128,60318,1,0,0:0:0:0:
352,128,60476,1,8,0:0:0:0:
352,128,60634,1,8,0:0:0:0:
352,256,60792,1,12,0:0:0:0:
352,128,60950,1,8,0:0:0:0:
160,128,61003,1,0,0:0:0:0:
352,128,61055,1,8,0:0:0:0:
160,128,61108,1,0,0:0:0:0:
352,128,61266,1,8,0:0:0:0:
352,128,61424,1,8,0:0:0:0:
160,128,61476,1,0,0:0:0:0:
352,128,61529,1,8,0:0:0:0:
160,128,61582,1,0,0:0:0:0:
160,128,61739,1,0,0:0:0:0:
160,128,61818,1,0,0:0:0:0:
352,128,61897,1,8,0:0:0:0:
160,128,62055,1,0,0:0:0:0:
352,128,62213,1,8,0:0:0:0:
160,128,62371,1,0,0:0:0:0:
352,128,62529,1,8,0:0:0:0:
352,128,62608,1,8,0:0:0:0:
160,128,62687,1,0,0:0:0:0:
352,128,62845,1,8,0:0:0:0:
160,128,63003,1,0,0:0:0:0:
352,128,63082,1,8,0:0:0:0:
352,128,63161,1,8,0:0:0:0:
352,128,63239,1,8,0:0:0:0:
160,128,63318,1,0,0:0:0:0:
352,128,63555,1,8,0:0:0:0:
160,128,63634,1,0,0:0:0:0:
352,128,63792,1,8,0:0:0:0:
160,128,63871,1,0,0:0:0:0:
352,128,63950,1,8,0:0:0:0:
160,128,64108,1,0,0:0:0:0:
352,128,64187,1,8,0:0:0:0:
160,128,64266,1,0,0:0:0:0:
160,128,64424,1,0,0:0:0:0:
352,128,64503,1,8,0:0:0:0:
352,128,64582,1,8,0:0:0:0:
352,128,64739,1,8,0:0:0:0:
160,128,64897,1,0,0:0:0:0:
352,128,65055,1,8,0:0:0:0:
160,128,65134,1,0,0:0:0:0:
352,128,65213,1,8,0:0:0:0:
352,128,65292,1,8,0:0:0:0:
160,128,65371,1,0,0:0:0:0:
352,128,65529,1,8,0:0:0:0:
160,128,65582,1,0,0:0:0:0:
160,128,65634,1,0,0:0:0:0:
352,128,65687,1,8,0:0:0:0:
352,256,65845,1,12,0:0:0:0:
160,128,66003,1,0,0:0:0:0:
160,128,66055,1,0,0:0:0:0:
352,128,66108,1,8,0:0:0:0:
160,128,66161,1,0,0:0:0:0:
352,128,66318,1,8,0:0:0:0:
160,128,66476,1,0,0:0:0:0:
160,128,66529,1,0,0:0:0:0:
352,128,66582,1,8,0:0:0:0:
160,128,66634,1,0,0:0:0:0:
160,128,66792,1,0,0:0:0:0:
160,128,66871,1,0,0:0:0:0:
352,128,66950,1,8,0:0:0:0:
160,128,67108,1,0,0:0:0:0:
352,128,67266,1,8,0:0:0:0:
160,128,67345,1,0,0:0:0:0:
352,128,67424,1,8,0:0:0:0:
160,128,67582,1,0,0:0:0:0:
352,128,67661,1,8,0:0:0:0:
160,128,67739,1,0,0:0:0:0:
352,128,67897,1,8,0:0:0:0:
160,128,68055,1,0,0:0:0:0:
160,128,68134,1,0,0:0:0:0:
160,128,68213,1,0,0:0:0:0:
160,128,68292,1,0,0:0:0:0:
352,128,68371,1,8,0:0:0:0:
352,128,68687,1,8,0:0:0:0:
352,128,68845,1,8,0:0:0:0:
160,128,68924,1,0,0:0:0:0:
352,128,69003,1,8,0:0:0:0:
160,128,69161,1,0,0:0:0:0:
352,128,69239,1,8,0:0:0:0:
352,128,69318,1,8,0:0:0:0:
160,128,69476,1,0,0:0:0:0:
160,128,69529,1,0,0:0:0:0:
160,128,69582,1,0,0:0:0:0:
352,128,69634,1,8,0:0:0:0:
352,128,69792,1,8,0:0:0:0:
352,128,69845,1,8,0:0:0:0:
352,128,69897,1,8,0:0:0:0:
160,128,69950,1,0,0:0:0:0:
352,128,70108,1,8,0:0:0:0:
160,128,70161,1,0,0:0:0:0:
160,128,70213,1,0,0:0:0:0:
352,128,70266,1,8,0:0:0:0:
160,128,70424,1,0,0:0:0:0:
352,128,70582,1,8,0:0:0:0:
352,128,70739,1,8,0:0:0:0:
352,256,70897,1,12,0:0:0:0:
352,128,71055,1,8,0:0:0:0:
160,128,71108,1,0,0:0:0:0:
352,128,71161,1,8,0:0:0:0:
160,128,71213,1,0,0:0:0:0:
352,128,71371,1,8,0:0:0:0:
352,128,71529,1,8,0:0:0:0:
160,128,71582,1,0,0:0:0:0:
352,128,71634,1,8,0:0:0:0:
160,128,71687,1,0,0:0:0:0:
160,128,71845,1,0,0:0:0:0:
160,128,71924,1,0,0:0:0:0:
352,128,72003,1,8,0:0:0:0:
160,128,72161,1,0,0:0:0:0:
352,128,72318,1,8,0:0:0:0:
352,128,72476,1,8,0:0:0:0:
352,128,72555,1,8,0:0:0:0:
160,128,72634,1,0,0:0:0:0:
352,128,72792,1,8,0:0:0:0:
160,128,72950,1,0,0:0:0:0:
352,128,73108,1,8,0:0:0:0:
352,128,73187,1,8,0:0:0:0:
160,128,73266,1,0,0:0:0:0:
352,128,73424,1,8,0:0:0:0:
352,128,73503,1,8,0:0:0:0:
160,128,73582,1,0,0:0:0:0:
160,128,73634,1,0,0:0:0:0:
352,128,73687,1,8,0:0:0:0:
160,128,73739,1,0,0:0:0:0:
352,128,73897,1,8,0:0:0:0:
352,128,73976,1,8,0:0:0:0:
160,128,74055,1,0,0:0:0:0:
160,128,74108,1,0,0:0:0:0:
352,128,74161,1,8,0:0:0:0:
160,128,74213,1,0,0:0:0:0:
352,128,74371,1,8,0:0:0:0:
352,128,74450,1,8,0:0:0:0:
160,128,74529,1,0,0:0:0:0:
352,128,74687,1,8,0:0:0:0:
352,128,74766,1,8,0:0:0:0:
160,128,74845,1,0,0:0:0:0:
352,128,74897,1,8,0:0:0:0:
352,128,74950,1,8,0:0:0:0:
160,128,75003,1,0,0:0:0:0:
160,128,75082,1,0,0:0:0:0:
352,128,75161,1,8,0:0:0:0:
352,128,75239,1,8,0:0:0:0:
160,128,75318,1,0,0:0:0:0:
352,128,75371,1,8,0:0:0:0:
352,128,75424,1,8,0:0:0:0:
160,128,75476,1,0,0:0:0:0:
160,128,75555,1,0,0:0:0:0:
352,128,75634,1,8,0:0:0:0:
352,128,75713,1,8,0:0:0:0:
160,128,75792,1,0,0:0:0:0:
352,256,75950,1,12,0:0:0:0:
352,128,79897,1,8,0:0:0:0:
352,128,80055,1,8,0:0:0:0:
160,128,80213,1,0,0:0:0:0:
352,128,80371,1,8,0:0:0:0:
160,128,80529,1,0,0:0:0:0:
352,128,80687,1,8,0:0:0:0:
352,128,80845,1,8,0:0:0:0:
160,128,81003,1,0,0:0:0:0:
160,128,83371,1,0,0:0:0:0:
352,128,83424,1,8,0:0:0:0:
352,128,83476,1,8,0:0:0:0:
352,128,83529,1,8,0:0:0:0:
256,192,84318,12,8,85897,0:0:0:0:
352,128,86055,5,8,0:0:0:0:
352,128,86213,1,8,0:0:0:0:
160,128,86371,1,0,0:0:0:0:
160,128,86529,1,0,0:0:0:0:
352,128,87003,1,8,0:0:0:0:
352,128,87161,1,8,0:0:0:0:
160,128,87318,1,0,0:0:0:0:
160,128,87476,1,0,0:0:0:0:
352,128,87950,1,8,0:0:0:0:
352,128,88582,1,8,0:0:0:0:
352,128,88739,1,8,0:0:0:0:
160,128,88897,1,0,0:0:0:0:
160,128,89055,1,0,0:0:0:0:
352,128,89529,1,8,0:0:0:0:
352,128,89687,1,8,0:0:0:0:
160,128,89845,1,0,0:0:0:0:
160,128,90003,1,0,0:0:0:0:
352,128,90476,1,8,0:0:0:0:
352,128,90792,1,8,0:0:0:0:
352,128,90950,1,8,0:0:0:0:
160,128,91108,1,0,0:0:0:0:
352,128,91266,1,8,0:0:0:0:
352,128,91424,1,8,0:0:0:0:
160,128,91582,1,0,0:0:0:0:
160,128,92055,1,0,0:0:0:0:
352,128,92213,1,8,0:0:0:0:
352,128,92371,1,8,0:0:0:0:
160,128,92529,1,0,0:0:0:0:
352,128,93003,1,8,0:0:0:0:
160,128,93476,1,0,0:0:0:0:
160,128,93529,1,0,0:0:0:0:
160,128,93582,1,0,0:0:0:0:
352,128,93634,1,8,0:0:0:0:
352,128,93792,1,8,0:0:0:0:
352,128,93950,1,8,0:0:0:0:
160,128,94108,1,0,0:0:0:0:
160,128,94424,1,0,0:0:0:0:
160,128,94476,1,0,0:0:0:0:
160,128,94529,1,0,0:0:0:0:
352,128,94582,1,8,0:0:0:0:
352,128,94739,1,8,0:0:0:0:
352,128,94897,1,8,0:0:0:0:
160,128,95055,1,0,0:0:0:0:
352,128,95529,1,8,0:0:0:0:
352,128,95845,1,8,0:0:0:0:
160,256,96161,1,4,0:0:0:0:
160,128,96318,1,0,0:0:0:0:
352,128,96476,1,8,0:0:0:0:
352,128,96555,1,8,0:0:0:0:
160,256,96634,1,4,0:0:0:0:
160,128,96950,1,0,0:0:0:0:
352,128,97108,1,8,0:0:0:0:
352,128,97266,1,8,0:0:0:0:
160,256,97424,1,4,0:0:0:0:
352,128,97582,1,8,0:0:0:0:
160,128,97739,1,0,0:0:0:0:
160,128,97818,1,0,0:0:0:0:
352,256,97897,1,12,0:0:0:0:
160,128,98213,1,0,0:0:0:0:
160,128,98371,1,0,0:0:0:0:
160,128,98529,1,0,0:0:0:0:
352,256,98687,1,12,0:0:0:0:
352,128,98845,1,8,0:0:0:0:
160,128,99003,1,0,0:0:0:0:
160,128,99082,1,0,0:0:0:0:
352,256,99161,1,12,0:0:0:0:
160,128,99476,1,0,0:0:0:0:
352,128,99634,1,8,0:0:0:0:
352,128,99792,1,8,0:0:0:0:
160,128,99950,1,0,0:0:0:0:
352,128,100108,1,8,0:0:0:0:
352,128,100187,1,8,0:0:0:0:
160,128,100266,1,0,0:0:0:0:
160,128,100345,1,0,0:0:0:0:
160,128,100424,1,0,0:0:0:0:
352,128,100503,1,8,0:0:0:0:
160,128,100582,1,0,0:0:0:0:
160,128,100661,1,0,0:0:0:0:
352,128,100739,1,8,0:0:0:0:
352,128,100818,1,8,0:0:0:0:
160,128,100897,1,0,0:0:0:0:
352,128,101055,1,8,0:0:0:0:
160,256,101213,1,4,0:0:0:0:
352,128,101371,1,8,0:0:0:0:
160,128,101450,1,0,0:0:0:0:
352,128,101529,1,8,0:0:0:0:
352,128,101687,1,8,0:0:0:0:
160,128,101845,1,0,0:0:0:0:
160,128,102003,1,0,0:0:0:0:
352,128,102161,1,8,0:0:0:0:
352,128,102239,1,8,0:0:0:0:
160,128,102318,1,0,0:0:0:0:
160,128,102397,1,0,0:0:0:0:
352,128,102476,1,8,0:0:0:0:
352,128,102634,1,8,0:0:0:0:
160,128,102792,1,0,0:0:0:0:
160,128,102950,1,0,0:0:0:0:
352,128,103029,1,8,0:0:0:0:
160,128,103108,1,0,0:0:0:0:
352,128,103266,1,8,0:0:0:0:
160,128,103424,1,0,0:0:0:0:
160,128,103476,1,0,0:0:0:0:
160,128,103529,1,0,0:0:0:0:
160,128,103582,1,0,0:0:0:0:
352,128,103739,1,8,0:0:0:0:
160,128,103897,1,0,0:0:0:0:
160,128,103976,1,0,0:0:0:0:
352,128,104055,1,8,0:0:0:0:
352,128,104213,1,8,0:0:0:0:
160,128,104371,1,0,0:0:0:0:
160,128,104450,1,0,0:0:0:0:
352,128,104529,1,8,0:0:0:0:
160,128,104608,1,0,0:0:0:0:
352,128,104687,1,8,0:0:0:0:
160,128,104766,1,0,0:0:0:0:
352,128,104845,1,8,0:0:0:0:
160,128,104924,1,0,0:0:0:0:
352,128,105003,1,8,0:0:0:0:
352,128,105082,1,8,0:0:0:0:
160,128,105161,1,0,0:0:0:0:
160,128,105239,1,0,0:0:0:0:
352,128,105318,1,8,0:0:0:0:
352,128,105397,1,8,0:0:0:0:
160,128,105476,1,0,0:0:0:0:
160,128,105555,1,0,0:0:0:0:
352,128,105634,1,8,0:0:0:0:
352,128,105687,1,8,0:0:0:0:
352,128,105739,1,8,0:0:0:0:
160,128,105792,1,0,0:0:0:0:
160,128,105871,1,0,0:0:0:0:
352,128,105950,1,8,0:0:0:0:
352,128,106003,1,8,0:0:0:0:
352,128,106055,1,8,0:0:0:0:
160,128,106108,1,0,0:0:0:0:
160,128,106161,1,0,0:0:0:0:
160,128,106213,1,0,0:0:0:0:
352,128,106266,1,8,0:0:0:0:
160,128,107529,1,0,0:0:0:0:
160,128,108792,1,0,0:0:0:0:
160,128,108871,1,0,0:0:0:0:
352,128,108950,1,8,0:0:0:0:
352,128,109029,1,8,0:0:0:0:
160,128,109108,1,0,0:0:0:0:
160,128,109187,1,0,0:0:0:0:
352,128,109266,1,8,0:0:0:0:
160,128,109345,1,0,0:0:0:0:
352,128,109424,1,8,0:0:0:0:
352,128,109503,1,8,0:0:0:0:
160,128,109582,1,0,0:0:0:0:
160,128,109661,1,0,0:0:0:0:
352,128,109739,1,8,0:0:0:0:
160,128,109818,1,0,0:0:0:0:
352,128,109897,1,8,0:0:0:0:
352,128,109976,1,8,0:0:0:0:
160,128,110055,1,0,0:0:0:0:
352,128,110134,1,8,0:0:0:0:
352,128,110213,1,8,0:0:0:0:
160,128,110292,1,0,0:0:0:0:
160,128,110371,1,0,0:0:0:0:
352,128,110450,1,8,0:0:0:0:
352,128,110529,1,8,0:0:0:0:
160,128,110608,1,0,0:0:0:0:
352,128,110687,1,8,0:0:0:0:
160,128,111003,1,0,0:0:0:0:
352,128,111082,1,8,0:0:0:0:
160,128,111161,1,0,0:0:0:0:
160,128,111213,1,0,0:0:0:0:
160,128,111266,1,0,0:0:0:0:
352,256,111318,1,12,0:0:0:0:
160,128,111555,1,0,0:0:0:0:
352,128,111634,1,8,0:0:0:0:
160,128,111792,1,0,0:0:0:0:
352,128,111871,1,8,0:0:0:0:
160,128,111950,1,0,0:0:0:0:
352,128,112108,1,8,0:0:0:0:
352,128,112266,1,8,0:0:0:0:
160,128,112345,1,0,0:0:0:0:
160,128,112424,1,0,0:0:0:0:
160,128,112503,1,0,0:0:0:0:
352,128,112582,1,8,0:0:0:0:
160,128,112739,1,0,0:0:0:0:
352,128,112818,1,8,0:0:0:0:
160,128,112897,1,0,0:0:0:0:
352,128,113055,1,8,0:0:0:0:
352,128,113134,1,8,0:0:0:0:
160,128,113213,1,0,0:0:0:0:
352,128,113371,1,8,0:0:0:0:
352,128,113529,1,8,0:0:0:0:
352,128,113608,1,8,0:0:0:0:
160,128,113687,1,0,0:0:0:0:
160,128,113766,1,0,0:0:0:0:
352,128,113845,1,8,0:0:0:0:
160,128,114003,1,0,0:0:0:0:
160,128,114082,1,0,0:0:0:0:
352,128,114161,1,8,0:0:0:0:
160,128,114318,1,0,0:0:0:0:
352,128,114397,1,8,0:0:0:0:
352,128,114476,1,8,0:0:0:0:
160,128,114555,1,0,0:0:0:0:
352,128,114634,1,8,0:0:0:0:
352,128,114792,1,8,0:0:0:0:
160,128,114950,1,0,0:0:0:0:
160,128,115029,1,0,0:0:0:0:
352,128,115108,1,8,0:0:0:0:
352,128,115161,1,8,0:0:0:0:
160,128,115213,1,0,0:0:0:0:
352,128,115266,1,8,0:0:0:0:
160,128,115424,1,0,0:0:0:0:
160,128,115476,1,0,0:0:0:0:
352,128,115529,1,8,0:0:0:0:
160,128,115582,1,0,0:0:0:0:
352,128,115739,1,8,0:0:0:0:
352,128,115792,1,8,0:0:0:0:
160,128,115845,1,0,0:0:0:0:
160,128,115897,1,0,0:0:0:0:
160,128,116055,1,0,0:0:0:0:
160,128,116108,1,0,0:0:0:0:
352,128,116161,1,8,0:0:0:0:
352,128,116213,1,8,0:0:0:0:
160,128,116292,1,0,0:0:0:0:
352,128,116371,1,8,0:0:0:0:
160,128,116608,1,0,0:0:0:0:
352,128,116687,1,8,0:0:0:0:
352,128,116845,1,8,0:0:0:0:
160,128,116924,1,0,0:0:0:0:
352,128,117003,1,8,0:0:0:0:
160,128,117161,1,0,0:0:0:0:
160,128,117239,1,0,0:0:0:0:
352,128,117318,1,8,0:0:0:0:
352,128,117397,1,8,0:0:0:0:
160,128,117476,1,0,0:0:0:0:
160,128,117555,1,0,0:0:0:0:
352,128,117634,1,8,0:0:0:0:
352,128,117792,1,8,0:0:0:0:
160,128,117871,1,0,0:0:0:0:
352,128,117950,1,8,0:0:0:0:
160,128,118108,1,0,0:0:0:0:
160,128,118187,1,0,0:0:0:0:
352,128,118266,1,8,0:0:0:0:
160,128,118345,1,0,0:0:0:0:
352,128,118424,1,8,0:0:0:0:
352,128,118503,1,8,0:0:0:0:
352,128,118582,1,8,0:0:0:0:
160,128,118739,1,0,0:0:0:0:
352,128,118897,1,8,0:0:0:0:
160,128,119055,1,0,0:0:0:0:
352,128,119108,1,8,0:0:0:0:
160,128,119161,1,0,0:0:0:0:
352,128,119213,1,8,0:0:0:0:
352,128,119371,1,8,0:0:0:0:
160,128,119424,1,0,0:0:0:0:
352,128,119476,1,8,0:0:0:0:
160,128,119529,1,0,0:0:0:0:
160,128,119687,1,0,0:0:0:0:
160,128,119739,1,0,0:0:0:0:
352,128,119792,1,8,0:0:0:0:
160,128,119845,1,0,0:0:0:0:
160,128,119924,1,0,0:0:0:0:
352,128,120003,1,8,0:0:0:0:
352,128,120055,1,8,0:0:0:0:
160,128,120108,1,0,0:0:0:0:
352,128,120161,1,8,0:0:0:0:
352,128,120239,1,8,0:0:0:0:
160,128,120318,1,0,0:0:0:0:
160,128,120397,1,0,0:0:0:0:
352,128,120476,1,8,0:0:0:0:
160,128,120555,1,0,0:0:0:0:
352,128,120634,1,8,0:0:0:0:
352,128,120713,1,8,0:0:0:0:
160,128,120792,1,0,0:0:0:0:
160,128,120871,1,0,0:0:0:0:
160,128,120950,1,0,0:0:0:0:
160,128,121029,1,0,0:0:0:0:
352,128,121108,1,8,0:0:0:0:
352,128,121213,1,8,0:0:0:0:
352,128,121318,1,8,0:0:0:0:
160,256,121424,1,4,0:0:0:0:
160,128,121897,1,0,0:0:0:0:
160,128,121950,1,0,0:0:0:0:
160,128,122003,1,0,0:0:0:0:
160,128,122055,1,0,0:0:0:0:
160,128,122213,1,0,0:0:0:0:
160,128,122292,1,0,0:0:0:0:
352,256,122371,1,12,0:0:0:0:
352,128,122687,1,8,0:0:0:0:
160,128,122845,1,0,0:0:0:0:
160,128,122924,1,0,0:0:0:0:
352,128,123003,1,8,0:0:0:0:
160,128,123161,1,0,0:0:0:0:
160,128,123239,1,0,0:0:0:0:
352,128,123318,1,8,0:0:0:0:
160,128,123397,1,0,0:0:0:0:
352,128,123476,1,8,0:0:0:0:
352,128,123555,1,8,0:0:0:0:
352,128,123634,1,8,0:0:0:0:
160,128,123792,1,0,0:0:0:0:
352,128,123950,1,8,0:0:0:0:
160,128,124029,1,0,0:0:0:0:
352,128,124108,1,8,0:0:0:0:
352,128,124266,1,8,0:0:0:0:
160,128,124424,1,0,0:0:0:0:
352,128,124503,1,8,0:0:0:0:
160,128,124582,1,0,0:0:0:0:
352,128,124661,1,8,0:0:0:0:
160,128,124739,1,0,0:0:0:0:
160,128,124818,1,0,0:0:0:0:
352,128,124897,1,8,0:0:0:0:
160,128,125055,1,0,0:0:0:0:
160,128,125134,1,0,0:0:0:0:
352,128,125213,1,8,0:0:0:0:
352,128,125266,1,8,0:0:0:0:
160,128,125318,1,0,0:0:0:0:
352,128,125371,1,8,0:0:0:0:
160,128,125529,1,0,0:0:0:0:
160,128,125582,1,0,0:0:0:0:
352,128,125634,1,8,0:0:0:0:
160,128,125687,1,0,0:0:0:0:
160,128,125845,1,0,0:0:0:0:
160,128,125897,1,0,0:0:0:0:
160,128,125950,1,0,0:0:0:0:
352,128,126003,1,8,0:0:0:0:
352,128,126161,1,8,0:0:0:0:
352,128,126213,1,8,0:0:0:0:
352,128,126266,1,8,0:0:0:0:
160,128,126318,1,0,0:0:0:0:
160,128,126397,1,0,0:0:0:0:
352,128,126476,1,8,0:0:0:0:
160,128,126713,1,0,0:0:0:0:
352,128,126792,1,8,0:0:0:0:
160,128,126950,1,0,0:0:0:0:
352,128,127029,1,8,0:0:0:0:
160,128,127108,1,0,0:0:0:0:
352,128,127266,1,8,0:0:0:0:
160,128,127345,1,0,0:0:0:0:
352,128,127424,1,8,0:0:0:0:
352,128,127503,1,8,0:0:0:0:
160,128,127582,1,0,0:0:0:0:
160,128,127661,1,0,0:0:0:0:
352,128,127739,1,8,0:0:0:0:
160,128,127897,1,0,0:0:0:0:
160,128,127976,1,0,0:0:0:0:
352,128,128055,1,8,0:0:0:0:
352,128,128213,1,8,0:0:0:0:
352,128,128292,1,8,0:0:0:0:
160,128,128371,1,0,0:0:0:0:
352,128,128450,1,8,0:0:0:0:
160,128,128529,1,0,0:0:0:0:
160,128,128608,1,0,0:0:0:0:
352,128,128687,1,8,0:0:0:0:
160,128,128766,1,0,0:0:0:0:
352,128,128845,1,8,0:0:0:0:
160,256,129003,1,4,0:0:0:0:
352,128,129161,1,8,0:0:0:0:
160,128,129213,1,0,0:0:0:0:
160,128,129266,1,0,0:0:0:0:
352,128,129318,1,8,0:0:0:0:
352,128,129397,1,8,0:0:0:0:
160,128,129476,1,0,0:0:0:0:
352,128,129529,1,8,0:0:0:0:
352,128,129582,1,8,0:0:0:0:
160,128,129634,1,0,0:0:0:0:
160,128,129713,1,0,0:0:0:0:
352,128,129792,1,8,0:0:0:0:
352,128,129845,1,8,0:0:0:0:
352,128,129897,1,8,0:0:0:0:
160,128,129950,1,0,0:0:0:0:
352,128,130029,1,8,0:0:0:0:
160,128,130108,1,0,0:0:0:0:
160,128,130161,1,0,0:0:0:0:
160,128,130213,1,0,0:0:0:0:
352,128,130266,1,8,0:0:0:0:
160,128,130424,1,0,0:0:0:0:
352,128,130582,1,8,0:0:0:0:
160,128,130739,1,0,0:0:0:0:
352,128,130818,1,8,0:0:0:0:
160,128,130897,1,0,0:0:0:0:
160,128,131055,1,0,0:0:0:0:
352,128,131213,1,8,0:0:0:0:
160,256,131529,1,4,0:0:0:0:
160,128,131766,1,0,0:0:0:0:
352,128,131845,1,8,0:0:0:0:
160,128,132003,1,0,0:0:0:0:
352,128,132082,1,8,0:0:0:0:
160,128,132161,1,0,0:0:0:0:
352,128,132239,1,8,0:0:0:0:
160,128,132318,1,0,0:0:0:0:
160,128,132397,1,0,0:0:0:0:
352,128,132476,1,8,0:0:0:0:
160,128,132634,1,0,0:0:0:0:
352,128,132713,1,8,0:0:0:0:
160,128,132792,1,0,0:0:0:0:
160,128,132950,1,0,0:0:0:0:
352,128,133108,1,8,0:0:0:0:
160,128,133266,1,0,0:0:0:0:
160,128,133345,1,0,0:0:0:0:
352,128,133424,1,8,0:0:0:0:
352,128,133503,1,8,0:0:0:0:
160,128,133582,1,0,0:0:0:0:
352,128,133739,1,8,0:0:0:0:
160,128,133897,1,0,0:0:0:0:
160,128,133976,1,0,0:0:0:0:
352,128,134055,1,8,0:0:0:0:
160,128,134292,1,0,0:0:0:0:
352,128,134371,1,8,0:0:0:0:
352,128,134529,1,8,0:0:0:0:
160,128,134608,1,0,0:0:0:0:
160,128,134687,1,0,0:0:0:0:
352,128,134766,1,8,0:0:0:0:
160,128,134845,1,0,0:0:0:0:
160,128,134924,1,0,0:0:0:0:
352,128,135003,1,8,0:0:0:0:
160,128,135161,1,0,0:0:0:0:
352,128,135239,1,8,0:0:0:0:
160,128,135318,1,0,0:0:0:0:
160,128,135397,1,0,0:0:0:0:
160,128,135476,1,0,0:0:0:0:
352,128,135634,1,8,0:0:0:0:
160,128,135792,1,0,0:0:0:0:
352,128,135871,1,8,0:0:0:0:
352,128,135950,1,8,0:0:0:0:
352,128,136029,1,8,0:0:0:0:
160,128,136108,1,0,0:0:0:0:
160,128,136187,1,0,0:0:0:0:
352,128,136266,1,8,0:0:0:0:
352,128,136424,1,8,0:0:0:0:
160,128,136503,1,0,0:0:0:0:
352,128,136582,1,8,0:0:0:0:
160,128,136818,1,0,0:0:0:0:
352,128,136897,1,8,0:0:0:0:
352,128,137055,1,8,0:0:0:0:
352,128,137134,1,8,0:0:0:0:
160,128,137213,1,0,0:0:0:0:
352,128,137292,1,8,0:0:0:0:
160,128,137371,1,0,0:0:0:0:
160,128,137450,1,0,0:0:0:0:
352,128,137529,1,8,0:0:0:0:
352,128,137687,1,8,0:0:0:0:
160,128,137766,1,0,0:0:0:0:
352,128,137845,1,8,0:0:0:0:
160,128,138003,1,0,0:0:0:0:
160,128,138082,1,0,0:0:0:0:
352,128,138161,1,8,0:0:0:0:
160,128,138318,1,0,0:0:0:0:
352,128,138397,1,8,0:0:0:0:
160,128,138476,1,0,0:0:0:0:
160,128,138555,1,0,0:0:0:0:
352,128,138634,1,8,0:0:0:0:
160,128,138713,1,0,0:0:0:0:
352,128,138792,1,8,0:0:0:0:
352,128,138950,1,8,0:0:0:0:
160,256,139108,1,4,0:0:0:0:
352,128,139266,1,8,0:0:0:0:
160,128,139345,1,0,0:0:0:0:
352,128,139424,1,8,0:0:0:0:
352,128,139582,1,8,0:0:0:0:
352,128,139661,1,8,0:0:0:0:
160,128,139739,1,0,0:0:0:0:
352,128,139818,1,8,0:0:0:0:
160,128,139897,1,0,0:0:0:0:
160,128,139976,1,0,0:0:0:0:
352,128,140055,1,8,0:0:0:0:
160,128,140213,1,0,0:0:0:0:
160,128,140292,1,0,0:0:0:0:
352,128,140371,1,8,0:0:0:0:
160,128,140450,1,0,0:0:0:0:
160,128,140529,1,0,0:0:0:0:
160,128,140608,1,0,0:0:0:0:
352,128,140687,1,8,0:0:0:0:
160,128,140766,1,0,0:0:0:0:
160,128,140845,1,0,0:0:0:0:
160,128,140924,1,0,0:0:0:0:
352,128,141003,1,8,0:0:0:0:
160,256,141634,1,4,0:0:0:0:
352,128,141792,1,8,0:0:0:0:
160,128,141845,1,0,0:0:0:0:
352,128,141897,1,8,0:0:0:0:
160,128,141950,1,0,0:0:0:0:
160,256,142108,1,4,0:0:0:0:
352,128,142266,1,8,0:0:0:0:
160,128,142318,1,0,0:0:0:0:
352,128,142371,1,8,0:0:0:0:
160,128,142424,1,0,0:0:0:0:
352,128,142582,1,8,0:0:0:0:
352,128,142739,1,8,0:0:0:0:
160,256,142897,1,4,0:0:0:0:
352,128,143055,1,8,0:0:0:0:
352,128,143213,1,8,0:0:0:0:
352,128,143292,1,8,0:0:0:0:
160,256,143371,1,4,0:0:0:0:
352,128,143529,1,8,0:0:0:0:
160,128,143687,1,0,0:0:0:0:
352,128,143845,1,8,0:0:0:0:
352,128,144003,1,8,0:0:0:0:
160,256,144161,1,4,0:0:0:0:
352,128,144318,1,8,0:0:0:0:
160,128,144371,1,0,0:0:0:0:
160,128,144424,1,0,0:0:0:0:
352,128,144476,1,8,0:0:0:0:
160,256,144634,1,4,0:0:0:0:
352,128,144792,1,8,0:0:0:0:
160,128,144845,1,0,0:0:0:0:
160,128,144897,1,0,0:0:0:0:
352,128,144950,1,8,0:0:0:0:
352,128,145108,1,8,0:0:0:0:
160,128,145187,1,0,0:0:0:0:
352,128,145266,1,8,0:0:0:0:
352,128,145345,1,8,0:0:0:0:
160,256,145424,1,4,0:0:0:0:
352,128,145582,1,8,0:0:0:0:
352,128,145739,1,8,0:0:0:0:
352,128,145818,1,8,0:0:0:0:
160,256,145897,1,4,0:0:0:0:
352,128,146055,1,8,0:0:0:0:
160,128,146134,1,0,0:0:0:0:
352,128,146213,1,8,0:0:0:0:
352,128,146292,1,8,0:0:0:0:
160,128,146371,1,0,0:0:0:0:
352,128,146450,1,8,0:0:0:0:
160,128,146529,1,0,0:0:0:0:
160,128,146608,1,0,0:0:0:0:
352,256,146687,1,12,0:0:0:0:
160,128,146845,1,0,0:0:0:0:
160,128,146897,1,0,0:0:0:0:
352,128,146950,1,8,0:0:0:0:
160,128,147003,1,0,0:0:0:0:
352,256,147161,1,12,0:0:0:0:
160,128,147318,1,0,0:0:0:0:
160,128,147371,1,0,0:0:0:0:
352,128,147424,1,8,0:0:0:0:
160,128,147476,1,0,0:0:0:0:
352,128,147634,1,8,0:0:0:0:
160,128,147792,1,0,0:0:0:0:
352,256,147950,1,12,0:0:0:0:
160,128,148108,1,0,0:0:0:0:
352,128,148187,1,8,0:0:0:0:
160,128,148266,1,0,0:0:0:0:
160,128,148345,1,0,0:0:0:0:
352,256,148424,1,12,0:0:0:0:
352,128,148582,1,8,0:0:0:0:
160,128,148661,1,0,0:0:0:0:
352,128,148739,1,8,0:0:0:0:
160,128,148897,1,0,0:0:0:0:
352,128,148976,1,8,0:0:0:0:
160,128,149055,1,0,0:0:0:0:
352,128,149213,1,8,0:0:0:0:
352,128,149292,1,8,0:0:0:0:
160,128,149371,1,0,0:0:0:0:
352,128,149424,1,8,0:0:0:0:
352,128,149476,1,8,0:0:0:0:
160,128,149529,1,0,0:0:0:0:
160,128,149608,1,0,0:0:0:0:
352,128,149687,1,8,0:0:0:0:
352,128,149766,1,8,0:0:0:0:
160,128,149845,1,0,0:0:0:0:
352,128,149897,1,8,0:0:0:0:
352,128,149950,1,8,0:0:0:0:
160,128,150003,1,0,0:0:0:0:
160,128,150082,1,0,0:0:0:0:
352,128,150161,1,8,0:0:0:0:
160,128,150239,1,0,0:0:0:0:
352,128,150318,1,8,0:0:0:0:
160,128,150397,1,0,0:0:0:0:
352,128,150476,1,8,0:0:0:0:
160,128,150529,1,0,0:0:0:0:
160,128,150582,1,0,0:0:0:0:
352,128,150634,1,8,0:0:0:0:
352,128,150687,1,8,0:0:0:0:
160,128,150739,1,0,0:0:0:0:
352,128,150792,1,8,0:0:0:0:
160,128,150871,1,0,0:0:0:0:
352,128,150950,1,8,0:0:0:0:
160,128,151003,1,0,0:0:0:0:
160,128,151055,1,0,0:0:0:0:
352,128,151108,1,8,0:0:0:0:
352,128,151161,1,8,0:0:0:0:
160,128,151213,1,0,0:0:0:0:
352,128,151266,1,8,0:0:0:0:
160,128,151345,1,0,0:0:0:0:
352,128,151424,1,8,0:0:0:0:
160,256,151739,1,4,0:0:0:0:
160,128,152055,1,0,0:0:0:0:
160,128,152529,1,0,0:0:0:0:
352,128,152845,1,8,0:0:0:0:
160,128,153161,1,0,0:0:0:0:
160,128,153318,1,0,0:0:0:0:
160,128,153476,1,0,0:0:0:0:
352,128,153792,1,8,0:0:0:0:
160,128,154108,1,0,0:0:0:0:
160,128,154266,1,0,0:0:0:0:
352,128,154424,1,8,0:0:0:0:
160,128,154582,1,0,0:0:0:0:
352,128,154897,1,8,0:0:0:0:
160,128,155055,1,0,0:0:0:0:
352,128,155371,1,8,0:0:0:0:
352,128,155687,1,8,0:0:0:0:
352,128,156003,1,8,0:0:0:0:
160,128,156318,1,0,0:0:0:0:
352,128,156397,1,8,0:0:0:0:
352,128,156476,1,8,0:0:0:0:
160,128,156634,1,0,0:0:0:0:
160,128,156792,1,0,0:0:0:0:
352,128,156950,1,8,0:0:0:0:
352,128,157266,1,8,0:0:0:0:
352,128,157345,1,8,0:0:0:0:
160,128,157424,1,0,0:0:0:0:
160,128,157582,1,0,0:0:0:0:
352,128,157739,1,8,0:0:0:0:
352,128,157897,1,8,0:0:0:0:
160,128,158213,1,0,0:0:0:0:
160,128,158529,1,0,0:0:0:0:
352,128,158845,1,8,0:0:0:0:
160,128,159003,1,0,0:0:0:0:
160,128,159161,1,0,0:0:0:0:
352,128,159476,1,8,0:0:0:0:
160,128,159634,1,0,0:0:0:0:
352,128,159792,1,8,0:0:0:0:
352,128,159871,1,8,0:0:0:0:
160,128,159950,1,0,0:0:0:0:
160,128,160108,1,0,0:0:0:0:
352,128,160266,1,8,0:0:0:0:
352,128,160424,1,8,0:0:0:0:
160,128,160739,1,0,0:0:0:0:
352,128,160818,1,8,0:0:0:0:
352,128,160897,1,8,0:0:0:0:
160,128,160976,1,0,0:0:0:0:
352,128,161055,1,8,0:0:0:0:
160,128,161134,1,0,0:0:0:0:
352,128,161213,1,8,0:0:0:0:
160,128,161292,1,0,0:0:0:0:
160,128,161371,1,0,0:0:0:0:
160,128,161450,1,0,0:0:0:0:
352,128,161529,1,8,0:0:0:0:
352,128,161634,1,8,0:0:0:0:
352,128,161739,1,8,0:0:0:0:
160,128,161845,1,0,0:0:0:0:
352,128,162003,1,8,0:0:0:0:
352,128,162161,1,8,0:0:0:0:
160,128,162318,1,0,0:0:0:0:
160,128,162792,1,0,0:0:0:0:
352,128,162950,1,8,0:0:0:0:
352,128,163108,1,8,0:0:0:0:
160,128,163266,1,0,0:0:0:0:
160,128,164371,1,0,0:0:0:0:
352,128,164529,1,8,0:0:0:0:
160,128,164687,1,0,0:0:0:0:
160,128,164845,1,0,0:0:0:0:
160,128,165318,1,0,0:0:0:0:
352,128,165476,1,8,0:0:0:0:
160,128,165634,1,0,0:0:0:0:
352,128,165792,1,8,0:0:0:0:
352,128,166897,1,8,0:0:0:0:
352,128,167055,1,8,0:0:0:0:
160,128,167213,1,0,0:0:0:0:
160,128,167371,1,0,0:0:0:0:
352,128,167845,1,8,0:0:0:0:
352,128,168003,1,8,0:0:0:0:
160,128,168161,1,0,0:0:0:0:
160,128,168318,1,0,0:0:0:0:
160,128,169266,1,0,0:0:0:0:
160,128,169318,1,0,0:0:0:0:
352,128,169371,1,8,0:0:0:0:
352,128,169424,1,8,0:0:0:0:
352,128,169582,1,8,0:0:0:0:
160,128,169739,1,0,0:0:0:0:
160,128,169897,1,0,0:0:0:0:
160,128,170213,1,0,0:0:0:0:
160,128,170266,1,0,0:0:0:0:
352,128,170318,1,8,0:0:0:0:
352,128,170371,1,8,0:0:0:0:
352,128,170529,1,8,0:0:0:0:
160,128,170687,1,0,0:0:0:0:
352,128,170845,1,8,0:0:0:0:
