osu file format v14

[General]
AudioFilename: audio.mp3
AudioLeadIn: 0
PreviewTime: 111003
Countdown: 0
SampleSet: Normal
StackLeniency: 0.7
Mode: 1
LetterboxInBreaks: 0
WidescreenStoryboard: 1

[Editor]
Bookmarks: 15300,35510,55721,75931,111300,131510
DistanceSpacing: 0.7
BeatDivisor: 8
GridSize: 32
TimelineZoom: 3.299999

[Metadata]
Title:Maboroshi
TitleUnicode:Maboroshi
Artist:Camellia
ArtistUnicode:かめりあ
Creator:Eyenine
Version:Futsuu
Source:Cytus II
Tags:まぼろし cametek かめるかめりあ kamelcamellia 大箭将也 大箭マサヤ masaya oya ooya edp neko#ΦωΦ neko#owo maimaiでらっくす+ maimai dx+ maimai deluxe plus cytus 2 rayark oriental hardcore electronic instrumental rhythm video game two
BeatmapID:4184677
BeatmapSetID:2008589

[Difficulty]
HPDrainRate:7
CircleSize:5
OverallDifficulty:4
ApproachRate:8
SliderMultiplier:1.4
SliderTickRate:1

[Events]
//Background and Video events
0,0,"sakuranomorinomankainosita.jpg",0,40
//Break Periods
//Storyboard Layer 0 (Background)
//Storyboard Layer 1 (Fail)
//Storyboard Layer 2 (Pass)
//Storyboard Layer 3 (Foreground)
//Storyboard Layer 4 (Overlay)
//Storyboard Sound Samples

[TimingPoints]
161,315.789473684211,4,1,0,50,1,0
161,-111.111111111111,4,1,0,50,0,0
15292,-100,4,1,0,80,0,0
15371,-100,4,1,0,80,0,0
15766,-100,4,1,0,80,0,0
15845,-100,4,1,0,80,0,0
16555,-100,4,1,0,80,0,0
16634,-100,4,1,0,80,0,0
17029,-100,4,1,0,80,0,0
17108,-100,4,1,0,80,0,0
17792,-100,4,1,0,80,0,0
17871,-100,4,1,0,80,0,0
18292,-100,4,1,0,80,0,0
18371,-100,4,1,0,80,0,0
20345,-100,4,1,0,80,0,0
20424,-100,4,1,0,80,0,0
20818,-100,4,1,0,80,0,0
20897,-100,4,1,0,80,0,0
21608,-100,4,1,0,80,0,0
21687,-100,4,1,0,80,0,0
22082,-100,4,1,0,80,0,0
22161,-100,4,1,0,80,0,0
22871,-100,4,1,0,80,0,0
22950,-100,4,1,0,80,0,0
23345,-100,4,1,0,80,0,0
23424,-100,4,1,0,80,0,0
25397,-100,4,1,0,80,0,0
25476,-100,4,1,0,80,0,0
25871,-100,4,1,0,80,0,0
25950,-100,4,1,0,80,0,0
26661,-100,4,1,0,80,0,0
26740,-100,4,1,0,80,0,0
27134,-100,4,1,0,80,0,0
27213,-100,4,1,0,80,0,0
27924,-100,4,1,0,80,0,0
28003,-100,4,1,0,80,0,0
28397,-100,4,1,0,80,0,0
28476,-100,4,1,0,80,0,0
30450,-100,4,1,0,80,0,0
30529,-100,4,1,0,80,0,0
34818,-100,4,1,0,60,0,0
35526,-100,4,1,0,70,0,0
55713,-100,4,1,0,80,0,0
55766,-100,4,1,0,80,0,0
58424,-111.111111111111,4,1,0,50,0,0
60739,-100,4,1,0,100,0,0
60766,-100,4,1,0,80,0,0
60819,-100,4,1,0,80,0,0
63397,-111.111111111111,4,1,0,50,0,0
65792,-100,4,1,0,100,0,0
65818,-100,4,1,0,80,0,0
65871,-100,4,1,0,80,0,0
68529,-111.111111111111,4,1,0,50,0,0
70871,-100,4,1,0,80,0,0
76029,-111.111111111111,4,1,0,50,0,0
86052,-111.111111111111,4,1,0,50,0,0
96134,-100,4,1,0,80,0,0
96187,-100,4,1,0,80,0,0
96608,-100,4,1,0,80,0,0
96661,-100,4,1,0,80,0,0
97397,-100,4,1,0,80,0,0
97450,-100,4,1,0,80,0,0
97871,-100,4,1,0,80,0,0
97924,-100,4,1,0,80,0,0
98661,-100,4,1,0,80,0,0
98714,-100,4,1,0,80,0,0
99134,-100,4,1,0,80,0,0
99187,-100,4,1,0,80,0,0
101187,-100,4,1,0,80,0,0
101240,-100,4,1,0,80,0,0
106424,-111.111111111111,4,1,0,70,0,0
108789,-111.111111111111,4,1,0,70,0,0
108868,-111.111111111111,4,1,0,71,0,0
108947,-111.111111111111,4,1,0,71,0,0
109026,-111.111111111111,4,1,0,72,0,0
109105,-111.111111111111,4,1,0,73,0,0
109184,-111.111111111111,4,1,0,73,0,0
109263,-111.111111111111,4,1,0,74,0,0
109342,-111.111111111111,4,1,0,74,0,0
109421,-111.111111111111,4,1,0,75,0,0
109500,-111.111111111111,4,1,0,76,0,0
109579,-111.111111111111,4,1,0,76,0,0
109658,-111.111111111111,4,1,0,77,0,0
109736,-111.111111111111,4,1,0,77,0,0
109815,-111.111111111111,4,1,0,78,0,0
109894,-111.111111111111,4,1,0,79,0,0
109973,-111.111111111111,4,1,0,79,0,0
110052,-111.111111111111,4,1,0,80,0,0
110131,-111.111111111111,4,1,0,81,0,0
110210,-111.111111111111,4,1,0,81,0,0
110289,-111.111111111111,4,1,0,82,0,0
110368,-111.111111111111,4,1,0,82,0,0
110447,-111.111111111111,4,1,0,83,0,0
110526,-111.111111111111,4,1,0,84,0,0
110605,-111.111111111111,4,1,0,84,0,0
110684,-111.111111111111,4,1,0,85,0,0
111000,-111.111111111111,4,1,0,85,0,0
111079,-111.111111111111,4,1,0,85,0,0
111158,-111.111111111111,4,1,0,85,0,0
111236,-111.111111111111,4,1,0,85,0,0
111318,-100,4,1,0,100,0,1
111345,-100,4,1,0,100,0,1
121424,-100,4,1,0,100,0,0
121503,-100,4,1,0,100,0,0
122371,-100,4,1,0,100,0,1
122661,-100,4,1,0,100,0,1
128976,-100,4,1,0,100,0,1
129082,-100,4,1,0,100,0,1
131529,-100,4,1,0,100,0,0
131582,-100,4,1,0,90,0,0
139082,-100,4,1,0,90,0,0
139187,-100,4,1,0,90,0,0
141634,-100,4,1,0,100,0,1
141661,-100,4,1,0,100,0,1
142082,-100,4,1,0,100,0,1
142134,-100,4,1,0,100,0,1
142871,-100,4,1,0,100,0,1
142923,-100,4,1,0,100,0,1
143345,-100,4,1,0,100,0,1
143397,-100,4,1,0,100,0,1
144134,-100,4,1,0,100,0,1
144186,-100,4,1,0,100,0,1
144608,-100,4,1,0,100,0,1
144660,-100,4,1,0,100,0,1
145397,-100,4,1,0,100,0,1
145449,-100,4,1,0,100,0,1
145871,-100,4,1,0,100,0,1
145923,-100,4,1,0,100,0,1
146661,-100,4,1,0,100,0,1
146713,-100,4,1,0,100,0,1
147134,-100,4,1,0,100,0,1
147186,-100,4,1,0,100,0,1
147924,-100,4,1,0,100,0,1
147976,-100,4,1,0,100,0,1
148397,-100,4,1,0,100,0,1
148449,-100,4,1,0,100,0,1
149210,-100,4,1,0,100,0,1
151739,-100,4,1,0,100,0,0
152052,-111.111111111111,4,1,0,100,0,0
152526,-111.111111111111,4,1,0,98,0,0
152842,-111.111111111111,4,1,0,96,0,0
153000,-111.111111111111,4,1,0,95,0,0
153158,-111.111111111111,4,1,0,94,0,0
153315,-111.111111111111,4,1,0,94,0,0
153473,-111.111111111111,4,1,0,93,0,0
153789,-111.111111111111,4,1,0,91,0,0
154105,-111.111111111111,4,1,0,90,0,0
154263,-111.111111111111,4,1,0,89,0,0
154421,-111.111111111111,4,1,0,88,0,0
154579,-111.111111111111,4,1,0,87,0,0
154894,-111.111111111111,4,1,0,85,0,0
155052,-111.111111111111,4,1,0,85,0,0
155368,-111.111111111111,4,1,0,83,0,0
155526,-111.111111111111,4,1,0,82,0,0
155684,-111.111111111111,4,1,0,81,0,0
156000,-111.111111111111,4,1,0,80,0,0
156315,-111.111111111111,4,1,0,78,0,0
156394,-111.111111111111,4,1,0,78,0,0
156473,-111.111111111111,4,1,0,77,0,0
156631,-111.111111111111,4,1,0,77,0,0
156789,-111.111111111111,4,1,0,76,0,0
156947,-111.111111111111,4,1,0,75,0,0
157263,-111.111111111111,4,1,0,73,0,0
157342,-111.111111111111,4,1,0,73,0,0
157421,-111.111111111111,4,1,0,73,0,0
157579,-111.111111111111,4,1,0,72,0,0
157736,-111.111111111111,4,1,0,71,0,0
157894,-111.111111111111,4,1,0,70,0,0
158053,-111.111111111111,4,1,0,69,0,0
158210,-111.111111111111,4,1,0,69,0,0
158526,-111.111111111111,4,1,0,67,0,0
158842,-111.111111111111,4,1,0,65,0,0
159000,-111.111111111111,4,1,0,65,0,0
159158,-111.111111111111,4,1,0,64,0,0
159316,-111.111111111111,4,1,0,63,0,0
159473,-111.111111111111,4,1,0,62,0,0
159631,-111.111111111111,4,1,0,61,0,0
159789,-111.111111111111,4,1,0,60,0,0
159868,-111.111111111111,4,1,0,60,0,0
159947,-111.111111111111,4,1,0,60,0,0
160105,-111.111111111111,4,1,0,59,0,0
160263,-111.111111111111,4,1,0,58,0,0
160421,-111.111111111111,4,1,0,57,0,0
160579,-111.111111111111,4,1,0,56,0,0
160736,-111.111111111111,4,1,0,56,0,0
160815,-111.111111111111,4,1,0,55,0,0
160894,-111.111111111111,4,1,0,55,0,0
160973,-111.111111111111,4,1,0,54,0,0
161052,-111.111111111111,4,1,0,54,0,0
161131,-111.111111111111,4,1,0,54,0,0
161210,-111.111111111111,4,1,0,53,0,0
161289,-111.111111111111,4,1,0,53,0,0
161368,-111.111111111111,4,1,0,52,0,0
161447,-111.111111111111,4,1,0,52,0,0
161526,-111.111111111111,4,1,0,52,0,0
161631,-111.111111111111,4,1,0,51,0,0
161736,-111.111111111111,4,1,0,51,0,0
161842,-111.111111111111,4,1,0,50,0,0

[HitObjects]
352,128,5213,5,8,0:0:0:0:
160,128,5529,1,0,0:0:0:0:
160,128,5687,1,0,0:0:0:0:
352,128,6161,1,8,0:0:0:0:
160,128,6476,1,0,0:0:0:0:
160,128,6634,1,0,0:0:0:0:
352,128,7739,1,8,0:0:0:0:
160,128,8055,1,0,0:0:0:0:
160,128,8213,1,0,0:0:0:0:
352,128,8687,1,8,0:0:0:0:
160,128,9003,1,0,0:0:0:0:
352,128,9161,1,8,0:0:0:0:
352,128,10266,1,8,0:0:0:0:
352,128,10582,1,8,0:0:0:0:
160,128,10739,1,0,0:0:0:0:
352,128,11213,1,8,0:0:0:0:
352,128,11529,1,8,0:0:0:0:
160,128,11687,1,0,0:0:0:0:
352,128,12792,1,8,0:0:0:0:
160,128,13108,1,0,0:0:0:0:
352,128,13266,1,8,0:0:0:0:
352,128,13739,1,8,0:0:0:0:
160,128,14055,1,0,0:0:0:0:
352,128,14213,1,8,0:0:0:0:
160,256,15318,1,4,0:0:0:0:
160,256,15792,1,4,0:0:0:0:
160,256,16582,1,4,0:0:0:0:
352,256,17055,1,12,0:0:0:0:
352,256,17845,1,12,0:0:0:0:
352,256,18318,1,12,0:0:0:0:
352,128,18792,1,8,0:0:0:0:
160,128,19108,1,0,0:0:0:0:
352,128,19266,1,8,0:0:0:0:
352,256,20371,1,12,0:0:0:0:
160,256,20845,1,4,0:0:0:0:
160,256,21634,1,4,0:0:0:0:
352,256,22108,1,12,0:0:0:0:
352,256,22897,1,12,0:0:0:0:
352,256,23371,1,12,0:0:0:0:
352,128,23845,1,8,0:0:0:0:
160,128,24161,1,0,0:0:0:0:
352,128,24318,1,8,0:0:0:0:
160,256,25424,1,4,0:0:0:0:
160,256,25897,1,4,0:0:0:0:
160,256,26687,1,4,0:0:0:0:
352,256,27161,1,12,0:0:0:0:
352,256,27950,1,12,0:0:0:0:
352,256,28424,1,12,0:0:0:0:
352,128,28897,1,8,0:0:0:0:
160,128,29213,1,0,0:0:0:0:
352,128,29371,1,8,0:0:0:0:
352,256,30476,1,12,0:0:0:0:
352,128,30792,1,8,0:0:0:0:
160,128,30950,1,0,0:0:0:0:
352,128,31424,1,8,0:0:0:0:
352,128,31739,1,8,0:0:0:0:
160,128,31897,1,0,0:0:0:0:
160,128,32213,1,0,0:0:0:0:
352,128,32529,1,8,0:0:0:0:
160,128,32687,1,0,0:0:0:0:
352,128,33003,1,8,0:0:0:0:
160,128,33318,1,0,0:0:0:0:
352,128,33476,1,8,0:0:0:0:
160,128,33792,1,0,0:0:0:0:
160,128,33950,1,0,0:0:0:0:
160,128,34266,1,0,0:0:0:0:
160,128,34424,1,0,0:0:0:0:
160,128,34582,1,0,0:0:0:0:
160,128,34739,1,0,0:0:0:0:
352,128,34897,1,8,0:0:0:0:
160,256,35529,1,4,0:0:0:0:
352,128,36161,1,8,0:0:0:0:
160,128,36318,1,0,0:0:0:0:
352,128,36634,1,8,0:0:0:0:
352,128,37582,1,8,0:0:0:0:
160,128,38055,1,0,0:0:0:0:
352,128,38213,1,8,0:0:0:0:
352,128,38687,1,8,0:0:0:0:
352,128,38845,1,8,0:0:0:0:
160,128,39161,1,0,0:0:0:0:
160,128,39476,1,0,0:0:0:0:
352,128,39792,1,8,0:0:0:0:
352,128,40266,1,8,0:0:0:0:
160,128,40582,1,0,0:0:0:0:
352,128,40739,1,8,0:0:0:0:
160,128,41213,1,0,0:0:0:0:
160,128,41371,1,0,0:0:0:0:
352,128,41687,1,8,0:0:0:0:
352,128,42634,1,8,0:0:0:0:
160,128,43108,1,0,0:0:0:0:
352,128,43266,1,8,0:0:0:0:
352,128,43739,1,8,0:0:0:0:
160,128,43897,1,0,0:0:0:0:
352,128,44213,1,8,0:0:0:0:
352,128,44529,1,8,0:0:0:0:
160,128,44845,1,0,0:0:0:0:
352,128,45003,1,8,0:0:0:0:
352,128,45318,1,8,0:0:0:0:
160,256,45634,1,4,0:0:0:0:
160,128,46108,1,0,0:0:0:0:
352,128,46266,1,8,0:0:0:0:
160,128,46424,1,0,0:0:0:0:
352,128,46739,1,8,0:0:0:0:
352,128,47687,1,8,0:0:0:0:
160,128,48003,1,0,0:0:0:0:
160,128,48161,1,0,0:0:0:0:
352,128,48318,1,8,0:0:0:0:
160,128,48634,1,0,0:0:0:0:
352,128,48792,1,8,0:0:0:0:
160,128,48950,1,0,0:0:0:0:
352,128,49266,1,8,0:0:0:0:
352,128,49582,1,8,0:0:0:0:
160,128,49897,1,0,0:0:0:0:
160,128,50055,1,0,0:0:0:0:
352,128,50371,1,8,0:0:0:0:
160,128,50687,1,0,0:0:0:0:
352,128,50845,1,8,0:0:0:0:
160,128,51161,1,0,0:0:0:0:
160,128,51318,1,0,0:0:0:0:
352,128,51634,1,8,0:0:0:0:
352,128,51792,1,8,0:0:0:0:
352,128,52739,1,8,0:0:0:0:
160,128,53055,1,0,0:0:0:0:
160,128,53213,1,0,0:0:0:0:
352,128,53371,1,8,0:0:0:0:
352,128,53687,1,8,0:0:0:0:
160,128,53845,1,0,0:0:0:0:
352,128,54161,1,8,0:0:0:0:
352,128,54318,1,8,0:0:0:0:
160,128,54634,1,0,0:0:0:0:
352,128,54792,1,8,0:0:0:0:
352,128,54950,1,8,0:0:0:0:
160,128,55108,1,0,0:0:0:0:
160,128,55424,1,0,0:0:0:0:
352,256,55739,5,12,0:0:0:0:
160,128,56055,1,0,0:0:0:0:
352,128,56213,1,8,0:0:0:0:
160,128,56529,1,0,0:0:0:0:
352,128,56687,1,8,0:0:0:0:
160,128,57003,1,0,0:0:0:0:
160,128,57161,1,0,0:0:0:0:
352,128,57318,1,8,0:0:0:0:
352,128,57476,1,8,0:0:0:0:
160,128,57634,1,0,0:0:0:0:
160,128,57950,1,0,0:0:0:0:
352,128,58266,1,8,0:0:0:0:
352,256,60792,1,12,0:0:0:0:
160,128,61108,1,0,0:0:0:0:
352,128,61266,1,8,0:0:0:0:
160,128,61582,1,0,0:0:0:0:
352,128,61739,1,8,0:0:0:0:
160,128,62055,1,0,0:0:0:0:
352,128,62213,1,8,0:0:0:0:
160,128,62371,1,0,0:0:0:0:
352,128,62529,1,8,0:0:0:0:
160,128,62687,1,0,0:0:0:0:
352,128,63003,1,8,0:0:0:0:
160,128,63318,1,0,0:0:0:0:
352,256,65845,1,12,0:0:0:0:
160,128,66161,1,0,0:0:0:0:
352,128,66318,1,8,0:0:0:0:
160,128,66634,1,0,0:0:0:0:
352,128,66792,1,8,0:0:0:0:
160,128,67108,1,0,0:0:0:0:
160,128,67266,1,0,0:0:0:0:
352,128,67424,1,8,0:0:0:0:
352,128,67582,1,8,0:0:0:0:
160,128,67739,1,0,0:0:0:0:
160,128,68055,1,0,0:0:0:0:
352,128,68371,1,8,0:0:0:0:
352,256,70897,1,12,0:0:0:0:
352,128,71213,1,8,0:0:0:0:
352,128,71371,1,8,0:0:0:0:
160,128,71687,1,0,0:0:0:0:
160,128,71845,1,0,0:0:0:0:
352,128,72161,1,8,0:0:0:0:
352,128,72318,1,8,0:0:0:0:
160,128,72476,1,0,0:0:0:0:
352,128,72634,1,8,0:0:0:0:
352,128,72792,1,8,0:0:0:0:
160,128,73108,1,0,0:0:0:0:
352,128,73424,1,8,0:0:0:0:
352,128,73739,1,8,0:0:0:0:
352,128,73897,1,8,0:0:0:0:
160,128,74213,1,0,0:0:0:0:
160,128,74371,1,0,0:0:0:0:
352,128,74687,1,8,0:0:0:0:
352,128,75003,1,8,0:0:0:0:
352,128,75161,1,8,0:0:0:0:
160,128,75476,1,0,0:0:0:0:
352,128,75634,1,8,0:0:0:0:
352,256,75950,1,12,0:0:0:0:
352,128,80687,1,8,0:0:0:0:
160,128,81003,1,0,0:0:0:0:
352,128,83371,1,8,0:0:0:0:
352,128,83529,1,8,0:0:0:0:
352,128,86055,5,8,0:0:0:0:
160,128,86371,1,0,0:0:0:0:
160,128,86529,1,0,0:0:0:0:
352,128,87003,1,8,0:0:0:0:
160,128,87318,1,0,0:0:0:0:
160,128,87476,1,0,0:0:0:0:
352,128,88582,1,8,0:0:0:0:
160,128,88897,1,0,0:0:0:0:
160,128,89055,1,0,0:0:0:0:
352,128,89529,1,8,0:0:0:0:
160,128,89845,1,0,0:0:0:0:
160,128,90003,1,0,0:0:0:0:
160,128,91108,1,0,0:0:0:0:
352,128,91424,1,8,0:0:0:0:
160,128,91582,1,0,0:0:0:0:
160,128,92055,1,0,0:0:0:0:
352,128,92371,1,8,0:0:0:0:
160,128,92529,1,0,0:0:0:0:
352,128,93634,1,8,0:0:0:0:
352,128,93950,1,8,0:0:0:0:
160,128,94108,1,0,0:0:0:0:
352,128,94582,1,8,0:0:0:0:
352,128,94897,1,8,0:0:0:0:
160,128,95055,1,0,0:0:0:0:
352,128,95529,1,8,0:0:0:0:
160,256,96161,1,4,0:0:0:0:
160,256,96634,1,4,0:0:0:0:
160,256,97424,1,4,0:0:0:0:
352,256,97897,1,12,0:0:0:0:
352,256,98687,1,12,0:0:0:0:
352,256,99161,1,12,0:0:0:0:
352,128,99634,1,8,0:0:0:0:
160,128,99950,1,0,0:0:0:0:
352,128,100108,1,8,0:0:0:0:
160,256,101213,1,4,0:0:0:0:
352,128,101529,1,8,0:0:0:0:
160,128,101687,1,0,0:0:0:0:
352,128,102161,1,8,0:0:0:0:
352,128,102476,1,8,0:0:0:0:
160,128,102634,1,0,0:0:0:0:
160,128,103108,1,0,0:0:0:0:
160,128,103424,1,0,0:0:0:0:
352,128,103739,1,8,0:0:0:0:
160,128,104055,1,0,0:0:0:0:
352,128,104213,1,8,0:0:0:0:
160,128,104529,1,0,0:0:0:0:
160,128,104687,1,0,0:0:0:0:
160,128,105003,1,0,0:0:0:0:
160,128,105161,1,0,0:0:0:0:
160,128,105318,1,0,0:0:0:0:
160,128,105476,1,0,0:0:0:0:
352,128,105634,1,8,0:0:0:0:
352,128,105792,1,8,0:0:0:0:
352,128,105950,1,8,0:0:0:0:
352,128,106266,1,8,0:0:0:0:
160,128,107529,1,0,0:0:0:0:
160,128,108792,1,0,0:0:0:0:
160,128,109108,1,0,0:0:0:0:
352,128,109266,1,8,0:0:0:0:
160,128,109582,1,0,0:0:0:0:
352,128,109739,1,8,0:0:0:0:
352,128,110055,1,8,0:0:0:0:
160,128,110371,1,0,0:0:0:0:
160,128,110529,1,0,0:0:0:0:
352,128,110687,1,8,0:0:0:0:
352,256,111318,1,12,0:0:0:0:
352,128,111792,1,8,0:0:0:0:
352,128,111950,1,8,0:0:0:0:
160,128,112108,1,0,0:0:0:0:
160,128,112266,1,0,0:0:0:0:
352,128,112582,1,8,0:0:0:0:
160,128,113055,1,0,0:0:0:0:
160,128,113213,1,0,0:0:0:0:
352,128,113371,1,8,0:0:0:0:
352,128,113529,1,8,0:0:0:0:
352,128,113845,1,8,0:0:0:0:
160,128,114003,1,0,0:0:0:0:
352,128,114161,1,8,0:0:0:0:
160,128,114476,1,0,0:0:0:0:
160,128,114792,1,0,0:0:0:0:
352,128,115108,1,8,0:0:0:0:
160,128,115266,1,0,0:0:0:0:
352,128,115424,1,8,0:0:0:0:
160,128,115582,1,0,0:0:0:0:
352,128,115739,1,8,0:0:0:0:
352,128,115897,1,8,0:0:0:0:
160,128,116055,1,0,0:0:0:0:
352,128,116371,1,8,0:0:0:0:
352,128,116845,1,8,0:0:0:0:
352,128,117003,1,8,0:0:0:0:
160,128,117161,1,0,0:0:0:0:
160,128,117318,1,0,0:0:0:0:
352,128,117634,1,8,0:0:0:0:
160,128,118108,1,0,0:0:0:0:
160,128,118266,1,0,0:0:0:0:
352,128,118424,1,8,0:0:0:0:
352,128,118582,1,8,0:0:0:0:
160,128,118897,1,0,0:0:0:0:
352,128,119055,1,8,0:0:0:0:
352,128,119213,1,8,0:0:0:0:
160,128,119371,1,0,0:0:0:0:
160,128,119529,1,0,0:0:0:0:
352,128,119687,1,8,0:0:0:0:
352,128,119845,1,8,0:0:0:0:
352,128,120161,1,8,0:0:0:0:
352,128,120634,1,8,0:0:0:0:
160,128,120792,1,0,0:0:0:0:
352,128,121108,1,8,0:0:0:0:
160,256,121424,5,4,0:0:0:0:
352,256,122371,1,12,0:0:0:0:
352,128,122687,1,8,0:0:0:0:
160,128,123161,1,0,0:0:0:0:
160,128,123318,1,0,0:0:0:0:
352,128,123476,1,8,0:0:0:0:
160,128,123634,1,0,0:0:0:0:
352,128,123950,1,8,0:0:0:0:
160,128,124108,1,0,0:0:0:0:
352,128,124266,1,8,0:0:0:0:
160,128,124582,1,0,0:0:0:0:
160,128,124897,1,0,0:0:0:0:
352,128,125213,1,8,0:0:0:0:
352,128,125371,1,8,0:0:0:0:
352,128,125529,1,8,0:0:0:0:
352,128,125687,1,8,0:0:0:0:
160,128,125845,1,0,0:0:0:0:
160,128,126003,1,0,0:0:0:0:
352,128,126161,1,8,0:0:0:0:
352,128,126476,1,8,0:0:0:0:
352,128,126950,1,8,0:0:0:0:
352,128,127108,1,8,0:0:0:0:
160,128,127266,1,0,0:0:0:0:
160,128,127424,1,0,0:0:0:0:
352,128,127739,1,8,0:0:0:0:
160,128,128213,1,0,0:0:0:0:
160,128,128371,1,0,0:0:0:0:
352,128,128529,1,8,0:0:0:0:
352,128,128687,1,8,0:0:0:0:
160,256,129003,5,4,0:0:0:0:
160,128,129318,1,0,0:0:0:0:
352,128,129476,1,8,0:0:0:0:
352,128,129634,1,8,0:0:0:0:
160,128,129792,1,0,0:0:0:0:
352,128,129950,1,8,0:0:0:0:
160,128,130108,1,0,0:0:0:0:
352,128,130266,1,8,0:0:0:0:
352,128,131213,1,8,0:0:0:0:
160,256,131529,1,4,0:0:0:0:
160,128,132003,1,0,0:0:0:0:
160,128,132476,1,0,0:0:0:0:
352,128,133108,1,8,0:0:0:0:
352,128,133424,1,8,0:0:0:0:
352,128,133739,1,8,0:0:0:0:
160,128,134055,1,0,0:0:0:0:
160,128,134529,1,0,0:0:0:0:
160,128,135003,1,0,0:0:0:0:
352,128,135634,1,8,0:0:0:0:
352,128,135950,1,8,0:0:0:0:
352,128,136266,1,8,0:0:0:0:
352,128,136582,1,8,0:0:0:0:
160,128,137055,1,0,0:0:0:0:
352,128,137529,1,8,0:0:0:0:
352,128,137845,1,8,0:0:0:0:
160,128,138318,1,0,0:0:0:0:
352,128,138792,1,8,0:0:0:0:
160,256,139108,1,4,0:0:0:0:
160,128,139424,1,0,0:0:0:0:
160,128,139582,1,0,0:0:0:0:
160,128,139897,1,0,0:0:0:0:
352,128,140055,1,8,0:0:0:0:
160,128,140371,1,0,0:0:0:0:
160,128,140529,1,0,0:0:0:0:
160,128,140687,1,0,0:0:0:0:
160,128,140845,1,0,0:0:0:0:
160,128,141003,1,0,0:0:0:0:
160,256,141634,1,4,0:0:0:0:
352,128,141950,1,8,0:0:0:0:
160,256,142108,1,4,0:0:0:0:
352,128,142582,1,8,0:0:0:0:
160,256,142897,1,4,0:0:0:0:
160,256,143371,1,4,0:0:0:0:
352,128,143845,1,8,0:0:0:0:
160,256,144161,1,4,0:0:0:0:
352,128,144476,1,8,0:0:0:0:
160,256,144634,1,4,0:0:0:0:
352,128,145108,1,8,0:0:0:0:
160,256,145424,1,4,0:0:0:0:
160,256,145897,1,4,0:0:0:0:
160,128,146371,1,0,0:0:0:0:
352,256,146687,1,12,0:0:0:0:
160,128,147003,1,0,0:0:0:0:
352,256,147161,1,12,0:0:0:0:
160,128,147634,1,0,0:0:0:0:
352,256,147950,1,12,0:0:0:0:
160,128,148266,1,0,0:0:0:0:
352,256,148424,1,12,0:0:0:0:
160,128,148897,1,0,0:0:0:0:
352,128,149213,1,8,0:0:0:0:
160,128,149371,1,0,0:0:0:0:
160,128,149529,1,0,0:0:0:0:
352,128,149687,1,8,0:0:0:0:
160,128,149845,1,0,0:0:0:0:
160,128,150003,1,0,0:0:0:0:
352,128,150161,1,8,0:0:0:0:
352,128,150476,1,8,0:0:0:0:
352,128,150634,1,8,0:0:0:0:
160,128,150792,1,0,0:0:0:0:
352,128,150950,1,8,0:0:0:0:
352,128,151108,1,8,0:0:0:0:
160,128,151266,1,0,0:0:0:0:
352,128,151424,1,8,0:0:0:0:
160,256,151739,1,4,0:0:0:0:
160,128,152371,1,0,0:0:0:0:
352,128,152845,1,8,0:0:0:0:
352,128,153792,1,8,0:0:0:0:
352,128,154424,1,8,0:0:0:0:
160,128,154897,1,0,0:0:0:0:
352,128,155371,1,8,0:0:0:0:
352,128,155687,1,8,0:0:0:0:
160,128,156003,1,0,0:0:0:0:
352,128,156318,1,8,0:0:0:0:
352,128,156476,1,8,0:0:0:0:
352,128,156950,1,8,0:0:0:0:
160,128,157266,1,0,0:0:0:0:
160,128,157424,1,0,0:0:0:0:
352,128,157739,1,8,0:0:0:0:
352,128,157897,1,8,0:0:0:0:
352,128,158845,1,8,0:0:0:0:
352,128,159476,1,8,0:0:0:0:
160,128,159792,1,0,0:0:0:0:
160,128,159950,1,0,0:0:0:0:
352,128,160266,1,8,0:0:0:0:
352,128,160424,1,8,0:0:0:0:
352,128,160739,1,8,0:0:0:0:
352,128,160897,1,8,0:0:0:0:
160,128,161055,1,0,0:0:0:0:
160,128,161213,1,0,0:0:0:0:
352,128,161529,1,8,0:0:0:0:
160,128,161845,1,0,0:0:0:0:
352,128,162161,1,8,0:0:0:0:
160,128,162318,1,0,0:0:0:0:
160,128,162792,1,0,0:0:0:0:
352,128,163108,1,8,0:0:0:0:
160,128,163266,1,0,0:0:0:0:
160,128,164371,1,0,0:0:0:0:
160,128,164687,1,0,0:0:0:0:
160,128,164845,1,0,0:0:0:0:
160,128,165318,1,0,0:0:0:0:
160,128,165634,1,0,0:0:0:0:
352,128,165792,1,8,0:0:0:0:
352,128,166897,1,8,0:0:0:0:
160,128,167213,1,0,0:0:0:0:
160,128,167371,1,0,0:0:0:0:
352,128,167845,1,8,0:0:0:0:
160,128,168161,1,0,0:0:0:0:
160,128,168318,1,0,0:0:0:0:
352,128,169424,1,8,0:0:0:0:
352,128,169739,1,8,0:0:0:0:
160,128,169897,1,0,0:0:0:0:
352,128,170371,1,8,0:0:0:0:
352,128,170687,1,8,0:0:0:0:
352,128,170845,1,8,0:0:0:0:
