osu file format v14

[General]
AudioFilename: audio.mp3
AudioLeadIn: 0
PreviewTime: 110826
Countdown: 0
SampleSet: Normal
StackLeniency: 0.7
Mode: 3
LetterboxInBreaks: 0
SpecialStyle: 0
WidescreenStoryboard: 0

[Editor]
DistanceSpacing: 0.8
BeatDivisor: 6
GridSize: 16
TimelineZoom: 1.7

[Metadata]
Title:Maboroshi
TitleUnicode:Maboroshi
Artist:Camellia
ArtistUnicode:かめりあ
Creator:-mint-
Version:Apparition
Source:Cytus II
Tags:cametek かめるかめりあ kamelcamellia 大箭将也 大箭マサヤ masaya oya edp 幻 まぼろし neko#ΦωΦ neko#owo game disc vol.2 volume 2 maimaiでらっくす+ maimai dx+ maimai deluxe plus cytus 2 rayark inc. mwc 2020 mwc20 mania world cup 2020 quarterfinals hybrid qqqant oriental hardcore electronic instrumental
BeatmapID:2519885
BeatmapSetID:1210416

[Difficulty]
HPDrainRate:8.7
CircleSize:4
OverallDifficulty:8.3
ApproachRate:5
SliderMultiplier:1.4
SliderTickRate:1

[Events]
//Background and Video events
0,0,"Maboroshi.jpg",0,0
//Break Periods
//Storyboard Layer 0 (Background)
//Storyboard Layer 1 (Fail)
//Storyboard Layer 2 (Pass)
//Storyboard Layer 3 (Foreground)
//Storyboard Layer 4 (Overlay)
//Storyboard Sound Samples

[TimingPoints]
5195,315.789473684211,4,1,1,30,1,0
14589,-100,4,1,1,50,0,0
76958,-100,4,1,1,30,0,0
86037,-100,4,1,1,40,0,0
96142,-100,4,1,1,50,0,0
106484,-100,4,1,1,30,0,0
108773,-100,4,1,1,40,0,0
110037,-100,4,1,1,50,0,0
111300,-100,4,1,1,50,0,1
121405,-100,4,1,1,50,0,0
122352,-100,4,1,1,50,0,1
130247,-100,4,1,1,50,0,0
151879,-100,4,1,1,40,0,0
161826,-100,4,1,1,30,0,0

[HitObjects]
448,192,5195,128,0,5510:0:0:0:0:
192,192,5352,128,0,5510:0:0:0:0:
64,192,5510,128,0,5668:0:0:0:0:
448,192,5668,128,0,5984:0:0:0:0:
64,192,5826,1,0,0:0:0:0:
192,192,5984,1,0,0:0:0:0:
448,192,6142,128,0,6300:0:0:0:0:
320,192,6300,128,0,6458:0:0:0:0:
64,192,6458,128,0,6773:0:0:0:0:
192,192,6616,128,0,6773:0:0:0:0:
448,192,6773,1,0,0:0:0:0:
64,192,6931,128,0,7247:0:0:0:0:
320,192,7089,1,0,0:0:0:0:
192,192,7247,1,0,0:0:0:0:
320,192,7405,128,0,7721:0:0:0:0:
448,192,7721,128,0,8037:0:0:0:0:
192,192,7879,128,0,8037:0:0:0:0:
64,192,8037,128,0,8195:0:0:0:0:
448,192,8195,128,0,8510:0:0:0:0:
64,192,8352,1,0,0:0:0:0:
192,192,8510,1,0,0:0:0:0:
448,192,8668,128,0,8826:0:0:0:0:
64,192,8721,1,0,0:0:0:0:
192,192,8773,1,0,0:0:0:0:
320,192,8826,128,0,8984:0:0:0:0:
192,192,8879,1,0,0:0:0:0:
64,192,8984,128,0,9142:0:0:0:0:
448,192,9142,128,0,9300:0:0:0:0:
192,192,9300,1,0,0:0:0:0:
64,192,9352,1,0,0:0:0:0:
320,192,9405,1,0,0:0:0:0:
192,192,9458,1,0,0:0:0:0:
448,192,9537,1,0,0:0:0:0:
64,192,9616,1,0,0:0:0:0:
320,192,9721,1,0,0:0:0:0:
192,192,9773,1,0,0:0:0:0:
64,192,9826,1,0,0:0:0:0:
448,192,9931,1,0,0:0:0:0:
64,192,9984,1,0,0:0:0:0:
320,192,10089,1,0,0:0:0:0:
64,192,10142,1,0,0:0:0:0:
448,192,10247,128,0,10563:0:0:0:0:
192,192,10405,128,0,10563:0:0:0:0:
64,192,10563,128,0,10721:0:0:0:0:
448,192,10721,128,0,11037:0:0:0:0:
64,192,10879,1,0,0:0:0:0:
192,192,10905,128,0,10984:0:0:0:0:
192,192,11037,1,0,0:0:0:0:
448,192,11195,128,0,11352:0:0:0:0:
320,192,11352,128,0,11510:0:0:0:0:
64,192,11510,128,0,11826:0:0:0:0:
192,192,11668,128,0,11826:0:0:0:0:
448,192,11826,1,0,0:0:0:0:
64,192,11984,128,0,12300:0:0:0:0:
320,192,12142,1,0,0:0:0:0:
192,192,12300,1,0,0:0:0:0:
320,192,12458,128,0,12616:0:0:0:0:
192,192,12616,1,0,0:0:0:0:
64,192,12668,1,0,0:0:0:0:
320,192,12721,1,0,0:0:0:0:
448,192,12773,128,0,13089:0:0:0:0:
320,192,12931,128,0,13089:0:0:0:0:
192,192,13089,128,0,13247:0:0:0:0:
448,192,13247,128,0,13563:0:0:0:0:
192,192,13405,1,0,0:0:0:0:
64,192,13563,1,0,0:0:0:0:
320,192,13616,1,0,0:0:0:0:
192,192,13668,1,0,0:0:0:0:
64,192,13721,128,0,13879:0:0:0:0:
448,192,13773,1,0,0:0:0:0:
320,192,13826,1,0,0:0:0:0:
192,192,13879,128,0,14037:0:0:0:0:
320,192,13931,1,0,0:0:0:0:
448,192,14037,128,0,14195:0:0:0:0:
64,192,14142,1,0,0:0:0:0:
320,192,14195,128,0,14352:0:0:0:0:
192,192,14247,1,0,0:0:0:0:
64,192,14352,5,0,0:0:0:0:
448,192,14405,1,0,0:0:0:0:
192,192,14458,1,0,0:0:0:0:
64,192,14510,1,0,0:0:0:0:
320,192,14537,5,0,0:0:0:0:
192,192,14589,1,0,0:0:0:0:
64,192,14668,1,0,0:0:0:0:
448,192,14668,1,0,0:0:0:0:
320,192,14747,1,0,0:0:0:0:
192,192,14826,1,0,0:0:0:0:
320,192,14905,1,0,0:0:0:0:
192,192,14984,1,0,0:0:0:0:
448,192,14984,1,0,0:0:0:0:
64,192,15063,1,0,0:0:0:0:
320,192,15063,1,0,0:0:0:0:
192,192,15142,1,0,0:0:0:0:
320,192,15221,1,0,0:0:0:0:
448,192,15300,128,0,15616:0:0:0:0:
192,192,15300,128,0,15458:0:0:0:0:
64,192,15300,128,0,15458:0:0:0:0:
320,192,15458,128,0,15616:0:0:0:0:
192,192,15616,1,0,0:0:0:0:
192,192,15695,1,0,0:0:0:0:
320,192,15773,128,0,15931:0:0:0:0:
448,192,15773,128,0,15931:0:0:0:0:
64,192,15773,128,0,16089:0:0:0:0:
192,192,15931,1,0,0:0:0:0:
320,192,16089,1,0,0:0:0:0:
448,192,16247,128,0,16405:0:0:0:0:
192,192,16405,128,0,16563:0:0:0:0:
320,192,16563,128,0,16721:0:0:0:0:
64,192,16563,128,0,16879:0:0:0:0:
448,192,16563,128,0,16721:0:0:0:0:
192,192,16721,128,0,16879:0:0:0:0:
320,192,16879,1,0,0:0:0:0:
320,192,16958,1,0,0:0:0:0:
448,192,17037,128,0,17352:0:0:0:0:
192,192,17037,128,0,17195:0:0:0:0:
64,192,17037,128,0,17195:0:0:0:0:
320,192,17195,1,0,0:0:0:0:
192,192,17352,1,0,0:0:0:0:
448,192,17510,128,0,17589:0:0:0:0:
192,192,17668,1,0,0:0:0:0:
192,192,17826,128,0,18142:0:0:0:0:
320,192,17826,128,0,17984:0:0:0:0:
448,192,17826,128,0,17984:0:0:0:0:
64,192,17984,128,0,18142:0:0:0:0:
448,192,18142,1,0,0:0:0:0:
448,192,18221,1,0,0:0:0:0:
320,192,18300,128,0,18616:0:0:0:0:
64,192,18300,128,0,18458:0:0:0:0:
192,192,18300,128,0,18458:0:0:0:0:
448,192,18458,1,0,0:0:0:0:
64,192,18616,1,0,0:0:0:0:
448,192,18773,1,0,0:0:0:0:
192,192,18931,1,0,0:0:0:0:
64,192,19089,1,0,0:0:0:0:
192,192,19247,1,0,0:0:0:0:
320,192,19287,1,0,0:0:0:0:
64,192,19326,1,0,0:0:0:0:
192,192,19366,1,0,0:0:0:0:
448,192,19405,1,0,0:0:0:0:
320,192,19458,1,0,0:0:0:0:
64,192,19510,1,0,0:0:0:0:
448,192,19563,1,0,0:0:0:0:
192,192,19616,1,0,0:0:0:0:
64,192,19668,1,0,0:0:0:0:
320,192,19721,1,0,0:0:0:0:
192,192,19773,1,0,0:0:0:0:
64,192,19826,1,0,0:0:0:0:
448,192,19879,1,0,0:0:0:0:
320,192,19931,1,0,0:0:0:0:
192,192,19984,1,0,0:0:0:0:
448,192,20037,1,0,0:0:0:0:
64,192,20089,1,0,0:0:0:0:
320,192,20142,1,0,0:0:0:0:
192,192,20195,128,0,20273:0:0:0:0:
320,192,20273,128,0,20352:0:0:0:0:
448,192,20352,128,0,20668:0:0:0:0:
192,192,20352,128,0,20510:0:0:0:0:
64,192,20352,128,0,20510:0:0:0:0:
320,192,20510,128,0,20668:0:0:0:0:
192,192,20668,1,0,0:0:0:0:
192,192,20747,1,0,0:0:0:0:
320,192,20826,128,0,20984:0:0:0:0:
448,192,20826,128,0,20984:0:0:0:0:
64,192,20826,128,0,21142:0:0:0:0:
192,192,20984,1,0,0:0:0:0:
320,192,21142,1,0,0:0:0:0:
448,192,21300,128,0,21458:0:0:0:0:
192,192,21458,128,0,21616:0:0:0:0:
320,192,21616,128,0,21773:0:0:0:0:
64,192,21616,128,0,21931:0:0:0:0:
448,192,21616,128,0,21773:0:0:0:0:
192,192,21773,128,0,21931:0:0:0:0:
320,192,21931,1,0,0:0:0:0:
320,192,22010,1,0,0:0:0:0:
448,192,22089,128,0,22405:0:0:0:0:
192,192,22089,128,0,22247:0:0:0:0:
64,192,22089,128,0,22247:0:0:0:0:
320,192,22247,1,0,0:0:0:0:
192,192,22405,1,0,0:0:0:0:
448,192,22563,1,0,0:0:0:0:
64,192,22602,1,0,0:0:0:0:
448,192,22642,1,0,0:0:0:0:
320,192,22721,1,0,0:0:0:0:
192,192,22773,1,0,0:0:0:0:
320,192,22826,1,0,0:0:0:0:
448,192,22879,128,0,23195:0:0:0:0:
192,192,22879,128,0,23037:0:0:0:0:
64,192,22879,128,0,23037:0:0:0:0:
320,192,23037,128,0,23195:0:0:0:0:
64,192,23195,1,0,0:0:0:0:
64,192,23273,1,0,0:0:0:0:
448,192,23352,128,0,23510:0:0:0:0:
192,192,23352,128,0,23668:0:0:0:0:
320,192,23352,128,0,23510:0:0:0:0:
64,192,23510,1,0,0:0:0:0:
320,192,23668,1,0,0:0:0:0:
192,192,23721,1,0,0:0:0:0:
320,192,23773,1,0,0:0:0:0:
448,192,23826,1,0,0:0:0:0:
192,192,23984,1,0,0:0:0:0:
64,192,24142,1,0,0:0:0:0:
192,192,24300,1,0,0:0:0:0:
448,192,24458,1,0,0:0:0:0:
320,192,24497,1,0,0:0:0:0:
64,192,24537,1,0,0:0:0:0:
192,192,24616,128,0,24773:0:0:0:0:
320,192,24695,128,0,24852:0:0:0:0:
64,192,24773,128,0,24931:0:0:0:0:
192,192,24852,128,0,25168:0:0:0:0:
448,192,24931,128,0,25089:0:0:0:0:
64,192,25010,128,0,25326:0:0:0:0:
320,192,25089,128,0,25247:0:0:0:0:
448,192,25168,128,0,25326:0:0:0:0:
192,192,25247,128,0,25326:0:0:0:0:
320,192,25326,128,0,25405:0:0:0:0:
448,192,25405,128,0,25563:0:0:0:0:
192,192,25405,1,0,0:0:0:0:
64,192,25405,1,0,0:0:0:0:
320,192,25484,1,0,0:0:0:0:
64,192,25563,1,0,0:0:0:0:
448,192,25642,1,0,0:0:0:0:
192,192,25721,1,0,0:0:0:0:
192,192,25800,1,0,0:0:0:0:
64,192,25879,128,0,26037:0:0:0:0:
320,192,25879,1,0,0:0:0:0:
448,192,25879,1,0,0:0:0:0:
192,192,25958,1,0,0:0:0:0:
448,192,26037,1,0,0:0:0:0:
64,192,26116,1,0,0:0:0:0:
320,192,26195,1,0,0:0:0:0:
192,192,26273,1,0,0:0:0:0:
448,192,26352,1,0,0:0:0:0:
64,192,26431,1,0,0:0:0:0:
320,192,26510,1,0,0:0:0:0:
192,192,26589,1,0,0:0:0:0:
64,192,26668,128,0,26826:0:0:0:0:
320,192,26668,1,0,0:0:0:0:
448,192,26668,1,0,0:0:0:0:
192,192,26747,1,0,0:0:0:0:
448,192,26826,1,0,0:0:0:0:
64,192,26905,1,0,0:0:0:0:
320,192,26984,1,0,0:0:0:0:
320,192,27063,1,0,0:0:0:0:
448,192,27142,128,0,27300:0:0:0:0:
192,192,27142,1,0,0:0:0:0:
64,192,27142,1,0,0:0:0:0:
320,192,27221,1,0,0:0:0:0:
64,192,27300,1,0,0:0:0:0:
448,192,27379,1,0,0:0:0:0:
192,192,27458,1,0,0:0:0:0:
64,192,27537,1,0,0:0:0:0:
448,192,27616,128,0,27695:0:0:0:0:
320,192,27695,1,0,0:0:0:0:
192,192,27773,1,0,0:0:0:0:
64,192,27852,1,0,0:0:0:0:
192,192,27931,128,0,28089:0:0:0:0:
320,192,27931,1,0,0:0:0:0:
448,192,27931,1,0,0:0:0:0:
64,192,28010,1,0,0:0:0:0:
320,192,28089,1,0,0:0:0:0:
192,192,28168,1,0,0:0:0:0:
448,192,28247,1,0,0:0:0:0:
448,192,28326,1,0,0:0:0:0:
320,192,28405,128,0,28563:0:0:0:0:
192,192,28405,1,0,0:0:0:0:
64,192,28405,1,0,0:0:0:0:
448,192,28484,1,0,0:0:0:0:
192,192,28563,1,0,0:0:0:0:
320,192,28642,1,0,0:0:0:0:
64,192,28721,1,0,0:0:0:0:
192,192,28800,1,0,0:0:0:0:
448,192,28879,1,0,0:0:0:0:
320,192,28958,1,0,0:0:0:0:
192,192,29037,1,0,0:0:0:0:
320,192,29116,1,0,0:0:0:0:
64,192,29195,1,0,0:0:0:0:
448,192,29273,5,0,0:0:0:0:
320,192,29352,5,0,0:0:0:0:
192,192,29392,1,0,0:0:0:0:
448,192,29431,1,0,0:0:0:0:
320,192,29471,1,0,0:0:0:0:
64,192,29510,1,0,0:0:0:0:
192,192,29563,1,0,0:0:0:0:
448,192,29616,1,0,0:0:0:0:
64,192,29668,1,0,0:0:0:0:
320,192,29721,1,0,0:0:0:0:
448,192,29773,1,0,0:0:0:0:
192,192,29826,1,0,0:0:0:0:
320,192,29879,1,0,0:0:0:0:
448,192,29931,1,0,0:0:0:0:
64,192,29984,1,0,0:0:0:0:
192,192,30037,1,0,0:0:0:0:
320,192,30089,1,0,0:0:0:0:
64,192,30142,1,0,0:0:0:0:
448,192,30195,1,0,0:0:0:0:
192,192,30247,1,0,0:0:0:0:
320,192,30300,1,0,0:0:0:0:
192,192,30379,1,0,0:0:0:0:
320,192,30458,128,0,30537:0:0:0:0:
448,192,30458,1,0,0:0:0:0:
64,192,30458,1,0,0:0:0:0:
192,192,30616,1,0,0:0:0:0:
64,192,30695,1,0,0:0:0:0:
320,192,30773,1,0,0:0:0:0:
448,192,30773,1,0,0:0:0:0:
192,192,30931,128,0,31010:0:0:0:0:
64,192,31089,1,0,0:0:0:0:
192,192,31089,1,0,0:0:0:0:
320,192,31247,1,0,0:0:0:0:
320,192,31405,1,0,0:0:0:0:
448,192,31405,1,0,0:0:0:0:
64,192,31484,1,0,0:0:0:0:
192,192,31563,1,0,0:0:0:0:
320,192,31642,1,0,0:0:0:0:
64,192,31721,1,0,0:0:0:0:
192,192,31721,128,0,31800:0:0:0:0:
448,192,31879,1,0,0:0:0:0:
192,192,31958,1,0,0:0:0:0:
320,192,32037,1,0,0:0:0:0:
448,192,32037,1,0,0:0:0:0:
64,192,32195,128,0,32273:0:0:0:0:
448,192,32273,1,0,0:0:0:0:
64,192,32352,1,0,0:0:0:0:
192,192,32352,1,0,0:0:0:0:
320,192,32431,1,0,0:0:0:0:
448,192,32510,1,0,0:0:0:0:
64,192,32668,1,0,0:0:0:0:
192,192,32668,128,0,32826:0:0:0:0:
320,192,32826,1,0,0:0:0:0:
64,192,32984,128,0,33063:0:0:0:0:
192,192,32984,1,0,0:0:0:0:
64,192,33142,5,0,0:0:0:0:
192,192,33142,1,0,0:0:0:0:
320,192,33300,1,0,0:0:0:0:
448,192,33300,1,0,0:0:0:0:
320,192,33458,1,0,0:0:0:0:
448,192,33458,128,0,33537:0:0:0:0:
64,192,33616,1,0,0:0:0:0:
192,192,33616,1,0,0:0:0:0:
192,192,33773,1,0,0:0:0:0:
64,192,33773,1,0,0:0:0:0:
320,192,33931,1,0,0:0:0:0:
448,192,33931,1,0,0:0:0:0:
448,192,34089,1,0,0:0:0:0:
320,192,34089,1,0,0:0:0:0:
64,192,34247,5,0,0:0:0:0:
192,192,34247,1,0,0:0:0:0:
320,192,34326,1,0,0:0:0:0:
448,192,34326,1,0,0:0:0:0:
192,192,34405,1,0,0:0:0:0:
64,192,34405,1,0,0:0:0:0:
448,192,34484,1,0,0:0:0:0:
320,192,34484,1,0,0:0:0:0:
64,192,34563,1,0,0:0:0:0:
320,192,34602,1,0,0:0:0:0:
192,192,34642,1,0,0:0:0:0:
448,192,34681,1,0,0:0:0:0:
64,192,34721,1,0,0:0:0:0:
320,192,34760,1,0,0:0:0:0:
192,192,34800,1,0,0:0:0:0:
64,192,34839,1,0,0:0:0:0:
448,192,34879,128,0,35195:0:0:0:0:
320,192,34958,128,0,35116:0:0:0:0:
192,192,35037,128,0,35195:0:0:0:0:
64,192,35116,128,0,35273:0:0:0:0:
320,192,35195,128,0,35273:0:0:0:0:
192,192,35273,128,0,35352:0:0:0:0:
448,192,35352,1,0,0:0:0:0:
64,192,35392,1,0,0:0:0:0:
320,192,35431,1,0,0:0:0:0:
192,192,35471,1,0,0:0:0:0:
320,192,35510,1,0,0:0:0:0:
448,192,35510,1,0,0:0:0:0:
64,192,35510,128,0,35589:0:0:0:0:
320,192,35668,128,0,35721:0:0:0:0:
192,192,35747,1,0,0:0:0:0:
64,192,35826,1,0,0:0:0:0:
448,192,35826,1,0,0:0:0:0:
64,192,35984,1,0,0:0:0:0:
192,192,35984,1,0,0:0:0:0:
320,192,36063,1,0,0:0:0:0:
192,192,36142,128,0,36195:0:0:0:0:
448,192,36221,1,0,0:0:0:0:
64,192,36300,1,0,0:0:0:0:
320,192,36300,128,0,36458:0:0:0:0:
192,192,36458,1,0,0:0:0:0:
448,192,36537,1,0,0:0:0:0:
320,192,36616,128,0,36668:0:0:0:0:
64,192,36695,1,0,0:0:0:0:
448,192,36773,128,0,36879:0:0:0:0:
64,192,36931,1,0,0:0:0:0:
192,192,36931,1,0,0:0:0:0:
320,192,37010,1,0,0:0:0:0:
64,192,37089,1,0,0:0:0:0:
448,192,37089,1,0,0:0:0:0:
320,192,37247,1,0,0:0:0:0:
448,192,37247,1,0,0:0:0:0:
64,192,37326,1,0,0:0:0:0:
320,192,37405,1,0,0:0:0:0:
192,192,37484,1,0,0:0:0:0:
448,192,37563,128,0,37616:0:0:0:0:
64,192,37563,128,0,37642:0:0:0:0:
192,192,37721,128,0,37879:0:0:0:0:
64,192,37800,1,0,0:0:0:0:
448,192,37879,1,0,0:0:0:0:
320,192,37879,1,0,0:0:0:0:
192,192,37958,1,0,0:0:0:0:
448,192,38037,128,0,38116:0:0:0:0:
320,192,38037,1,0,0:0:0:0:
64,192,38116,1,0,0:0:0:0:
320,192,38195,128,0,38247:0:0:0:0:
192,192,38273,1,0,0:0:0:0:
64,192,38352,1,0,0:0:0:0:
448,192,38352,1,0,0:0:0:0:
192,192,38510,1,0,0:0:0:0:
64,192,38510,1,0,0:0:0:0:
320,192,38589,1,0,0:0:0:0:
192,192,38668,128,0,38721:0:0:0:0:
448,192,38747,1,0,0:0:0:0:
320,192,38826,1,0,0:0:0:0:
64,192,38826,128,0,38984:0:0:0:0:
192,192,38984,1,0,0:0:0:0:
448,192,39063,1,0,0:0:0:0:
64,192,39142,128,0,39458:0:0:0:0:
320,192,39300,1,0,0:0:0:0:
448,192,39300,1,0,0:0:0:0:
192,192,39458,128,0,39773:0:0:0:0:
64,192,39616,1,0,0:0:0:0:
448,192,39616,1,0,0:0:0:0:
448,192,39773,1,0,0:0:0:0:
320,192,39773,128,0,39931:0:0:0:0:
64,192,39852,128,0,39931:0:0:0:0:
192,192,39931,128,0,40010:0:0:0:0:
448,192,40010,1,0,0:0:0:0:
320,192,40010,128,0,40168:0:0:0:0:
64,192,40089,1,0,0:0:0:0:
192,192,40089,128,0,40326:0:0:0:0:
448,192,40168,128,0,40247:0:0:0:0:
320,192,40247,1,0,0:0:0:0:
64,192,40247,128,0,40484:0:0:0:0:
448,192,40326,128,0,40563:0:0:0:0:
192,192,40405,128,0,40484:0:0:0:0:
320,192,40484,128,0,40563:0:0:0:0:
192,192,40563,128,0,40642:0:0:0:0:
64,192,40563,1,0,0:0:0:0:
448,192,40642,1,0,0:0:0:0:
320,192,40721,128,0,40773:0:0:0:0:
64,192,40800,1,0,0:0:0:0:
448,192,40879,1,0,0:0:0:0:
192,192,40879,1,0,0:0:0:0:
64,192,41037,1,0,0:0:0:0:
192,192,41037,1,0,0:0:0:0:
320,192,41116,1,0,0:0:0:0:
448,192,41195,128,0,41247:0:0:0:0:
192,192,41273,1,0,0:0:0:0:
320,192,41352,1,0,0:0:0:0:
64,192,41352,128,0,41510:0:0:0:0:
192,192,41510,1,0,0:0:0:0:
448,192,41589,1,0,0:0:0:0:
64,192,41668,128,0,41721:0:0:0:0:
320,192,41747,1,0,0:0:0:0:
448,192,41826,1,0,0:0:0:0:
192,192,41905,1,0,0:0:0:0:
448,192,41984,1,0,0:0:0:0:
320,192,41984,128,0,42089:0:0:0:0:
64,192,42063,1,0,0:0:0:0:
448,192,42142,1,0,0:0:0:0:
192,192,42142,1,0,0:0:0:0:
64,192,42300,1,0,0:0:0:0:
192,192,42300,1,0,0:0:0:0:
448,192,42379,1,0,0:0:0:0:
64,192,42458,1,0,0:0:0:0:
320,192,42537,1,0,0:0:0:0:
448,192,42616,128,0,42695:0:0:0:0:
192,192,42616,128,0,42668:0:0:0:0:
192,192,42773,128,0,42931:0:0:0:0:
64,192,42852,1,0,0:0:0:0:
448,192,42931,1,0,0:0:0:0:
320,192,42931,1,0,0:0:0:0:
192,192,43010,1,0,0:0:0:0:
320,192,43089,128,0,43168:0:0:0:0:
448,192,43089,1,0,0:0:0:0:
64,192,43168,1,0,0:0:0:0:
192,192,43247,128,0,43300:0:0:0:0:
448,192,43326,1,0,0:0:0:0:
64,192,43405,1,0,0:0:0:0:
320,192,43405,1,0,0:0:0:0:
320,192,43563,1,0,0:0:0:0:
448,192,43563,1,0,0:0:0:0:
192,192,43642,1,0,0:0:0:0:
64,192,43721,128,0,43773:0:0:0:0:
320,192,43800,1,0,0:0:0:0:
448,192,43879,1,0,0:0:0:0:
192,192,43879,128,0,43984:0:0:0:0:
64,192,44037,1,0,0:0:0:0:
448,192,44116,1,0,0:0:0:0:
320,192,44195,128,0,44247:0:0:0:0:
192,192,44273,1,0,0:0:0:0:
320,192,44352,1,0,0:0:0:0:
448,192,44352,1,0,0:0:0:0:
64,192,44431,1,0,0:0:0:0:
320,192,44510,1,0,0:0:0:0:
448,192,44510,128,0,44589:0:0:0:0:
192,192,44589,1,0,0:0:0:0:
64,192,44668,128,0,44747:0:0:0:0:
448,192,44668,1,0,0:0:0:0:
448,192,44826,1,0,0:0:0:0:
320,192,44826,128,0,44905:0:0:0:0:
192,192,44905,1,0,0:0:0:0:
64,192,44945,1,0,0:0:0:0:
448,192,44984,1,0,0:0:0:0:
64,192,45063,1,0,0:0:0:0:
192,192,45063,1,0,0:0:0:0:
448,192,45142,1,0,0:0:0:0:
320,192,45142,1,0,0:0:0:0:
192,192,45221,1,0,0:0:0:0:
448,192,45260,1,0,0:0:0:0:
64,192,45300,1,0,0:0:0:0:
320,192,45300,1,0,0:0:0:0:
192,192,45379,1,0,0:0:0:0:
320,192,45418,1,0,0:0:0:0:
320,192,45537,1,0,0:0:0:0:
192,192,45616,1,0,0:0:0:0:
64,192,45616,128,0,45695:0:0:0:0:
448,192,45616,128,0,45852:0:0:0:0:
320,192,45773,128,0,45826:0:0:0:0:
192,192,45852,1,0,0:0:0:0:
64,192,45931,1,0,0:0:0:0:
448,192,45931,1,0,0:0:0:0:
64,192,46089,1,0,0:0:0:0:
192,192,46089,1,0,0:0:0:0:
320,192,46168,1,0,0:0:0:0:
192,192,46247,128,0,46300:0:0:0:0:
448,192,46326,1,0,0:0:0:0:
64,192,46405,1,0,0:0:0:0:
320,192,46405,128,0,46563:0:0:0:0:
192,192,46563,1,0,0:0:0:0:
448,192,46642,1,0,0:0:0:0:
320,192,46721,128,0,46773:0:0:0:0:
192,192,46760,128,0,46839:0:0:0:0:
64,192,46800,1,0,0:0:0:0:
448,192,46879,128,0,46984:0:0:0:0:
64,192,47037,1,0,0:0:0:0:
192,192,47037,1,0,0:0:0:0:
320,192,47116,1,0,0:0:0:0:
64,192,47195,1,0,0:0:0:0:
448,192,47195,1,0,0:0:0:0:
320,192,47352,1,0,0:0:0:0:
448,192,47352,1,0,0:0:0:0:
64,192,47431,1,0,0:0:0:0:
320,192,47510,1,0,0:0:0:0:
192,192,47589,1,0,0:0:0:0:
448,192,47668,128,0,47721:0:0:0:0:
64,192,47668,128,0,47747:0:0:0:0:
192,192,47826,128,0,47984:0:0:0:0:
64,192,47905,1,0,0:0:0:0:
448,192,47984,1,0,0:0:0:0:
320,192,47984,1,0,0:0:0:0:
192,192,48063,1,0,0:0:0:0:
448,192,48142,128,0,48221:0:0:0:0:
320,192,48142,1,0,0:0:0:0:
64,192,48221,1,0,0:0:0:0:
320,192,48300,128,0,48352:0:0:0:0:
192,192,48379,1,0,0:0:0:0:
64,192,48458,1,0,0:0:0:0:
448,192,48458,1,0,0:0:0:0:
192,192,48616,1,0,0:0:0:0:
64,192,48616,1,0,0:0:0:0:
320,192,48695,1,0,0:0:0:0:
192,192,48773,128,0,48826:0:0:0:0:
448,192,48852,1,0,0:0:0:0:
320,192,48931,1,0,0:0:0:0:
64,192,48931,128,0,49089:0:0:0:0:
192,192,49089,1,0,0:0:0:0:
448,192,49168,1,0,0:0:0:0:
64,192,49247,128,0,49563:0:0:0:0:
320,192,49405,1,0,0:0:0:0:
448,192,49405,1,0,0:0:0:0:
192,192,49563,128,0,49879:0:0:0:0:
64,192,49721,1,0,0:0:0:0:
448,192,49721,1,0,0:0:0:0:
448,192,49879,1,0,0:0:0:0:
320,192,49879,128,0,50037:0:0:0:0:
64,192,49958,128,0,50037:0:0:0:0:
192,192,50037,128,0,50116:0:0:0:0:
448,192,50116,1,0,0:0:0:0:
320,192,50116,128,0,50273:0:0:0:0:
64,192,50195,1,0,0:0:0:0:
192,192,50195,128,0,50352:0:0:0:0:
448,192,50273,128,0,50431:0:0:0:0:
320,192,50352,128,0,50589:0:0:0:0:
64,192,50352,1,0,0:0:0:0:
192,192,50431,128,0,50668:0:0:0:0:
448,192,50510,128,0,50589:0:0:0:0:
64,192,50589,128,0,50668:0:0:0:0:
320,192,50668,128,0,50747:0:0:0:0:
448,192,50668,1,0,0:0:0:0:
64,192,50747,1,0,0:0:0:0:
448,192,50826,128,0,50879:0:0:0:0:
192,192,50905,1,0,0:0:0:0:
320,192,50984,1,0,0:0:0:0:
64,192,50984,1,0,0:0:0:0:
192,192,51142,1,0,0:0:0:0:
64,192,51142,128,0,51195:0:0:0:0:
320,192,51221,128,0,51273:0:0:0:0:
192,192,51300,128,0,51352:0:0:0:0:
448,192,51379,1,0,0:0:0:0:
320,192,51458,1,0,0:0:0:0:
64,192,51458,128,0,51616:0:0:0:0:
448,192,51616,128,0,51668:0:0:0:0:
320,192,51773,128,0,51826:0:0:0:0:
64,192,51826,128,0,51931:0:0:0:0:
192,192,51879,128,0,52010:0:0:0:0:
448,192,51931,128,0,52089:0:0:0:0:
192,192,52089,1,0,0:0:0:0:
64,192,52089,1,0,0:0:0:0:
320,192,52168,1,0,0:0:0:0:
448,192,52247,1,0,0:0:0:0:
64,192,52247,1,0,0:0:0:0:
64,192,52405,1,0,0:0:0:0:
192,192,52405,128,0,52563:0:0:0:0:
448,192,52484,128,0,52642:0:0:0:0:
320,192,52563,128,0,52721:0:0:0:0:
192,192,52642,128,0,52721:0:0:0:0:
448,192,52721,1,0,0:0:0:0:
64,192,52721,128,0,52773:0:0:0:0:
320,192,52879,1,0,0:0:0:0:
192,192,52958,1,0,0:0:0:0:
448,192,53037,128,0,53195:0:0:0:0:
320,192,53116,1,0,0:0:0:0:
192,192,53195,1,0,0:0:0:0:
64,192,53195,128,0,53352:0:0:0:0:
320,192,53352,128,0,53405:0:0:0:0:
64,192,53431,1,0,0:0:0:0:
448,192,53510,1,0,0:0:0:0:
192,192,53510,1,0,0:0:0:0:
64,192,53668,1,0,0:0:0:0:
192,192,53668,128,0,53721:0:0:0:0:
320,192,53747,128,0,53800:0:0:0:0:
64,192,53826,128,0,53879:0:0:0:0:
320,192,53905,1,0,0:0:0:0:
448,192,53984,1,0,0:0:0:0:
192,192,53984,128,0,54142:0:0:0:0:
448,192,54142,128,0,54195:0:0:0:0:
64,192,54221,1,0,0:0:0:0:
192,192,54300,128,0,54352:0:0:0:0:
320,192,54339,128,0,54418:0:0:0:0:
192,192,54458,1,0,0:0:0:0:
64,192,54458,1,0,0:0:0:0:
448,192,54537,1,0,0:0:0:0:
192,192,54616,128,0,54852:0:0:0:0:
320,192,54695,128,0,54773:0:0:0:0:
448,192,54773,128,0,54931:0:0:0:0:
320,192,54852,128,0,55010:0:0:0:0:
192,192,54931,128,0,55089:0:0:0:0:
64,192,55010,128,0,55168:0:0:0:0:
448,192,55089,128,0,55227:0:0:0:0:
192,192,55168,128,0,55267:0:0:0:0:
320,192,55227,128,0,55326:0:0:0:0:
64,192,55287,128,0,55346:0:0:0:0:
192,192,55346,128,0,55405:0:0:0:0:
320,192,55405,128,0,55563:0:0:0:0:
64,192,55563,1,0,0:0:0:0:
320,192,55721,1,0,0:0:0:0:
64,192,55721,1,0,0:0:0:0:
448,192,55721,128,0,55879:0:0:0:0:
192,192,55879,1,0,0:0:0:0:
320,192,55931,1,0,0:0:0:0:
192,192,55984,1,0,0:0:0:0:
448,192,56037,1,0,0:0:0:0:
64,192,56037,1,0,0:0:0:0:
320,192,56195,1,0,0:0:0:0:
448,192,56195,128,0,56352:0:0:0:0:
192,192,56352,1,0,0:0:0:0:
320,192,56405,1,0,0:0:0:0:
192,192,56458,1,0,0:0:0:0:
448,192,56510,128,0,56616:0:0:0:0:
64,192,56510,1,0,0:0:0:0:
320,192,56668,128,0,56826:0:0:0:0:
192,192,56747,1,0,0:0:0:0:
64,192,56826,1,0,0:0:0:0:
320,192,56905,1,0,0:0:0:0:
192,192,56984,128,0,57142:0:0:0:0:
320,192,57142,1,0,0:0:0:0:
448,192,57142,1,0,0:0:0:0:
64,192,57300,128,0,57458:0:0:0:0:
320,192,57300,1,0,0:0:0:0:
448,192,57458,1,0,0:0:0:0:
320,192,57458,1,0,0:0:0:0:
64,192,57537,1,0,0:0:0:0:
448,192,57616,128,0,57931:0:0:0:0:
192,192,57695,1,0,0:0:0:0:
64,192,57773,1,0,0:0:0:0:
320,192,57773,1,0,0:0:0:0:
64,192,57931,128,0,58247:0:0:0:0:
192,192,58010,1,0,0:0:0:0:
448,192,58089,1,0,0:0:0:0:
320,192,58089,1,0,0:0:0:0:
192,192,58168,1,0,0:0:0:0:
320,192,58247,128,0,58405:0:0:0:0:
64,192,58405,1,0,0:0:0:0:
320,192,58563,1,0,0:0:0:0:
192,192,58721,128,0,58773:0:0:0:0:
448,192,58760,128,0,58839:0:0:0:0:
320,192,58800,1,0,0:0:0:0:
192,192,58879,1,0,0:0:0:0:
64,192,59037,1,0,0:0:0:0:
192,192,59116,1,0,0:0:0:0:
64,192,59195,1,0,0:0:0:0:
320,192,59352,1,0,0:0:0:0:
448,192,59405,1,0,0:0:0:0:
320,192,59458,1,0,0:0:0:0:
192,192,59510,1,0,0:0:0:0:
448,192,59668,128,0,59905:0:0:0:0:
192,192,59747,128,0,59905:0:0:0:0:
64,192,59826,128,0,59984:0:0:0:0:
320,192,59905,128,0,59984:0:0:0:0:
192,192,59984,1,0,0:0:0:0:
448,192,60037,1,0,0:0:0:0:
192,192,60089,1,0,0:0:0:0:
64,192,60142,128,0,60458:0:0:0:0:
320,192,60142,1,0,0:0:0:0:
448,192,60300,128,0,60458:0:0:0:0:
192,192,60458,128,0,60616:0:0:0:0:
448,192,60616,1,0,0:0:0:0:
64,192,60773,128,0,60931:0:0:0:0:
448,192,60773,1,0,0:0:0:0:
192,192,60773,1,0,0:0:0:0:
320,192,60931,1,0,0:0:0:0:
192,192,60984,1,0,0:0:0:0:
320,192,61037,1,0,0:0:0:0:
64,192,61089,1,0,0:0:0:0:
448,192,61089,1,0,0:0:0:0:
192,192,61247,1,0,0:0:0:0:
64,192,61247,128,0,61405:0:0:0:0:
320,192,61405,1,0,0:0:0:0:
192,192,61458,1,0,0:0:0:0:
320,192,61510,1,0,0:0:0:0:
64,192,61563,128,0,61668:0:0:0:0:
448,192,61563,1,0,0:0:0:0:
192,192,61721,128,0,61879:0:0:0:0:
320,192,61800,1,0,0:0:0:0:
448,192,61879,1,0,0:0:0:0:
192,192,61958,1,0,0:0:0:0:
320,192,62037,128,0,62195:0:0:0:0:
192,192,62195,1,0,0:0:0:0:
64,192,62195,1,0,0:0:0:0:
448,192,62352,128,0,62510:0:0:0:0:
192,192,62352,1,0,0:0:0:0:
64,192,62510,1,0,0:0:0:0:
192,192,62510,1,0,0:0:0:0:
448,192,62589,1,0,0:0:0:0:
64,192,62668,128,0,62984:0:0:0:0:
320,192,62747,1,0,0:0:0:0:
448,192,62826,1,0,0:0:0:0:
192,192,62826,1,0,0:0:0:0:
448,192,62984,128,0,63300:0:0:0:0:
320,192,63063,1,0,0:0:0:0:
64,192,63142,1,0,0:0:0:0:
192,192,63142,1,0,0:0:0:0:
320,192,63221,1,0,0:0:0:0:
192,192,63300,128,0,63458:0:0:0:0:
320,192,63458,1,0,0:0:0:0:
192,192,63537,1,0,0:0:0:0:
64,192,63616,1,0,0:0:0:0:
192,192,63773,128,0,63826:0:0:0:0:
64,192,63813,128,0,63892:0:0:0:0:
320,192,63852,1,0,0:0:0:0:
448,192,63931,1,0,0:0:0:0:
320,192,64089,1,0,0:0:0:0:
448,192,64168,1,0,0:0:0:0:
64,192,64247,1,0,0:0:0:0:
192,192,64405,128,0,64563:0:0:0:0:
320,192,64484,128,0,64642:0:0:0:0:
64,192,64563,128,0,64721:0:0:0:0:
448,192,64642,1,0,0:0:0:0:
192,192,64721,128,0,64879:0:0:0:0:
64,192,64800,128,0,64879:0:0:0:0:
320,192,64879,128,0,65037:0:0:0:0:
192,192,64958,128,0,65037:0:0:0:0:
448,192,65037,128,0,65195:0:0:0:0:
320,192,65116,128,0,65195:0:0:0:0:
64,192,65195,128,0,65510:0:0:0:0:
192,192,65273,128,0,65431:0:0:0:0:
320,192,65352,128,0,65510:0:0:0:0:
448,192,65431,128,0,65510:0:0:0:0:
192,192,65510,128,0,65668:0:0:0:0:
320,192,65668,1,0,0:0:0:0:
320,192,65826,1,0,0:0:0:0:
64,192,65826,1,0,0:0:0:0:
448,192,65826,128,0,65984:0:0:0:0:
192,192,65984,1,0,0:0:0:0:
320,192,66037,1,0,0:0:0:0:
192,192,66089,1,0,0:0:0:0:
448,192,66142,1,0,0:0:0:0:
64,192,66142,1,0,0:0:0:0:
320,192,66300,1,0,0:0:0:0:
448,192,66300,128,0,66458:0:0:0:0:
192,192,66458,1,0,0:0:0:0:
320,192,66510,1,0,0:0:0:0:
192,192,66563,1,0,0:0:0:0:
448,192,66616,128,0,66721:0:0:0:0:
64,192,66616,1,0,0:0:0:0:
320,192,66773,128,0,66931:0:0:0:0:
192,192,66852,1,0,0:0:0:0:
64,192,66931,1,0,0:0:0:0:
320,192,67010,1,0,0:0:0:0:
192,192,67089,128,0,67247:0:0:0:0:
320,192,67247,1,0,0:0:0:0:
448,192,67247,1,0,0:0:0:0:
64,192,67405,128,0,67563:0:0:0:0:
320,192,67405,1,0,0:0:0:0:
448,192,67563,1,0,0:0:0:0:
320,192,67563,1,0,0:0:0:0:
64,192,67642,1,0,0:0:0:0:
448,192,67721,128,0,68037:0:0:0:0:
192,192,67800,1,0,0:0:0:0:
64,192,67879,1,0,0:0:0:0:
320,192,67879,1,0,0:0:0:0:
64,192,68037,128,0,68352:0:0:0:0:
192,192,68116,1,0,0:0:0:0:
448,192,68195,1,0,0:0:0:0:
320,192,68195,1,0,0:0:0:0:
192,192,68273,1,0,0:0:0:0:
320,192,68352,128,0,68510:0:0:0:0:
64,192,68510,1,0,0:0:0:0:
320,192,68668,1,0,0:0:0:0:
192,192,68826,128,0,68879:0:0:0:0:
448,192,68866,128,0,68945:0:0:0:0:
320,192,68905,1,0,0:0:0:0:
192,192,68984,1,0,0:0:0:0:
64,192,69142,1,0,0:0:0:0:
192,192,69221,1,0,0:0:0:0:
64,192,69300,1,0,0:0:0:0:
320,192,69458,1,0,0:0:0:0:
448,192,69510,1,0,0:0:0:0:
320,192,69563,1,0,0:0:0:0:
192,192,69616,1,0,0:0:0:0:
448,192,69773,128,0,70010:0:0:0:0:
192,192,69852,128,0,70010:0:0:0:0:
64,192,69931,128,0,70089:0:0:0:0:
320,192,70010,128,0,70089:0:0:0:0:
192,192,70089,1,0,0:0:0:0:
448,192,70142,1,0,0:0:0:0:
192,192,70195,1,0,0:0:0:0:
64,192,70247,128,0,70563:0:0:0:0:
320,192,70247,1,0,0:0:0:0:
448,192,70405,128,0,70563:0:0:0:0:
320,192,70563,128,0,70721:0:0:0:0:
192,192,70721,1,0,0:0:0:0:
192,192,70879,1,0,0:0:0:0:
448,192,70879,128,0,71037:0:0:0:0:
320,192,70879,1,0,0:0:0:0:
64,192,71037,1,0,0:0:0:0:
448,192,71089,1,0,0:0:0:0:
320,192,71142,1,0,0:0:0:0:
64,192,71195,1,0,0:0:0:0:
192,192,71195,1,0,0:0:0:0:
448,192,71352,128,0,71510:0:0:0:0:
192,192,71510,1,0,0:0:0:0:
64,192,71510,1,0,0:0:0:0:
448,192,71563,1,0,0:0:0:0:
320,192,71616,1,0,0:0:0:0:
192,192,71668,1,0,0:0:0:0:
320,192,71826,1,0,0:0:0:0:
448,192,71826,128,0,71984:0:0:0:0:
64,192,71905,1,0,0:0:0:0:
192,192,71984,1,0,0:0:0:0:
320,192,72063,1,0,0:0:0:0:
64,192,72142,128,0,72300:0:0:0:0:
192,192,72142,1,0,0:0:0:0:
320,192,72300,1,0,0:0:0:0:
192,192,72458,128,0,72616:0:0:0:0:
64,192,72458,1,0,0:0:0:0:
448,192,72616,1,0,0:0:0:0:
64,192,72695,1,0,0:0:0:0:
448,192,72773,1,0,0:0:0:0:
320,192,72773,128,0,73089:0:0:0:0:
192,192,72931,1,0,0:0:0:0:
64,192,73089,1,0,0:0:0:0:
192,192,73089,128,0,73405:0:0:0:0:
448,192,73168,1,0,0:0:0:0:
320,192,73247,1,0,0:0:0:0:
64,192,73326,1,0,0:0:0:0:
320,192,73405,1,0,0:0:0:0:
448,192,73405,128,0,73563:0:0:0:0:
64,192,73563,1,0,0:0:0:0:
192,192,73563,1,0,0:0:0:0:
448,192,73616,1,0,0:0:0:0:
320,192,73668,1,0,0:0:0:0:
192,192,73721,1,0,0:0:0:0:
64,192,73721,1,0,0:0:0:0:
320,192,73879,1,0,0:0:0:0:
448,192,73879,128,0,74037:0:0:0:0:
64,192,74037,1,0,0:0:0:0:
192,192,74037,1,0,0:0:0:0:
448,192,74089,1,0,0:0:0:0:
320,192,74142,1,0,0:0:0:0:
192,192,74195,1,0,0:0:0:0:
64,192,74195,128,0,74352:0:0:0:0:
320,192,74352,1,0,0:0:0:0:
448,192,74352,128,0,74510:0:0:0:0:
64,192,74510,1,0,0:0:0:0:
192,192,74510,1,0,0:0:0:0:
320,192,74668,128,0,74826:0:0:0:0:
448,192,74668,1,0,0:0:0:0:
64,192,74747,1,0,0:0:0:0:
192,192,74826,1,0,0:0:0:0:
448,192,74879,1,0,0:0:0:0:
64,192,74905,1,0,0:0:0:0:
320,192,74931,1,0,0:0:0:0:
192,192,74984,1,0,0:0:0:0:
448,192,75063,1,0,0:0:0:0:
320,192,75142,128,0,75300:0:0:0:0:
64,192,75221,1,0,0:0:0:0:
192,192,75300,128,0,75379:0:0:0:0:
448,192,75352,1,0,0:0:0:0:
64,192,75379,128,0,75537:0:0:0:0:
320,192,75405,1,0,0:0:0:0:
192,192,75458,128,0,75616:0:0:0:0:
448,192,75537,128,0,75695:0:0:0:0:
320,192,75616,128,0,75773:0:0:0:0:
64,192,75695,128,0,75852:0:0:0:0:
192,192,75773,128,0,75852:0:0:0:0:
320,192,75852,1,0,0:0:0:0:
192,192,75931,1,0,0:0:0:0:
64,192,75931,1,0,0:0:0:0:
448,192,75931,1,0,0:0:0:0:
448,192,76958,128,0,77352:0:0:0:0:
192,192,77431,128,0,78458:0:0:0:0:
448,192,78537,128,0,78931:0:0:0:0:
320,192,79010,128,0,79484:0:0:0:0:
192,192,79563,128,0,79879:0:0:0:0:
448,192,79879,1,0,0:0:0:0:
64,192,79958,128,0,80905:0:0:0:0:
320,192,80037,1,0,0:0:0:0:
192,192,80195,1,0,0:0:0:0:
448,192,80352,1,0,0:0:0:0:
192,192,80471,1,0,0:0:0:0:
320,192,80510,128,0,80563:0:0:0:0:
448,192,80668,128,0,80747:0:0:0:0:
192,192,80708,1,0,0:0:0:0:
320,192,80826,1,0,0:0:0:0:
448,192,80984,128,0,81379:0:0:0:0:
64,192,81023,1,0,0:0:0:0:
192,192,81063,1,0,0:0:0:0:
320,192,81458,128,0,81931:0:0:0:0:
192,192,82010,128,0,82326:0:0:0:0:
64,192,82405,128,0,83352:0:0:0:0:
192,192,83352,1,0,0:0:0:0:
320,192,83431,1,0,0:0:0:0:
64,192,83471,1,0,0:0:0:0:
448,192,83510,128,0,85958:0:0:0:0:
64,192,84458,128,0,85958:0:0:0:0:
192,192,85366,128,0,85445:0:0:0:0:
64,192,86037,1,0,0:0:0:0:
448,192,86037,1,0,0:0:0:0:
192,192,86195,1,0,0:0:0:0:
448,192,86273,1,0,0:0:0:0:
64,192,86352,1,0,0:0:0:0:
320,192,86431,1,0,0:0:0:0:
192,192,86510,1,0,0:0:0:0:
448,192,86510,1,0,0:0:0:0:
320,192,86668,1,0,0:0:0:0:
64,192,86826,1,0,0:0:0:0:
448,192,86984,1,0,0:0:0:0:
320,192,86984,1,0,0:0:0:0:
192,192,87142,1,0,0:0:0:0:
448,192,87300,1,0,0:0:0:0:
64,192,87339,1,0,0:0:0:0:
320,192,87379,1,0,0:0:0:0:
448,192,87418,1,0,0:0:0:0:
192,192,87458,128,0,87616:0:0:0:0:
64,192,87616,1,0,0:0:0:0:
320,192,87695,1,0,0:0:0:0:
192,192,87773,1,0,0:0:0:0:
64,192,87931,1,0,0:0:0:0:
448,192,87931,1,0,0:0:0:0:
320,192,88089,1,0,0:0:0:0:
64,192,88247,1,0,0:0:0:0:
192,192,88247,1,0,0:0:0:0:
320,192,88405,1,0,0:0:0:0:
64,192,88563,1,0,0:0:0:0:
448,192,88563,1,0,0:0:0:0:
192,192,88721,1,0,0:0:0:0:
448,192,88800,1,0,0:0:0:0:
64,192,88879,1,0,0:0:0:0:
320,192,88958,1,0,0:0:0:0:
448,192,89037,1,0,0:0:0:0:
192,192,89037,1,0,0:0:0:0:
320,192,89195,1,0,0:0:0:0:
192,192,89273,1,0,0:0:0:0:
448,192,89352,1,0,0:0:0:0:
64,192,89510,1,0,0:0:0:0:
448,192,89510,1,0,0:0:0:0:
192,192,89668,1,0,0:0:0:0:
64,192,89826,1,0,0:0:0:0:
192,192,89826,1,0,0:0:0:0:
320,192,89984,1,0,0:0:0:0:
448,192,90023,1,0,0:0:0:0:
64,192,90063,1,0,0:0:0:0:
192,192,90102,1,0,0:0:0:0:
320,192,90142,1,0,0:0:0:0:
64,192,90195,1,0,0:0:0:0:
192,192,90247,1,0,0:0:0:0:
448,192,90300,1,0,0:0:0:0:
64,192,90352,1,0,0:0:0:0:
320,192,90405,1,0,0:0:0:0:
192,192,90458,1,0,0:0:0:0:
448,192,90458,1,0,0:0:0:0:
64,192,90510,1,0,0:0:0:0:
320,192,90563,1,0,0:0:0:0:
192,192,90616,1,0,0:0:0:0:
448,192,90668,1,0,0:0:0:0:
320,192,90721,1,0,0:0:0:0:
64,192,90773,128,0,90826:0:0:0:0:
448,192,90826,1,0,0:0:0:0:
192,192,90879,1,0,0:0:0:0:
64,192,90931,128,0,90984:0:0:0:0:
320,192,91010,1,0,0:0:0:0:
64,192,91089,1,0,0:0:0:0:
448,192,91089,1,0,0:0:0:0:
192,192,91247,1,0,0:0:0:0:
448,192,91326,1,0,0:0:0:0:
64,192,91405,1,0,0:0:0:0:
320,192,91484,1,0,0:0:0:0:
192,192,91563,1,0,0:0:0:0:
448,192,91563,1,0,0:0:0:0:
320,192,91721,128,0,91879:0:0:0:0:
64,192,91879,1,0,0:0:0:0:
448,192,92037,1,0,0:0:0:0:
320,192,92037,1,0,0:0:0:0:
192,192,92195,1,0,0:0:0:0:
64,192,92352,1,0,0:0:0:0:
192,192,92510,1,0,0:0:0:0:
448,192,92589,1,0,0:0:0:0:
64,192,92668,1,0,0:0:0:0:
320,192,92747,1,0,0:0:0:0:
192,192,92826,1,0,0:0:0:0:
64,192,92984,1,0,0:0:0:0:
448,192,92984,1,0,0:0:0:0:
320,192,93142,1,0,0:0:0:0:
64,192,93300,1,0,0:0:0:0:
192,192,93300,1,0,0:0:0:0:
448,192,93458,1,0,0:0:0:0:
192,192,93510,1,0,0:0:0:0:
320,192,93563,1,0,0:0:0:0:
448,192,93616,1,0,0:0:0:0:
64,192,93616,1,0,0:0:0:0:
320,192,93773,1,0,0:0:0:0:
192,192,93931,1,0,0:0:0:0:
64,192,93931,1,0,0:0:0:0:
448,192,94010,1,0,0:0:0:0:
320,192,94089,1,0,0:0:0:0:
64,192,94089,1,0,0:0:0:0:
320,192,94247,1,0,0:0:0:0:
448,192,94247,1,0,0:0:0:0:
64,192,94405,1,0,0:0:0:0:
320,192,94458,1,0,0:0:0:0:
192,192,94510,1,0,0:0:0:0:
448,192,94563,1,0,0:0:0:0:
64,192,94721,128,0,94879:0:0:0:0:
192,192,94800,128,0,94958:0:0:0:0:
448,192,94879,128,0,95037:0:0:0:0:
64,192,94958,128,0,95116:0:0:0:0:
320,192,95037,128,0,95273:0:0:0:0:
192,192,95116,128,0,95195:0:0:0:0:
448,192,95195,128,0,95352:0:0:0:0:
64,192,95273,128,0,95510:0:0:0:0:
192,192,95352,128,0,95510:0:0:0:0:
320,192,95431,128,0,95510:0:0:0:0:
448,192,95510,128,0,95563:0:0:0:0:
448,192,95668,1,0,0:0:0:0:
192,192,95826,128,0,95879:0:0:0:0:
192,192,95984,1,0,0:0:0:0:
448,192,96142,128,0,96300:0:0:0:0:
192,192,96142,1,0,0:0:0:0:
64,192,96142,1,0,0:0:0:0:
320,192,96221,1,0,0:0:0:0:
64,192,96300,1,0,0:0:0:0:
448,192,96379,1,0,0:0:0:0:
192,192,96458,1,0,0:0:0:0:
192,192,96537,1,0,0:0:0:0:
64,192,96616,128,0,96773:0:0:0:0:
320,192,96616,1,0,0:0:0:0:
448,192,96616,1,0,0:0:0:0:
192,192,96695,1,0,0:0:0:0:
448,192,96773,1,0,0:0:0:0:
64,192,96852,1,0,0:0:0:0:
320,192,96931,1,0,0:0:0:0:
192,192,97010,1,0,0:0:0:0:
448,192,97089,1,0,0:0:0:0:
64,192,97168,1,0,0:0:0:0:
320,192,97247,1,0,0:0:0:0:
192,192,97326,1,0,0:0:0:0:
64,192,97405,128,0,97563:0:0:0:0:
320,192,97405,1,0,0:0:0:0:
448,192,97405,1,0,0:0:0:0:
192,192,97484,1,0,0:0:0:0:
448,192,97563,1,0,0:0:0:0:
64,192,97642,1,0,0:0:0:0:
320,192,97721,1,0,0:0:0:0:
320,192,97800,1,0,0:0:0:0:
448,192,97879,128,0,98037:0:0:0:0:
192,192,97879,1,0,0:0:0:0:
64,192,97879,1,0,0:0:0:0:
320,192,97958,1,0,0:0:0:0:
64,192,98037,1,0,0:0:0:0:
448,192,98116,1,0,0:0:0:0:
192,192,98195,1,0,0:0:0:0:
64,192,98273,1,0,0:0:0:0:
448,192,98352,128,0,98431:0:0:0:0:
320,192,98431,1,0,0:0:0:0:
192,192,98510,1,0,0:0:0:0:
64,192,98589,1,0,0:0:0:0:
192,192,98668,128,0,98826:0:0:0:0:
320,192,98668,1,0,0:0:0:0:
448,192,98668,1,0,0:0:0:0:
64,192,98747,1,0,0:0:0:0:
320,192,98826,1,0,0:0:0:0:
192,192,98905,1,0,0:0:0:0:
448,192,98984,1,0,0:0:0:0:
448,192,99063,1,0,0:0:0:0:
320,192,99142,128,0,99300:0:0:0:0:
192,192,99142,1,0,0:0:0:0:
64,192,99142,1,0,0:0:0:0:
448,192,99221,1,0,0:0:0:0:
192,192,99300,1,0,0:0:0:0:
320,192,99379,1,0,0:0:0:0:
64,192,99458,1,0,0:0:0:0:
192,192,99537,1,0,0:0:0:0:
448,192,99616,1,0,0:0:0:0:
320,192,99695,1,0,0:0:0:0:
192,192,99773,1,0,0:0:0:0:
320,192,99852,1,0,0:0:0:0:
64,192,99931,1,0,0:0:0:0:
448,192,100010,5,0,0:0:0:0:
320,192,100089,5,0,0:0:0:0:
192,192,100129,1,0,0:0:0:0:
448,192,100168,1,0,0:0:0:0:
320,192,100208,1,0,0:0:0:0:
64,192,100247,1,0,0:0:0:0:
192,192,100300,1,0,0:0:0:0:
448,192,100352,1,0,0:0:0:0:
64,192,100405,1,0,0:0:0:0:
320,192,100458,1,0,0:0:0:0:
448,192,100510,1,0,0:0:0:0:
192,192,100563,1,0,0:0:0:0:
320,192,100616,1,0,0:0:0:0:
448,192,100668,1,0,0:0:0:0:
64,192,100721,1,0,0:0:0:0:
192,192,100773,1,0,0:0:0:0:
320,192,100826,1,0,0:0:0:0:
64,192,100879,1,0,0:0:0:0:
448,192,100931,1,0,0:0:0:0:
192,192,100984,1,0,0:0:0:0:
320,192,101037,1,0,0:0:0:0:
192,192,101116,1,0,0:0:0:0:
320,192,101195,128,0,101273:0:0:0:0:
448,192,101195,1,0,0:0:0:0:
64,192,101195,1,0,0:0:0:0:
192,192,101352,1,0,0:0:0:0:
64,192,101431,1,0,0:0:0:0:
320,192,101510,1,0,0:0:0:0:
448,192,101510,1,0,0:0:0:0:
192,192,101668,128,0,101747:0:0:0:0:
64,192,101826,1,0,0:0:0:0:
192,192,101826,1,0,0:0:0:0:
320,192,101984,1,0,0:0:0:0:
320,192,102142,1,0,0:0:0:0:
448,192,102142,1,0,0:0:0:0:
64,192,102221,1,0,0:0:0:0:
192,192,102300,1,0,0:0:0:0:
320,192,102379,1,0,0:0:0:0:
64,192,102458,1,0,0:0:0:0:
192,192,102458,128,0,102537:0:0:0:0:
448,192,102616,1,0,0:0:0:0:
192,192,102695,1,0,0:0:0:0:
320,192,102773,1,0,0:0:0:0:
448,192,102773,1,0,0:0:0:0:
64,192,102931,128,0,103010:0:0:0:0:
448,192,103010,1,0,0:0:0:0:
64,192,103089,1,0,0:0:0:0:
192,192,103089,1,0,0:0:0:0:
320,192,103168,1,0,0:0:0:0:
448,192,103247,1,0,0:0:0:0:
64,192,103405,1,0,0:0:0:0:
192,192,103405,128,0,103563:0:0:0:0:
320,192,103563,1,0,0:0:0:0:
64,192,103721,128,0,103800:0:0:0:0:
192,192,103721,1,0,0:0:0:0:
64,192,103879,5,0,0:0:0:0:
192,192,103879,1,0,0:0:0:0:
320,192,104037,1,0,0:0:0:0:
448,192,104037,1,0,0:0:0:0:
320,192,104195,1,0,0:0:0:0:
448,192,104195,128,0,104273:0:0:0:0:
64,192,104352,1,0,0:0:0:0:
192,192,104352,1,0,0:0:0:0:
192,192,104510,1,0,0:0:0:0:
64,192,104510,1,0,0:0:0:0:
320,192,104668,1,0,0:0:0:0:
448,192,104668,1,0,0:0:0:0:
448,192,104826,1,0,0:0:0:0:
320,192,104826,1,0,0:0:0:0:
64,192,104984,5,0,0:0:0:0:
192,192,104984,1,0,0:0:0:0:
320,192,105063,1,0,0:0:0:0:
448,192,105063,1,0,0:0:0:0:
192,192,105142,1,0,0:0:0:0:
64,192,105142,1,0,0:0:0:0:
448,192,105221,1,0,0:0:0:0:
320,192,105221,1,0,0:0:0:0:
64,192,105300,5,0,0:0:0:0:
192,192,105300,1,0,0:0:0:0:
320,192,105379,1,0,0:0:0:0:
448,192,105379,1,0,0:0:0:0:
64,192,105458,1,0,0:0:0:0:
192,192,105458,1,0,0:0:0:0:
448,192,105537,1,0,0:0:0:0:
320,192,105537,1,0,0:0:0:0:
64,192,105616,1,0,0:0:0:0:
320,192,105655,1,0,0:0:0:0:
192,192,105695,1,0,0:0:0:0:
448,192,105734,1,0,0:0:0:0:
64,192,105773,1,0,0:0:0:0:
320,192,105813,1,0,0:0:0:0:
192,192,105852,1,0,0:0:0:0:
64,192,105892,1,0,0:0:0:0:
448,192,105931,1,0,0:0:0:0:
192,192,105971,1,0,0:0:0:0:
320,192,106010,1,0,0:0:0:0:
64,192,106050,1,0,0:0:0:0:
448,192,106089,1,0,0:0:0:0:
192,192,106129,1,0,0:0:0:0:
320,192,106168,1,0,0:0:0:0:
448,192,106208,1,0,0:0:0:0:
64,192,106247,1,0,0:0:0:0:
192,192,106247,1,0,0:0:0:0:
448,192,106484,1,0,0:0:0:0:
320,192,106668,1,0,0:0:0:0:
448,192,106773,1,0,0:0:0:0:
320,192,106879,1,0,0:0:0:0:
448,192,106984,1,0,0:0:0:0:
320,192,107089,1,0,0:0:0:0:
448,192,107247,1,0,0:0:0:0:
448,192,107458,1,0,0:0:0:0:
64,192,107510,1,0,0:0:0:0:
192,192,107570,1,0,0:0:0:0:
448,192,107629,1,0,0:0:0:0:
448,192,107826,1,0,0:0:0:0:
320,192,107879,1,0,0:0:0:0:
192,192,107931,1,0,0:0:0:0:
64,192,107984,1,0,0:0:0:0:
448,192,108037,1,0,0:0:0:0:
320,192,108089,1,0,0:0:0:0:
192,192,108142,1,0,0:0:0:0:
448,192,108195,1,0,0:0:0:0:
320,192,108247,1,0,0:0:0:0:
192,192,108300,1,0,0:0:0:0:
64,192,108352,1,0,0:0:0:0:
320,192,108405,1,0,0:0:0:0:
192,192,108458,1,0,0:0:0:0:
64,192,108510,1,0,0:0:0:0:
448,192,108563,1,0,0:0:0:0:
64,192,108773,1,0,0:0:0:0:
320,192,108773,1,0,0:0:0:0:
448,192,108852,1,0,0:0:0:0:
192,192,108931,128,0,109010:0:0:0:0:
320,192,109010,128,0,109089:0:0:0:0:
64,192,109089,128,0,109168:0:0:0:0:
192,192,109168,128,0,109247:0:0:0:0:
448,192,109247,128,0,109405:0:0:0:0:
320,192,109326,128,0,109484:0:0:0:0:
64,192,109405,128,0,109563:0:0:0:0:
448,192,109484,128,0,109642:0:0:0:0:
192,192,109563,128,0,109721:0:0:0:0:
320,192,109642,128,0,109800:0:0:0:0:
448,192,109721,128,0,109879:0:0:0:0:
64,192,109800,128,0,109958:0:0:0:0:
192,192,109879,128,0,110116:0:0:0:0:
320,192,109958,128,0,110195:0:0:0:0:
64,192,110037,128,0,110273:0:0:0:0:
448,192,110116,128,0,110273:0:0:0:0:
192,192,110195,128,0,110352:0:0:0:0:
320,192,110273,128,0,110510:0:0:0:0:
64,192,110352,1,0,0:0:0:0:
448,192,110352,128,0,110431:0:0:0:0:
192,192,110431,128,0,110589:0:0:0:0:
448,192,110510,1,0,0:0:0:0:
64,192,110510,128,0,110668:0:0:0:0:
320,192,110589,128,0,110668:0:0:0:0:
192,192,110668,1,0,0:0:0:0:
448,192,110747,1,0,0:0:0:0:
64,192,110826,1,0,0:0:0:0:
320,192,110879,1,0,0:0:0:0:
448,192,110931,1,0,0:0:0:0:
192,192,110984,1,0,0:0:0:0:
320,192,111037,1,0,0:0:0:0:
64,192,111089,1,0,0:0:0:0:
192,192,111142,1,0,0:0:0:0:
320,192,111195,1,0,0:0:0:0:
448,192,111247,1,0,0:0:0:0:
320,192,111300,1,0,0:0:0:0:
64,192,111300,128,0,111458:0:0:0:0:
192,192,111300,1,0,0:0:0:0:
448,192,111379,128,0,111773:0:0:0:0:
192,192,111458,1,0,0:0:0:0:
320,192,111616,1,0,0:0:0:0:
64,192,111616,1,0,0:0:0:0:
320,192,111773,128,0,111852:0:0:0:0:
448,192,111852,128,0,111931:0:0:0:0:
320,192,111931,128,0,112089:0:0:0:0:
64,192,112089,1,0,0:0:0:0:
192,192,112089,1,0,0:0:0:0:
64,192,112247,128,0,112405:0:0:0:0:
448,192,112247,1,0,0:0:0:0:
192,192,112405,1,0,0:0:0:0:
64,192,112484,1,0,0:0:0:0:
320,192,112563,128,0,112721:0:0:0:0:
448,192,112642,128,0,113037:0:0:0:0:
64,192,112721,1,0,0:0:0:0:
192,192,112721,1,0,0:0:0:0:
64,192,112879,1,0,0:0:0:0:
320,192,112879,1,0,0:0:0:0:
192,192,113037,128,0,113116:0:0:0:0:
64,192,113037,1,0,0:0:0:0:
448,192,113116,128,0,113195:0:0:0:0:
192,192,113195,128,0,113352:0:0:0:0:
320,192,113352,1,0,0:0:0:0:
448,192,113352,1,0,0:0:0:0:
192,192,113431,1,0,0:0:0:0:
320,192,113510,1,0,0:0:0:0:
64,192,113510,128,0,113668:0:0:0:0:
320,192,113668,1,0,0:0:0:0:
448,192,113668,1,0,0:0:0:0:
320,192,113826,128,0,113984:0:0:0:0:
448,192,113826,1,0,0:0:0:0:
192,192,113984,1,0,0:0:0:0:
64,192,114142,1,0,0:0:0:0:
320,192,114142,128,0,115089:0:0:0:0:
192,192,114300,1,0,0:0:0:0:
448,192,114379,1,0,0:0:0:0:
64,192,114458,1,0,0:0:0:0:
448,192,114537,1,0,0:0:0:0:
192,192,114616,1,0,0:0:0:0:
64,192,114616,1,0,0:0:0:0:
448,192,114773,1,0,0:0:0:0:
64,192,114773,1,0,0:0:0:0:
192,192,114931,1,0,0:0:0:0:
448,192,115010,1,0,0:0:0:0:
192,192,115089,1,0,0:0:0:0:
64,192,115089,1,0,0:0:0:0:
448,192,115129,1,0,0:0:0:0:
320,192,115168,1,0,0:0:0:0:
192,192,115247,1,0,0:0:0:0:
320,192,115326,1,0,0:0:0:0:
448,192,115405,1,0,0:0:0:0:
64,192,115405,1,0,0:0:0:0:
192,192,115445,1,0,0:0:0:0:
320,192,115484,1,0,0:0:0:0:
64,192,115563,1,0,0:0:0:0:
192,192,115563,1,0,0:0:0:0:
448,192,115642,1,0,0:0:0:0:
64,192,115721,1,0,0:0:0:0:
320,192,115800,1,0,0:0:0:0:
448,192,115800,1,0,0:0:0:0:
192,192,115879,1,0,0:0:0:0:
64,192,115879,1,0,0:0:0:0:
320,192,115958,1,0,0:0:0:0:
448,192,116037,1,0,0:0:0:0:
192,192,116037,1,0,0:0:0:0:
320,192,116089,1,0,0:0:0:0:
64,192,116142,1,0,0:0:0:0:
192,192,116195,1,0,0:0:0:0:
320,192,116247,1,0,0:0:0:0:
448,192,116300,1,0,0:0:0:0:
64,192,116352,128,0,116510:0:0:0:0:
192,192,116352,1,0,0:0:0:0:
448,192,116431,128,0,116826:0:0:0:0:
192,192,116510,1,0,0:0:0:0:
320,192,116668,1,0,0:0:0:0:
64,192,116668,1,0,0:0:0:0:
320,192,116826,128,0,116905:0:0:0:0:
448,192,116905,128,0,116984:0:0:0:0:
320,192,116984,128,0,117142:0:0:0:0:
64,192,117142,1,0,0:0:0:0:
192,192,117142,1,0,0:0:0:0:
448,192,117300,1,0,0:0:0:0:
64,192,117300,128,0,117458:0:0:0:0:
192,192,117458,1,0,0:0:0:0:
64,192,117537,1,0,0:0:0:0:
320,192,117616,128,0,117773:0:0:0:0:
448,192,117695,128,0,118089:0:0:0:0:
64,192,117773,1,0,0:0:0:0:
192,192,117773,1,0,0:0:0:0:
64,192,117931,1,0,0:0:0:0:
320,192,117931,1,0,0:0:0:0:
192,192,118089,128,0,118168:0:0:0:0:
64,192,118089,1,0,0:0:0:0:
448,192,118168,128,0,118247:0:0:0:0:
192,192,118247,128,0,118405:0:0:0:0:
320,192,118405,1,0,0:0:0:0:
448,192,118405,1,0,0:0:0:0:
192,192,118484,1,0,0:0:0:0:
320,192,118563,1,0,0:0:0:0:
64,192,118563,128,0,118721:0:0:0:0:
448,192,118721,1,0,0:0:0:0:
320,192,118721,1,0,0:0:0:0:
64,192,118879,1,0,0:0:0:0:
192,192,118879,128,0,119037:0:0:0:0:
448,192,119037,1,0,0:0:0:0:
64,192,119089,1,0,0:0:0:0:
320,192,119142,1,0,0:0:0:0:
192,192,119195,1,0,0:0:0:0:
448,192,119195,128,0,119352:0:0:0:0:
64,192,119352,1,0,0:0:0:0:
192,192,119405,1,0,0:0:0:0:
320,192,119458,1,0,0:0:0:0:
64,192,119510,128,0,119668:0:0:0:0:
448,192,119668,1,0,0:0:0:0:
320,192,119668,1,0,0:0:0:0:
192,192,119721,1,0,0:0:0:0:
448,192,119773,1,0,0:0:0:0:
320,192,119826,128,0,119984:0:0:0:0:
64,192,119826,1,0,0:0:0:0:
192,192,119984,1,0,0:0:0:0:
448,192,120037,1,0,0:0:0:0:
320,192,120089,1,0,0:0:0:0:
64,192,120142,1,0,0:0:0:0:
192,192,120142,128,0,120300:0:0:0:0:
448,192,120221,128,0,120616:0:0:0:0:
320,192,120300,1,0,0:0:0:0:
64,192,120458,1,0,0:0:0:0:
320,192,120458,1,0,0:0:0:0:
192,192,120616,1,0,0:0:0:0:
64,192,120616,1,0,0:0:0:0:
448,192,120695,1,0,0:0:0:0:
320,192,120773,128,0,120852:0:0:0:0:
192,192,120852,1,0,0:0:0:0:
64,192,120852,1,0,0:0:0:0:
320,192,120931,1,0,0:0:0:0:
448,192,120931,1,0,0:0:0:0:
192,192,121010,1,0,0:0:0:0:
448,192,121089,1,0,0:0:0:0:
64,192,121089,128,0,121168:0:0:0:0:
448,192,121208,1,0,0:0:0:0:
192,192,121247,1,0,0:0:0:0:
448,192,121326,1,0,0:0:0:0:
64,192,121405,128,0,121563:0:0:0:0:
192,192,121405,1,0,0:0:0:0:
320,192,121405,1,0,0:0:0:0:
448,192,121484,128,0,121879:0:0:0:0:
64,192,121879,1,0,0:0:0:0:
320,192,121918,1,0,0:0:0:0:
192,192,121958,1,0,0:0:0:0:
448,192,121997,1,0,0:0:0:0:
320,192,122037,128,0,122195:0:0:0:0:
192,192,122195,1,0,0:0:0:0:
320,192,122273,1,0,0:0:0:0:
64,192,122352,128,0,122510:0:0:0:0:
192,192,122352,1,0,0:0:0:0:
448,192,122352,1,0,0:0:0:0:
192,192,122510,1,0,0:0:0:0:
64,192,122589,1,0,0:0:0:0:
320,192,122668,128,0,122826:0:0:0:0:
448,192,122747,128,0,123142:0:0:0:0:
64,192,122826,1,0,0:0:0:0:
192,192,122826,1,0,0:0:0:0:
64,192,122984,1,0,0:0:0:0:
320,192,122984,1,0,0:0:0:0:
192,192,123142,128,0,123221:0:0:0:0:
64,192,123142,1,0,0:0:0:0:
448,192,123221,128,0,123300:0:0:0:0:
192,192,123300,128,0,123458:0:0:0:0:
320,192,123458,1,0,0:0:0:0:
448,192,123458,1,0,0:0:0:0:
192,192,123537,1,0,0:0:0:0:
320,192,123616,1,0,0:0:0:0:
64,192,123616,128,0,123773:0:0:0:0:
320,192,123773,1,0,0:0:0:0:
448,192,123773,1,0,0:0:0:0:
320,192,123931,128,0,124089:0:0:0:0:
448,192,123931,1,0,0:0:0:0:
192,192,124089,1,0,0:0:0:0:
64,192,124247,1,0,0:0:0:0:
320,192,124247,128,0,125195:0:0:0:0:
192,192,124405,1,0,0:0:0:0:
448,192,124484,1,0,0:0:0:0:
64,192,124563,1,0,0:0:0:0:
448,192,124642,1,0,0:0:0:0:
192,192,124721,1,0,0:0:0:0:
64,192,124721,1,0,0:0:0:0:
448,192,124879,1,0,0:0:0:0:
64,192,124879,1,0,0:0:0:0:
192,192,125037,1,0,0:0:0:0:
448,192,125116,1,0,0:0:0:0:
192,192,125195,1,0,0:0:0:0:
64,192,125195,1,0,0:0:0:0:
448,192,125234,1,0,0:0:0:0:
320,192,125273,1,0,0:0:0:0:
192,192,125352,1,0,0:0:0:0:
320,192,125431,1,0,0:0:0:0:
448,192,125510,1,0,0:0:0:0:
64,192,125510,1,0,0:0:0:0:
192,192,125550,1,0,0:0:0:0:
320,192,125589,1,0,0:0:0:0:
64,192,125668,1,0,0:0:0:0:
192,192,125668,1,0,0:0:0:0:
448,192,125747,1,0,0:0:0:0:
64,192,125826,1,0,0:0:0:0:
320,192,125905,1,0,0:0:0:0:
448,192,125905,1,0,0:0:0:0:
192,192,125984,1,0,0:0:0:0:
64,192,125984,1,0,0:0:0:0:
320,192,126063,1,0,0:0:0:0:
448,192,126142,1,0,0:0:0:0:
192,192,126142,1,0,0:0:0:0:
320,192,126195,1,0,0:0:0:0:
64,192,126247,1,0,0:0:0:0:
192,192,126300,1,0,0:0:0:0:
320,192,126352,1,0,0:0:0:0:
448,192,126405,1,0,0:0:0:0:
64,192,126458,128,0,126616:0:0:0:0:
192,192,126458,1,0,0:0:0:0:
448,192,126537,128,0,126931:0:0:0:0:
192,192,126616,1,0,0:0:0:0:
320,192,126773,1,0,0:0:0:0:
64,192,126773,1,0,0:0:0:0:
320,192,126931,128,0,127010:0:0:0:0:
448,192,127010,128,0,127089:0:0:0:0:
320,192,127089,128,0,127247:0:0:0:0:
64,192,127247,1,0,0:0:0:0:
192,192,127247,1,0,0:0:0:0:
448,192,127405,1,0,0:0:0:0:
64,192,127405,128,0,127563:0:0:0:0:
192,192,127563,1,0,0:0:0:0:
64,192,127642,1,0,0:0:0:0:
320,192,127721,128,0,127879:0:0:0:0:
448,192,127800,128,0,128195:0:0:0:0:
64,192,127879,1,0,0:0:0:0:
192,192,127879,1,0,0:0:0:0:
64,192,128037,1,0,0:0:0:0:
320,192,128037,1,0,0:0:0:0:
192,192,128195,128,0,128273:0:0:0:0:
64,192,128195,1,0,0:0:0:0:
448,192,128273,128,0,128352:0:0:0:0:
192,192,128352,128,0,128510:0:0:0:0:
320,192,128510,1,0,0:0:0:0:
448,192,128510,1,0,0:0:0:0:
192,192,128589,1,0,0:0:0:0:
320,192,128668,1,0,0:0:0:0:
64,192,128668,128,0,128826:0:0:0:0:
448,192,128826,1,0,0:0:0:0:
320,192,128826,1,0,0:0:0:0:
64,192,128984,1,0,0:0:0:0:
192,192,128984,128,0,129142:0:0:0:0:
448,192,128984,1,0,0:0:0:0:
320,192,129142,1,0,0:0:0:0:
448,192,129142,1,0,0:0:0:0:
64,192,129195,1,0,0:0:0:0:
192,192,129247,1,0,0:0:0:0:
448,192,129300,128,0,129458:0:0:0:0:
320,192,129300,1,0,0:0:0:0:
192,192,129458,1,0,0:0:0:0:
64,192,129458,1,0,0:0:0:0:
320,192,129510,1,0,0:0:0:0:
448,192,129563,1,0,0:0:0:0:
64,192,129616,128,0,129773:0:0:0:0:
192,192,129616,1,0,0:0:0:0:
448,192,129773,1,0,0:0:0:0:
320,192,129773,1,0,0:0:0:0:
192,192,129826,1,0,0:0:0:0:
64,192,129879,1,0,0:0:0:0:
448,192,129931,1,0,0:0:0:0:
320,192,129931,128,0,130010:0:0:0:0:
192,192,130010,1,0,0:0:0:0:
64,192,130010,1,0,0:0:0:0:
448,192,130089,1,0,0:0:0:0:
320,192,130129,1,0,0:0:0:0:
192,192,130168,1,0,0:0:0:0:
64,192,130208,1,0,0:0:0:0:
320,192,130247,1,0,0:0:0:0:
448,192,130247,128,0,130879:0:0:0:0:
64,192,130405,1,0,0:0:0:0:
192,192,130563,1,0,0:0:0:0:
64,192,130721,1,0,0:0:0:0:
320,192,130879,1,0,0:0:0:0:
192,192,131037,1,0,0:0:0:0:
64,192,131195,128,0,131273:0:0:0:0:
448,192,131273,1,0,0:0:0:0:
320,192,131352,1,0,0:0:0:0:
192,192,131431,1,0,0:0:0:0:
64,192,131510,1,0,0:0:0:0:
448,192,131510,1,0,0:0:0:0:
320,192,131510,1,0,0:0:0:0:
192,192,131668,1,0,0:0:0:0:
64,192,131826,1,0,0:0:0:0:
448,192,131826,1,0,0:0:0:0:
320,192,131984,1,0,0:0:0:0:
448,192,132063,1,0,0:0:0:0:
192,192,132142,1,0,0:0:0:0:
320,192,132221,1,0,0:0:0:0:
192,192,132300,1,0,0:0:0:0:
64,192,132300,1,0,0:0:0:0:
448,192,132379,1,0,0:0:0:0:
320,192,132458,1,0,0:0:0:0:
64,192,132458,1,0,0:0:0:0:
448,192,132537,1,0,0:0:0:0:
192,192,132616,1,0,0:0:0:0:
64,192,132695,1,0,0:0:0:0:
320,192,132773,1,0,0:0:0:0:
448,192,132852,1,0,0:0:0:0:
192,192,132931,1,0,0:0:0:0:
64,192,132931,1,0,0:0:0:0:
64,192,133089,128,0,133405:0:0:0:0:
448,192,133089,1,0,0:0:0:0:
320,192,133247,1,0,0:0:0:0:
448,192,133247,1,0,0:0:0:0:
320,192,133405,128,0,133721:0:0:0:0:
64,192,133563,1,0,0:0:0:0:
192,192,133563,1,0,0:0:0:0:
448,192,133721,1,0,0:0:0:0:
192,192,133721,128,0,134037:0:0:0:0:
448,192,133879,1,0,0:0:0:0:
320,192,133879,1,0,0:0:0:0:
64,192,133958,1,0,0:0:0:0:
320,192,134037,1,0,0:0:0:0:
448,192,134037,128,0,134668:0:0:0:0:
64,192,134195,1,0,0:0:0:0:
192,192,134273,1,0,0:0:0:0:
320,192,134352,1,0,0:0:0:0:
64,192,134352,1,0,0:0:0:0:
192,192,134510,1,0,0:0:0:0:
64,192,134589,1,0,0:0:0:0:
320,192,134668,1,0,0:0:0:0:
448,192,134747,1,0,0:0:0:0:
64,192,134826,1,0,0:0:0:0:
192,192,134826,1,0,0:0:0:0:
320,192,134905,1,0,0:0:0:0:
64,192,134984,1,0,0:0:0:0:
448,192,134984,1,0,0:0:0:0:
320,192,135063,1,0,0:0:0:0:
192,192,135142,1,0,0:0:0:0:
64,192,135221,1,0,0:0:0:0:
320,192,135300,1,0,0:0:0:0:
448,192,135300,1,0,0:0:0:0:
192,192,135458,1,0,0:0:0:0:
320,192,135537,1,0,0:0:0:0:
64,192,135616,128,0,135931:0:0:0:0:
448,192,135616,1,0,0:0:0:0:
320,192,135773,1,0,0:0:0:0:
448,192,135773,1,0,0:0:0:0:
320,192,135931,128,0,136247:0:0:0:0:
64,192,136089,1,0,0:0:0:0:
192,192,136089,1,0,0:0:0:0:
448,192,136247,1,0,0:0:0:0:
192,192,136247,128,0,136563:0:0:0:0:
64,192,136326,1,0,0:0:0:0:
320,192,136405,1,0,0:0:0:0:
64,192,136484,1,0,0:0:0:0:
320,192,136563,128,0,136721:0:0:0:0:
448,192,136563,1,0,0:0:0:0:
192,192,136721,1,0,0:0:0:0:
320,192,136800,1,0,0:0:0:0:
448,192,136879,1,0,0:0:0:0:
64,192,136879,1,0,0:0:0:0:
448,192,137037,1,0,0:0:0:0:
192,192,137116,1,0,0:0:0:0:
64,192,137195,1,0,0:0:0:0:
320,192,137273,1,0,0:0:0:0:
64,192,137352,1,0,0:0:0:0:
192,192,137352,1,0,0:0:0:0:
448,192,137431,1,0,0:0:0:0:
320,192,137510,1,0,0:0:0:0:
64,192,137510,128,0,137668:0:0:0:0:
448,192,137589,1,0,0:0:0:0:
192,192,137668,1,0,0:0:0:0:
320,192,137747,1,0,0:0:0:0:
448,192,137826,128,0,137984:0:0:0:0:
192,192,137984,1,0,0:0:0:0:
64,192,137984,1,0,0:0:0:0:
448,192,138063,1,0,0:0:0:0:
64,192,138142,1,0,0:0:0:0:
320,192,138142,1,0,0:0:0:0:
448,192,138300,1,0,0:0:0:0:
320,192,138300,1,0,0:0:0:0:
192,192,138379,1,0,0:0:0:0:
64,192,138458,1,0,0:0:0:0:
320,192,138537,1,0,0:0:0:0:
192,192,138616,1,0,0:0:0:0:
64,192,138616,1,0,0:0:0:0:
448,192,138695,1,0,0:0:0:0:
320,192,138773,1,0,0:0:0:0:
64,192,138773,1,0,0:0:0:0:
192,192,138852,1,0,0:0:0:0:
320,192,138931,1,0,0:0:0:0:
448,192,138931,1,0,0:0:0:0:
192,192,139010,1,0,0:0:0:0:
64,192,139089,1,0,0:0:0:0:
320,192,139089,1,0,0:0:0:0:
448,192,139089,128,0,139247:0:0:0:0:
64,192,139247,1,0,0:0:0:0:
192,192,139247,1,0,0:0:0:0:
448,192,139405,1,0,0:0:0:0:
320,192,139405,1,0,0:0:0:0:
448,192,139563,1,0,0:0:0:0:
64,192,139563,1,0,0:0:0:0:
320,192,139642,1,0,0:0:0:0:
192,192,139721,1,0,0:0:0:0:
64,192,139721,1,0,0:0:0:0:
448,192,139800,1,0,0:0:0:0:
192,192,139879,1,0,0:0:0:0:
320,192,139879,1,0,0:0:0:0:
64,192,139958,1,0,0:0:0:0:
320,192,140037,128,0,140116:0:0:0:0:
448,192,140037,1,0,0:0:0:0:
192,192,140116,1,0,0:0:0:0:
320,192,140195,1,0,0:0:0:0:
64,192,140195,1,0,0:0:0:0:
448,192,140273,1,0,0:0:0:0:
192,192,140352,1,0,0:0:0:0:
64,192,140352,128,0,140431:0:0:0:0:
448,192,140431,1,0,0:0:0:0:
320,192,140431,1,0,0:0:0:0:
192,192,140510,1,0,0:0:0:0:
64,192,140510,1,0,0:0:0:0:
320,192,140589,1,0,0:0:0:0:
448,192,140589,1,0,0:0:0:0:
192,192,140668,1,0,0:0:0:0:
64,192,140668,1,0,0:0:0:0:
320,192,140747,1,0,0:0:0:0:
448,192,140747,1,0,0:0:0:0:
192,192,140826,1,0,0:0:0:0:
64,192,140826,1,0,0:0:0:0:
320,192,140905,1,0,0:0:0:0:
448,192,140905,1,0,0:0:0:0:
192,192,140984,1,0,0:0:0:0:
64,192,141063,1,0,0:0:0:0:
448,192,141142,1,0,0:0:0:0:
192,192,141221,1,0,0:0:0:0:
320,192,141300,128,0,141458:0:0:0:0:
64,192,141458,1,0,0:0:0:0:
320,192,141616,1,0,0:0:0:0:
64,192,141616,1,0,0:0:0:0:
448,192,141616,128,0,141773:0:0:0:0:
64,192,141773,1,0,0:0:0:0:
320,192,141826,1,0,0:0:0:0:
448,192,141879,1,0,0:0:0:0:
192,192,141931,1,0,0:0:0:0:
192,192,142010,1,0,0:0:0:0:
320,192,142089,1,0,0:0:0:0:
448,192,142089,128,0,142247:0:0:0:0:
64,192,142089,1,0,0:0:0:0:
64,192,142247,1,0,0:0:0:0:
320,192,142300,1,0,0:0:0:0:
448,192,142352,1,0,0:0:0:0:
192,192,142405,1,0,0:0:0:0:
320,192,142563,128,0,142721:0:0:0:0:
64,192,142721,1,0,0:0:0:0:
192,192,142879,128,0,143037:0:0:0:0:
320,192,142879,1,0,0:0:0:0:
64,192,142879,1,0,0:0:0:0:
448,192,143037,1,0,0:0:0:0:
192,192,143195,1,0,0:0:0:0:
192,192,143273,1,0,0:0:0:0:
448,192,143352,1,0,0:0:0:0:
64,192,143352,1,0,0:0:0:0:
320,192,143352,1,0,0:0:0:0:
64,192,143510,128,0,143668:0:0:0:0:
192,192,143668,1,0,0:0:0:0:
448,192,143826,128,0,143984:0:0:0:0:
64,192,143984,1,0,0:0:0:0:
64,192,144142,1,0,0:0:0:0:
448,192,144142,1,0,0:0:0:0:
192,192,144142,128,0,144300:0:0:0:0:
448,192,144300,1,0,0:0:0:0:
64,192,144352,1,0,0:0:0:0:
192,192,144405,1,0,0:0:0:0:
320,192,144458,1,0,0:0:0:0:
320,192,144537,1,0,0:0:0:0:
64,192,144616,1,0,0:0:0:0:
192,192,144616,128,0,144773:0:0:0:0:
448,192,144616,1,0,0:0:0:0:
448,192,144773,1,0,0:0:0:0:
64,192,144826,1,0,0:0:0:0:
192,192,144879,1,0,0:0:0:0:
320,192,144931,1,0,0:0:0:0:
64,192,145089,128,0,145168:0:0:0:0:
320,192,145168,128,0,145247:0:0:0:0:
448,192,145247,128,0,145326:0:0:0:0:
192,192,145326,128,0,145405:0:0:0:0:
64,192,145405,128,0,145563:0:0:0:0:
320,192,145405,1,0,0:0:0:0:
448,192,145405,1,0,0:0:0:0:
192,192,145563,1,0,0:0:0:0:
320,192,145721,1,0,0:0:0:0:
320,192,145800,1,0,0:0:0:0:
64,192,145879,1,0,0:0:0:0:
192,192,145879,1,0,0:0:0:0:
448,192,145879,1,0,0:0:0:0:
192,192,146037,128,0,146352:0:0:0:0:
448,192,146116,1,0,0:0:0:0:
320,192,146195,1,0,0:0:0:0:
448,192,146273,1,0,0:0:0:0:
64,192,146352,128,0,146510:0:0:0:0:
320,192,146431,1,0,0:0:0:0:
192,192,146510,1,0,0:0:0:0:
448,192,146589,1,0,0:0:0:0:
320,192,146668,1,0,0:0:0:0:
64,192,146668,128,0,146826:0:0:0:0:
192,192,146668,1,0,0:0:0:0:
320,192,146826,1,0,0:0:0:0:
192,192,146879,1,0,0:0:0:0:
64,192,146931,1,0,0:0:0:0:
448,192,146984,1,0,0:0:0:0:
448,192,147063,1,0,0:0:0:0:
320,192,147142,1,0,0:0:0:0:
192,192,147142,1,0,0:0:0:0:
64,192,147142,128,0,147300:0:0:0:0:
320,192,147300,1,0,0:0:0:0:
192,192,147352,1,0,0:0:0:0:
64,192,147405,1,0,0:0:0:0:
448,192,147458,1,0,0:0:0:0:
192,192,147616,128,0,147773:0:0:0:0:
320,192,147773,1,0,0:0:0:0:
64,192,147931,128,0,148089:0:0:0:0:
320,192,147931,1,0,0:0:0:0:
448,192,147931,1,0,0:0:0:0:
192,192,148089,1,0,0:0:0:0:
448,192,148247,1,0,0:0:0:0:
448,192,148326,1,0,0:0:0:0:
64,192,148405,1,0,0:0:0:0:
192,192,148405,1,0,0:0:0:0:
320,192,148405,1,0,0:0:0:0:
64,192,148563,128,0,148879:0:0:0:0:
448,192,148721,1,0,0:0:0:0:
192,192,148879,128,0,148958:0:0:0:0:
320,192,148958,128,0,149037:0:0:0:0:
64,192,149037,128,0,149116:0:0:0:0:
192,192,149116,128,0,149195:0:0:0:0:
448,192,149195,128,0,149352:0:0:0:0:
64,192,149195,1,0,0:0:0:0:
320,192,149195,1,0,0:0:0:0:
64,192,149352,1,0,0:0:0:0:
192,192,149352,1,0,0:0:0:0:
448,192,149405,1,0,0:0:0:0:
320,192,149458,1,0,0:0:0:0:
192,192,149510,1,0,0:0:0:0:
64,192,149510,1,0,0:0:0:0:
320,192,149668,1,0,0:0:0:0:
448,192,149668,128,0,149826:0:0:0:0:
64,192,149826,1,0,0:0:0:0:
192,192,149826,1,0,0:0:0:0:
448,192,149879,1,0,0:0:0:0:
320,192,149931,1,0,0:0:0:0:
192,192,149984,1,0,0:0:0:0:
64,192,149984,128,0,150142:0:0:0:0:
320,192,150142,1,0,0:0:0:0:
448,192,150142,128,0,150300:0:0:0:0:
64,192,150300,1,0,0:0:0:0:
192,192,150300,1,0,0:0:0:0:
320,192,150458,128,0,150616:0:0:0:0:
448,192,150458,1,0,0:0:0:0:
64,192,150537,1,0,0:0:0:0:
192,192,150616,1,0,0:0:0:0:
448,192,150668,1,0,0:0:0:0:
64,192,150695,1,0,0:0:0:0:
320,192,150721,1,0,0:0:0:0:
192,192,150773,1,0,0:0:0:0:
448,192,150852,1,0,0:0:0:0:
320,192,150931,128,0,151089:0:0:0:0:
64,192,151089,1,0,0:0:0:0:
192,192,151089,1,0,0:0:0:0:
448,192,151142,1,0,0:0:0:0:
320,192,151195,1,0,0:0:0:0:
192,192,151247,128,0,151405:0:0:0:0:
320,192,151405,128,0,151642:0:0:0:0:
64,192,151721,1,0,0:0:0:0:
448,192,151721,1,0,0:0:0:0:
192,192,151721,1,0,0:0:0:0:
320,192,151879,1,0,0:0:0:0:
64,192,152076,1,0,0:0:0:0:
192,192,152352,1,0,0:0:0:0:
64,192,152510,1,0,0:0:0:0:
320,192,152826,1,0,0:0:0:0:
192,192,152866,128,0,152945:0:0:0:0:
448,192,153142,1,0,0:0:0:0:
64,192,153300,1,0,0:0:0:0:
320,192,153458,1,0,0:0:0:0:
448,192,153773,1,0,0:0:0:0:
64,192,153931,1,0,0:0:0:0:
320,192,154089,1,0,0:0:0:0:
192,192,154247,1,0,0:0:0:0:
320,192,154405,1,0,0:0:0:0:
64,192,154563,1,0,0:0:0:0:
192,192,154879,1,0,0:0:0:0:
448,192,155037,1,0,0:0:0:0:
64,192,155352,128,0,155668:0:0:0:0:
320,192,155510,1,0,0:0:0:0:
192,192,155668,128,0,155984:0:0:0:0:
448,192,155826,1,0,0:0:0:0:
320,192,155984,128,0,156300:0:0:0:0:
64,192,156142,1,0,0:0:0:0:
192,192,156300,1,0,0:0:0:0:
64,192,156339,1,0,0:0:0:0:
448,192,156379,128,0,156773:0:0:0:0:
320,192,156458,1,0,0:0:0:0:
192,192,156537,1,0,0:0:0:0:
320,192,156616,1,0,0:0:0:0:
64,192,156773,1,0,0:0:0:0:
448,192,156931,1,0,0:0:0:0:
192,192,157089,1,0,0:0:0:0:
64,192,157247,1,0,0:0:0:0:
320,192,157326,1,0,0:0:0:0:
192,192,157405,1,0,0:0:0:0:
64,192,157563,1,0,0:0:0:0:
448,192,157721,1,0,0:0:0:0:
320,192,157879,1,0,0:0:0:0:
64,192,157918,128,0,157997:0:0:0:0:
448,192,158037,128,0,158155:0:0:0:0:
192,192,158195,1,0,0:0:0:0:
64,192,158352,1,0,0:0:0:0:
320,192,158510,1,0,0:0:0:0:
448,192,158589,1,0,0:0:0:0:
192,192,158668,1,0,0:0:0:0:
64,192,158826,1,0,0:0:0:0:
448,192,158984,1,0,0:0:0:0:
320,192,159142,1,0,0:0:0:0:
192,192,159300,1,0,0:0:0:0:
320,192,159458,1,0,0:0:0:0:
64,192,159616,1,0,0:0:0:0:
448,192,159616,1,0,0:0:0:0:
192,192,159773,1,0,0:0:0:0:
320,192,159852,1,0,0:0:0:0:
64,192,159931,1,0,0:0:0:0:
192,192,160089,1,0,0:0:0:0:
448,192,160089,1,0,0:0:0:0:
448,192,160247,1,0,0:0:0:0:
192,192,160405,1,0,0:0:0:0:
320,192,160445,128,0,160523:0:0:0:0:
448,192,160721,1,0,0:0:0:0:
64,192,160879,1,0,0:0:0:0:
320,192,160879,1,0,0:0:0:0:
448,192,161037,1,0,0:0:0:0:
320,192,161195,1,0,0:0:0:0:
192,192,161273,1,0,0:0:0:0:
320,192,161352,1,0,0:0:0:0:
64,192,161431,1,0,0:0:0:0:
192,192,161510,5,0,0:0:0:0:
448,192,161510,1,0,0:0:0:0:
192,192,161629,1,0,0:0:0:0:
320,192,161668,1,0,0:0:0:0:
192,192,161747,1,0,0:0:0:0:
448,192,161826,128,0,162142:0:0:0:0:
320,192,161826,1,0,0:0:0:0:
64,192,161826,1,0,0:0:0:0:
192,192,161984,128,0,162142:0:0:0:0:
64,192,162142,128,0,162300:0:0:0:0:
448,192,162300,128,0,162616:0:0:0:0:
64,192,162458,1,0,0:0:0:0:
192,192,162616,1,0,0:0:0:0:
448,192,162773,128,0,162931:0:0:0:0:
320,192,162931,128,0,163089:0:0:0:0:
64,192,163089,128,0,163405:0:0:0:0:
192,192,163247,128,0,163405:0:0:0:0:
448,192,163405,1,0,0:0:0:0:
64,192,163563,128,0,163879:0:0:0:0:
320,192,163721,1,0,0:0:0:0:
192,192,163879,1,0,0:0:0:0:
320,192,164037,128,0,164352:0:0:0:0:
448,192,164352,128,0,164668:0:0:0:0:
192,192,164510,128,0,164668:0:0:0:0:
64,192,164668,128,0,164826:0:0:0:0:
448,192,164826,128,0,165142:0:0:0:0:
64,192,164984,1,0,0:0:0:0:
192,192,165142,1,0,0:0:0:0:
448,192,165300,128,0,165458:0:0:0:0:
64,192,165352,1,0,0:0:0:0:
192,192,165405,1,0,0:0:0:0:
320,192,165458,128,0,165616:0:0:0:0:
192,192,165510,1,0,0:0:0:0:
64,192,165616,128,0,165773:0:0:0:0:
448,192,165773,128,0,165931:0:0:0:0:
192,192,165931,1,0,0:0:0:0:
64,192,165984,1,0,0:0:0:0:
320,192,166037,1,0,0:0:0:0:
192,192,166089,1,0,0:0:0:0:
448,192,166168,1,0,0:0:0:0:
64,192,166247,1,0,0:0:0:0:
320,192,166352,1,0,0:0:0:0:
192,192,166405,1,0,0:0:0:0:
64,192,166484,1,0,0:0:0:0:
448,192,166563,1,0,0:0:0:0:
192,192,166642,1,0,0:0:0:0:
320,192,166721,1,0,0:0:0:0:
64,192,166800,1,0,0:0:0:0:
448,192,166879,128,0,167195:0:0:0:0:
192,192,167037,128,0,167195:0:0:0:0:
64,192,167195,128,0,167352:0:0:0:0:
448,192,167352,128,0,167668:0:0:0:0:
64,192,167510,1,0,0:0:0:0:
192,192,167537,128,0,167616:0:0:0:0:
192,192,167668,1,0,0:0:0:0:
448,192,167826,128,0,167984:0:0:0:0:
320,192,167984,128,0,168142:0:0:0:0:
64,192,168142,128,0,168458:0:0:0:0:
192,192,168300,128,0,168458:0:0:0:0:
448,192,168458,1,0,0:0:0:0:
64,192,168616,128,0,168931:0:0:0:0:
320,192,168773,1,0,0:0:0:0:
192,192,168931,1,0,0:0:0:0:
320,192,169089,128,0,169247:0:0:0:0:
192,192,169247,1,0,0:0:0:0:
64,192,169300,1,0,0:0:0:0:
320,192,169352,1,0,0:0:0:0:
448,192,169405,128,0,169721:0:0:0:0:
320,192,169563,128,0,169721:0:0:0:0:
192,192,169721,128,0,169879:0:0:0:0:
448,192,169879,128,0,170195:0:0:0:0:
192,192,170037,1,0,0:0:0:0:
64,192,170195,1,0,0:0:0:0:
320,192,170247,1,0,0:0:0:0:
192,192,170300,1,0,0:0:0:0:
64,192,170352,128,0,170510:0:0:0:0:
448,192,170405,1,0,0:0:0:0:
320,192,170458,1,0,0:0:0:0:
192,192,170510,128,0,170668:0:0:0:0:
320,192,170563,1,0,0:0:0:0:
448,192,170668,128,0,170826:0:0:0:0:
320,192,170826,128,0,170984:0:0:0:0:
192,192,170984,1,0,0:0:0:0:
320,192,171142,1,0,0:0:0:0:
64,192,171458,1,0,0:0:0:0:
448,192,171616,1,0,0:0:0:0:
