osu file format v14

[General]
AudioFilename: audio.mp3
AudioLeadIn: 0
PreviewTime: 325084
Countdown: 0
SampleSet: Soft
StackLeniency: 0.3
Mode: 0
LetterboxInBreaks: 0
WidescreenStoryboard: 1

[Editor]
Bookmarks: 2874,37746,54156,86976,103387,119797,128002,173130,199704,207384,214768,221879,228835,235595,242081,248396,254549,260549,266332,271913,277398,305212,325725,392392,422135,428289
DistanceSpacing: 0.1
BeatDivisor: 8
GridSize: 32
TimelineZoom: 3.999997

[Metadata]
Title:M1LLI0N PP
TitleUnicode:M1LLI0N PP
Artist:Camellia
ArtistUnicode:かめりあ
Creator:Sing
Version:MEGA M1LLI0N COLLAB
Source:
Tags:Cametek Electronic Instrumental Million Full Flavor Ambient Artcore Breakcore Speedcore Hardcode Future Bass Drumstep Trap Glitch Hop Metalcore Big room House Moombathon Psytrance Rawstyle Neurofunk Bounce Chiptune Complextro Collab Asphyxia Avena Priti Axarious Bonzi hehe Handsome J1_ LCFC LowComboFC Realazy Regou RLC Skystar Amamiya Yuko Vikala toybot
BeatmapID:2654506
BeatmapSetID:1277657

[Difficulty]
HPDrainRate:3
CircleSize:3.8
OverallDifficulty:9
ApproachRate:9.8
SliderMultiplier:2.34
SliderTickRate:0.5

[Events]
//Background and Video events
0,0,"rutger-van-de-steeg-all-new-era-part-4.jpg",0,0
//Break Periods
2,173330,180317
2,289002,298579
//Storyboard Layer 0 (Background)
//Storyboard Layer 1 (Fail)
//Storyboard Layer 2 (Pass)
//Storyboard Layer 3 (Foreground)
//Storyboard Layer 4 (Overlay)
//Storyboard Sound Samples

[TimingPoints]
823,256.410256410256,4,2,1,60,1,0
2874,-200,4,2,1,60,0,0
11079,-333.333333333333,4,2,1,60,0,0
18771,-66.6666666666667,4,2,1,90,0,0
19284,-100,4,2,1,90,0,0
20822,-144.927536231884,4,2,1,90,0,0
23387,-100,4,2,1,90,0,0
24925,-144.927536231884,4,2,1,90,0,0
26720,-100,4,2,1,90,0,0
26976,-133.333333333333,4,2,1,90,0,0
27489,-100,4,2,1,90,0,0
29028,-144.927536231884,4,2,1,90,0,0
31592,-100,4,2,1,90,0,0
33130,-144.927536231884,4,2,1,90,0,0
37233,-133.333333333333,4,2,1,90,0,0
37746,-100,4,2,1,90,0,0
39028,-133.333333333333,4,2,1,50,0,0
39797,-100,4,2,1,90,0,0
41079,-133.333333333333,4,2,1,60,0,0
41848,-100,4,2,1,90,0,0
43130,-133.333333333333,4,2,1,60,0,0
44156,-100,4,2,1,90,0,0
45951,-83.3333333333333,4,2,1,90,0,0
47233,-100,4,2,1,90,0,0
48002,-83.3333333333333,4,2,1,90,0,0
49540,-100,4,2,1,90,0,0
50181,-66.6666666666667,4,2,1,90,0,0
53130,-133.333333333333,4,2,1,70,0,0
53899,-57.1428571428571,4,2,1,70,0,0
54156,-66.6666666666667,4,2,1,90,0,1
66464,-100,4,2,1,90,0,1
70053,-133.333333333333,4,2,1,60,0,0
70566,-66.6666666666667,4,2,1,90,0,1
82874,-100,4,2,1,90,0,1
85951,-200,4,2,1,60,0,0
86720,-57.1428571428571,4,2,1,60,0,0
86976,-66.6666666666667,4,2,1,90,0,1
103387,-57.1428571428571,4,2,1,90,0,1
103899,-133.333333333333,4,2,1,60,0,0
104156,-57.1428571428571,4,2,1,90,0,1
104797,-100,4,2,1,60,0,0
105438,-57.1428571428571,4,2,1,90,0,1
105951,-66.6666666666667,4,2,1,60,0,0
106207,-57.1428571428571,4,2,1,90,0,1
107489,-133.333333333333,4,2,1,60,0,0
111592,-57.1428571428571,4,2,1,90,0,1
112105,-133.333333333333,4,2,1,60,0,0
112361,-57.1428571428571,4,2,1,90,0,1
113002,-100,4,2,1,60,0,0
113643,-57.1428571428571,4,2,1,90,0,1
114156,-66.6666666666667,4,2,1,60,0,0
114412,-57.1428571428571,4,2,1,90,0,1
115694,-133.333333333333,4,2,1,60,0,0
118771,-100,4,2,1,60,0,0
119156,-80,4,2,1,60,0,0
119284,-66.6666666666667,4,2,1,60,0,0
119412,-57.1428571428571,4,2,1,60,0,0
119797,-100,4,2,1,90,0,0
123387,-80,4,2,1,90,0,0
124028,-66.6666666666667,4,2,1,90,0,0
126976,-133.333333333333,4,2,1,60,0,0
127746,-57.1428571428571,4,2,1,60,0,0
128002,-66.6666666666667,4,2,1,90,0,1
128643,-200,4,2,1,90,0,1
129540,-66.6666666666667,4,2,1,90,0,1
129797,-57.1428571428571,4,2,1,90,0,1
130053,-66.6666666666667,4,2,1,90,0,1
130694,-200,4,2,1,90,0,1
131592,-66.6666666666667,4,2,1,90,0,1
132105,-80,4,2,1,90,0,1
136207,-66.6666666666667,4,2,1,90,0,1
137233,-100,4,2,1,90,0,1
137746,-66.6666666666667,4,2,1,90,0,1
141848,-62.5,4,2,1,90,0,1
142361,-66.6666666666667,4,2,1,90,0,1
143515,-62.5,4,2,1,90,0,1
144412,-66.6666666666667,4,2,1,90,0,1
145053,-200,4,2,1,90,0,1
145951,-100,4,2,1,90,0,1
146464,-66.6666666666667,4,2,1,90,0,1
147105,-200,4,2,1,90,0,1
148002,-66.6666666666667,4,2,1,90,0,1
148515,-80,4,2,1,90,0,1
152617,-66.6666666666667,4,2,1,90,0,1
153643,-100,4,2,1,90,0,1
154156,-66.6666666666667,4,2,1,90,0,1
156720,-62.5,4,2,1,90,0,1
164925,-66.6666666666667,4,2,1,90,0,1
169028,-100,4,2,1,90,0,1
169540,-83.3333333333333,4,2,1,90,0,1
170053,-71.4285714285714,4,2,1,90,0,1
170566,-62.5,4,2,1,90,0,1
172105,-76.9230769230769,4,2,1,90,0,1
172361,-62.5,4,2,1,90,0,1
174155,279.06976744186,4,2,1,60,1,0
175271,303.030303030303,4,2,1,60,1,0
176483,329.67032967033,4,2,1,60,1,0
177801,359.281437125748,4,2,1,60,1,0
179238,389.61038961039,4,2,1,60,1,0
180796,425.531914893617,4,2,1,60,1,0
182498,461.538461538462,4,2,1,60,1,0
184344,480,4,2,1,60,1,0
184344,-200,4,2,1,60,0,0
184824,-166.666666666667,4,2,1,60,0,0
185304,-142.857142857143,4,2,1,60,0,0
185784,-125,4,2,1,60,0,0
186264,-111.111111111111,4,2,1,60,0,0
186744,-100,4,2,1,60,0,0
187224,-90.9090909090909,4,2,1,60,0,0
187704,-83.3333333333333,4,2,1,60,0,0
188184,-76.9230769230769,4,2,1,60,0,0
188664,-71.4285714285714,4,2,1,60,0,0
189144,-66.6666666666667,4,2,1,60,0,0
189624,-62.5,4,2,1,60,0,0
190104,-58.8235294117647,4,2,1,60,0,0
190584,-55.5555555555556,4,2,1,60,0,0
191064,-52.6315789473684,4,2,1,60,0,0
191544,-50,4,2,1,60,0,0
197784,-133.333333333333,4,2,1,60,0,0
198384,-100,4,2,1,60,0,0
198744,-66.6666666666667,4,2,1,60,0,0
199224,-50,4,2,1,60,0,0
199704,-25,4,2,1,90,0,0
200184,-50,4,2,1,90,0,0
201384,-33.3333333333333,4,2,1,90,0,0
201624,-100,4,2,1,90,0,0
201864,-33.3333333333333,4,2,1,90,0,0
202824,-50,4,2,1,90,0,0
203064,-66.6666666666667,4,2,1,90,0,0
203304,-33.3333333333333,4,2,1,90,0,0
203544,-25,4,2,1,90,0,0
204024,-33.3333333333333,4,2,1,90,0,0
204264,-50,4,2,1,90,0,0
205224,-33.3333333333333,4,2,1,90,0,0
205464,-100,4,2,1,90,0,0
205704,-33.3333333333333,4,2,1,90,0,0
206664,-50,4,2,1,90,0,0
206904,-66.6666666666667,4,2,1,90,0,0
207144,-100,4,2,1,90,0,0
207384,461.538461538462,4,2,1,90,1,0
207614,-58.8235294117647,4,2,1,90,0,0
208307,-43.4782608695652,4,2,1,90,0,0
208537,-66.6666666666667,4,2,1,90,0,0
208884,-100,4,2,1,90,0,0
209230,-43.4782608695652,4,2,1,90,0,0
209460,-66.6666666666667,4,2,1,90,0,0
209807,-100,4,2,1,90,0,0
210153,-43.4782608695652,4,2,1,90,0,0
211307,-58.8235294117647,4,2,1,90,0,0
211999,-43.4782608695652,4,2,1,90,0,0
212230,-66.6666666666667,4,2,1,90,0,0
212576,-100,4,2,1,90,0,0
212922,-43.4782608695652,4,2,1,90,0,0
213153,-66.6666666666667,4,2,1,90,0,0
213499,-100,4,2,1,90,0,0
213845,-43.4782608695652,4,2,1,90,0,0
214768,444.444444444444,4,2,1,90,1,0
215212,-43.4782608695652,4,2,1,90,0,0
217545,-58.8235294117647,4,2,1,90,0,0
218768,-43.4782608695652,4,2,1,90,0,0
221879,434.782608695652,4,2,1,90,1,0
222096,-40,4,2,1,90,0,0
222965,-66.6666666666667,4,2,1,90,0,0
223618,-40,4,2,1,90,0,0
224705,-66.6666666666667,4,2,1,90,0,0
224922,-33.3333333333333,4,2,1,90,0,0
225574,-40,4,2,1,90,0,0
226444,-66.6666666666667,4,2,1,90,0,0
227096,-40,4,2,1,90,0,0
228835,422.535211267606,4,2,1,90,1,0
229257,-66.6666666666667,4,2,1,90,0,0
229680,-200,4,2,1,90,0,0
230102,-66.6666666666667,4,2,1,90,0,0
231370,-50,4,2,1,90,0,0
231792,-66.6666666666667,4,2,1,90,0,0
233060,-200,4,2,1,90,0,0
233482,-66.6666666666667,4,2,1,90,0,0
234750,-50,4,2,1,90,0,0
235173,-66.6666666666667,4,2,1,90,0,0
235595,405.405405405405,4,2,1,90,1,0
236811,-200,4,2,1,90,0,0
237013,-50,4,2,1,90,0,0
237419,-133.333333333333,4,2,1,90,0,0
237824,-50,4,2,1,90,0,0
238432,-100,4,2,1,90,0,0
238838,-50,4,2,1,90,0,0
239953,-66.6666666666667,4,2,1,90,0,0
240459,-100,4,2,1,90,0,0
240865,-80,4,2,1,90,0,0
241270,-66.6666666666667,4,2,1,90,0,0
242081,394.736842105263,4,2,1,90,1,0
242081,-50,4,2,1,90,0,0
242673,-57.1428571428571,4,2,1,90,0,0
242870,-40,4,2,1,90,0,0
243265,-28.5714285714286,4,2,1,90,0,0
243363,-40,4,2,1,90,0,0
244252,-57.1428571428571,4,2,1,90,0,0
244449,-40,4,2,1,90,0,0
245238,-33.3333333333333,4,2,1,90,0,0
245831,-40,4,2,1,90,0,0
246028,-33.3333333333333,4,2,1,90,0,0
246423,-25,4,2,1,90,0,0
246521,-33.3333333333333,4,2,1,90,0,0
246719,-25,4,2,1,90,0,0
246817,-33.3333333333333,4,2,1,90,0,0
248002,-200,4,2,1,90,0,0
248396,384.615384615385,4,2,1,90,1,0
248588,-90.9090909090909,4,2,1,90,0,0
248780,-82.6446280991736,4,2,1,90,0,0
248972,-75.7575757575758,4,2,1,90,0,0
249165,-69.9300699300699,4,2,1,90,0,0
249357,-64.9350649350649,4,2,1,90,0,0
249549,-60.6060606060606,4,2,1,90,0,0
249742,-56.8181818181818,4,2,1,90,0,0
249934,-53.475935828877,4,2,1,90,0,0
250126,-50.5050505050505,4,2,1,90,0,0
250319,-47.8468899521531,4,2,1,90,0,0
250511,-45.4545454545455,4,2,1,90,0,0
250703,-43.2900432900433,4,2,1,90,0,0
250896,-41.3223140495868,4,2,1,90,0,0
251088,-39.5256916996047,4,2,1,90,0,0
251280,-37.8787878787879,4,2,1,90,0,0
252242,-31.3479623824451,4,2,1,90,0,0
252338,-30.3030303030303,4,2,1,90,0,0
252434,-29.3255131964809,4,2,1,90,0,0
252530,-28.4090909090909,4,2,1,90,0,0
252626,-27.5482093663912,4,2,1,90,0,0
252722,-26.7379679144385,4,2,1,90,0,0
252819,-25.974025974026,4,2,1,90,0,0
252915,-25.2525252525252,4,2,1,90,0,0
253011,-151.515151515152,4,2,1,90,0,0
253780,-50,4,2,1,90,0,0
253972,-66.6666666666667,4,2,1,90,0,0
254165,-100,4,2,1,90,0,0
254357,-200,4,2,1,90,0,0
254549,375,4,2,1,90,1,0
254924,-45.4545454545455,4,2,1,90,0,0
255299,-50,4,2,1,90,0,0
255486,-66.6666666666667,4,2,1,90,0,0
255674,-41.6666666666667,4,2,1,90,0,0
255861,-43.4782608695652,4,2,1,90,0,0
256236,-250,4,2,1,90,0,0
256330,-111.111111111111,4,2,1,90,0,0
256424,-83.3333333333333,4,2,1,90,0,0
256517,-66.6666666666667,4,2,1,90,0,0
256611,-45.4545454545455,4,2,1,90,0,0
256799,-50,4,2,1,90,0,0
257361,-43.4782608695652,4,2,1,90,0,0
257549,-100,4,2,1,90,0,0
257924,-45.4545454545455,4,2,1,90,0,0
258299,-50,4,2,1,90,0,0
259049,-43.4782608695652,4,2,1,90,0,0
259236,-166.666666666667,4,2,1,90,0,0
259424,-66.6666666666667,4,2,1,90,0,0
259611,-55.5555555555556,4,2,1,90,0,0
259799,-222.222222222222,4,2,1,90,0,0
259892,-200,4,2,1,90,0,0
259986,-142.857142857143,4,2,1,90,0,0
260080,-100,4,2,1,90,0,0
260174,-71.4285714285714,4,2,1,90,0,0
260267,-55.5555555555556,4,2,1,90,0,0
260361,-41.6666666666667,4,2,1,90,0,0
260549,361.44578313253,4,2,1,90,1,0
266332,348.837209302326,4,2,1,90,1,0
266332,-50,4,2,1,90,0,0
266680,-66.6666666666667,4,2,1,90,0,0
266855,-50,4,2,1,90,0,0
267204,-66.6666666666667,4,2,1,90,0,0
267378,-50,4,2,1,90,0,0
268076,-66.6666666666667,4,2,1,90,0,0
268599,-50,4,2,1,90,0,0
269471,-66.6666666666667,4,2,1,90,0,0
269645,-50,4,2,1,90,0,0
269994,-66.6666666666667,4,2,1,90,0,0
270169,-50,4,2,1,90,0,0
270866,-66.6666666666667,4,2,1,90,0,0
271390,-50,4,2,1,90,0,0
271913,342.857142857143,4,2,1,90,1,0
272084,-250,4,2,1,90,0,0
272598,-42.7350427350427,4,2,1,90,0,0
274827,-250,4,2,1,90,0,0
275341,-42.7350427350427,4,2,1,90,0,0
276884,-27.7777777777778,4,2,1,90,0,0
277398,333.333333333333,4,2,1,90,1,0
278731,324.324324324324,4,2,1,90,1,0
280028,312.5,4,2,1,90,1,0
280028,-80,4,2,1,90,0,0
281278,300,4,2,1,90,1,0
282478,283.018867924528,4,2,1,90,1,0
282478,-66.6666666666667,4,2,1,90,0,0
283610,272.727272727273,4,2,1,90,1,0
284700,256.410256410256,4,2,1,90,1,0
284828,-66.6666666666667,4,2,1,90,0,0
287776,-133.333333333333,4,2,1,90,0,0
288546,-50,4,2,1,90,0,0
304187,-250,4,2,1,90,0,0
304699,-133.333333333333,4,2,1,90,0,0
305212,-80,4,2,1,90,0,0
306494,-200,4,2,1,90,0,0
307135,-80,4,2,1,90,0,0
308546,-200,4,2,1,90,0,0
309187,-66.6666666666667,4,2,1,90,0,0
310597,-200,4,2,1,90,0,0
311366,-100,4,2,1,90,0,0
311623,-66.6666666666667,4,2,1,90,0,0
313161,-200,4,2,1,90,0,0
313417,-76.9230769230769,4,2,1,90,0,0
314699,-100,4,2,1,90,0,0
315469,-76.9230769230769,4,2,1,90,0,0
317135,-100,4,2,1,90,0,0
318289,-83.3333333333333,4,2,1,90,0,0
319058,-71.4285714285714,4,2,1,90,0,0
319828,-62.5,4,2,1,90,0,0
320853,-57.1428571428571,4,2,1,90,0,0
324699,-333.333333333333,4,2,1,90,0,0
325212,-57.1428571428571,4,2,1,90,0,0
325725,-66.6666666666667,4,2,1,90,0,1
327520,-66.6666666666667,4,1,101,90,0,1
327584,-66.6666666666667,4,1,1,90,0,1
329507,-66.6666666666667,4,2,1,90,0,1
329571,-66.6666666666667,4,1,101,90,0,1
329635,-66.6666666666667,4,1,1,90,0,1
335661,-66.6666666666667,4,2,1,90,0,1
335725,-66.6666666666667,4,1,101,90,0,1
335789,-66.6666666666667,4,1,1,90,0,1
340084,-66.6666666666667,4,1,1,90,0,0
340597,-76.9230769230769,4,1,1,90,0,0
341623,-66.6666666666667,4,1,1,90,0,0
342135,-66.6666666666667,4,1,1,90,0,1
344187,-333.333333333333,4,1,1,90,0,0
345469,-166.666666666667,4,1,1,90,0,0
345725,-111.111111111111,4,1,1,90,0,0
345917,-83.3333333333333,4,1,1,90,0,0
346110,-50,4,1,1,90,0,0
346238,-50,4,1,1,90,0,1
348289,-333.333333333333,4,1,1,90,0,0
349571,-133.333333333333,4,1,1,90,0,0
349699,-100,4,1,1,90,0,0
349828,-80,4,1,1,90,0,0
349956,-66.6666666666667,4,1,1,90,0,0
350341,-62.5,4,1,1,90,0,1
352071,-62.5,4,2,1,90,0,1
352135,-62.5,4,1,101,90,0,1
352199,-62.5,4,1,1,90,0,1
357520,-133.333333333333,4,1,1,90,0,0
358546,-62.5,4,1,1,90,0,0
360084,-100,4,2,5,90,0,0
360853,-100,4,1,101,90,0,0
361110,-100,4,2,100,90,0,0
361115,-100,4,2,5,90,0,0
361622,-100,4,1,100,90,0,0
361627,-100,4,2,1,90,0,0
361751,-100,4,1,101,90,0,0
362135,-100,4,2,5,90,0,0
362648,-62.5,4,1,1,90,0,0
363161,-62.5,4,2,100,90,0,0
363289,-62.5,4,2,1,90,0,0
364187,-100,4,2,5,90,0,0
364956,-100,4,1,101,90,0,0
365213,-100,4,2,100,90,0,0
365218,-100,4,2,5,90,0,0
365725,-100,4,1,100,90,0,0
365730,-100,4,2,1,90,0,0
365854,-100,4,1,101,90,0,0
366238,-100,4,2,5,90,0,0
366494,-133.333333333333,4,1,1,90,0,0
366751,-62.5,4,1,1,90,0,0
368289,-100,4,1,1,90,0,0
368546,-62.5,4,1,1,90,0,0
368802,-100,4,1,1,90,0,0
369058,-62.5,4,1,1,90,0,0
369315,-100,4,1,1,90,0,0
369571,-62.5,4,1,1,90,0,0
369828,-100,4,1,1,90,0,0
370084,-62.5,4,1,1,90,0,0
370341,-100,4,1,1,90,0,0
370853,-76.9230769230769,4,1,1,90,0,0
372392,-100,4,1,1,90,0,0
372648,-62.5,4,1,1,90,0,0
372905,-100,4,1,1,90,0,0
373161,-62.5,4,1,1,90,0,0
373417,-100,4,1,1,90,0,0
385469,-66.6666666666667,4,1,1,90,0,0
391366,-133.333333333333,4,1,1,90,0,0
392135,-57.1428571428571,4,1,1,90,0,0
392392,-57.1428571428571,4,1,1,100,0,1
401110,-133.333333333333,4,1,1,60,0,0
401623,-50,4,1,1,100,0,1
405725,-57.1428571428571,4,1,1,100,0,1
413417,-133.333333333333,4,1,1,100,0,1
413674,-66.6666666666667,4,1,1,100,0,1
413930,-76.9230769230769,4,1,1,90,0,0
415212,-100,4,1,1,90,0,0
415982,-76.9230769230769,4,1,1,90,0,0
417648,-100,4,1,1,90,0,0
418802,-83.3333333333333,4,1,1,90,0,0
419571,-71.4285714285714,4,1,1,90,0,0
420341,-62.5,4,1,1,90,0,0
421110,-133.333333333333,4,1,1,90,0,0
421879,-50,4,1,1,90,0,0

[Colours]
Combo1 : 0,255,128
Combo2 : 225,228,234
Combo3 : 162,171,196
Combo4 : 0,255,255
Combo5 : 85,49,253
Combo6 : 248,118,63
Combo7 : 248,5,66

[HitObjects]
28,102,2874,6,0,P|43:181|48:287,1,175.5,4|0,1:0|2:0,2:0:0:0:
152,340,3643,2,0,P|137:261|132:155,1,175.5,2|0,2:0|2:0,2:0:0:0:
190,105,4412,2,0,B|137:80|137:80|72:97,1,117,2|0,2:0|2:0,2:0:0:0:
276,230,4797,1,2,2:0:0:0:
464,142,4925,6,0,P|449:221|444:327,1,175.5,2|0,2:0|2:0,2:0:0:0:
340,380,5694,2,0,P|355:301|360:195,1,175.5,2|0,2:0|2:0,2:0:0:0:
360,206,6335,85,2,2:0:0:0:
276,230,6464,2,0,L|282:158,1,58.5,2|0,2:0|2:0,2:0:0:0:
186,160,6720,2,0,L|194:257,1,87.75,2|0,2:0|2:0,2:0:0:0:
233,354,6976,6,0,P|146:332|46:337,1,175.5,2|0,2:0|2:0,2:0:0:0:
0,244,7746,2,0,P|87:245|172:224,1,175.5,2|0,2:0|2:0,2:0:0:0:
246,268,8515,2,0,B|258:210|258:210|232:152,1,117,2|0,2:0|2:0,2:0:0:0:
319,324,8899,1,2,2:0:0:0:
317,38,9028,86,0,P|401:59|489:57,1,175.5,2|0,2:0|2:0,2:0:0:0:
428,148,9797,2,0,P|340:146|255:167,1,175.5,2|0,2:0|2:0,2:0:0:0:
255,167,10438,5,2,2:0:0:0:
172,117,10566,1,2,2:0:0:0:
94,192,10694,1,2,2:0:0:0:
0,67,10822,2,0,L|20:166,1,87.75,2|0,2:0|2:0,2:0:0:0:
12,170,11079,86,0,L|91:180,1,70.2000000000001,2|0,2:0|2:0,2:0:0:0:
25,262,11464,2,0,L|104:272,1,70.2000000000001,2|0,2:0|2:0,2:0:0:0:
166,321,11848,6,0,L|245:311,1,70.2000000000001,2|0,2:0|2:0,2:0:0:0:
179,229,12233,2,0,L|258:219,1,70.2000000000001,2|0,2:0|2:0,2:0:0:0:
489,181,12617,86,0,B|528:265|528:265|389:241|389:241|338:151|338:151|189:128|189:128|250:223,1,596.700000000001,2|0,2:0|2:0,2:0:0:0:
309,278,14925,5,2,2:0:0:0:
299,361,15053,1,2,2:0:0:0:
203,295,15181,86,0,L|211:370,1,70.2000000000001,2|0,2:0|2:0,2:0:0:0:
121,304,15566,2,0,L|129:379,1,70.2000000000001,2|0,2:0|2:0,2:0:0:0:
352,220,15951,6,0,L|344:295,1,70.2000000000001,2|0,2:0|2:0,2:0:0:0:
434,229,16335,2,0,L|426:304,1,70.2000000000001,2|0,2:0|2:0,2:0:0:0:
256,192,16720,85,2,2:0:0:0:
256,192,16784,12,0,18515,2:0:0:0:
409,184,18643,85,2,2:0:0:0:
409,184,18707,1,2,2:0:0:0:
409,184,18771,2,0,B|412:246|412:246|361:312,1,117.000004463196,2|0,2:0|2:0,2:0:0:0:
163,54,18942,2,0,B|215:21|215:21|298:32,1,117.000004463196,2|0,2:0|2:0,2:0:0:0:
177,328,19113,2,0,B|123:300|123:300|91:223,1,117.000004463196,2|0,2:0|2:0,2:0:0:0:
348,118,19284,6,0,B|304:127|268:124|268:124|215:171|215:171|172:170|112:180,1,234,0|0,1:0|2:0,2:0:0:0:
46,201,19669,2,0,B|61:42|61:42|102:145,1,234,0|0,1:0|2:0,2:0:0:0:
165,265,20053,6,0,B|209:256|245:259|245:259|298:212|298:212|341:213|401:203,1,234,0|0,1:0|2:0,2:0:0:0:
467,182,20438,2,0,B|452:341|452:341|411:238,1,234,0|0,1:0|2:0,2:0:0:0:
361,119,20822,86,0,B|291:102|255:40|255:40|259:188|229:326|255:370|364:359|448:286|479:119|383:92|177:190|-206:258|-201:109|-35:-86|89:-99|156:-103|215:-37|89:199|75:307|181:391|181:391,1,1372.41,4|0,1:0|2:0,2:0:0:0:
429,342,23130,5,2,2:0:0:0:
429,342,23194,1,2,2:0:0:0:
429,342,23258,1,2,2:0:0:0:
429,342,23322,1,2,2:0:0:0:
429,342,23387,2,0,B|502:311|502:311|485:144,1,234,0|0,1:0|2:0,2:0:0:0:
329,279,23771,2,0,P|297:236|394:261,1,234,0|0,1:0|2:0,2:0:0:0:
86,167,24156,86,0,B|13:198|13:198|30:365,1,234,0|0,1:0|2:0,2:0:0:0:
186,230,24540,2,0,P|218:273|121:248,1,234,0|0,1:0|2:0,2:0:0:0:
183,24,24925,6,0,B|302:24|393:101|432:267|291:401|147:286|172:151|191:87|405:95|496:144|496:144|410:220|384:296|384:296|417:272|488:266,1,1049.49,4|0,1:0|2:0,2:0:0:0:
297,341,26720,86,0,B|225:347|225:347|211:362|211:362|123:368,1,175.5,0|0,1:0|2:0,2:0:0:0:
117,357,26976,2,0,L|125:282,1,43.8750000000001,0|0,3:0|2:0,2:0:0:0:
40,350,27105,2,0,L|48:275,1,43.8750000000001,0|0,3:0|2:0,2:0:0:0:
202,268,27233,6,0,L|194:193,1,43.8750000000001,0|0,3:0|2:0,2:0:0:0:
279,261,27361,2,0,L|271:186,1,43.8750000000001,0|0,3:0|2:0,2:0:0:0:
41,88,27489,86,0,B|171:60|129:154|278:119,1,234,0|0,1:0|2:0,2:0:0:0:
354,160,27874,2,0,B|347:81|359:-1|359:-1|307:62,1,234,0|0,1:0|2:0,2:0:0:0:
397,252,28258,6,0,B|267:280|309:186|160:221,1,234,0|0,1:0|2:0,2:0:0:0:
84,180,28643,2,0,B|91:259|79:341|79:341|131:278,1,234,0|0,1:0|2:0,2:0:0:0:
465,83,29028,86,0,B|436:205|298:273|145:256|113:159|70:49|118:-23|310:-111|379:-45|402:107|402:184|369:290|368:383|125:458|38:308|40:171|40:171|90:242|167:247,1,1372.41,4|0,1:0|2:0,2:0:0:0:
404,349,31335,5,2,2:0:0:0:
404,349,31399,1,2,2:0:0:0:
404,349,31464,1,2,2:0:0:0:
404,349,31528,1,2,2:0:0:0:
404,349,31592,2,0,B|420:191|420:191|459:268,1,234,0|0,1:0|2:0,2:0:0:0:
298,361,31976,2,0,B|303:306|303:306|320:283|320:283|293:227|293:227|313:201|313:201|317:135,1,234,0|0,1:0|2:0,2:0:0:0:
108,35,32361,86,0,B|92:193|92:193|53:116,1,234,0|0,1:0|2:0,2:0:0:0:
214,23,32746,2,0,B|209:78|209:78|192:101|192:101|219:157|219:157|199:183|199:183|195:249,1,234,0|0,1:0|2:0,2:0:0:0:
424,289,33130,6,0,B|336:327|263:303|133:71|50:163|2:237|-3:372|108:413|230:322|243:216|243:216|288:120|384:-29|452:50|507:123|500:245|314:219|256:141|256:141|166:78|79:102,1,1453.14,4|4,1:0|1:0,2:0:0:0:
256,192,35502,12,0,37105,2:0:0:0:
256,192,37233,86,0,B|265:90|265:90|292:130,1,131.625,2|0,2:0|2:0,2:0:0:0:
320,275,37489,2,0,B|272:271|272:271|244:286|244:286|174:280,1,131.625,2|0,2:0|2:0,2:0:0:0:
46,364,37746,22,0,B|27:241|27:241|-10:307,1,175.5,0|0,1:0|2:0,2:0:0:0:
127,321,38002,2,0,B|174:317|209:297|209:297|266:351|266:351|317:317|317:317|352:332|405:337,1,292.5,0|0,1:0|2:0,2:0:0:0:
469,231,38387,6,0,B|488:108|488:108|525:174,1,175.5,0|0,1:0|2:0,2:0:0:0:
388,188,38643,2,0,B|341:184|306:164|306:164|249:218|249:218|198:184|198:184|163:199|110:204,1,292.5,0|0,1:0|2:0,2:0:0:0:
50,282,39028,54,0,L|56:226,3,43.8750000000001,2|0|0|0,2:0|2:0|2:0|2:0,2:0:0:0:
68,112,39284,2,0,L|62:168,7,43.8750000000001,2|0|0|0|0|0|0|0,2:0|2:0|2:0|2:0|2:0|2:0|2:0|2:0,2:0:0:0:
5,38,39797,22,0,B|111:15|111:15|164:74,1,175.5,0|0,1:0|2:0,2:0:0:0:
253,5,40053,2,0,B|244:64|244:64|268:100|268:100|215:157|215:157|234:194|234:194|224:265,1,292.5,0|0,1:0|2:0,2:0:0:0:
286,337,40438,6,0,B|180:360|180:360|127:301,1,175.5,0|0,1:0|2:0,2:0:0:0:
329,166,40694,2,0,B|435:143|435:143|488:202,1,175.5,0|0,1:0|2:0,2:0:0:0:
309,253,40951,1,0,1:0:0:0:
84,161,41079,54,0,L|72:61,1,87.7500000000002,2|0,2:0|2:0,2:0:0:0:
0,133,41335,1,2,2:0:0:0:
214,159,41464,2,0,B|165:199|165:199|187:22,1,219.375000000001,2|0,2:0|2:0,2:0:0:0:
283,79,41848,22,0,B|348:72|348:72|387:104|387:104|465:98,1,175.5,0|0,1:0|2:0,2:0:0:0:
346,304,42105,2,0,B|284:324|284:324|304:163|304:163|382:204,1,292.5,0|0,1:0|2:0,2:0:0:0:
203,369,42489,6,0,B|138:376|138:376|99:344|99:344|21:350,1,175.5,0|0,1:0|2:0,2:0:0:0:
140,144,42746,2,0,B|202:124|202:124|182:285|182:285|104:244,1,292.5,0|0,1:0|2:0,2:0:0:0:
287,336,43130,54,0,L|342:345,5,43.8750000000001,2|0|0|0|0|0,2:0|2:0|2:0|2:0|2:0|2:0,2:0:0:0:
468,354,43515,6,0,L|424:361,1,43.8750000000001,2|0,2:0|2:0,2:0:0:0:
476,270,43643,2,0,L|432:277,1,43.8750000000001,2|0,2:0|2:0,2:0:0:0:
277,249,43771,86,0,L|332:258,5,43.8750000000001,2|0|0|0|0|0,2:0|2:0|2:0|2:0|2:0|2:0,2:0:0:0:
220,171,44156,22,0,B|245:13|245:13|293:96,1,234,0|0,1:0|2:0,2:0:0:0:
151,235,44540,2,0,B|1:292|1:292|49:209,1,234,0|0,1:0|2:0,2:0:0:0:
241,263,44925,2,0,B|365:363|365:363|269:363,1,234,0|0,1:0|2:0,2:0:0:0:
139,146,45310,6,0,B|67:98|67:98|192:70|192:70|268:123|268:123|404:102|404:102|331:50,1,526.5,4|0,1:0|2:0,2:0:0:0:
491,70,45951,86,0,L|483:169,3,70.2,0|0|0|0,1:0|2:0|2:0|2:0,2:0:0:0:
397,171,46207,2,0,L|403:102,5,70.2,0|0|0|0|0|0,1:0|2:0|2:0|2:0|2:0|2:0,2:0:0:0:
235,193,46592,6,0,L|240:262,3,70.2,0|0|0|0,1:0|2:0|2:0|2:0,2:0:0:0:
329,294,46848,2,0,L|323:225,5,70.2,0|0|0|0|0|0,1:0|2:0|2:0|2:0|2:0|2:0,2:0:0:0:
220,356,47233,54,0,L|136:371,1,58.5,0|0,1:0|2:0,2:0:0:0:
143,280,47361,1,0,2:0:0:0:
143,280,47425,1,0,2:0:0:0:
143,280,47489,2,0,L|59:265,1,58.5,0|0,1:0|2:0,2:0:0:0:
322,224,47617,6,0,L|406:239,1,58.5,0|0,1:0|2:0,2:0:0:0:
399,148,47746,1,0,2:0:0:0:
399,148,47810,1,0,2:0:0:0:
399,148,47874,2,0,L|483:133,1,58.5,0|0,1:0|2:0,2:0:0:0:
188,100,48002,6,0,L|181:15,3,70.2,0|0|0|0,1:0|2:0|2:0|2:0,2:0:0:0:
102,17,48258,2,0,L|107:86,5,70.2,0|0|0|0|0|0,1:0|2:0|2:0|2:0|2:0|2:0,2:0:0:0:
322,224,48643,6,0,L|329:139,3,70.2,0|0|0|0,1:0|2:0|2:0|2:0,2:0:0:0:
408,141,48899,2,0,L|402:210,3,70.2,0|0|0|0,1:0|2:0|2:0|2:0,2:0:0:0:
482,196,49156,2,0,L|488:127,5,70.2,0|0|0|0|0|0,1:0|2:0|2:0|2:0|2:0|2:0,2:0:0:0:
213,357,49540,54,0,L|207:287,1,58.5,0|0,1:0|2:0,2:0:0:0:
123,282,49669,1,0,2:0:0:0:
123,282,49733,1,0,2:0:0:0:
123,282,49797,2,0,L|128:341,1,58.5,0|0,1:0|2:0,2:0:0:0:
42,325,49925,2,0,L|36:255,1,58.5,0|0,1:0|2:0,2:0:0:0:
40,91,50053,21,0,1:0:0:0:
40,91,50117,1,0,1:0:0:0:
40,91,50181,2,0,L|151:78,1,87.75,0|0,1:0|2:0,2:0:0:0:
203,46,50310,2,0,L|207:114,2,43.875,0|0|0,1:0|2:0|2:0,2:0:0:0:
468,165,50438,5,0,1:0:0:0:
468,165,50502,1,0,1:0:0:0:
468,165,50566,2,0,L|356:152,1,87.75,0|0,1:0|2:0,2:0:0:0:
305,120,50694,2,0,L|300:188,2,43.875,0|0|0,1:0|2:0|2:0,2:0:0:0:
32,235,50822,85,0,1:0:0:0:
32,235,50887,1,0,1:0:0:0:
32,235,50951,2,0,L|143:222,1,87.75,0|0,1:0|2:0,2:0:0:0:
195,190,51079,2,0,L|199:258,2,43.875,0|0|0,1:0|2:0|2:0,2:0:0:0:
476,309,51207,5,0,1:0:0:0:
476,309,51271,1,0,1:0:0:0:
476,309,51335,2,0,L|364:296,1,87.75,0|0,1:0|2:0,2:0:0:0:
313,264,51464,2,0,L|308:332,2,43.875,0|0|0,1:0|2:0|2:0,2:0:0:0:
209,351,51592,6,0,L|153:343,6,43.875,0|0|0|0|0|0|0,1:0|2:0|2:0|2:0|2:0|2:0|2:0,2:0:0:0:
87,373,51848,2,0,L|75:269,1,87.75,0|0,1:0|2:0,2:0:0:0:
313,264,51976,6,0,L|369:256,6,43.875,0|0|0|0|0|0|0,1:0|2:0|2:0|2:0|2:0|2:0|2:0,2:0:0:0:
435,286,52233,2,0,L|447:182,1,87.75,0|0,1:0|2:0,2:0:0:0:
192,179,52361,86,0,L|136:171,6,43.875,0|0|0|0|0|0|0,1:0|2:0|2:0|2:0|2:0|2:0|2:0,2:0:0:0:
70,201,52617,2,0,L|58:97,1,87.75,0|0,1:0|2:0,2:0:0:0:
330,92,52746,6,0,L|386:84,6,43.875,0|0|0|0|0|0|0,1:0|2:0|2:0|2:0|2:0|2:0|2:0,2:0:0:0:
452,114,53002,2,0,L|464:10,1,87.75,0|0,1:0|2:0,2:0:0:0:
255,33,53130,22,0,B|245:109|245:109|277:164|277:164|263:256,1,219.375000000001,2|0,2:0|2:0,2:0:0:0:
195,297,53515,2,0,B|261:355|261:355|344:291,1,175.5,2|0,2:0|2:0,2:0:0:0:
5,263,53899,70,0,P|112:205|60:306,1,307.125,2|0,2:0|2:0,2:0:0:0:
182,159,54156,6,0,B|230:156|271:144|271:144|338:187|338:187|381:179|444:179,1,263.25,4|0,1:0|2:0,2:0:0:0:
448,90,54412,2,0,L|331:100,1,87.75,0|0,1:0|2:0,2:0:0:0:
176,246,54540,2,0,L|263:238,1,87.75,0|0,2:0|2:0,2:0:0:0:
7,107,54669,38,0,L|-2:213,1,87.75,0|0,1:0|2:0,2:0:0:0:
92,329,54797,1,2,2:0:0:0:
92,329,54861,1,2,2:0:0:0:
92,329,54925,2,0,L|83:223,1,87.75,0|0,1:0|2:0,2:0:0:0:
157,72,55053,2,0,L|148:178,1,87.75,0|0,2:0|2:0,2:0:0:0:
260,339,55181,6,0,L|251:233,1,87.75,0|0,1:0|2:0,2:0:0:0:
347,103,55310,2,0,L|338:209,1,87.75,0|0,2:0|2:0,2:0:0:0:
428,320,55438,2,0,L|419:214,1,87.75,0|0,1:0|2:0,2:0:0:0:
512,136,55566,2,0,L|503:242,1,87.75,0|0,2:0|2:0,2:0:0:0:
266,355,55694,86,0,L|140:370,1,87.75,0|0,1:0|2:0,2:0:0:0:
165,229,55822,1,2,2:0:0:0:
165,229,55887,1,2,2:0:0:0:
165,229,55951,2,0,L|291:244,1,87.75,0|0,1:0|2:0,2:0:0:0:
422,196,56079,53,2,2:0:0:0:
422,196,56143,1,2,2:0:0:0:
422,196,56207,2,0,B|456:23|456:23|388:107,1,263.25,0|0,1:0|2:0,2:0:0:0:
335,164,56464,38,0,L|344:278,1,87.75,0|0,1:0|2:0,2:0:0:0:
83,107,56592,1,2,2:0:0:0:
83,107,56656,1,2,2:0:0:0:
83,107,56720,2,0,L|74:221,1,87.75,0|0,1:0|2:0,2:0:0:0:
259,267,56848,2,0,L|268:381,1,87.75,0|0,2:0|2:0,2:0:0:0:
98,357,56976,6,0,L|191:348,1,87.75,0|0,1:0|2:0,2:0:0:0:
352,337,57105,1,0,2:0:0:0:
79,215,57233,86,0,L|172:224,1,87.75,0|0,1:0|2:0,2:0:0:0:
403,234,57361,1,0,2:0:0:0:
36,99,57489,6,0,L|129:90,1,87.75,0|0,1:0|2:0,2:0:0:0:
420,56,57617,1,0,2:0:0:0:
280,62,57746,38,0,B|199:7|199:7|217:148|217:148|312:209|312:209|336:366|336:366|221:282,1,614.25,0|0,1:0|2:0,2:0:0:0:
29,243,58258,70,0,B|13:196|13:196|170:221|170:221|135:273,1,263.25,0|0,1:0|2:0,2:0:0:0:
11,329,58515,2,0,B|69:323|69:323|113:351|113:351|210:345,1,175.5,0|0,1:0|2:0,2:0:0:0:
452,22,58771,6,0,B|517:60|517:60|489:273,1,263.25,0|0,1:0|2:0,2:0:0:0:
354,377,59028,86,0,B|419:339|419:339|391:126,1,263.25,0|0,1:0|2:0,2:0:0:0:
283,26,59284,2,0,P|327:37|389:45,1,87.75,0|0,1:0|2:0,2:0:0:0:
233,137,59412,2,0,P|278:125|339:118,1,87.75,0|0,1:0|2:0,2:0:0:0:
148,29,59540,6,0,B|213:67|213:67|185:280,1,263.25,0|0,1:0|2:0,2:0:0:0:
80,384,59797,2,0,P|130:374|186:365,1,87.75,0|0,1:0|2:0,2:0:0:0:
11,277,59925,2,0,P|52:290|117:296,1,87.75,0|0,1:0|2:0,2:0:0:0:
129,119,60053,86,0,P|66:95|124:193,1,263.25,0|0,1:0|2:0,2:0:0:0:
264,318,60310,5,0,1:0:0:0:
235,37,60438,1,0,1:0:0:0:
330,384,60566,2,0,B|375:323|375:323|357:190,1,175.5,0|0,1:0|2:0,2:0:0:0:
512,81,60822,86,0,B|326:34|326:34|402:109,1,263.25,0|0,1:0|2:0,2:0:0:0:
24,156,61079,6,0,B|210:109|210:109|134:184,1,263.25,0|0,1:0|2:0,2:0:0:0:
283,205,61335,2,0,L|292:106,1,87.75,0|0,1:0|2:0,2:0:0:0:
461,276,61464,85,2,2:0:0:0:
461,276,61528,1,2,2:0:0:0:
461,276,61592,2,0,B|275:229|275:229|351:304,1,263.25,0|0,1:0|2:0,2:0:0:0:
202,325,61848,2,0,L|193:226,1,87.75,0|0,1:0|2:0,2:0:0:0:
39,362,61976,6,0,B|20:288|20:288|42:237|42:237|23:182|23:182|46:100,1,263.25,0|0,1:0|2:0,2:0:0:0:
121,193,62233,2,0,L|112:136,2,43.875,0|0|0,1:0|1:0|1:0,1:0:0:0:
310,86,62361,6,0,P|223:34|276:141,1,263.25,4|0,1:0|2:0,2:0:0:0:
403,37,62617,2,0,P|397:84|395:145,1,87.75,0|0,1:0|2:0,2:0:0:0:
409,307,62746,37,2,2:0:0:0:
409,307,62810,1,2,2:0:0:0:
409,307,62874,2,0,L|538:319,1,87.75,0|0,1:0|2:0,2:0:0:0:
233,328,63002,2,0,L|104:340,1,87.75,0|0,2:0|2:0,2:0:0:0:
311,379,63130,2,0,B|330:195|330:195|267:288,1,263.25,0|0,1:0|2:0,2:0:0:0:
96,87,63387,6,0,L|-33:99,1,87.75,0|0,1:0|2:0,2:0:0:0:
263,108,63515,2,0,L|392:120,1,87.75,0|0,2:0|2:0,2:0:0:0:
184,136,63643,2,0,B|173:9|173:9|246:85,1,175.5,0|0,1:0|2:0,2:0:0:0:
107,179,63835,1,0,2:0:0:0:
87,181,63899,86,0,L|-42:193,1,87.75,0|0,1:0|2:0,2:0:0:0:
278,205,64028,2,0,L|407:217,1,87.75,0|0,2:0|2:0,2:0:0:0:
65,288,64156,6,0,B|100:283|139:267|139:267|185:310|185:310|228:296|228:296|261:311|261:311|348:295,1,263.25,0|0,1:0|2:0,2:0:0:0:
380,380,64412,38,0,P|387:322|395:285,1,87.75,0|0,1:0|2:0,2:0:0:0:
202,261,64540,2,0,P|195:203|187:166,1,87.75,0|0,2:0|2:0,2:0:0:0:
467,181,64669,2,0,B|423:109|409:25|409:25|373:126,1,263.25,0|0,1:0|2:0,2:0:0:0:
283,28,64925,38,0,L|291:140,1,87.75,0|0,1:0|2:0,2:0:0:0:
182,156,65053,2,0,L|190:44,1,87.75,0|0,2:0|2:0,2:0:0:0:
81,28,65181,2,0,L|89:140,1,87.75,0|0,1:0|2:0,2:0:0:0:
159,298,65310,5,2,2:0:0:0:
159,298,65374,1,2,2:0:0:0:
159,298,65438,2,0,L|65:314,1,87.75,0|0,1:0|2:0,2:0:0:0:
397,218,65566,2,0,L|491:202,1,87.75,0|0,2:0|2:0,2:0:0:0:
115,218,65694,86,0,L|21:202,1,87.75,0|0,1:0|2:0,2:0:0:0:
353,298,65822,2,0,L|447:314,1,87.75,0|0,2:0|2:0,2:0:0:0:
305,176,65951,54,0,B|363:133|374:37|312:-38|138:-59|76:144|178:253|269:121|297:317|223:390,1,614.25,0|0,1:0|2:0,2:0:0:0:
42,271,66464,6,0,B|34:330|34:330|56:383,1,117,0|0,1:0|2:0,2:0:0:0:
36,179,66720,1,8,2:0:0:0:
131,335,66848,2,0,B|119:171|119:171|187:234,1,234,0|0,2:0|1:0,2:0:0:0:
251,264,67233,2,0,B|258:204|258:204|236:151,1,117,8|0,2:0|2:0,2:0:0:0:
512,84,67489,6,0,B|459:63|459:63|375:79,1,117,0|0,1:0|2:0,2:0:0:0:
185,74,67746,1,8,2:0:0:0:
451,152,67874,1,0,2:0:0:0:
124,142,68002,2,0,B|177:163|177:163|261:147,1,117,0|0,2:0|1:0,2:0:0:0:
319,68,68258,2,0,L|326:185,1,117,8|0,2:0|2:0,2:0:0:0:
92,358,68515,86,0,L|100:224,1,117,0|0,1:0|2:0,2:0:0:0:
0,301,68771,1,8,2:0:0:0:
178,312,68899,2,0,B|219:312|258:303|258:303|311:344|311:344|356:337|417:336,1,234,0|0,2:0|1:0,2:0:0:0:
512,329,69284,2,0,B|477:365|477:365|490:213,1,175.5,8|0,2:0|2:0,2:0:0:0:
340,257,69540,6,0,L|328:126,1,117,0|0,1:0|2:0,2:0:0:0:
240,193,69797,1,8,2:0:0:0:
427,167,69925,85,0,1:0:0:0:
427,167,69989,1,0,1:0:0:0:
427,167,70053,2,0,L|441:29,1,131.625,0|0,1:0|2:0,2:0:0:0:
355,58,70310,5,2,2:0:0:0:
355,58,70374,1,2,2:0:0:0:
355,58,70438,1,2,2:0:0:0:
355,58,70502,1,2,2:0:0:0:
355,58,70566,70,0,L|250:50,1,87.75,0|0,1:0|2:0,2:0:0:0:
16,175,70694,2,0,L|121:167,1,87.75,0|0,1:0|2:0,2:0:0:0:
198,234,70822,2,0,B|190:173|190:173|206:136|206:136|162:89|162:89|183:60|183:60|175:-13,1,263.25,0|0,1:0|2:0,2:0:0:0:
79,0,71079,38,0,L|68:119,1,87.75,0|0,1:0|2:0,2:0:0:0:
305,137,71207,1,2,2:0:0:0:
305,137,71271,1,2,2:0:0:0:
305,137,71335,2,0,L|316:256,1,87.75,0|0,1:0|2:0,2:0:0:0:
103,258,71464,2,0,L|92:377,1,87.75,0|0,2:0|2:0,2:0:0:0:
456,376,71592,6,0,L|467:257,1,87.75,0|0,1:0|2:0,2:0:0:0:
199,303,71720,2,0,L|188:184,1,87.75,0|0,2:0|2:0,2:0:0:0:
415,212,71848,2,0,L|426:93,1,87.75,0|0,1:0|2:0,2:0:0:0:
275,138,71976,2,0,L|264:19,1,87.75,0|0,2:0|2:0,2:0:0:0:
491,44,72105,86,0,P|449:28|375:35,1,87.75,0|0,1:0|2:0,2:0:0:0:
381,217,72233,2,0,P|339:233|265:226,1,87.75,0|0,2:0|2:0,2:0:0:0:
253,63,72361,2,0,P|211:47|137:54,1,87.75,0|0,1:0|2:0,2:0:0:0:
16,183,72489,53,2,2:0:0:0:
16,183,72553,1,2,2:0:0:0:
16,183,72617,2,0,B|91:174|181:125|181:125|131:201,1,263.25,0|0,1:0|2:0,2:0:0:0:
4,286,72874,38,0,L|109:271,1,87.75,0|0,1:0|2:0,2:0:0:0:
93,113,73002,1,2,2:0:0:0:
93,113,73066,1,2,2:0:0:0:
93,113,73130,2,0,L|198:128,1,87.75,0|0,1:0|2:0,2:0:0:0:
237,248,73258,2,0,L|342:233,1,87.75,0|0,2:0|2:0,2:0:0:0:
481,82,73387,6,0,L|473:177,1,87.75,0|0,1:0|2:0,2:0:0:0:
464,288,73515,1,0,2:0:0:0:
363,67,73643,86,0,L|371:162,1,87.75,0|0,1:0|2:0,2:0:0:0:
381,317,73771,1,0,2:0:0:0:
273,31,73899,6,0,L|265:126,1,87.75,0|0,1:0|2:0,2:0:0:0:
250,360,74028,1,0,2:0:0:0:
44,197,74156,38,0,B|2:301|2:301|139:171|316:155|316:155|208:284,1,614.25,0|0,1:0|2:0,2:0:0:0:
511,326,74669,70,0,B|427:321|330:377|330:377|378:291,1,263.25,0|0,1:0|2:0,2:0:0:0:
455,241,74925,2,0,P|370:227|281:181,1,175.5,0|0,1:0|2:0,2:0:0:0:
26,66,75181,6,0,B|54:11|54:11|90:253,1,263.25,0|0,1:0|2:0,2:0:0:0:
124,317,75438,86,0,B|152:372|152:372|188:130,1,263.25,0|0,1:0|2:0,2:0:0:0:
134,22,75694,2,0,P|179:12|234:-6,1,87.75,0|0,1:0|2:0,2:0:0:0:
188,91,75822,2,0,P|233:101|288:119,1,87.75,0|0,1:0|2:0,2:0:0:0:
306,37,75951,6,0,B|334:-18|334:-18|370:224,1,263.25,0|0,1:0|2:0,2:0:0:0:
316,332,76207,2,0,P|361:342|416:360,1,87.75,0|0,1:0|2:0,2:0:0:0:
370,263,76335,2,0,P|415:253|470:235,1,87.75,0|0,1:0|2:0,2:0:0:0:
501,36,76464,86,0,P|442:19|497:119,1,263.25,0|0,1:0|2:0,2:0:0:0:
503,316,76720,5,0,1:0:0:0:
482,313,76784,2,0,B|427:309|427:309|380:338|380:338|268:326,1,175.5,0|0,1:0|2:0,2:0:0:0:
233,372,76976,2,0,B|210:199|210:199|180:313,1,263.25,0|0,1:0|2:0,2:0:0:0:
4,75,77233,86,0,B|171:22|171:22|245:99,1,263.25,0|0,1:0|2:0,2:0:0:0:
315,145,77489,6,0,L|323:43,1,87.75,0|0,1:0|2:0,2:0:0:0:
411,133,77617,2,0,L|417:45,1,87.75,0|0,2:0|2:0,2:0:0:0:
147,141,77746,85,0,1:0:0:0:
475,212,77874,1,0,2:0:0:0:
71,315,78002,6,0,B|15:334|15:334|29:188|29:188|109:220,1,263.25,0|0,1:0|2:0,2:0:0:0:
146,366,78258,2,0,B|163:327|163:327|142:260,1,87.75,0|0,1:0|2:0,2:0:0:0:
232,85,78387,86,0,B|176:66|176:66|190:212|190:212|270:180,1,263.25,0|0,1:0|2:0,2:0:0:0:
327,207,78643,2,0,L|323:163,2,43.875,0|0|0,1:0|1:0|1:0,1:0:0:0:
458,61,78771,22,0,B|394:-4|277:14|277:14|312:35|326:68,1,263.25,0|0,1:0|2:0,2:0:0:0:
232,85,79028,2,0,L|106:103,1,87.75,0|0,1:0|2:0,2:0:0:0:
61,147,79156,37,2,2:0:0:0:
61,147,79220,1,2,2:0:0:0:
61,147,79284,2,0,L|67:43,1,87.75,0|0,1:0|2:0,2:0:0:0:
193,274,79412,2,0,L|187:361,1,87.75,0|0,2:0|2:0,2:0:0:0:
245,169,79540,2,0,B|199:186|151:183|151:183|99:234|99:234|59:234|0:247,1,263.25,0|0,1:0|2:0,2:0:0:0:
483,128,79797,6,0,L|477:24,1,87.75,0|0,1:0|2:0,2:0:0:0:
359,253,79925,2,0,L|364:340,1,87.75,0|0,2:0|2:0,2:0:0:0:
342,164,80053,2,0,B|373:171|400:171|400:171|444:214|444:214|472:213|514:227,1,175.5,0|0,1:0|2:0,2:0:0:0:
453,309,80246,1,0,2:0:0:0:
466,297,80310,86,0,L|460:401,1,87.75,0|0,1:0|2:0,2:0:0:0:
390,87,80438,2,0,L|396:-17,1,87.75,0|0,2:0|2:0,2:0:0:0:
217,140,80566,6,0,P|176:86|293:104,1,263.25,0|0,1:0|2:0,2:0:0:0:
95,153,80822,38,0,P|92:87|75:49,1,87.75,0|0,1:0|2:0,2:0:0:0:
218,288,80951,2,0,P|206:330|207:373,1,87.75,0|0,2:0|2:0,2:0:0:0:
64,257,81079,2,0,P|162:174|317:202,1,263.25,0|0,1:0|2:0,2:0:0:0:
487,359,81335,38,0,L|495:248,1,87.75,0|0,1:0|2:0,2:0:0:0:
399,244,81464,2,0,L|407:355,1,87.75,0|0,2:0|2:0,2:0:0:0:
310,361,81592,2,0,L|318:250,1,87.75,0|0,1:0|2:0,2:0:0:0:
118,176,81720,5,2,2:0:0:0:
118,176,81784,1,2,2:0:0:0:
118,176,81848,2,0,L|12:171,1,87.75,0|0,1:0|2:0,2:0:0:0:
203,181,81976,2,0,L|290:185,1,87.75,0|0,2:0|2:0,2:0:0:0:
425,64,82105,86,0,L|531:59,1,87.75,0|0,1:0|2:0,2:0:0:0:
340,69,82233,2,0,L|252:73,1,87.75,0|0,2:0|2:0,2:0:0:0:
209,369,82361,54,0,B|113:306|127:175|246:94|378:156|407:279|333:356|333:356|349:292|295:255,1,614.25,0|0,1:0|2:0,2:0:0:0:
0,23,82874,6,0,B|55:-3|55:-3|126:5,1,117,0|0,1:0|2:0,2:0:0:0:
117,174,83130,1,8,2:0:0:0:
66,81,83258,2,0,B|111:87|147:81|147:81|191:126|191:126|242:123|323:134,1,234,0|0,2:0|1:0,2:0:0:0:
349,192,83643,2,0,B|294:218|294:218|223:210,1,117,8|0,2:0|2:0,2:0:0:0:
468,114,83899,6,0,L|476:237,1,117,0|0,1:0|2:0,2:0:0:0:
463,22,84156,1,8,2:0:0:0:
359,184,84284,86,0,L|367:61,1,117,0|0,2:0|2:0,2:0:0:0:
354,276,84540,1,0,1:0:0:0:
274,88,84669,6,0,P|206:49|77:97,1,175.5,8|0,2:0|2:0,2:0:0:0:
82,242,84925,69,0,1:0:0:0:
99,297,84989,1,0,1:0:0:0:
145,331,85053,1,0,1:0:0:0:
203,333,85117,1,0,1:0:0:0:
250,301,85181,1,0,1:0:0:0:
271,247,85246,1,0,1:0:0:0:
256,192,85310,1,0,1:0:0:0:
240,136,85374,1,0,1:0:0:0:
261,82,85438,1,0,1:0:0:0:
308,50,85502,1,0,1:0:0:0:
366,52,85566,1,0,1:0:0:0:
412,86,85630,1,0,1:0:0:0:
429,141,85694,2,0,L|424:195,6,29.25,0|0|0|0|0|0|0,1:0|1:0|1:0|1:0|1:0|1:0|1:0,1:0:0:0:
512,242,85951,6,0,P|446:250|349:318,1,175.5,0|0,2:0|2:0,2:0:0:0:
278,279,86399,1,2,2:0:0:0:
277,296,86464,2,0,L|271:383,1,87.75,2|0,2:0|2:0,2:0:0:0:
189,322,86720,86,0,P|152:251|113:375,1,307.125,8|0,2:0|2:0,2:0:0:0:
180,160,86976,38,0,B|381:115|316:274|543:208,1,351,4|0,1:0|1:0,2:0:0:0:
442,128,87361,6,0,P|420:199|421:342,1,175.5,0|0,2:0|1:0,2:0:0:0:
240,49,87617,2,0,P|262:120|261:263,1,175.5,0|0,2:0|1:0,2:0:0:0:
512,40,87874,86,0,B|429:21|429:21|323:62,1,175.5,0|0,2:0|1:0,2:0:0:0:
194,292,88130,2,0,B|277:311|277:311|361:278,1,175.5,0|0,2:0|1:0,2:0:0:0:
182,383,88387,5,0,2:0:0:0:
298,121,88515,2,0,B|139:94|202:191|17:148,1,263.25,0|0,1:0|2:0,2:0:0:0:
96,62,88771,53,0,1:0:0:0:
96,62,88835,1,2,2:0:0:0:
96,62,88899,1,2,2:0:0:0:
96,62,88964,1,2,2:0:0:0:
96,62,89028,2,0,P|120:195|122:383,1,263.25,0|0,1:0|2:0,2:0:0:0:
120,343,89284,1,0,1:0:0:0:
270,80,89412,2,0,P|230:170|219:276,1,175.5,0|0,2:0|1:0,2:0:0:0:
9,149,89669,1,0,2:0:0:0:
211,330,89797,6,0,P|320:352|491:156,1,351,0|0,1:0|1:0,2:0:0:0:
358,47,90181,1,2,2:0:0:0:
425,346,90310,1,0,1:0:0:0:
512,111,90438,85,2,2:0:0:0:
512,111,90502,1,2,2:0:0:0:
512,111,90566,1,0,1:0:0:0:
370,67,90694,1,2,2:0:0:0:
261,121,90822,1,0,1:0:0:0:
228,210,90951,1,2,2:0:0:0:
240,295,91079,22,0,B|127:295|-13:343|-13:343|70:232,1,351,4|0,1:0|1:0,2:0:0:0:
102,68,91464,6,0,B|142:126|142:126|115:265,1,175.5,0|0,2:0|1:0,2:0:0:0:
333,384,91720,2,0,B|293:326|293:326|320:187,1,175.5,0|0,2:0|1:0,2:0:0:0:
54,150,91976,86,0,P|165:121|255:72,1,175.5,0|0,2:0|1:0,2:0:0:0:
391,320,92233,2,0,P|311:284|225:264,1,175.5,0|0,2:0|1:0,2:0:0:0:
296,36,92489,5,0,2:0:0:0:
296,36,92553,1,0,2:0:0:0:
296,36,92617,2,0,B|369:36|469:93|469:93|421:10,1,263.25,0|0,1:0|2:0,2:0:0:0:
196,10,92874,2,0,P|207:65|234:123,1,87.75,0|0,1:0|2:0,2:0:0:0:
118,116,93002,2,0,P|156:158|208:195,1,87.75,0|0,2:0|2:0,2:0:0:0:
389,155,93130,53,0,1:0:0:0:
82,220,93258,1,2,2:0:0:0:
333,272,93387,1,0,1:0:0:0:
175,337,93515,5,2,2:0:0:0:
175,337,93579,1,2,2:0:0:0:
175,337,93643,1,0,1:0:0:0:
218,94,93771,2,0,P|234:175|232:285,1,175.5,0|0,2:0|1:0,2:0:0:0:
489,183,94028,85,2,2:0:0:0:
489,183,94092,1,2,2:0:0:0:
489,183,94156,1,0,1:0:0:0:
350,113,94284,1,0,1:0:0:0:
258,234,94412,2,0,P|151:201|20:220,1,175.5,0|0,1:0|1:0,2:0:0:0:
18,248,94605,1,0,1:0:0:0:
12,229,94669,6,0,L|0:114,1,87.75,0|0,1:0|2:0,2:0:0:0:
114,168,94797,2,0,L|102:283,1,87.75,0|0,1:0|2:0,2:0:0:0:
239,196,94925,70,0,L|181:205,1,43.875,0|0,1:0|2:0,2:0:0:0:
233,184,94989,2,0,L|224:126,1,43.875,0|0,1:0|2:0,2:0:0:0:
245,178,95053,2,0,L|303:169,1,43.875,0|0,1:0|2:0,2:0:0:0:
251,190,95117,2,0,L|260:248,1,43.875,0|0,1:0|2:0,2:0:0:0:
229,320,95181,38,0,B|279:314|323:292|323:292|372:366|372:366|435:314|435:314|466:337|523:349,1,351,4|0,1:0|1:0,2:0:0:0:
444,189,95566,6,0,L|428:393,1,175.5,0|0,2:0|1:0,2:0:0:0:
257,233,95822,2,0,L|241:29,1,175.5,0|0,2:0|1:0,2:0:0:0:
512,74,96079,86,0,P|399:98|311:159,1,175.5,0|0,2:0|1:0,2:0:0:0:
139,322,96335,2,0,P|252:346|340:407,1,175.5,0|0,2:0|1:0,2:0:0:0:
264,103,96592,5,0,2:0:0:0:
311,24,96720,2,0,B|272:28|237:16|237:16|186:69|186:69|147:38|147:38|115:53|56:62,1,263.25,0|0,1:0|2:0,2:0:0:0:
16,155,96976,53,0,1:0:0:0:
16,155,97040,1,2,2:0:0:0:
16,155,97105,1,2,2:0:0:0:
16,155,97169,1,2,2:0:0:0:
16,155,97233,2,0,P|129:99|301:116,1,263.25,0|0,1:0|2:0,2:0:0:0:
281,109,97489,1,0,1:0:0:0:
338,252,97617,2,0,P|245:199|144:206,1,175.5,0|0,2:0|1:0,2:0:0:0:
447,136,97874,1,0,2:0:0:0:
421,321,98002,6,0,P|411:144|270:-39,1,351,0|0,1:0|1:0,2:0:0:0:
190,118,98387,1,0,2:0:0:0:
504,40,98515,1,0,1:0:0:0:
203,250,98643,85,2,2:0:0:0:
203,250,98707,1,2,2:0:0:0:
203,250,98771,1,0,1:0:0:0:
391,285,98899,1,0,1:0:0:0:
332,33,99028,85,0,1:0:0:0:
325,102,99092,1,0,1:0:0:0:
318,171,99156,1,0,1:0:0:0:
311,240,99220,1,0,1:0:0:0:
391,285,99284,38,0,B|277:257|277:257|178:322|178:322|43:305,1,351,4|0,1:0|1:0,2:0:0:0:
78,35,99669,6,0,B|116:129|116:129|82:231,1,175.5,0|0,2:0|1:0,2:0:0:0:
253,362,99925,2,0,B|215:268|215:268|249:166,1,175.5,0|0,2:0|1:0,2:0:0:0:
509,30,100181,86,0,L|299:54,1,175.5,0|0,2:0|1:0,2:0:0:0:
137,234,100438,2,0,L|347:258,1,175.5,0|0,2:0|1:0,2:0:0:0:
247,22,100694,5,0,1:0:0:0:
247,22,100758,1,0,1:0:0:0:
247,22,100822,2,0,L|254:127,1,87.75,0|0,2:0|2:0,2:0:0:0:
409,310,100951,2,0,L|403:222,1,87.75,0|0,1:0|2:0,2:0:0:0:
425,51,101079,86,0,L|528:61,1,87.75,0|0,1:0|2:0,2:0:0:0:
492,137,101207,2,0,L|404:128,1,87.75,0|0,1:0|2:0,2:0:0:0:
76,43,101464,21,0,1:0:0:0:
83,120,101528,1,0,1:0:0:0:
92,198,101592,2,0,L|104:323,1,87.75,0|0,1:0|2:0,2:0:0:0:
436,341,101848,5,0,1:0:0:0:
429,264,101912,1,0,1:0:0:0:
420,186,101976,2,0,L|407:60,1,87.75,0|0,1:0|2:0,2:0:0:0:
192,118,102233,85,0,1:0:0:0:
185,195,102297,1,0,1:0:0:0:
176,273,102361,2,0,L|163:398,1,87.75,0|0,1:0|2:0,2:0:0:0:
320,266,102617,5,0,1:0:0:0:
327,189,102681,1,0,1:0:0:0:
336,111,102746,2,0,L|348:-14,1,87.75,0|0,1:0|2:0,2:0:0:0:
257,347,102874,21,0,1:0:0:0:
372,196,103002,2,0,P|485:181|366:271,1,351,0|0,1:0|2:0,2:0:0:0:
111,281,103387,86,0,P|14:123|233:257,1,716.625,4|0,1:0|2:0,2:0:0:0:
189,315,103899,6,0,L|196:367,1,43.8750000000001,2|0,2:0|2:0,2:0:0:0:
277,371,104028,2,0,L|271:327,1,43.8750000000001,2|0,2:0|2:0,2:0:0:0:
264,136,104156,86,0,P|393:366|397:102,1,716.625,4|0,1:0|2:0,2:0:0:0:
502,34,104669,5,0,1:0:0:0:
502,34,104797,2,0,L|398:20,1,58.5,2|0,2:0|2:0,2:0:0:0:
335,163,104925,2,0,B|312:105|312:105|343:23,1,117,8|0,2:0|2:0,2:0:0:0:
509,116,105181,2,0,B|464:106|464:106|441:111|441:111|382:98,1,117,2|0,2:0|2:0,2:0:0:0:
401,281,105438,86,0,P|498:123|279:257,1,716.625,4|0,1:0|2:0,2:0:0:0:
157,247,105951,6,0,P|175:261|149:247,2,117,2|2|2,2:0|2:0|2:0,2:0:0:0:
244,136,106207,86,0,P|114:367|111:103,1,716.625,4|0,1:0|2:0,2:0:0:0:
0,9,106720,5,0,1:0:0:0:
0,9,106848,2,0,B|47:-2|47:-2|116:34,1,102.375,2|0,2:0|2:0,2:0:0:0:
57,225,106976,2,0,B|34:83|34:83|1:151,1,204.75,8|0,2:0|2:0,2:0:0:0:
40,322,107233,86,0,B|85:321|127:299|127:299|173:344|173:344|220:326|220:326|265:346|265:346|364:334,1,307.125,2|0,2:0|2:0,2:0:0:0:
396,380,107489,6,0,L|404:285,1,87.7500000000002,0|0,1:0|2:0,2:0:0:0:
488,345,107746,1,0,3:0:0:0:
309,252,107874,2,0,L|317:347,1,87.7500000000002,0|0,1:0|2:0,2:0:0:0:
390,204,108130,1,0,3:0:0:0:
217,380,108258,2,0,L|225:285,1,87.7500000000002,0|0,3:0|2:0,2:0:0:0:
158,54,108515,6,0,L|60:64,1,87.7500000000002,0|0,1:0|2:0,2:0:0:0:
251,46,108771,1,0,3:0:0:0:
94,146,108899,86,0,L|-4:136,1,87.7500000000002,0|0,1:0|2:0,2:0:0:0:
287,168,109156,1,0,3:0:0:0:
138,236,109284,6,0,L|40:246,1,87.7500000000002,0|0,1:0|2:0,2:0:0:0:
427,88,109540,86,0,B|434:45|434:45|463:4,1,87.7500000000002,0|0,1:0|2:0,2:0:0:0:
339,72,109797,1,0,3:0:0:0:
460,169,109925,2,0,B|493:196|493:196|514:242,1,87.7500000000002,0|0,1:0|2:0,2:0:0:0:
512,99,110181,1,0,3:0:0:0:
372,158,110310,2,0,B|331:172|331:172|281:168,1,87.7500000000002,0|0,3:0|2:0,2:0:0:0:
9,220,110566,6,0,L|18:111,1,87.7500000000002,0|0,1:0|2:0,2:0:0:0:
2,307,110822,1,0,3:0:0:0:
107,188,110951,86,0,L|116:297,1,87.7500000000002,0|0,1:0|2:0,2:0:0:0:
100,79,111207,1,0,3:0:0:0:
190,246,111335,5,0,3:0:0:0:
193,225,111399,2,0,L|200:156,2,43.8750000000001,0|0|0,3:0|3:0|3:0,2:0:0:0:
401,103,111592,70,0,P|498:261|279:127,1,716.625,4|0,1:0|2:0,2:0:0:0:
493,34,112105,6,0,L|415:26,1,43.8750000000001,2|0,2:0|2:0,2:0:0:0:
331,16,112233,2,0,L|374:21,1,43.8750000000001,2|0,2:0|2:0,2:0:0:0:
248,248,112361,86,0,P|119:18|115:282,1,716.625,4|0,1:0|2:0,2:0:0:0:
0,370,112874,5,0,1:0:0:0:
0,370,113002,2,0,L|12:264,1,58.5,2|0,2:0|2:0,2:0:0:0:
178,220,113130,2,0,B|203:273|203:273|183:344,1,117,8|0,2:0|2:0,2:0:0:0:
104,380,113387,2,0,L|95:229,1,117,2|0,2:0|2:0,2:0:0:0:
111,103,113643,86,0,P|14:261|233:127,1,716.625,4|0,1:0|2:0,2:0:0:0:
188,18,114156,6,0,P|165:0|187:29,2,117,2|2|2,2:0|2:0|2:0,2:0:0:0:
268,248,114412,86,0,P|398:17|401:281,1,716.625,4|0,1:0|2:0,2:0:0:0:
503,358,114925,5,0,1:0:0:0:
503,358,115053,2,0,L|385:374,1,102.375,2|0,2:0|2:0,2:0:0:0:
189,301,115181,86,0,B|195:412|380:466|466:326|427:184|360:134|233:230|175:106|220:11|259:-10|259:-10|244:23|254:71,1,716.625,8|0,2:0|2:0,2:0:0:0:
284,285,115694,6,0,L|299:182,1,87.7500000000002,0|0,1:0|2:0,2:0:0:0:
212,218,115951,1,0,3:0:0:0:
393,298,116079,2,0,L|408:401,1,87.7500000000002,0|0,1:0|2:0,2:0:0:0:
321,365,116335,1,0,3:0:0:0:
478,239,116464,2,0,L|493:136,1,87.7500000000002,0|0,3:0|2:0,2:0:0:0:
217,27,116720,6,0,L|119:34,1,87.7500000000002,0|0,1:0|2:0,2:0:0:0:
308,18,116976,1,0,3:0:0:0:
203,120,117105,86,0,L|105:112,1,87.7500000000002,0|0,1:0|2:0,2:0:0:0:
347,136,117361,1,0,3:0:0:0:
212,218,117489,6,0,L|114:225,1,87.7500000000002,0|0,1:0|2:0,2:0:0:0:
455,112,117746,86,0,B|475:76|475:76|469:21,1,87.7500000000002,0|0,1:0|2:0,2:0:0:0:
389,62,118002,1,0,3:0:0:0:
392,270,118130,6,0,B|372:306|372:306|378:361,1,87.7500000000002,0|0,1:0|2:0,2:0:0:0:
458,320,118387,1,0,3:0:0:0:
383,171,118515,86,0,L|284:179,1,87.7500000000002,0|0,3:0|2:0,2:0:0:0:
0,284,118771,6,0,P|107:303|177:385,1,175.5,0|0,1:0|2:0,2:0:0:0:
171,352,119028,6,0,L|163:264,1,58.5,2|0,2:0|2:0,2:0:0:0:
252,353,119156,6,0,L|244:265,1,73.125,2|0,2:0|2:0,2:0:0:0:
333,354,119284,6,0,L|325:266,1,87.75,2|0,2:0|2:0,2:0:0:0:
414,355,119412,6,0,L|405:251,1,102.375,2|0,2:0|2:0,2:0:0:0:
510,103,119540,6,0,B|332:70|405:208|182:156,1,307.125,2|0,2:0|2:0,2:0:0:0:
72,76,119797,6,0,L|78:8,3,58.5,0|0|0|0,1:0|2:0|2:0|2:0,2:0:0:0:
156,33,120053,2,0,L|162:101,5,58.5,0|0|0|0|0|0,1:0|2:0|2:0|2:0|2:0|2:0,2:0:0:0:
242,77,120438,2,0,L|248:9,9,58.5,0|0|0|0|0|0|0|0|0|0,1:0|2:0|2:0|2:0|2:0|2:0|2:0|2:0|2:0|2:0,2:0:0:0:
311,183,121079,6,0,L|305:251,5,58.5,0|0|0|0|0|0,1:0|2:0|2:0|2:0|2:0|2:0,2:0:0:0:
225,221,121464,2,0,L|219:153,3,58.5,0|0|0|0,1:0|2:0|2:0|2:0,2:0:0:0:
47,349,121720,86,0,L|105:344,5,58.5,0|0|0|0|0|0,1:0|2:0|2:0|2:0|2:0|2:0,2:0:0:0:
242,314,122105,2,0,L|183:309,5,58.5,0|0|0|0|0|0,1:0|2:0|2:0|2:0|2:0|2:0,2:0:0:0:
67,253,122489,2,0,L|126:247,5,58.5,0|0|0|0|0|0,1:0|2:0|2:0|2:0|2:0|2:0,2:0:0:0:
220,132,122874,5,0,1:0:0:0:
213,131,122938,1,0,1:0:0:0:
206,130,123002,1,0,1:0:0:0:
199,130,123066,1,0,1:0:0:0:
191,129,123130,1,0,1:0:0:0:
184,128,123194,1,0,1:0:0:0:
177,128,123258,1,0,1:0:0:0:
169,127,123322,1,0,1:0:0:0:
162,127,123387,86,0,B|86:125|23:152|23:152|85:86,1,219.375,2|0,2:0|2:0,2:0:0:0:
153,36,123643,86,0,L|156:-6,1,36.5625,0|0,1:0|2:0,2:0:0:0:
228,43,123707,2,0,L|231:1,1,36.5625,0|0,1:0|2:0,2:0:0:0:
303,50,123771,2,0,L|306:8,1,36.5625,0|0,1:0|2:0,2:0:0:0:
378,57,123835,2,0,L|381:15,1,36.5625,0|0,1:0|2:0,2:0:0:0:
466,95,123899,37,0,1:0:0:0:
466,95,123964,1,0,1:0:0:0:
466,95,124028,2,0,L|355:82,1,87.75,0|0,1:0|2:0,2:0:0:0:
303,50,124156,2,0,L|299:118,2,43.875,0|0|0,1:0|2:0|2:0,2:0:0:0:
44,165,124284,5,0,1:0:0:0:
44,165,124348,1,0,1:0:0:0:
44,165,124412,2,0,L|156:152,1,87.75,0|0,1:0|2:0,2:0:0:0:
207,120,124540,2,0,L|212:188,2,43.875,0|0|0,1:0|2:0|2:0,2:0:0:0:
480,235,124669,85,0,1:0:0:0:
480,235,124733,1,0,1:0:0:0:
480,235,124797,2,0,L|369:222,1,87.75,0|0,1:0|2:0,2:0:0:0:
317,190,124925,2,0,L|313:258,2,43.875,0|0|0,1:0|2:0|2:0,2:0:0:0:
36,309,125053,5,0,1:0:0:0:
36,309,125117,1,0,1:0:0:0:
36,309,125181,2,0,L|148:296,1,87.75,0|0,1:0|2:0,2:0:0:0:
199,264,125310,2,0,L|204:332,2,43.875,0|0|0,1:0|2:0|2:0,2:0:0:0:
303,351,125438,6,0,L|359:343,6,43.875,0|0|0|0|0|0|0,1:0|2:0|2:0|2:0|2:0|2:0|2:0,2:0:0:0:
425,373,125694,2,0,L|437:269,1,87.75,0|0,1:0|2:0,2:0:0:0:
199,264,125822,6,0,L|143:256,6,43.875,0|0|0|0|0|0|0,1:0|2:0|2:0|2:0|2:0|2:0|2:0,2:0:0:0:
77,286,126079,2,0,L|65:182,1,87.75,0|0,1:0|2:0,2:0:0:0:
320,179,126207,86,0,L|376:171,6,43.875,0|0|0|0|0|0|0,1:0|2:0|2:0|2:0|2:0|2:0|2:0,2:0:0:0:
442,201,126464,2,0,L|454:97,1,87.75,0|0,1:0|2:0,2:0:0:0:
182,92,126592,6,0,L|126:84,6,43.875,0|0|0|0|0|0|0,1:0|2:0|2:0|2:0|2:0|2:0|2:0,2:0:0:0:
60,114,126848,2,0,L|48:10,1,87.75,0|0,1:0|2:0,2:0:0:0:
257,33,126976,22,0,B|254:65|267:109|267:109|235:164|235:164|245:197|249:256,1,219.375000000001,2|0,2:0|2:0,2:0:0:0:
317,297,127361,2,0,B|279:321|251:355|251:355|225:322|168:291,1,175.5,2|0,2:0|2:0,2:0:0:0:
70,68,127746,70,0,P|128:175|27:123,1,307.125,2|0,2:0|2:0,2:0:0:0:
75,279,128002,6,0,B|28:372|28:372|160:339|160:339|220:238|220:238|372:211|372:211|294:330,1,614.25,4|0,1:0|2:0,2:0:0:0:
512,357,128515,5,8,2:0:0:0:
478,284,128643,6,0,L|484:234,1,29.25,2|0,2:0|2:0,2:0:0:0:
397,290,128771,2,0,L|401:250,1,29.25,2|0,2:0|2:0,2:0:0:0:
316,296,128899,2,0,L|321:248,1,29.25,2|0,2:0|2:0,2:0:0:0:
45,275,129028,85,0,1:0:0:0:
79,202,129156,6,0,L|73:152,1,29.25,2|0,2:0|2:0,2:0:0:0:
160,208,129284,2,0,L|156:168,1,29.25,2|0,2:0|2:0,2:0:0:0:
241,214,129412,2,0,L|236:166,1,29.25,2|0,2:0|2:0,2:0:0:0:
505,47,129540,38,0,P|460:15|396:23,1,87.75,8|0,2:0|2:0,2:0:0:0:
391,81,129669,2,0,P|337:94|302:149,1,87.75,2|0,2:0|2:0,2:0:0:0:
290,282,129797,6,0,P|245:314|167:308,1,102.375,2|0,2:0|2:0,2:0:0:0:
165,247,129925,2,0,P|111:233|66:169,1,102.375,2|0,2:0|2:0,2:0:0:0:
0,56,130053,6,0,B|85:48|178:-1|178:-1|126:80,1,263.25,0|0,1:0|2:0,2:0:0:0:
386,157,130310,2,0,B|301:149|208:100|208:100|260:181,1,263.25,2|0,2:0|2:0,2:0:0:0:
84,122,130566,5,8,2:0:0:0:
55,356,130694,6,0,L|5:349,1,29.25,2|0,2:0|2:0,2:0:0:0:
67,279,130822,2,0,L|17:272,1,29.25,2|0,2:0|2:0,2:0:0:0:
79,202,130951,2,0,L|29:195,1,29.25,2|0,2:0|2:0,2:0:0:0:
219,268,131079,85,0,1:0:0:0:
190,34,131207,6,0,L|140:41,1,29.25,2|0,2:0|2:0,2:0:0:0:
202,111,131335,2,0,L|152:118,1,29.25,2|0,2:0|2:0,2:0:0:0:
214,188,131464,2,0,L|164:195,1,29.25,2|0,2:0|2:0,2:0:0:0:
413,338,131592,70,0,B|452:294|507:257|507:257|358:261|156:368|156:368|219:267,1,614.25,8|0,2:0|2:0,2:0:0:0:
48,181,132105,6,0,P|8:98|142:169,1,365.625,0|0,1:0|2:0,2:0:0:0:
249,184,132489,2,0,P|250:113|260:13,1,146.25,2|8,2:0|2:0,2:0:0:0:
512,345,132788,22,0,B|439:362|439:362|353:321,1,146.25,2|0,2:0|2:0,2:0:0:0:
412,204,132959,2,0,B|339:187|339:187|253:228,1,146.25,2|0,2:0|2:0,2:0:0:0:
281,299,133130,2,0,B|208:316|208:316|122:275,1,146.25,2|0,2:0|2:0,2:0:0:0:
72,362,133301,2,0,L|60:261,1,97.5,2|0,2:0|1:0,2:0:0:0:
0,216,133472,6,0,B|73:233|73:233|159:192,1,146.25,2|0,2:0|2:0,2:0:0:0:
134,68,133643,2,0,B|207:51|207:51|293:92,1,146.25,10|0,2:0|2:0,2:0:0:0:
225,187,133814,2,0,B|298:204|298:204|384:163,1,146.25,2|0,2:0|2:0,2:0:0:0:
498,187,133985,2,0,B|455:155|455:155|477:49,1,146.25,2|0,2:0|2:0,2:0:0:0:
494,59,134156,54,0,B|454:59|419:52|419:52|359:89|359:89|319:84|255:87,1,219.375,0|0,1:0|2:0,2:0:0:0:
126,146,134412,2,0,B|166:146|201:139|201:139|261:176|261:176|301:171|365:174,1,219.375,2|0,2:0|2:0,2:0:0:0:
341,1,134669,1,8,2:0:0:0:
461,375,134840,22,0,B|424:338|424:338|440:203,1,146.25,2|0,2:0|2:0,2:0:0:0:
354,196,135011,2,0,B|317:233|317:233|333:368,1,146.25,2|0,2:0|2:0,2:0:0:0:
247,375,135181,2,0,B|210:338|210:338|226:203,1,146.25,2|0,2:0|2:0,2:0:0:0:
262,159,135374,1,0,2:0:0:0:
240,162,135438,6,0,L|136:174,1,73.125,0|0,1:0|2:0,2:0:0:0:
0,77,135566,2,0,L|104:89,1,73.125,2|0,2:0|2:0,2:0:0:0:
12,306,135694,54,0,B|111:167|100:0|100:0|160:62|167:173,1,511.875,8|0,2:0|2:0,2:0:0:0:
489,211,136207,86,0,B|448:178|448:178|367:191|367:191|334:273|334:273|261:282|261:282|216:240,1,351,0|0,1:0|2:0,2:0:0:0:
50,188,136634,69,2,2:0:0:0:
45,165,136720,2,0,B|26:22|26:22|161:120,1,234,8|0,2:0|2:0,2:0:0:0:
220,244,136976,6,0,B|138:234|138:234|78:277|78:277|-18:266,1,234,2|0,2:0|2:0,2:0:0:0:
165,126,137233,86,0,P|219:118|168:137,1,156,2|0,2:0|2:0,2:0:0:0:
299,148,137489,2,0,P|344:178|292:161,1,156,0|0,1:0|2:0,2:0:0:0:
441,185,137746,6,0,B|460:328|460:328|325:230,1,234,8|0,2:0|2:0,2:0:0:0:
436,162,138002,1,2,2:0:0:0:
162,277,138130,5,2,2:0:0:0:
162,277,138194,1,2,2:0:0:0:
162,277,138258,2,0,B|121:263|121:263|62:328|62:328|222:278|222:278|380:367|380:367|239:334,1,585,0|0,1:0|2:0,2:0:0:0:
0,182,138771,70,0,B|144:140|144:140|221:212,1,234,8|0,2:0|2:0,2:0:0:0:
443,122,139028,2,0,B|299:164|299:164|222:92,1,234,2|0,2:0|1:0,2:0:0:0:
157,28,139284,6,0,B|138:103|138:103|164:164|164:164|143:266,1,234,0|0,1:0|2:0,2:0:0:0:
59,262,139540,86,0,L|76:176,1,87.75,0|0,1:0|2:0,2:0:0:0:
244,9,139669,2,0,L|227:95,1,87.75,2|0,2:0|2:0,2:0:0:0:
306,311,139797,22,0,B|259:305|259:305|213:376|213:376|345:329|345:329|397:190|397:190|504:132|504:132|461:203,1,614.25,8|0,2:0|2:0,2:0:0:0:
506,303,140310,6,0,P|478:337|430:358,1,87.75,0|0,1:0|2:0,2:0:0:0:
426,272,140438,2,0,P|382:280|332:265,1,87.75,0|0,1:0|2:0,2:0:0:0:
384,196,140566,2,0,P|345:174|316:130,1,87.75,0|0,1:0|2:0,2:0:0:0:
228,37,140694,6,0,P|189:15|137:12,1,87.75,0|0,1:0|2:0,2:0:0:0:
164,94,140822,2,0,P|120:102|79:133,1,87.75,0|0,1:0|2:0,2:0:0:0:
152,180,140951,2,0,P|123:213|112:265,1,87.75,0|0,1:0|2:0,2:0:0:0:
175,346,141079,86,0,L|280:333,1,87.75,0|0,1:0|2:0,2:0:0:0:
92,355,141207,2,0,L|0:366,1,87.75,0|0,1:0|2:0,2:0:0:0:
0,130,141335,5,8,2:0:0:0:
198,258,141464,86,0,L|186:149,1,87.75,0|0,1:0|2:0,2:0:0:0:
291,84,141592,2,0,L|279:193,1,87.75,0|0,1:0|2:0,2:0:0:0:
377,279,141720,2,0,L|365:170,1,87.75,0|0,1:0|2:0,2:0:0:0:
467,89,141848,6,0,B|419:82|419:82|352:110,1,93.6,0|0,1:0|2:0,2:0:0:0:
323,352,141976,2,0,B|364:369|364:369|412:362,1,93.6,0|0,1:0|2:0,2:0:0:0:
512,187,142105,70,0,B|461:188|423:172|423:172|343:218|343:218|302:198|219:201,1,280.8,0|0,1:0|2:0,2:0:0:0:
0,18,142361,6,0,P|41:22|84:64,1,87.75,0|0,1:0|2:0,2:0:0:0:
98,224,142489,2,0,P|80:186|95:128,1,87.75,0|0,1:0|2:0,2:0:0:0:
228,37,142617,2,0,P|204:70|146:86,1,87.75,0|0,1:0|2:0,2:0:0:0:
393,158,142746,6,0,P|352:162|309:204,1,87.75,0|0,1:0|2:0,2:0:0:0:
295,364,142874,2,0,P|312:326|297:268,1,87.75,0|0,1:0|2:0,2:0:0:0:
165,177,143002,2,0,P|188:210|246:226,1,87.75,0|0,1:0|2:0,2:0:0:0:
489,198,143130,86,0,B|414:248|414:248|434:45,1,263.25,0|0,1:0|2:0,2:0:0:0:
155,87,143387,5,8,2:0:0:0:
512,96,143515,70,0,L|500:-11,1,93.6,0|0,1:0|2:0,2:0:0:0:
403,64,143643,2,0,L|391:171,1,93.6,0|0,1:0|2:0,2:0:0:0:
489,198,143771,5,8,2:0:0:0:
56,200,143899,86,0,L|68:93,1,93.6,0|0,1:0|2:0,2:0:0:0:
165,177,144028,2,0,L|177:284,1,93.6,0|0,1:0|2:0,2:0:0:0:
507,291,144156,6,0,B|463:289|427:272|427:272|374:326|374:326|325:299|325:299|295:321|217:338,1,280.8,8|0,2:0|2:0,2:0:0:0:
94,277,144412,86,0,B|56:307|56:307|-46:208|61:62|196:103|251:201|174:301|174:301|198:232|148:185,1,614.25,4|0,1:0|2:0,2:0:0:0:
2,92,144925,5,8,2:0:0:0:
131,20,145053,6,0,P|141:38|143:56,1,29.25,2|0,2:0|2:0,2:0:0:0:
223,44,145181,2,0,P|229:63|228:81,1,29.25,2|0,2:0|2:0,2:0:0:0:
309,83,145310,2,0,P|312:103|307:120,1,29.25,2|0,2:0|2:0,2:0:0:0:
512,247,145438,85,0,1:0:0:0:
383,175,145566,6,0,P|373:193|371:211,1,29.25,2|0,2:0|2:0,2:0:0:0:
291,199,145694,2,0,P|284:218|285:236,1,29.25,2|0,2:0|2:0,2:0:0:0:
205,238,145822,2,0,P|201:258|206:275,1,29.25,2|0,2:0|2:0,2:0:0:0:
10,297,145951,86,0,B|73:299|73:299|106:246|106:246|146:371|146:371|189:312|189:312|310:321,1,409.5,8|0,2:0|2:0,2:0:0:0:
479,266,146464,86,0,B|518:315|518:315|410:251|292:257,1,263.25,0|0,1:0|2:0,2:0:0:0:
364,151,146720,2,0,B|417:183|417:183|294:160|185:206,1,263.25,2|0,2:0|2:0,2:0:0:0:
89,338,146976,5,8,2:0:0:0:
70,37,147105,6,0,P|79:58|85:82,1,29.25,2|0,2:0|2:0,2:0:0:0:
123,133,147233,2,0,P|124:155|121:180,1,29.25,2|0,2:0|2:0,2:0:0:0:
139,241,147361,2,0,P|132:262|121:285,1,29.25,2|0,2:0|2:0,2:0:0:0:
263,60,147489,85,0,1:0:0:0:
244,361,147617,6,0,P|253:340|259:316,1,29.25,2|0,2:0|2:0,2:0:0:0:
297,265,147746,2,0,P|298:242|295:217,1,29.25,2|0,2:0|2:0,2:0:0:0:
313,157,147874,2,0,P|306:135|295:112,1,29.25,2|0,2:0|2:0,2:0:0:0:
489,85,148002,70,0,B|428:6|428:6|318:26|318:26|258:199|258:199|147:219|147:219|66:120,1,614.25,8|0,2:0|2:0,2:0:0:0:
0,300,148515,6,0,B|166:264|96:392|296:349,1,292.5,0|0,1:0|2:0,2:0:0:0:
354,382,148835,2,0,P|374:274|420:154,1,219.375,2|8,2:0|2:0,2:0:0:0:
512,12,149199,22,0,B|470:-19|470:-19|379:0,1,146.25,2|0,2:0|2:0,2:0:0:0:
338,130,149370,2,0,B|296:161|296:161|205:142,1,146.25,2|0,2:0|2:0,2:0:0:0:
257,55,149540,2,0,B|215:23|215:23|124:42,1,146.25,2|0,2:0|2:0,2:0:0:0:
57,103,149711,2,0,L|36:0,1,97.5,2|0,2:0|1:0,2:0:0:0:
18,240,149882,6,0,B|59:208|59:208|150:227,1,146.25,2|0,2:0|2:0,2:0:0:0:
134,344,150053,2,0,B|175:375|175:375|266:356,1,146.25,8|0,2:0|2:0,2:0:0:0:
259,275,150224,2,0,B|300:243|300:243|391:262,1,146.25,2|0,2:0|2:0,2:0:0:0:
512,327,150395,2,0,B|473:298|473:298|490:165,1,146.25,2|0,2:0|2:0,2:0:0:0:
457,87,150566,54,0,P|412:26|395:130,1,219.375,0|0,1:0|2:0,2:0:0:0:
278,125,150822,2,0,P|233:186|216:82,1,219.375,2|0,2:0|2:0,2:0:0:0:
159,17,151079,1,8,2:0:0:0:
28,384,151250,22,0,B|44:291|44:291|8:221,1,146.25,2|0,2:0|2:0,2:0:0:0:
185,285,151421,2,0,B|169:192|169:192|205:122,1,146.25,2|0,2:0|2:0,2:0:0:0:
85,189,151592,2,0,B|101:96|101:96|65:26,1,146.25,2|0,2:0|2:0,2:0:0:0:
159,17,151784,1,2,2:0:0:0:
180,16,151848,6,0,L|258:7,1,73.125,0|0,1:0|2:0,2:0:0:0:
329,212,151976,2,0,L|251:203,1,73.125,2|0,2:0|2:0,2:0:0:0:
457,124,152105,54,0,B|484:93|535:63|535:63|244:127|244:127|318:75|345:21,1,511.875,8|0,2:0|2:0,2:0:0:0:
234,226,152617,86,0,B|154:206|154:206|106:129|106:129|-3:104|-3:104|44:177,1,351,0|0,1:0|2:0,2:0:0:0:
489,229,153045,69,2,2:0:0:0:
500,212,153130,2,0,P|513:160|411:202,1,234,8|0,2:0|2:0,2:0:0:0:
328,245,153387,6,0,B|307:84|307:84|266:160,1,234,2|0,2:0|2:0,2:0:0:0:
245,237,153643,86,0,B|225:284|175:284|175:284|191:239|236:225,1,175.5,2|0,2:0|2:0,2:0:0:0:
192,154,153899,2,0,B|146:177|108:145|108:145|149:120|192:139,1,175.5,0|0,1:0|2:0,2:0:0:0:
31,38,154156,6,0,B|62:48|62:48|97:284,1,234,8|2,2:0|2:0,2:0:0:0:
19,298,154412,1,2,2:0:0:0:
395,301,154540,5,2,2:0:0:0:
395,301,154605,1,2,2:0:0:0:
395,301,154669,2,0,B|340:357|340:357|457:296|457:296|352:238|352:238|202:261|202:261|121:381,1,585,0|2,1:0|2:0,2:0:0:0:
91,247,155181,70,0,B|59:292|59:292|33:98,1,234,8|0,2:0|2:0,2:0:0:0:
182,37,155438,2,0,B|150:-8|150:-8|124:186,1,234,2|0,2:0|1:0,2:0:0:0:
218,129,155694,6,0,B|345:101|301:206|461:164,1,234,0|0,1:0|1:0,2:0:0:0:
402,0,155951,86,0,P|392:51|387:120,1,87.75,0|0,1:0|2:0,2:0:0:0:
275,295,156079,2,0,P|270:251|261:208,1,87.75,2|0,2:0|2:0,2:0:0:0:
116,87,156207,22,0,B|160:17|160:17|66:63|66:63|81:167|81:167|160:230|160:230|176:362|176:362|106:307,1,614.25,8|0,2:0|2:0,2:0:0:0:
16,262,156720,38,0,P|92:212|183:241,1,187.2,0|0,1:0|1:0,2:0:0:0:
430,181,156976,2,0,L|439:307,1,93.6,0|0,1:0|2:0,2:0:0:0:
512,368,157105,6,0,B|389:345|389:345|303:388,1,187.2,0|0,1:0|1:0,2:0:0:0:
156,120,157361,2,0,B|279:97|279:97|365:140,1,187.2,0|0,1:0|1:0,2:0:0:0:
430,181,157617,86,0,B|439:112|439:112|419:65|419:65|430:-3,1,187.2,0|0,1:0|1:0,2:0:0:0:
254,186,157874,2,0,B|263:255|263:255|243:302|243:302|254:370,1,187.2,0|0,1:0|1:0,2:0:0:0:
73,81,158130,2,0,B|64:130|64:130|94:197,1,93.6,0|0,1:0|2:0,2:0:0:0:
16,262,158258,6,0,B|163:210|127:335|293:284,1,280.8,0|0,1:0|2:0,2:0:0:0:
430,181,158515,53,2,2:0:0:0:
430,181,158579,1,2,2:0:0:0:
430,181,158643,1,2,2:0:0:0:
430,181,158707,1,2,2:0:0:0:
430,181,158771,1,0,1:0:0:0:
371,262,158899,1,2,2:0:0:0:
408,76,159028,1,2,2:0:0:0:
280,206,159156,5,0,1:0:0:0:
222,132,159284,1,2,2:0:0:0:
264,300,159412,1,2,2:0:0:0:
18,239,159540,86,0,P|60:326|101:173,1,374.4,0|8,1:0|2:0,2:0:0:0:
83,73,159925,5,2,2:0:0:0:
329,14,160053,1,2,2:0:0:0:
120,176,160181,85,2,2:0:0:0:
120,176,160246,1,2,2:0:0:0:
120,176,160310,1,0,1:0:0:0:
320,168,160438,1,2,2:0:0:0:
159,262,160566,5,0,1:0:0:0:
268,291,160694,1,2,2:0:0:0:
486,368,160822,6,0,P|468:262|483:157,1,187.2,0|0,1:0|1:0,2:0:0:0:
203,40,161079,2,0,L|216:147,1,93.6,0|0,1:0|2:0,2:0:0:0:
490,95,161207,6,0,B|420:89|420:89|377:111|377:111|287:105,1,187.2,0|0,1:0|1:0,2:0:0:0:
82,208,161464,2,0,B|152:202|152:202|195:224|195:224|285:218,1,187.2,0|0,1:0|1:0,2:0:0:0:
341,325,161720,86,0,B|353:193|353:193|392:255,1,187.2,0|0,1:0|1:0,2:0:0:0:
226,2,161976,2,0,B|214:134|214:134|175:72,1,187.2,0|0,1:0|1:0,2:0:0:0:
145,379,162233,2,0,L|135:279,1,93.6,0|0,1:0|2:0,2:0:0:0:
28,224,162361,6,0,P|0:162|113:206,1,280.8,0|0,1:0|2:0,2:0:0:0:
203,224,162617,2,0,P|205:178|214:132,1,93.6,0|0,1:0|2:0,2:0:0:0:
443,174,162746,53,2,2:0:0:0:
443,174,162810,1,2,2:0:0:0:
443,174,162874,1,0,1:0:0:0:
310,211,163002,1,2,2:0:0:0:
503,268,163130,1,2,2:0:0:0:
364,113,163258,1,2,2:0:0:0:
344,339,163387,5,0,1:0:0:0:
207,308,163515,1,2,2:0:0:0:
396,256,163643,1,2,2:0:0:0:
186,171,163771,85,0,1:0:0:0:
333,123,163899,1,2,2:0:0:0:
134,79,164028,1,2,2:0:0:0:
240,35,164156,5,0,1:0:0:0:
282,244,164284,1,2,2:0:0:0:
282,244,164348,1,2,2:0:0:0:
282,244,164412,1,8,2:0:0:0:
47,117,164540,85,0,2:0:0:0:
44,135,164605,1,0,2:0:0:0:
41,154,164669,1,0,2:0:0:0:
39,172,164733,1,0,2:0:0:0:
36,191,164797,1,0,2:0:0:0:
34,209,164861,1,0,2:0:0:0:
0,291,164925,22,0,B|45:299|45:299|108:277,5,87.75,0|0|0|0|0|0,1:0|2:0|2:0|2:0|2:0|2:0,2:0:0:0:
172,166,165310,6,0,B|217:158|217:158|280:180,5,87.75,0|0|0|0|0|0,1:0|2:0|2:0|2:0|2:0|2:0,2:0:0:0:
344,291,165694,86,0,B|386:299|386:299|452:277,3,87.75,0|0|0|0,1:0|2:0|2:0|2:0,2:0:0:0:
378,214,165951,5,8,2:0:0:0:
253,341,166079,2,0,L|240:215,5,87.75,0|0|0|0|0|0,1:0|2:0|2:0|2:0|2:0|2:0,2:0:0:0:
172,166,166464,86,0,L|159:292,3,87.75,0|0|0|0,1:0|2:0|2:0|2:0,2:0:0:0:
38,72,166720,69,2,2:0:0:0:
38,72,166784,1,2,2:0:0:0:
38,72,166848,1,2,2:0:0:0:
38,72,166912,1,2,2:0:0:0:
38,72,166976,1,0,1:0:0:0:
292,38,167105,1,2,2:0:0:0:
124,0,167233,1,2,2:0:0:0:
426,200,167361,5,0,1:0:0:0:
172,166,167489,1,2,2:0:0:0:
340,128,167617,1,2,2:0:0:0:
30,342,167746,85,0,1:0:0:0:
284,308,167874,1,2,2:0:0:0:
116,270,168002,1,8,2:0:0:0:
436,365,168130,5,2,2:0:0:0:
471,76,168258,1,2,2:0:0:0:
284,308,168387,85,2,2:0:0:0:
284,308,168451,1,2,2:0:0:0:
284,308,168515,1,0,1:0:0:0:
257,143,168643,1,2,2:0:0:0:
152,300,168771,5,0,1:0:0:0:
112,223,168899,1,2,2:0:0:0:
17,41,169028,6,0,L|12:99,1,58.5,0|0,1:0|2:0,2:0:0:0:
98,48,169156,2,0,L|93:106,1,58.5,0|0,1:0|2:0,2:0:0:0:
179,55,169284,2,0,L|174:113,1,58.5,0|0,1:0|2:0,2:0:0:0:
260,62,169412,2,0,L|255:120,1,58.5,0|0,1:0|2:0,2:0:0:0:
499,121,169540,6,0,L|509:246,1,70.2,0|0,1:0|2:0,2:0:0:0:
418,128,169669,2,0,L|428:253,1,70.2,0|0,1:0|2:0,2:0:0:0:
337,135,169797,2,0,L|347:260,1,70.2,0|0,1:0|2:0,2:0:0:0:
256,142,169925,2,0,L|266:267,1,70.2,0|0,1:0|2:0,2:0:0:0:
23,218,170053,86,0,L|13:343,1,81.9,0|0,1:0|2:0,2:0:0:0:
104,225,170181,2,0,L|94:350,1,81.9,0|0,1:0|2:0,2:0:0:0:
185,232,170310,2,0,L|175:357,1,81.9,0|0,1:0|2:0,2:0:0:0:
266,239,170438,2,0,L|256:364,1,81.9,0|0,1:0|2:0,2:0:0:0:
498,345,170566,6,0,L|389:358,1,93.6,0|0,1:0|2:0,2:0:0:0:
266,239,170694,2,0,L|375:252,1,93.6,0|0,1:0|2:0,2:0:0:0:
499,121,170822,2,0,L|390:134,1,93.6,0|0,1:0|2:0,2:0:0:0:
324,31,170951,53,2,2:0:0:0:
324,31,171015,1,2,2:0:0:0:
324,31,171079,1,0,1:0:0:0:
258,332,171207,1,2,2:0:0:0:
225,93,171335,1,0,1:0:0:0:
487,32,171464,1,2,2:0:0:0:
179,376,171592,5,0,1:0:0:0:
114,59,171720,1,2,2:0:0:0:
80,314,171848,1,0,1:0:0:0:
342,375,171976,1,2,2:0:0:0:
23,43,172105,86,0,L|18:85,6,38.0249982593537,0|0|0|0|0|0|0,1:0|2:0|2:0|2:0|2:0|2:0|2:0,2:0:0:0:
2,159,172361,86,0,B|7:244,2,46.8,0|0|0,1:0|2:0|2:0,2:0:0:0:
86,228,172489,2,0,B|91:143,2,46.8,0|0|0,1:0|2:0|2:0,2:0:0:0:
168,162,172617,2,0,B|173:247,2,46.8,0|0|0,1:0|2:0|2:0,2:0:0:0:
252,231,172745,2,0,B|257:146,2,46.8,0|0|0,1:0|2:0|2:0,2:0:0:0:
334,165,172874,2,0,B|339:250,2,46.8,0|0|0,1:0|2:0|2:0,2:0:0:0:
418,234,173002,2,0,B|423:149,2,46.8,0|0|0,1:0|2:0|2:0,2:0:0:0:
503,161,173130,5,4,1:0:0:0:
256,192,180796,12,0,183767,2:0:0:0:
299,174,183882,85,2,2:0:0:0:
213,210,183998,1,2,2:0:0:0:
379,209,184113,1,2,2:0:0:0:
133,175,184228,1,2,2:0:0:0:
255,345,184344,6,0,L|259:399,1,29.25,0|0,1:0|2:0,2:0:0:0:
338,342,184584,2,0,L|342:396,1,29.25,0|0,2:0|2:0,2:0:0:0:
512,314,184824,6,0,L|508:368,1,35.0999999999999,0|0,1:0|2:0,2:0:0:0:
429,311,185064,2,0,L|425:365,1,35.0999999999999,0|0,2:0|2:0,2:0:0:0:
252,213,185304,86,0,L|255:253,1,40.95,0|0,1:0|2:0,2:0:0:0:
335,210,185544,2,0,L|338:250,1,40.95,0|0,2:0|2:0,2:0:0:0:
510,182,185784,6,0,L|507:229,1,46.8,0|0,1:0|2:0,2:0:0:0:
427,179,186024,2,0,L|424:226,1,46.8,0|0,2:0|2:0,2:0:0:0:
512,16,186264,86,0,L|447:11,1,52.65,0|0,1:0|2:0,2:0:0:0:
488,94,186504,2,0,L|423:99,1,52.65,0|0,2:0|2:0,2:0:0:0:
350,119,186744,6,0,L|285:124,1,58.5,0|0,1:0|2:0,2:0:0:0:
326,41,186984,2,0,L|261:36,1,58.5,0|0,2:0|2:0,2:0:0:0:
3,185,187224,86,0,L|73:179,1,64.35,0|0,1:0|2:0,2:0:0:0:
27,263,187464,2,0,L|92:268,1,64.35,0|0,2:0|2:0,2:0:0:0:
165,288,187704,6,0,L|238:293,1,70.2,0|0,1:0|2:0,2:0:0:0:
189,210,187944,2,0,L|261:204,1,70.2,0|0,2:0|2:0,2:0:0:0:
494,336,188184,86,0,L|488:240,1,76.05,0|0,1:0|2:0,2:0:0:0:
412,308,188424,1,0,2:0:0:0:
412,308,188544,1,0,2:0:0:0:
317,259,188664,6,0,L|311:355,1,81.9,0|0,1:0|2:0,2:0:0:0:
235,292,188904,1,0,2:0:0:0:
235,292,189024,1,0,2:0:0:0:
3,185,189144,86,0,L|9:89,1,87.75,0|0,1:0|2:0,2:0:0:0:
87,149,189384,1,0,2:0:0:0:
87,149,189504,1,0,2:0:0:0:
179,91,189624,6,0,L|185:187,1,93.6,0|0,1:0|2:0,2:0:0:0:
264,133,189864,1,0,2:0:0:0:
264,133,189984,1,0,2:0:0:0:
512,24,190104,86,0,B|467:8|467:8|379:28,1,99.45,0|0,1:0|2:0,2:0:0:0:
462,96,190344,1,0,2:0:0:0:
462,96,190464,1,0,2:0:0:0:
163,140,190584,6,0,B|213:121|213:121|301:141,1,105.3,0|0,1:0|2:0,2:0:0:0:
224,210,190824,1,0,2:0:0:0:
224,210,190944,1,0,2:0:0:0:
484,367,191064,86,0,B|501:313|501:313|481:225,1,111.15,0|0,1:0|2:0,2:0:0:0:
414,308,191304,1,0,2:0:0:0:
414,308,191424,1,0,2:0:0:0:
8,166,191544,6,0,B|-9:223|-9:223|11:311,1,117,0|0,1:0|2:0,2:0:0:0:
78,228,191784,1,0,2:0:0:0:
78,228,191904,1,0,2:0:0:0:
61,369,192024,86,0,L|-28:360,3,58.5,0|0|0|0,1:0|2:0|2:0|2:0,2:0:0:0:
4,280,192264,2,0,L|93:271,3,58.5,0|0|0|0,1:0|2:0|2:0|2:0,2:0:0:0:
61,191,192504,2,0,L|-28:182,3,58.5,0|0|0|0,1:0|2:0|2:0|2:0,2:0:0:0:
4,102,192744,2,0,L|93:93,3,58.5,0|0|0|0,1:0|2:0|2:0|2:0,2:0:0:0:
209,43,192984,6,0,L|120:52,3,58.5,0|0|0|0,1:0|2:0|2:0|2:0,2:0:0:0:
152,132,193224,2,0,L|241:141,3,58.5,0|0|0|0,1:0|2:0|2:0|2:0,2:0:0:0:
209,221,193464,2,0,L|120:230,3,58.5,0|0|0|0,1:0|2:0|2:0|2:0,2:0:0:0:
152,310,193704,2,0,L|241:319,3,58.5,0|0|0|0,1:0|2:0|2:0|2:0,2:0:0:0:
353,364,193944,86,0,L|264:355,3,58.5,0|0|0|0,1:0|2:0|2:0|2:0,2:0:0:0:
296,275,194184,2,0,L|385:266,3,58.5,0|0|0|0,1:0|2:0|2:0|2:0,2:0:0:0:
353,186,194424,2,0,L|264:177,3,58.5,0|0|0|0,1:0|2:0|2:0|2:0,2:0:0:0:
296,97,194664,2,0,L|385:88,3,58.5,0|0|0|0,1:0|2:0|2:0|2:0,2:0:0:0:
501,38,194904,6,0,L|412:47,3,58.5,0|0|0|0,1:0|2:0|2:0|2:0,2:0:0:0:
444,127,195144,2,0,L|533:136,3,58.5,0|0|0|0,1:0|2:0|2:0|2:0,2:0:0:0:
501,216,195384,2,0,L|412:225,3,58.5,0|0|0|0,1:0|2:0|2:0|2:0,2:0:0:0:
444,305,195624,2,0,L|533:314,3,58.5,0|0|0|0,1:0|2:0|2:0|2:0,2:0:0:0:
359,384,195864,85,0,1:0:0:0:
277,378,195984,1,0,1:0:0:0:
195,373,196104,1,0,1:0:0:0:
113,368,196224,1,0,1:0:0:0:
111,277,196344,5,0,1:0:0:0:
193,271,196464,1,0,1:0:0:0:
275,266,196584,1,0,1:0:0:0:
357,261,196704,1,0,1:0:0:0:
358,182,196824,70,0,L|364:112,1,58.5,0|0,1:0|2:0,2:0:0:0:
276,176,196944,2,0,L|282:106,1,58.5,0|0,1:0|2:0,2:0:0:0:
194,171,197064,2,0,L|200:101,1,58.5,0|0,1:0|2:0,2:0:0:0:
112,165,197184,2,0,L|118:95,1,58.5,0|0,1:0|2:0,2:0:0:0:
110,75,197304,2,0,L|104:5,1,58.5,0|0,1:0|2:0,2:0:0:0:
192,69,197424,2,0,L|186:-1,1,58.5,0|0,1:0|2:0,2:0:0:0:
274,64,197544,2,0,L|268:-6,1,58.5,0|0,1:0|2:0,2:0:0:0:
356,58,197664,2,0,L|350:-12,1,58.5,0|0,1:0|2:0,2:0:0:0:
512,222,197784,6,0,B|466:215|466:215|408:233,1,87.7500000000002,0|2,2:0|2:0,2:0:0:0:
168,207,198264,1,2,2:0:0:0:
143,206,198384,2,0,L|-26:200,1,117,2|0,2:0|1:0,2:0:0:0:
84,122,198744,6,0,B|91:77|91:77|75:24,1,87.75,0|0,1:0|2:0,2:0:0:0:
75,284,198984,2,0,B|68:329|68:329|84:382,1,87.75,0|0,1:0|2:0,2:0:0:0:
247,372,199224,54,0,L|262:3,1,351,8|0,2:0|2:0,2:0:0:0:
463,80,199704,6,0,P|484:108|485:138,12,58.5,4|0|0|0|0|0|0|0|0|0|0|0|0,1:0|2:0|2:0|2:0|2:0|2:0|2:0|2:0|2:0|2:0|2:0|2:0|2:0,2:0:0:0:
261,21,200184,38,0,P|226:61|298:146,1,175.5,8|0,2:0|2:0,2:0:0:0:
398,136,200424,2,0,B|351:133|351:133|331:147|331:147|285:145,1,117,2|0,2:0|2:0,2:0:0:0:
87,141,200664,5,0,1:0:0:0:
136,241,200784,2,0,L|129:296,4,29.25,2|0|0|0|0,2:0|2:0|2:0|2:0|2:0,2:0:0:0:
87,141,201024,1,2,2:0:0:0:
52,326,201144,2,0,L|44:375,4,29.25,8|0|0|0|0,2:0|2:0|2:0|2:0|2:0,2:0:0:0:
334,365,201384,38,0,P|369:266|250:293,1,263.25,2|0,2:0|2:0,2:0:0:0:
255,278,201624,38,0,L|247:372,1,87.75,0|0,1:0|2:0,2:0:0:0:
168,176,201864,54,0,B|131:132|131:132|233:146|233:146|248:188|248:188|318:211,1,263.25,2|0,2:0|2:0,2:0:0:0:
356,29,202104,38,0,B|314:22|314:22|260:53,1,87.7500000000001,8|0,2:0|2:0,2:0:0:0:
304,207,202224,2,0,B|346:214|346:214|400:183,1,87.7500000000001,2|0,2:0|2:0,2:0:0:0:
181,56,202344,54,0,L|126:45,6,43.875,2|0|0|0|0|0|0,2:0|2:0|2:0|2:0|2:0|2:0|2:0,2:0:0:0:
319,123,202584,37,0,1:0:0:0:
202,324,202704,2,0,L|207:384,1,43.875,2|0,2:0|2:0,2:0:0:0:
214,328,202764,2,0,L|219:388,1,43.875,2|0,2:0|2:0,2:0:0:0:
227,334,202824,2,0,B|274:296|274:296|253:182,1,175.5,2|0,2:0|2:0,2:0:0:0:
147,103,203064,2,0,L|18:122,1,109.6875,8|0,2:0|2:0,2:0:0:0:
147,103,203304,6,0,B|205:98|263:52|263:52|233:118|254:186,1,263.25,2|0,2:0|2:0,2:0:0:0:
374,305,203544,38,0,P|342:338|302:349,14,58.5,0|0|0|0|0|0|0|0|0|0|0|0|0|0|0,1:0|2:0|2:0|2:0|2:0|2:0|2:0|2:0|2:0|2:0|2:0|2:0|2:0|2:0|2:0,2:0:0:0:
151,255,204024,38,0,B|125:242|96:235|96:235|228:215|170:285|295:268,1,263.25,8|0,2:0|2:0,2:0:0:0:
436,145,204264,2,0,B|450:89|450:89|398:27,1,117,2|0,2:0|2:0,2:0:0:0:
120,145,204504,5,0,1:0:0:0:
320,89,204624,2,0,L|333:40,4,29.25,2|0|0|0|0,2:0|2:0|2:0|2:0|2:0,2:0:0:0:
120,145,204864,1,2,2:0:0:0:
295,254,204984,2,0,L|288:297,4,29.25,8|0|0|0|0,2:0|2:0|2:0|2:0|2:0,2:0:0:0:
313,58,205224,38,0,B|240:65|146:20|146:20|194:63|199:98,1,263.25,2|0,2:0|2:0,2:0:0:0:
302,167,205464,38,0,L|294:268,1,87.75,0|0,1:0|2:0,2:0:0:0:
171,179,205704,54,0,B|144:194|144:194|223:188|223:188|256:160|256:160|332:151|332:151|287:176,1,263.25,2|0,2:0|2:0,2:0:0:0:
197,91,205944,38,0,L|97:79,1,87.7500000000001,8|0,2:0|2:0,2:0:0:0:
139,300,206064,2,0,L|238:266,1,87.7500000000001,2|0,2:0|2:0,2:0:0:0:
366,100,206184,54,0,L|375:36,6,43.875,2|0|0|0|0|0|0,2:0|2:0|2:0|2:0|2:0|2:0|2:0,2:0:0:0:
302,167,206424,5,0,1:0:0:0:
466,47,206544,2,0,L|519:57,1,43.875,2|0,2:0|2:0,2:0:0:0:
469,63,206604,2,0,L|522:73,1,43.875,2|0,2:0|2:0,2:0:0:0:
473,78,206664,2,0,B|436:107|436:107|343:98,1,117,2|0,2:0|2:0,2:0:0:0:
280,53,206844,1,0,2:0:0:0:
268,55,206904,6,0,L|126:72,1,131.625,8|0,2:0|2:0,2:0:0:0:
52,55,207144,86,0,L|59:150,1,87.75,2|0,2:0|2:0,2:0:0:0:
9,216,207384,5,4,1:0:0:0:
321,355,207614,2,0,B|345:337|345:337|511:371,2,198.9,2|0|0,2:0|1:0|2:0,2:0:0:0:
120,362,208307,70,0,B|106:343|106:343|146:195|146:195|132:172,1,201.825,0|0,1:0|2:0,2:0:0:0:
206,144,208537,70,0,L|198:100,1,43.875,2|0,2:0|2:0,2:0:0:0:
281,182,208653,2,0,L|288:139,1,43.875,2|0,2:0|2:0,2:0:0:0:
378,99,208884,6,0,L|370:58,1,29.25,2|0,2:0|2:0,2:0:0:0:
447,134,208999,2,0,L|453:94,1,29.25,2|0,2:0|2:0,2:0:0:0:
120,362,209230,6,0,B|106:343|106:343|146:195|146:195|132:172,1,201.825,0|0,1:0|2:0,2:0:0:0:
206,144,209460,70,0,L|198:100,1,43.875,2|0,2:0|2:0,2:0:0:0:
281,182,209576,2,0,L|288:139,1,43.875,2|0,2:0|2:0,2:0:0:0:
378,99,209807,6,0,L|370:58,1,29.25,2|0,2:0|2:0,2:0:0:0:
447,134,209922,2,0,L|453:94,1,29.25,2|0,2:0|2:0,2:0:0:0:
120,362,210153,6,0,B|106:343|106:343|146:195|146:195|132:172,1,201.825,0|0,1:0|2:0,2:0:0:0:
206,144,210384,2,0,B|160:51|160:51|80:115,1,201.825,2|0,2:0|2:0,2:0:0:0:
46,197,210614,2,0,B|71:237|71:237|226:272,1,201.825,0|0,1:0|2:0,2:0:0:0:
282,331,210845,2,8,B|307:291|307:291|457:256,1,201.825,2|0,2:0|2:0,2:0:0:0:
483,332,211076,5,0,1:0:0:0:
486,0,211307,2,0,B|459:164|459:164|397:198,2,198.9,2|0|0,2:0|1:0|2:0,2:0:0:0:
309,31,211999,86,0,B|295:25|295:25|75:62,1,201.825,0|0,1:0|2:0,2:0:0:0:
43,15,212230,70,0,L|-1:8,1,43.875,2|0,2:0|2:0,2:0:0:0:
0,112,212345,2,0,L|44:105,1,43.875,2|0,2:0|2:0,2:0:0:0:
134,181,212576,6,0,L|94:174,1,29.25,2|0,2:0|2:0,2:0:0:0:
95,268,212691,2,0,L|134:261,1,29.25,2|0,2:0|2:0,2:0:0:0:
309,31,212922,6,0,B|295:25|295:25|75:62,1,201.825,0|0,1:0|2:0,2:0:0:0:
43,15,213153,70,0,L|-1:8,1,43.875,2|0,2:0|2:0,2:0:0:0:
0,112,213268,2,0,L|44:105,1,43.875,2|0,2:0|2:0,2:0:0:0:
134,181,213499,6,0,L|94:174,1,29.25,2|0,2:0|2:0,2:0:0:0:
95,268,213614,2,0,L|134:261,1,29.25,2|0,2:0|2:0,2:0:0:0:
309,31,213845,6,0,B|295:25|295:25|75:62,1,201.825,0|0,1:0|2:0,2:0:0:0:
43,15,214076,2,0,B|24:50|24:50|58:172|58:172|24:215,1,201.825,2|0,2:0|2:0,2:0:0:0:
36,279,214307,2,0,B|80:271|80:271|135:203|135:203|205:226,1,201.825,0|0,1:0|2:0,2:0:0:0:
272,189,214537,2,0,B|323:171|323:171|287:327|287:327|249:281,1,270.266105132675,2|4,2:0|1:0,2:0:0:0:
321,363,214916,5,2,2:0:0:0:
272,189,215064,5,2,2:0:0:0:
437,319,215212,70,0,L|-44:270,1,403.65,0|0,1:0|2:0,2:0:0:0:
35,278,215656,38,0,P|35:313|48:347,1,67.275,0|0,1:0|2:0,2:0:0:0:
120,295,215768,2,0,P|131:327|155:355,1,67.275,2|0,2:0|2:0,2:0:0:0:
208,291,215879,2,0,P|230:317|262:335,1,67.275,2|0,2:0|2:0,2:0:0:0:
283,252,215990,2,0,P|313:269|349:275,1,67.275,2|0,2:0|2:0,2:0:0:0:
344,363,216101,5,0,1:0:0:0:
339,184,216212,1,2,2:0:0:0:
421,136,216323,86,0,P|382:27|296:120,1,269.1,2|0,2:0|1:0,2:0:0:0:
123,24,216656,6,0,L|30:39,1,67.275,2|0,2:0|2:0,2:0:0:0:
114,112,216768,2,0,L|21:127,1,67.275,2|0,2:0|2:0,2:0:0:0:
107,202,216879,2,0,L|14:217,1,67.275,2|0,2:0|2:0,2:0:0:0:
30,303,216990,85,0,1:0:0:0:
241,335,217101,1,2,2:0:0:0:
135,384,217212,2,0,B|109:203|109:203|211:267,1,269.1,2|0,2:0|1:0,2:0:0:0:
421,136,217545,70,0,L|407:342,1,198.9,2|0,2:0|2:0,2:0:0:0:
502,368,217879,5,0,1:0:0:0:
508,347,217990,1,2,2:0:0:0:
316,267,218101,1,2,2:0:0:0:
310,246,218212,1,2,2:0:0:0:
407,334,218323,86,0,B|339:329|339:329|296:309|296:309|242:337|242:337|196:316|196:316|124:311,1,298.35,0|0,1:0|2:0,2:0:0:0:
13,101,218768,86,0,B|66:130|132:103|103:79|114:-5|238:-35|288:55|292:138|201:186|147:127,1,403.65,0|0,1:0|2:0,2:0:0:0:
124,311,219212,38,0,P|110:248|91:172,1,134.55,0|0,1:0|2:0,2:0:0:0:
328,138,219434,6,0,P|339:175|348:220,1,67.275,2|0,2:0|2:0,2:0:0:0:
419,151,219545,2,0,P|425:188|430:233,1,67.275,2|0,2:0|2:0,2:0:0:0:
503,237,219656,86,0,P|492:274|483:319,1,67.275,0|0,1:0|2:0,2:0:0:0:
412,251,219768,2,0,P|406:288|401:333,1,67.275,2|0,2:0|2:0,2:0:0:0:
512,380,219879,6,0,P|383:360|239:338,1,269.1,2|0,2:0|1:0,2:0:0:0:
118,0,220212,86,0,L|211:15,1,67.275,2|0,2:0|2:0,2:0:0:0:
127,88,220323,2,0,L|220:103,1,67.275,2|0,2:0|2:0,2:0:0:0:
134,178,220434,2,0,L|227:193,1,67.275,2|0,2:0|2:0,2:0:0:0:
205,271,220545,5,0,1:0:0:0:
60,222,220656,1,2,2:0:0:0:
108,358,220768,2,0,B|134:177|134:177|32:241,1,269.1,2|0,2:0|1:0,2:0:0:0:
345,202,221101,54,0,P|428:276|449:153,1,269.1,2|0,2:0|2:0,2:0:0:0:
394,43,221434,6,0,B|360:20|360:20|388:135,1,134.55,0|0,3:0|2:0,2:0:0:0:
221,203,221656,2,0,B|255:180|255:180|227:295,1,134.55,0|0,3:0|2:0,2:0:0:0:
463,165,221879,37,0,1:0:0:0:
487,179,222096,2,0,B|414:191|414:191|411:189|411:189|344:201,2,146.25,2|0|8,2:0|1:0|2:0,2:0:0:0:
175,53,222531,2,0,B|106:34|106:34|126:181|126:181|202:146,1,292.5,0|0,1:0|2:0,2:0:0:0:
191,150,222965,6,0,P|184:171|180:192,1,43.875,0|0,1:0|2:0,2:0:0:0:
59,274,223074,2,0,P|49:254|44:232,1,43.875,2|0,2:0|2:0,2:0:0:0:
87,256,223183,85,8,2:0:0:0:
179,274,223292,1,2,2:0:0:0:
270,292,223400,2,0,B|331:278|331:278|307:270,1,87.75,2|0,2:0|2:0,2:0:0:0:
310,94,223618,6,0,B|277:167|343:221|396:173|445:270|391:338,1,292.5,0|0,1:0|2:0,2:0:0:0:
445,158,223944,2,0,B|487:147|487:147|387:120,1,146.25,0|8,1:0|2:0,2:0:0:0:
110,377,224270,2,0,B|141:304|141:304|274:338|274:338|306:269,1,292.5,0|0,1:0|2:0,2:0:0:0:
306,269,224705,86,0,L|260:281,1,43.875,0|0,1:0|2:0,2:0:0:0:
389,252,224813,2,0,L|431:241,1,43.875,2|0,2:0|2:0,2:0:0:0:
215,368,224922,6,0,P|236:193|260:19,1,351,8|0,2:0|2:0,2:0:0:0:
21,146,225357,85,0,1:0:0:0:
40,176,225574,2,0,B|152:195|152:195|160:164,2,146.25,2|0|8,2:0|1:0|2:0,2:0:0:0:
280,104,226009,2,0,B|453:71|453:71|437:122|437:122|406:100|377:104,1,292.5,0|0,1:0|2:0,2:0:0:0:
378,104,226444,6,0,P|386:124|389:145,1,43.875,0|0,1:0|2:0,2:0:0:0:
236,236,226552,2,0,P|239:214|247:193,1,43.875,2|0,2:0|2:0,2:0:0:0:
427,120,226661,85,8,2:0:0:0:
319,237,226770,1,2,2:0:0:0:
174,164,226879,2,0,B|161:110|161:110|181:135,1,87.75,2|0,2:0|2:0,2:0:0:0:
376,138,227096,6,0,B|286:95|223:183|273:222|195:286|106:221,1,292.5,0|0,1:0|2:0,2:0:0:0:
334,209,227422,2,0,B|345:293|345:293|319:237,1,146.25,0|8,1:0|2:0,2:0:0:0:
232,69,227639,1,0,2:0:0:0:
196,191,227748,86,0,P|168:167|132:164,1,73.125,0|0,1:0|2:0,2:0:0:0:
349,116,227857,2,0,P|318:135|305:169,1,73.125,2|0,2:0|2:0,2:0:0:0:
268,250,227965,6,0,P|268:177|244:108,2,146.25,0|8|0,1:0|2:0|2:0,2:0:0:0:
200,346,228292,1,0,1:0:0:0:
68,264,228400,22,0,B|-9:185|-83:301|7:420|104:299|96:261|196:268|196:268|139:272|118:337,1,438.75,8|0,2:0|2:0,2:0:0:0:
129,310,228835,5,0,1:0:0:0:
119,185,228940,1,2,2:0:0:0:
200,346,229046,1,2,2:0:0:0:
456,138,229257,86,0,L|428:266,1,87.7499999999999,0|0,1:0|2:0,2:0:0:0:
124,93,229468,2,0,B|181:112|181:112|214:147,1,87.7499999999999,2|0,2:0|2:0,2:0:0:0:
411,308,229680,6,0,L|459:343,1,58.5,0|0,1:0|2:0,2:0:0:0:
501,67,229996,85,0,1:0:0:0:
437,223,230102,2,0,B|375:233|375:233|338:262,1,87.7499999999999,0|0,1:0|2:0,2:0:0:0:
112,366,230313,2,0,B|72:328|72:328|59:279,1,87.7499999999999,2|0,2:0|2:0,2:0:0:0:
97,224,230525,5,0,1:0:0:0:
237,348,230630,1,2,2:0:0:0:
280,144,230736,1,2,2:0:0:0:
14,81,230947,86,0,L|42:178,1,87.7499999999999,0|0,1:0|2:0,2:0:0:0:
276,276,231158,2,0,B|332:270|332:270|366:237,1,87.7499999999999,2|0,2:0|2:0,2:0:0:0:
458,56,231370,86,0,B|492:209|492:209|414:142,1,234,0|0,1:0|2:0,2:0:0:0:
379,13,231687,5,0,1:0:0:0:
272,195,231792,2,0,B|256:226|256:226|275:275,1,87.7499999999999,0|0,1:0|2:0,2:0:0:0:
512,353,232004,2,0,B|464:315|464:315|415:325,1,87.7499999999999,0|0,1:0|2:0,2:0:0:0:
169,362,232215,5,0,1:0:0:0:
354,248,232320,1,2,2:0:0:0:
91,158,232426,1,2,2:0:0:0:
72,364,232637,86,0,L|104:260,1,87.7499999999999,0|0,1:0|2:0,2:0:0:0:
393,138,232849,2,0,B|438:180|438:180|408:224,1,87.7499999999999,2|0,2:0|2:0,2:0:0:0:
226,351,233060,6,0,L|157:364,1,58.5,0|0,1:0|2:0,2:0:0:0:
20,174,233377,85,0,1:0:0:0:
252,194,233482,2,0,L|377:205,1,87.7499999999999,0|0,1:0|2:0,2:0:0:0:
497,20,233694,2,0,B|452:71|452:71|392:89,1,87.7499999999999,2|0,2:0|2:0,2:0:0:0:
262,13,233905,5,0,1:0:0:0:
481,162,234011,1,2,2:0:0:0:
192,274,234116,1,2,2:0:0:0:
84,22,234327,86,0,L|191:46,1,87.7499999999999,0|0,1:0|2:0,2:0:0:0:
433,76,234539,2,0,B|401:118|401:118|401:173,1,87.7499999999999,2|0,2:0|2:0,2:0:0:0:
487,340,234750,86,0,B|338:353|338:353|434:299,1,234,0|0,1:0|2:0,2:0:0:0:
498,17,235067,5,0,1:0:0:0:
466,199,235173,2,0,L|354:192,1,87.7499999999999,0|0,1:0|2:0,2:0:0:0:
324,252,235384,2,0,L|212:245,1,87.7499999999999,0|0,1:0|2:0,2:0:0:0:
144,304,235595,86,0,B|20:312|20:312|76:278,1,175.5,4|0,1:3|2:0,2:0:0:0:
126,221,236000,5,0,1:0:0:0:
155,220,236101,1,0,3:0:0:0:
184,218,236203,1,0,3:0:0:0:
214,216,236304,1,0,3:0:0:0:
262,311,236405,5,0,1:0:0:0:
232,309,236507,1,0,3:0:0:0:
144,304,236608,1,2,3:2:0:0:
232,299,236709,1,2,3:2:0:0:
320,294,236811,86,0,L|359:296,1,29.25,0|0,1:0|3:0,2:0:0:0:
436,300,237013,2,0,L|319:293,1,117,2|0,1:3|3:0,2:0:0:0:
512,320,237216,1,2,1:3:0:0:
510,276,237317,1,0,3:0:0:0:
507,233,237419,2,0,L|471:234,1,21.9375000000001,0|0,3:0|3:0,2:0:0:0:
504,188,237520,2,0,L|468:189,1,21.9375000000001,0|0,3:0|3:0,2:0:0:0:
362,216,237622,6,0,L|406:219,1,43.8750000000001,0|0,1:0|2:0,2:0:0:0:
468,104,237824,2,0,B|416:136|416:136|360:133,1,117,2|0,2:1|2:0,2:0:0:0:
218,32,238027,85,0,1:0:0:0:
277,53,238128,1,2,1:0:0:0:
333,25,238230,1,2,1:0:0:0:
394,46,238331,1,2,1:0:0:0:
419,136,238432,6,0,B|360:133,1,58.5,8|0,1:3|2:0,2:0:0:0:
159,35,238635,2,0,B|217:31,1,58.5,4|0,1:3|2:0,2:0:0:0:
464,204,238838,70,2,B|504:240|504:240|267:227|267:227|315:193,1,351,0|0,1:0|2:0,2:1:0:0:
496,344,239243,5,2,1:2:0:0:
412,316,239345,1,0,3:0:0:0:
325,306,239446,1,0,3:0:0:0:
238,315,239547,1,0,3:0:0:0:
155,342,239649,5,0,1:0:0:0:
69,365,239750,1,2,3:2:0:0:
6,303,239851,1,0,3:0:0:0:
28,218,239953,2,0,L|34:162,1,43.875,2|2,3:2|3:2,2:0:0:0:
112,195,240054,85,0,1:0:0:0:
238,315,240155,1,2,3:1:0:0:
175,255,240257,1,2,3:1:0:0:
301,375,240358,1,2,3:1:0:0:
322,291,240459,22,0,L|319:232,1,58.5,0|0,1:0|3:0,2:0:0:0:
112,195,240662,2,0,L|114:136,1,58.5,0|0,3:0|3:0,2:0:0:0:
325,364,240865,6,0,L|321:290,1,73.125,0|0,1:0|3:0,2:0:0:0:
118,63,241067,2,0,L|114:136,1,73.125,2|0,1:0|3:0,2:0:0:0:
101,346,241270,6,0,L|188:341,1,87.75,0|0,1:0|3:0,2:0:0:0:
318,33,241473,2,0,L|215:28,1,87.75,2|0,1:0|3:0,2:0:0:0:
73,238,241676,5,4,1:3:0:0:
6,151,241777,1,4,1:3:0:0:
47,49,241878,1,4,1:3:0:0:
114,136,241980,1,4,1:3:0:0:
34,324,242081,54,0,B|68:379|68:379|168:356|168:356|174:291,1,234,4|0,1:0|2:0,2:0:0:0:
174,289,242475,6,0,L|232:295,1,58.5,0|0,1:0|2:0,2:0:0:0:
251,298,242574,2,0,L|309:304,1,58.5,2|0,2:0|2:0,2:0:0:0:
363,367,242673,86,0,L|464:378,1,102.375,2|0,2:0|2:0,2:0:0:0:
512,200,242870,6,0,B|412:187|412:187|417:184|417:184|304:170,1,219.375,0|0,1:0|2:0,2:0:0:0:
293,158,243067,2,0,B|306:124|306:124|288:92,1,73.125,2|0,2:0|2:0,2:0:0:0:
213,165,243166,2,0,B|195:132|195:132|208:99,1,73.125,2|0,2:0|2:0,2:0:0:0:
335,15,243265,86,0,B|389:25|389:25|344:28,1,102.375,0|0,1:0|2:0,2:0:0:0:
125,91,243363,6,0,B|138:57|138:57|120:25,1,73.125,2|0,2:0|2:0,2:0:0:0:
109,10,243462,2,0,B|91:117|91:117|88:112|88:112|68:215,1,219.375,2|0,2:0|2:0,2:0:0:0:
50,328,243659,86,0,B|-4:260|-4:260|139:247|139:247|193:315|193:315|314:304,1,438.75,0|0,1:0|2:0,2:0:0:0:
481,215,244054,6,0,L|457:145,1,73.125,0|0,1:0|2:0,2:0:0:0:
425,140,244153,2,0,L|376:195,1,73.125,2|0,2:0|2:0,2:0:0:0:
388,225,244252,2,0,B|460:239|460:239|424:249,1,102.375,2|0,2:0|2:0,2:0:0:0:
254,383,244449,86,0,B|207:337|207:337|228:190|228:190|248:213|248:213|240:267,1,292.5,0|0,1:0|2:0,2:0:0:0:
120,376,244745,6,0,B|113:340|113:340|116:335|116:335|111:303,1,73.125,2|0,2:0|2:0,2:0:0:0:
241,260,244844,2,0,B|291:202|291:202|246:146,1,146.25,0|0,1:0|2:0,2:0:0:0:
53,123,245041,2,0,B|3:180|3:180|48:237,1,146.25,0|0,1:0|2:0,2:0:0:0:
47,36,245238,6,0,B|102:45|102:45|141:101|141:101|220:17|220:17|259:73|259:73|306:81,1,351,0|0,1:0|2:0,2:0:0:0:
302,81,245633,6,0,B|306:37|306:37|332:73,1,87.7500000000001,0|0,1:0|2:0,2:0:0:0:
356,149,245732,2,0,B|352:193|352:193|326:157,1,87.7500000000001,2|0,2:0|2:0,2:0:0:0:
428,51,245831,86,0,B|498:72|498:72|448:124,1,146.25,2|0,2:0|2:0,2:0:0:0:
255,217,246028,6,0,B|435:249|435:249|356:283,1,263.25,0|0,1:0|2:0,2:0:0:0:
361,280,246225,2,0,B|341:317|341:317|364:356,1,87.7500000000001,2|0,2:0|2:0,2:0:0:0:
509,286,246324,2,0,B|529:249|529:249|505:209,1,87.7500000000001,2|0,2:0|2:0,2:0:0:0:
341,137,246423,86,0,B|281:126|281:126|283:129|283:129|230:120,1,117,0|0,1:0|2:0,2:0:0:0:
157,150,246521,2,0,B|87:98|87:98|169:67,1,175.5,2|0,2:0|2:0,2:0:0:0:
0,291,246719,6,0,B|59:301|59:301|57:298|57:298|110:307,1,117,0|0,1:0|2:0,2:0:0:0:
184,278,246817,2,0,B|254:330|254:330|171:360,1,175.5,0|0,1:0|2:0,2:0:0:0:
329,180,247015,2,0,B|327:267|327:267|255:217,1,175.5,0|0,1:0|2:0,2:0:0:0:
492,243,247212,2,0,B|419:290|419:290|419:202,1,175.5,0|0,1:0|2:0,2:0:0:0:
488,162,247409,1,2,2:0:0:0:
488,162,247607,86,0,B|480:122|480:122|479:124|479:124|471:81,1,87.7500000000001,0|0,1:0|2:0,2:0:0:0:
306,56,247706,2,0,B|385:69|385:69|382:64|382:64|470:79,1,175.5,0|0,1:0|2:0,2:0:0:0:
346,261,247903,6,0,B|338:221|338:221|337:223|337:223|329:180,1,87.7500000000001,2|0,2:0|2:0,2:0:0:0:
165,160,248002,22,0,B|172:203|172:203|174:201|174:201|181:240,1,87.75,2|0,2:0|2:0,2:0:0:0:
182,242,248396,6,0,B|198:241|208:254|208:254|194:252|180:255,1,58.5,0|0,1:0|2:0,2:0:0:0:
292,93,248588,86,0,B|277:103|259:99|259:99|274:92|283:80,1,64.3500019638062,0|0,1:0|2:0,2:0:0:0:
284,290,248780,6,0,B|288:271|308:263|308:263|299:279|300:296,1,70.7849980018273,0|0,1:0|2:0,2:0:0:0:
160,116,248972,86,0,B|167:136|157:159|157:159|155:137|146:121,1,77.2199997643433,0|0,1:0|2:0,2:0:0:0:
376,196,249165,6,0,B|354:180|355:159|355:159|366:174|385:182,1,83.6550011488266,0|0,1:0|2:0,2:0:0:0:
142,268,249357,86,0,B|167:266|184:287|184:287|162:279|139:284,1,90.0899982129364,0|0,1:0|2:0,2:0:0:0:
303,63,249549,6,0,B|281:79|254:72|254:72|281:64|296:49,1,96.5250009205341,0|0,1:0|2:0,2:0:0:0:
292,321,249742,86,0,B|299:292|327:282|327:282|309:302|309:325,1,102.96000314209,0|0,1:0|2:0,2:0:0:0:
135,96,249934,6,0,B|145:125|127:152|127:152|131:123|116:91,1,109.394997829994,0|0,1:0|2:0,2:0:0:0:
408,197,250126,86,0,B|381:178|379:146|379:146|394:175|431:184,1,115.829999646515,0|0,1:0|2:0,2:0:0:0:
129,277,250319,6,0,B|163:275|185:303|185:303|156:288|117:299,1,122.26500116601,0|0,1:0|2:0,2:0:0:0:
314,33,250511,86,0,B|285:54|249:45|249:45|285:43|312:16,1,128.700003927612,0|0,1:0|2:0,2:0:0:0:
301,352,250703,6,0,B|311:315|348:301|348:301|321:325|320:370,1,135.135001288748,0|0,1:0|2:0,2:0:0:0:
98,66,250896,86,0,B|110:103|87:138|87:138|92:101|72:62,1,141.569996003655,0|0,1:0|2:0,2:0:0:0:
456,200,251088,6,0,B|421:176|419:133|419:133|435:169|475:184,1,148.004998927271,0|0,1:0|2:0,2:0:0:0:
75,312,251280,86,0,B|118:311|146:346|146:346|114:325|68:336,1,154.439999528687,0|0,1:0|2:0,2:0:0:0:
326,4,251472,21,0,1:0:0:0:
373,32,251569,1,0,1:0:0:0:
399,84,251665,1,0,1:0:0:0:
388,144,251761,1,0,1:0:0:0:
338,184,251857,5,0,1:0:0:0:
298,238,251953,1,0,1:0:0:0:
310,307,252049,1,0,1:0:0:0:
375,344,252146,1,0,1:0:0:0:
448,312,252242,6,0,B|464:316|471:333|471:333|505:302|484:264,1,93.3075000000001,0|0,1:0|2:0,2:0:0:0:
472,235,252338,6,0,B|488:224|503:230|503:230|507:185|465:173,1,96.525,0|0,1:0|2:0,2:0:0:0:
445,157,252434,86,0,B|450:136|466:130|466:130|436:95|396:116,1,99.7425000000001,0|0,1:0|2:0,2:0:0:0:
368,113,252530,6,0,B|356:92|365:77|365:77|317:73|303:117,1,102.96,0|0,1:0|2:0,2:0:0:0:
280,139,252626,86,0,B|258:131|252:114|252:114|216:146|237:188,1,106.1775,0|0,1:0|2:0,2:0:0:0:
235,218,252722,6,0,B|214:226|196:218|196:218|193:269|240:282,1,109.395,0|0,1:0|2:0,2:0:0:0:
265,312,252819,86,0,B|257:332|238:338|238:338|273:377|316:354,1,112.6125,0|0,1:0|2:0,2:0:0:0:
352,350,252915,6,0,B|360:369|352:387|352:387|406:390|419:342,1,115.83,0|0,1:0|2:0,2:0:0:0:
448,312,253011,22,0,P|487:319|523:355,2,77.2199999999997,2|0|0,2:0|2:0|2:0,2:0:0:0:
384,249,253492,2,0,P|415:226|453:222,1,77.2199999999997,2|0,2:0|2:0,2:0:0:0:
456,225,253732,1,0,2:0:0:0:
459,228,253780,22,0,L|489:103,1,117,2|0,2:0|2:0,2:0:0:0:
149,318,253972,6,0,L|241:406,1,87.75,2|0,2:0|2:0,2:0:0:0:
213,76,254165,6,0,L|114:104,1,58.5,2|0,2:0|2:0,2:0:0:0:
336,204,254357,6,0,L|348:154,1,29.25,2|0,2:0|2:0,2:0:0:0:
397,0,254549,22,0,B|341:60|414:62|365:111|357:28|326:76|325:20|360:-7|399:2,1,175.5,4|0,1:0|2:0,2:0:0:0:
342,175,254924,86,0,B|388:103|437:184|430:74|463:70|463:70|458:105|369:110|417:80|334:49|307:144|309:183|324:163|334:214|387:216,1,386.1,2|0,2:0|2:0,2:0:0:0:
417,255,255299,38,0,B|390:241|384:213|384:213|351:184|283:210|282:257,1,175.5,8|0,2:0|2:0,2:0:0:0:
283,251,255486,2,0,B|281:264|281:264|292:283|289:299,1,43.875,2|0,2:0|2:0,2:0:0:0:
214,333,255580,2,0,B|216:320|216:320|205:301|208:285,1,43.875,2|0,2:0|2:0,2:0:0:0:
141,358,255674,6,0,L|296:374,1,140.4,0|0,1:0|2:0,2:0:0:0:
493,288,255861,2,0,B|513:316|509:349|480:366|480:366|478:336|455:317,1,134.55,2|0,2:0|2:0,2:0:0:0:
366,337,256049,2,0,B|373:359|361:385|361:385|382:387|396:374|396:374|375:361|363:330,1,134.55,2|0,2:0|2:0,2:0:0:0:
75,170,256236,54,0,L|55:173,1,11.7,2|0,2:0|2:0,2:0:0:0:
72,141,256330,6,0,L|41:128,1,26.325,2|0,2:0|2:0,2:0:0:0:
84,93,256424,6,0,L|55:63,1,35.1,0|0,1:0|2:0,2:0:0:0:
145,46,256517,6,0,L|131:-10,1,43.875,2|0,2:0|2:0,2:0:0:0:
237,32,256611,6,0,B|197:65|232:155|254:94|298:161|252:217,1,193.05,2|0,2:0|2:0,2:0:0:0:
262,204,256799,2,0,B|276:226|248:232|241:254|241:254|250:232|233:210|251:201,1,117,8|0,2:0|2:0,2:0:0:0:
340,57,256986,5,2,2:0:0:0:
415,30,257080,1,2,2:0:0:0:
348,69,257174,1,2,2:0:0:0:
414,46,257267,1,2,2:0:0:0:
405,124,257361,6,0,B|401:140|401:140|454:155|460:200|460:200|474:203|455:205|455:205|424:223|414:259|443:299,1,201.825,2|0,2:0|2:0,2:0:0:0:
421,352,257549,6,0,B|399:377|451:423|538:383|526:315|490:315,1,175.5,0|0,1:0|2:0,2:0:0:0:
428,271,257924,86,0,B|502:225|493:168|457:173|465:114|477:97|477:97|471:106|471:106|412:121|388:179|400:221|437:207|410:278,1,386.1,2|0,2:0|2:0,2:0:0:0:
297,359,258299,38,0,B|270:378|270:378|254:328|294:275|352:280|380:325,1,175.5,8|0,2:0|2:0,2:0:0:0:
350,298,258486,2,0,L|329:363,2,58.5,0|0|0,1:0|2:0|2:0,2:0:0:0:
496,384,258674,6,0,B|476:302|453:334|436:284,1,117,0|0,1:0|2:0,2:0:0:0:
261,64,258861,2,0,B|244:24|269:-4|302:6|298:56|256:72,1,117,2|0,2:0|2:0,2:0:0:0:
191,236,259049,86,0,B|177:252|177:252|204:282|210:323|210:323|233:288|270:270|270:270|261:250,1,201.825,2|0,2:0|2:0,2:0:0:0:
242,176,259236,2,0,L|252:125,1,35.0999999999999,0|0,1:0|2:0,2:0:0:0:
401,22,259424,6,0,B|416:41|395:58|421:92,1,43.875,0|0,1:0|2:0,2:0:0:0:
412,23,259517,2,0,B|417:46|391:53|400:94,1,43.875,2|0,2:0|2:0,2:0:0:0:
471,108,259611,2,0,P|425:95|353:79,1,105.3,2|0,2:0|2:0,2:0:0:0:
33,114,259799,54,0,L|18:106,1,13.1625,8|0,2:0|2:0,2:0:0:0:
41,110,259892,6,0,L|42:84,1,14.625,2|0,2:0|2:0,2:0:0:0:
75,115,259986,6,0,P|84:104|97:90,1,20.475,2|0,2:0|2:0,2:0:0:0:
103,145,260080,6,0,P|119:140|135:132,1,29.25,2|0,2:0|2:0,2:0:0:0:
124,192,260174,6,0,P|136:207|156:231,1,40.95,2|0,2:0|2:0,2:0:0:0:
101,241,260267,6,0,P|95:270|95:299,1,52.6499999999999,2|0,2:0|2:0,2:0:0:0:
15,326,260361,6,0,B|48:303|168:294|112:386|218:381,1,210.6,2|0,2:0|2:0,2:0:0:0:
361,257,260549,70,0,P|272:300|185:277,1,175.5,4|0,1:0|2:0,2:0:0:0:
219,139,260910,2,0,L|211:203,1,58.5,0|0,2:0|2:0,2:0:0:0:
420,329,261091,5,2,2:0:0:0:
423,343,261136,1,2,2:0:0:0:
430,355,261181,1,2,2:0:0:0:
440,366,261226,1,2,2:0:0:0:
453,373,261271,86,0,L|517:365,1,58.5,8|0,2:0|2:0,2:0:0:0:
477,179,261452,1,2,2:0:0:0:
477,179,261542,2,0,P|477:211|461:243,1,58.5,2|0,2:0|2:0,2:0:0:0:
306,200,261723,1,2,2:0:0:0:
345,80,261814,1,2,2:0:0:0:
346,94,261859,1,2,2:0:0:0:
347,109,261904,1,2,2:0:0:0:
349,123,261949,1,2,2:0:0:0:
0,160,262175,38,0,L|64:152,1,58.5,2|0,2:0|2:0,2:0:0:0:
192,136,262356,2,0,L|256:128,1,58.5,0|0,1:0|2:0,2:0:0:0:
56,232,262536,2,0,L|120:224,1,58.5,2|0,2:0|2:0,2:0:0:0:
248,208,262717,2,0,L|312:200,1,58.5,8|0,2:0|2:0,2:0:0:0:
472,304,262898,5,2,2:0:0:0:
472,304,262988,2,0,P|472:336|456:368,1,58.5,2|0,2:0|2:0,2:0:0:0:
384,248,263169,1,2,2:0:0:0:
432,128,263259,37,2,2:0:0:0:
433,142,263305,1,2,2:0:0:0:
434,157,263350,1,2,2:0:0:0:
436,171,263395,1,2,2:0:0:0:
438,184,263440,6,0,L|240:160,1,175.5,0|0,1:0|2:0,2:0:0:0:
216,32,263802,2,0,P|208:64|216:104,1,58.5,0|0,2:0|2:0,2:0:0:0:
48,272,263982,85,2,2:0:0:0:
51,258,264027,1,2,2:0:0:0:
58,246,264073,1,2,2:0:0:0:
68,235,264118,1,2,2:0:0:0:
81,228,264163,6,0,P|112:224|145:236,1,58.5,8|0,2:0|2:0,2:0:0:0:
288,344,264344,1,2,2:0:0:0:
288,344,264434,2,0,P|257:348|224:336,1,58.5,2|0,2:0|2:0,2:0:0:0:
160,216,264615,1,2,2:0:0:0:
168,128,264705,1,2,2:0:0:0:
169,113,264750,1,2,2:0:0:0:
171,98,264795,1,2,2:0:0:0:
172,84,264841,1,2,2:0:0:0:
464,176,265067,22,0,L|389:182,1,58.5,2|0,2:0|2:0,2:0:0:0:
256,200,265247,2,0,L|181:206,1,58.5,0|0,1:0|2:0,2:0:0:0:
416,104,265428,2,0,L|341:110,1,58.5,2|0,2:0|2:0,2:0:0:0:
208,128,265609,2,0,L|133:134,1,58.5,8|0,2:0|2:0,2:0:0:0:
10,133,265789,5,2,2:0:0:0:
10,133,265880,2,0,P|10:93|18:69,1,58.5,2|0,2:0|2:0,2:0:0:0:
154,327,266061,1,2,2:0:0:0:
154,327,266151,2,0,P|154:367|146:391,1,58.5,2|0,2:0|2:0,2:0:0:0:
256,200,266332,70,0,B|334:184|334:184|373:122|373:122|452:103,1,234,4|0,1:0|2:0,2:0:0:0:
512,240,266593,1,0,2:0:0:0:
503,222,266680,6,0,P|461:207|418:202,1,87.75,8|0,2:0|2:0,2:0:0:0:
218,120,266855,6,0,B|132:86|132:86|160:156|155:230,1,234,2|0,2:0|2:0,2:0:0:0:
240,307,267116,1,0,1:0:0:0:
245,287,267204,86,0,L|257:189,1,87.75,0|0,2:0|2:0,2:0:0:0:
61,40,267378,22,0,B|52:80|52:80|57:120|57:120|49:154,1,117,8|0,2:0|2:0,2:0:0:0:
349,122,267552,2,0,B|340:162|340:162|345:202|345:202|337:236,1,117,2|0,2:0|2:0,2:0:0:0:
16,379,267727,54,0,P|38:242|122:352,1,351,0|0,1:0|2:0,2:0:0:0:
234,374,268076,6,0,L|246:276,1,87.75,8|0,2:0|2:0,2:0:0:0:
158,0,268250,2,0,L|147:87,1,87.75,2|0,2:0|2:0,2:0:0:0:
372,120,268425,1,2,2:0:0:0:
372,120,268512,1,0,1:0:0:0:
307,173,268599,22,0,B|251:184|251:184|196:159,1,117,2|0,2:0|2:0,2:0:0:0:
110,330,268773,2,0,B|135:275|135:275|124:219,1,117,8|0,2:0|2:0,2:0:0:0:
371,254,268948,2,0,B|346:309|346:309|357:365,1,117,0|0,2:0|2:0,2:0:0:0:
244,286,269122,54,0,B|246:241|263:215|263:215|238:183|240:137|240:137|261:112|264:64,1,234,0|0,1:0|2:0,2:0:0:0:
145,72,269384,1,0,2:0:0:0:
128,82,269471,6,0,B|109:104|109:104|166:94,1,87.75,8|0,2:0|2:0,2:0:0:0:
502,103,269645,6,0,B|453:133|425:192|425:192|385:134|322:131,1,234,2|0,2:0|2:0,2:0:0:0:
184,196,269907,1,0,1:0:0:0:
189,218,269994,86,0,L|199:306,1,87.75,2|0,2:0|2:0,2:0:0:0:
331,45,270169,22,0,P|277:61|247:110,1,117,8|0,2:0|2:0,2:0:0:0:
0,97,270343,2,0,P|57:92|102:129,1,117,0|0,2:0|2:0,2:0:0:0:
512,359,270518,54,0,B|433:342|433:342|390:260|390:260|275:239|275:239|329:287,1,351,0|0,1:0|2:0,2:0:0:0:
270,378,270866,6,0,L|355:364,1,87.75,8|0,2:0|2:0,2:0:0:0:
507,170,271041,2,0,L|420:182,1,87.75,2|0,2:0|2:0,2:0:0:0:
250,37,271215,1,2,2:0:0:0:
250,37,271302,1,0,1:0:0:0:
335,24,271390,22,0,B|369:68|369:68|351:126,1,117,2|0,2:0|2:0,2:0:0:0:
66,166,271564,2,0,B|32:122|32:122|49:63,1,117,8|0,2:0|2:0,2:0:0:0:
268,218,271738,2,0,B|224:252|224:252|165:234,1,117,2|0,2:0|2:0,2:0:0:0:
476,78,271913,69,4,1:0:0:0:
135,61,272084,2,0,P|135:38|125:8,2,46.8,2|0|0,2:0|1:0|2:0,2:0:0:0:
213,32,272598,86,0,B|230:26|230:26|340:70,1,136.89,0|0,1:0|2:0,2:0:0:0:
416,50,272770,69,2,2:0:0:0:
466,346,272855,1,2,2:0:0:0:
493,27,273027,5,2,2:0:0:0:
466,346,273113,1,2,2:0:0:0:
405,293,273284,6,0,B|291:279|291:279|264:295,1,136.89,0|0,1:0|2:0,2:0:0:0:
238,359,273455,69,2,2:0:0:0:
16,94,273541,1,2,2:0:0:0:
234,223,273713,5,2,2:0:0:0:
16,94,273798,1,2,2:0:0:0:
53,164,273970,6,0,B|46:188|46:188|76:307,1,136.89,0|0,1:0|2:0,2:0:0:0:
204,356,274141,2,0,L|239:199,1,136.89,2|0,2:0|2:0,2:0:0:0:
313,300,274313,2,0,L|462:290,1,136.89,0|0,1:0|2:0,2:0:0:0:
504,207,274484,2,0,L|449:376,1,136.89,2|0,2:0|2:0,2:0:0:0:
486,362,274655,5,0,1:0:0:0:
54,348,274827,2,0,P|74:338|104:333,2,46.8,2|0|0,2:0|1:0|2:0,2:0:0:0:
170,372,275341,86,0,B|189:264|189:264|176:226,1,136.89,0|0,1:0|2:0,2:0:0:0:
244,189,275513,69,2,2:0:0:0:
512,328,275598,1,2,2:0:0:0:
275,262,275770,5,2,2:0:0:0:
512,328,275855,1,2,2:0:0:0:
480,255,276027,6,0,B|473:236|473:236|511:105,1,136.89,0|0,1:0|2:0,2:0:0:0:
448,77,276198,69,2,2:0:0:0:
448,77,276284,1,2,2:0:0:0:
117,94,276455,5,2,2:0:0:0:
117,94,276541,1,2,2:0:0:0:
392,145,276713,5,0,1:0:0:0:
232,383,276884,2,0,B|42:34|42:34|-2:11,2,421.2,2|0|0,2:0|1:0|2:0,2:0:0:0:
507,263,277398,6,0,B|468:262|426:256|426:256|364:293|364:293|315:283|230:280,1,234,0|0,1:0|1:0,2:0:0:0:
16,163,278231,2,0,B|55:162|97:156|97:156|159:193|159:193|207:183|293:180,1,234,0|0,1:0|1:0,2:0:0:0:
256,192,278731,12,0,279866,2:0:0:0:
371,10,280028,6,0,B|347:95|355:192|355:192|327:128|280:94,1,292.5,0|0,1:0|1:0,2:0:0:0:
87,368,280809,2,0,B|110:283|102:186|102:186|130:250|177:284,1,292.5,0|0,1:0|1:0,2:0:0:0:
16,163,281428,85,0,1:0:0:0:
256,192,281503,12,0,282328,2:0:0:0:
73,134,282478,6,0,P|59:75|163:156,1,351,0|0,1:0|1:0,2:0:0:0:
439,352,283185,2,0,P|453:293|349:374,1,351,0|0,1:0|1:0,2:0:0:0:
256,192,283610,12,0,284632,2:0:0:0:
36,293,284700,5,0,1:0:0:0:
36,293,284764,1,0,1:0:0:0:
36,293,284828,2,0,L|147:306,1,87.75,0|0,1:0|2:0,2:0:0:0:
199,338,284956,2,0,L|203:270,2,43.875,0|0|0,1:0|2:0|2:0,2:0:0:0:
476,220,285084,5,0,1:0:0:0:
476,220,285148,1,0,1:0:0:0:
476,220,285212,2,0,L|364:233,1,87.75,0|0,1:0|2:0,2:0:0:0:
313,265,285341,2,0,L|308:197,2,43.875,0|0|0,1:0|2:0|2:0,2:0:0:0:
28,149,285469,85,0,1:0:0:0:
28,149,285533,1,0,1:0:0:0:
28,149,285597,2,0,L|139:162,1,87.75,0|0,1:0|2:0,2:0:0:0:
195,194,285725,2,0,L|199:126,2,43.875,0|0|0,1:0|2:0|2:0,2:0:0:0:
484,76,285853,5,0,1:0:0:0:
484,76,285917,1,0,1:0:0:0:
484,76,285982,2,0,L|372:89,1,87.75,0|0,1:0|2:0,2:0:0:0:
321,121,286110,2,0,L|316:53,2,43.875,0|0|0,1:0|2:0|2:0,2:0:0:0:
208,22,286238,6,0,L|152:30,6,43.875,0|0|0|0|0|0|0,1:0|2:0|2:0|2:0|2:0|2:0|2:0,2:0:0:0:
86,0,286494,2,0,L|74:104,1,87.75,0|0,1:0|2:0,2:0:0:0:
321,121,286623,6,0,L|377:129,6,43.875,0|0|0|0|0|0|0,1:0|2:0|2:0|2:0|2:0|2:0|2:0,2:0:0:0:
443,99,286879,2,0,L|455:203,1,87.75,0|0,1:0|2:0,2:0:0:0:
191,194,287007,86,0,L|135:202,6,43.875,0|0|0|0|0|0|0,1:0|2:0|2:0|2:0|2:0|2:0|2:0,2:0:0:0:
69,172,287264,2,0,L|57:276,1,87.75,0|0,1:0|2:0,2:0:0:0:
338,293,287392,6,0,L|394:301,6,43.875,0|0|0|0|0|0|0,1:0|2:0|2:0|2:0|2:0|2:0|2:0,2:0:0:0:
460,271,287648,2,0,L|472:375,1,87.75,0|0,1:0|2:0,2:0:0:0:
263,353,287776,22,0,B|210:228|318:262|254:117,1,219.375000000001,2|0,2:0|2:0,2:0:0:0:
181,76,288161,2,0,B|224:64|259:33|259:33|293:62|361:82,1,175.5,2|0,2:0|2:0,2:0:0:0:
370,205,288546,70,0,B|405:150|405:150|293:164|293:164|237:241|237:241|125:258|125:258|168:185,1,468,2|4,2:0|1:0,2:0:0:0:
256,192,299058,12,0,304058,2:0:0:0:
249,376,304187,22,0,L|256:272,1,93.6,2|0,2:0|2:0,2:0:0:0:
250,277,304507,1,2,2:0:0:0:
245,271,304571,1,2,2:0:0:0:
240,265,304635,1,2,2:0:0:0:
235,258,304699,6,0,B|191:254|191:254|134:278,1,87.7500000000002,2|0,2:0|2:0,2:0:0:0:
271,177,304892,2,0,B|311:193|311:193|355:189,1,87.7500000000002,2|0,2:0|2:0,2:0:0:0:
252,90,305084,2,0,L|247:25,1,43.8750000000001,2|0,2:0|2:0,2:0:0:0:
473,32,305212,6,0,B|413:32|317:5|317:5|371:59,1,219.375,0|0,1:0|2:0,2:0:0:0:
512,135,305469,2,0,B|445:144|445:144|404:116|404:116|337:212|337:212|296:179|296:179|170:193,1,365.625,0|0,1:0|2:0,2:0:0:0:
104,171,305853,6,0,B|164:171|260:144|260:144|206:198,1,219.375,0|0,1:0|2:0,2:0:0:0:
65,274,306110,2,0,B|132:283|132:283|173:255|173:255|240:351|240:351|281:318|281:318|407:332,1,365.625,0|0,1:0|2:0,2:0:0:0:
442,363,306494,54,0,L|452:281,1,58.5,2|0,2:0|2:0,2:0:0:0:
359,326,306751,2,0,L|348:194,1,117,2|0,2:0|2:0,2:0:0:0:
110,40,307135,22,0,B|142:22|142:22|195:32,1,73.125,2|0,2:0|2:0,2:0:0:0:
207,241,307264,2,0,B|164:171|155:103|155:103|118:185,1,219.375,0|0,1:0|2:0,2:0:0:0:
15,383,307520,2,0,P|-21:316|118:368,1,365.625,0|0,1:0|2:0,2:0:0:0:
263,136,307905,6,0,B|305:66|314:-1|314:-1|351:80,1,219.375,0|0,1:0|2:0,2:0:0:0:
478,229,308161,2,0,B|435:298|426:366|426:366|389:284,1,219.375,0|0,1:0|2:0,2:0:0:0:
417,18,308417,1,0,1:0:0:0:
198,257,308546,54,0,L|191:190,1,58.5,2|0,2:0|2:0,2:0:0:0:
0,224,308802,2,0,L|116:233,1,117,2|0,2:0|2:0,2:0:0:0:
468,316,309187,22,0,L|479:219,1,87.75,2|0,2:0|2:0,2:0:0:0:
346,348,309315,2,0,B|392:388|392:388|372:170,1,263.25,0|0,1:0|2:0,2:0:0:0:
74,296,309571,2,0,B|20:244|20:244|297:276|297:276|193:334,1,438.75,0|0,1:0|2:0,2:0:0:0:
164,184,309956,6,0,B|118:224|118:224|138:6,1,263.25,0|0,1:0|2:0,2:0:0:0:
436,132,310212,2,0,B|490:80|490:80|213:112|213:112|317:170,1,438.75,0|0,1:0|2:0,2:0:0:0:
468,317,310597,54,0,B|403:312|403:312|361:333|361:333|280:326,1,175.5,2|0,2:0|2:0,2:0:0:0:
188,372,311110,5,2,2:0:0:0:
188,372,311174,1,2,2:0:0:0:
188,372,311238,1,2,2:0:0:0:
188,372,311302,1,2,2:0:0:0:
188,372,311366,2,0,B|219:347|219:347|211:240,1,117,2|0,2:0|2:0,2:0:0:0:
136,22,311623,6,0,B|76:4|76:4|203:183|203:183|115:146,1,351,0|0,1:0|2:0,2:0:0:0:
426,104,312007,2,0,B|471:61|471:61|252:81|252:81|328:24,1,351,0|0,1:0|2:0,2:0:0:0:
209,314,312392,2,0,B|222:374|222:374|315:174|315:174|326:269,1,351,0|0,1:0|2:0,2:0:0:0:
512,342,312776,6,0,P|366:245|75:276,1,438.75,0|0,1:0|2:0,2:0:0:0:
43,210,313161,54,0,B|27:249|27:249|38:304,1,87.75,2|0,2:0|2:0,2:0:0:0:
112,337,313417,22,0,L|215:324,3,76.0499965187074,0|0|0|0,1:0|2:0|2:0|2:0,2:0:0:0:
382,362,313674,2,0,L|279:349,5,76.0499965187074,0|0|0|0|0|0,1:0|2:0|2:0|2:0|2:0|2:0,2:0:0:0:
84,239,314058,6,0,L|187:226,3,76.0499965187074,0|0|0|0,1:0|2:0|2:0|2:0,2:0:0:0:
422,263,314315,2,0,L|319:250,5,76.0499965187074,0|0|0|0|0|0,1:0|2:0|2:0|2:0|2:0|2:0,2:0:0:0:
500,290,314699,54,0,B|507:263|507:263|493:184,5,58.5,0|0|0|0|0|0,2:0|2:0|2:0|2:0|2:0|2:0,2:0:0:0:
354,167,315084,2,0,B|383:160|383:160|439:167,3,58.5,0|0|0|0,2:0|2:0|2:0|2:0,2:0:0:0:
418,351,315341,2,0,B|389:359|389:359|332:350,1,58.5,0|0,2:0|2:0,2:0:0:0:
249,280,315469,22,0,L|241:204,3,76.0499965187074,0|0|0|0,1:0|2:0|2:0|2:0,2:0:0:0:
164,120,315725,2,0,L|156:196,5,76.0499965187074,0|0|0|0|0|0,1:0|2:0|2:0|2:0|2:0|2:0,2:0:0:0:
96,339,316110,6,0,L|88:263,3,76.0499965187074,0|0|0|0,1:0|2:0|2:0|2:0,2:0:0:0:
52,73,316366,2,0,L|44:149,3,76.0499965187074,0|0|0|0,1:0|2:0|2:0|2:0,2:0:0:0:
267,110,316623,86,0,B|309:104|309:104|342:112,5,76.0499965187074,0|0|0|0|0|0,1:0|2:0|2:0|2:0|2:0|2:0,2:0:0:0:
418,147,317007,2,0,B|454:159|454:159|503:147,1,76.0499965187074,0|0,2:0|2:0,2:0:0:0:
349,197,317135,70,0,L|339:304,5,58.5,0|0|0|0|0|0,2:0|2:0|2:0|2:0|2:0|2:0,2:0:0:0:
469,350,317520,54,0,L|520:345,2,29.25,0|0|0,1:0|2:0|2:0,2:0:0:0:
388,359,317648,1,0,1:0:0:0:
388,359,317712,1,0,1:0:0:0:
388,359,317776,2,0,L|305:365,1,58.5,0|0,1:0|2:0,2:0:0:0:
43,320,317905,6,0,L|-7:315,2,29.25,0|0|0,1:0|2:0|2:0,2:0:0:0:
124,329,318033,1,0,1:0:0:0:
124,329,318097,1,0,1:0:0:0:
124,329,318161,2,0,L|201:335,1,58.5,0|0,1:0|2:0,2:0:0:0:
468,256,318289,86,0,L|524:251,2,35.1,0|0|0,1:0|2:0|2:0,2:0:0:0:
387,265,318417,1,0,1:0:0:0:
387,265,318482,1,0,1:0:0:0:
387,265,318546,2,0,L|307:271,1,70.2,0|0,1:0|2:0,2:0:0:0:
44,226,318674,6,0,L|-15:220,2,35.1,0|0|0,1:0|2:0|2:0,2:0:0:0:
125,235,318802,1,0,1:0:0:0:
125,235,318866,1,0,1:0:0:0:
125,235,318930,2,0,L|213:242,1,70.2,0|0,1:0|2:0,2:0:0:0:
467,162,319058,86,0,L|537:156,2,40.95,0|0|0,1:0|2:0|2:0,2:0:0:0:
386,171,319187,1,0,1:0:0:0:
386,171,319251,1,0,1:0:0:0:
386,171,319315,2,0,L|275:180,1,81.9,0|0,1:0|2:0,2:0:0:0:
45,132,319443,6,0,L|-25:126,2,40.95,0|0|0,1:0|2:0|2:0,2:0:0:0:
126,141,319571,1,0,1:0:0:0:
126,141,319635,1,0,1:0:0:0:
126,141,319699,2,0,L|237:150,1,81.9,0|0,1:0|2:0,2:0:0:0:
466,68,319828,86,0,L|536:62,2,46.8,0|0|0,1:0|2:0|2:0,2:0:0:0:
385,77,319956,1,0,1:0:0:0:
385,77,320020,1,0,1:0:0:0:
385,77,320084,2,0,L|274:86,1,93.6,0|0,1:0|2:0,2:0:0:0:
46,38,320212,6,0,L|-24:32,2,46.8,0|0|0,1:0|2:0|2:0,2:0:0:0:
127,47,320341,1,0,1:0:0:0:
127,47,320405,1,0,1:0:0:0:
127,47,320469,2,0,L|238:56,1,93.6,0|0,1:0|2:0,2:0:0:0:
259,379,320597,6,0,L|256:317,6,46.8,0|0|0|0|0|0|0,1:0|2:0|1:0|2:0|1:0|2:0|1:0,2:0:0:0:
309,275,320853,70,0,L|389:286,1,51.1875,0|0,1:0|2:0,2:0:0:0:
302,263,320917,2,0,L|382:274,1,51.1875,0|0,1:0|2:0,2:0:0:0:
295,251,320982,2,0,L|375:262,1,51.1875,0|0,1:0|2:0,2:0:0:0:
288,239,321046,2,0,L|368:250,1,51.1875,0|0,1:0|2:0,2:0:0:0:
216,200,321110,6,0,L|136:211,1,51.1875,0|0,1:0|2:0,2:0:0:0:
223,188,321174,2,0,L|143:199,1,51.1875,0|0,1:0|2:0,2:0:0:0:
230,176,321238,2,0,L|150:187,1,51.1875,0|0,1:0|2:0,2:0:0:0:
237,164,321302,2,0,L|157:175,1,51.1875,0|0,1:0|2:0,2:0:0:0:
300,116,321366,86,0,L|380:127,1,51.1875,0|0,1:0|2:0,2:0:0:0:
293,104,321430,2,0,L|373:115,1,51.1875,0|0,1:0|2:0,2:0:0:0:
286,92,321494,2,0,L|366:103,1,51.1875,0|0,1:0|2:0,2:0:0:0:
279,80,321558,2,0,L|359:91,1,51.1875,0|0,1:0|2:0,2:0:0:0:
256,0,321623,37,4,1:0:0:0:
256,192,321687,12,0,323546,2:0:0:0:
0,192,323674,85,0,1:0:0:0:
31,192,323738,1,0,1:0:0:0:
63,192,323802,1,0,1:0:0:0:
95,192,323866,1,0,1:0:0:0:
127,192,323930,1,0,1:0:0:0:
159,192,323994,1,0,1:0:0:0:
191,192,324058,1,0,1:0:0:0:
223,192,324123,1,0,1:0:0:0:
255,192,324187,1,0,1:0:0:0:
287,192,324251,1,0,1:0:0:0:
319,192,324315,1,0,1:0:0:0:
351,192,324379,1,0,1:0:0:0:
383,192,324443,1,0,1:0:0:0:
415,192,324507,1,0,1:0:0:0:
447,192,324571,1,0,1:0:0:0:
479,192,324635,1,0,1:0:0:0:
511,192,324699,6,0,L|504:267,1,70.2000000000001,2|0,2:0|2:0,2:0:0:0:
436,320,325084,85,2,2:0:0:0:
436,320,325148,1,2,2:0:0:0:
436,320,325212,2,0,B|306:346|306:346|226:294,1,204.75,0|0,1:0|2:0,2:0:0:0:
203,72,325405,2,0,B|333:46|333:46|413:98,1,204.75,0|0,1:0|2:0,2:0:0:0:
162,202,325597,2,0,L|46:194,1,102.375,0|0,1:0|2:0,2:0:0:0:
11,122,325725,38,0,B|158:88|103:218|287:171,1,263.25,4|0,1:0|2:0,2:0:0:0:
334,147,325982,1,0,1:0:0:0:
483,253,326110,6,0,P|483:169|496:53,1,175.5,2|0,2:0|1:0,2:0:0:0:
404,329,326366,1,2,2:0:0:0:
404,329,326430,1,2,2:0:0:0:
404,329,326494,2,0,P|398:277|386:229,1,87.75,0|0,1:0|2:0,2:0:0:0:
159,191,326623,85,2,2:0:0:0:
159,191,326687,1,2,2:0:0:0:
159,191,326751,2,0,B|172:14|172:14|194:57|254:104,1,263.25,0|0,1:0|2:0,2:0:0:0:
63,199,327007,2,0,B|76:376|76:376|98:333|158:286,1,263.25,0|0,1:0|2:0,2:0:0:0:
252,163,327264,6,0,B|332:125|332:125|455:157,1,175.5,0|0,1:0|2:0,2:0:0:0:
442,343,327456,2,0,B|362:381|362:381|239:349,1,175.5,2|0,2:0|2:0,0:0:0:0:
341,209,327648,2,0,L|355:312,1,87.75,2|0,2:0|2:0,2:0:0:0:
106,303,327776,86,0,P|27:319|87:206,1,263.25,0|0,1:0|2:0,2:0:0:0:
168,363,328033,1,0,1:0:0:0:
183,49,328161,6,0,P|154:143|152:231,1,175.5,2|0,2:0|1:0,2:0:0:0:
40,19,328417,1,2,2:0:0:0:
40,19,328482,1,2,2:0:0:0:
40,19,328546,2,0,P|61:68|65:134,1,87.75,0|0,1:0|2:0,2:0:0:0:
218,289,328674,85,2,2:0:0:0:
218,289,328738,1,2,2:0:0:0:
218,289,328802,2,0,B|265:286|306:274|306:274|372:326|372:326|417:314|480:318,1,263.25,0|0,1:0|2:0,2:0:0:0:
249,186,329058,2,0,B|202:183|161:171|161:171|95:223|95:223|50:211|-13:215,1,263.25,0|0,1:0|2:0,2:0:0:0:
429,223,329315,6,0,P|419:135|413:48,1,175.5,0|0,1:0|2:0,2:0:0:0:
319,5,329507,2,0,P|328:92|334:179,1,175.5,2|0,2:0|2:0,0:0:0:0:
288,363,329699,2,0,L|188:379,1,87.75,2|0,2:0|2:0,2:0:0:0:
56,294,329828,86,0,B|25:346|25:346|123:288|262:286,1,263.25,0|0,1:0|2:0,2:0:0:0:
469,318,330084,2,0,P|374:304|267:232,1,175.5,0|0,1:0|2:0,2:0:0:0:
32,38,330341,6,0,L|45:136,1,87.75,0|0,1:0|2:0,2:0:0:0:
120,227,330469,2,0,L|133:129,1,87.75,2|0,2:0|2:0,2:0:0:0:
423,35,330597,85,2,1:0:0:0:
423,35,330661,1,2,2:0:0:0:
423,35,330725,2,0,B|463:67|463:67|445:223,1,175.5,2|0,2:0|1:0,2:0:0:0:
302,107,330982,1,2,2:0:0:0:
325,338,331110,2,0,B|365:306|365:306|350:182,1,175.5,0|0,1:0|2:0,2:0:0:0:
8,329,331366,6,0,L|106:346,1,87.75,0|0,1:0|2:0,2:0:0:0:
270,276,331494,2,0,L|171:293,1,87.75,2|0,2:0|2:0,2:0:0:0:
12,241,331623,86,0,L|110:258,1,87.75,0|0,1:0|2:0,2:0:0:0:
263,187,331751,2,0,L|164:204,1,87.75,2|0,2:0|2:0,2:0:0:0:
94,160,331879,6,0,P|69:77|179:139,1,263.25,0|0,1:0|2:0,2:0:0:0:
288,14,332135,2,0,P|281:58|282:110,1,87.75,0|0,1:0|2:0,2:0:0:0:
442,351,332264,85,2,2:0:0:0:
442,351,332328,1,2,2:0:0:0:
442,351,332392,2,0,L|449:250,1,87.75,0|0,1:0|2:0,2:0:0:0:
183,290,332520,2,0,L|176:189,1,87.75,2|0,2:0|2:0,2:0:0:0:
506,179,332648,5,0,1:0:0:0:
506,179,332712,1,2,2:0:0:0:
506,179,332776,2,0,B|393:157|393:157|339:211,1,175.5,2|0,2:0|1:0,2:0:0:0:
289,144,332969,1,2,2:0:0:0:
274,146,333033,2,0,L|157:157,1,87.75,2|0,2:0|2:0,2:0:0:0:
0,99,333161,86,0,L|6:207,1,87.75,0|0,1:0|2:0,2:0:0:0:
93,212,333289,2,0,L|99:104,1,87.75,2|0,2:0|2:0,2:0:0:0:
467,4,333417,6,0,L|461:112,1,87.75,0|0,1:0|2:0,2:0:0:0:
374,117,333546,2,0,L|368:9,1,87.75,2|0,2:0|2:0,2:0:0:0:
224,34,333674,85,0,1:0:0:0:
224,34,333738,1,2,2:0:0:0:
224,34,333802,1,2,2:0:0:0:
224,34,333866,1,2,2:0:0:0:
224,34,333930,2,0,B|226:84|226:84|252:112|252:112|211:177|211:177|237:206|237:206|240:279,1,263.25,0|0,1:0|2:0,2:0:0:0:
246,344,334187,1,0,1:0:0:0:
462,91,334315,6,0,B|417:109|417:109|394:262,1,175.5,2|0,2:0|1:0,2:0:0:0:
321,18,334571,1,2,2:0:0:0:
321,18,334635,1,2,2:0:0:0:
321,18,334699,2,0,L|328:139,1,87.75,0|0,1:0|2:0,2:0:0:0:
497,313,334828,85,2,2:0:0:0:
497,313,334892,1,2,2:0:0:0:
497,313,334956,2,0,B|399:310|399:310|340:348|340:348|230:343,1,263.25,0|0,1:0|2:0,2:0:0:0:
66,228,335212,2,0,B|164:225|164:225|223:263|223:263|333:258,1,263.25,0|0,1:0|2:0,2:0:0:0:
424,34,335469,6,0,B|457:12|457:12|436:172,1,175.5,0|0,1:0|2:0,2:0:0:0:
317,258,335661,2,0,B|350:280|350:280|329:120,1,175.5,2|0,2:0|2:0,0:0:0:0:
212,112,335853,2,0,L|91:129,1,87.75,2|0,2:0|2:0,2:0:0:0:
55,318,335982,86,0,B|19:367|19:367|116:313|247:309,1,263.25,0|0,1:0|2:0,2:0:0:0:
292,341,336238,1,0,1:0:0:0:
270,28,336366,6,0,P|249:92|239:225,1,175.5,2|0,2:0|1:0,2:0:0:0:
131,1,336623,1,2,2:0:0:0:
131,1,336687,1,2,2:0:0:0:
131,1,336751,2,0,P|146:43|155:99,1,87.75,0|0,1:0|2:0,2:0:0:0:
129,266,336879,85,2,2:0:0:0:
129,266,336943,1,2,2:0:0:0:
129,266,337007,2,0,P|145:194|37:250,1,263.25,0|0,1:0|2:0,2:0:0:0:
317,258,337264,2,0,P|333:330|225:274,1,263.25,0|0,1:0|2:0,2:0:0:0:
512,154,337520,6,0,B|399:135|399:135|342:179,1,175.5,0|0,1:0|2:0,2:0:0:0:
270,98,337712,1,2,2:0:0:0:
270,98,337776,2,0,L|260:202,1,87.75,0|0,1:0|2:0,2:0:0:0:
175,254,337905,2,0,L|165:150,1,87.75,2|0,2:0|2:0,2:0:0:0:
1,58,338033,86,0,B|32:22|32:22|45:180,1,175.5,0|0,1:0|2:0,2:0:0:0:
49,323,338225,1,2,2:0:0:0:
49,323,338289,2,0,B|80:359|80:359|93:201,1,175.5,0|0,1:0|2:0,2:0:0:0:
116,38,338482,1,2,2:0:0:0:
117,43,338546,6,0,L|225:31,1,87.75,0|0,1:0|2:0,2:0:0:0:
175,254,338674,2,0,L|283:266,1,87.75,2|0,2:0|2:0,2:0:0:0:
270,98,338802,86,0,L|378:86,1,87.75,0|0,1:0|2:0,2:0:0:0:
328,208,338930,2,0,L|436:220,1,87.75,2|0,2:0|2:0,2:0:0:0:
499,359,339058,6,0,B|452:323|452:323|311:349,1,175.5,0|0,1:0|2:0,2:0:0:0:
49,323,339251,1,2,2:0:0:0:
49,323,339315,2,0,B|96:287|96:287|237:313,1,175.5,2|0,1:2|2:0,0:0:0:0:
420,246,339507,1,2,2:0:0:0:
420,246,339571,86,0,L|411:146,1,87.75,0|0,1:0|2:0,2:0:0:0:
138,213,339699,2,0,L|147:113,1,87.75,2|0,2:0|2:0,2:0:0:0:
350,100,339828,6,0,L|341:0,1,87.75,0|0,1:0|2:0,2:0:0:0:
223,87,339956,2,0,L|232:-13,1,87.75,2|2,2:0|2:0,2:0:0:0:
285,178,340084,53,0,1:0:0:0:
285,190,340148,1,2,2:0:0:0:
286,203,340212,1,2,2:0:0:0:
286,215,340276,1,2,2:0:0:0:
287,228,340341,1,2,2:0:0:0:
288,240,340405,1,2,2:0:0:0:
288,253,340469,1,0,1:0:0:0:
289,265,340533,1,0,1:0:0:0:
360,319,340597,6,0,B|292:353|292:353|204:322,1,152.1,0|0,1:0|2:0,2:0:0:0:
141,274,340789,1,2,2:0:0:0:
141,289,340853,2,0,L|138:374,1,76.05,2|0,2:0|2:0,2:0:0:0:
92,189,340982,85,0,1:0:0:0:
92,189,341046,1,0,1:0:0:0:
92,189,341110,2,0,B|259:143|207:280|409:219,1,304.2,0|0,1:0|2:0,2:0:0:0:
476,185,341430,21,0,2:0:0:0:
476,185,341494,1,0,1:0:0:0:
476,185,341558,1,0,1:0:0:0:
476,185,341623,6,0,B|495:146|495:146|487:84,2,87.75,0|0|0,1:0|2:0|2:0,2:0:0:0:
306,62,341815,6,0,B|287:100|287:100|293:145,2,87.75,0|0|0,1:0|2:0|2:0,2:0:0:0:
407,40,342007,6,0,L|392:126,1,87.75,0|0,1:0|2:0,2:0:0:0:
376,368,342135,5,0,1:0:0:0:
427,342,342199,1,0,1:0:0:0:
460,294,342264,1,0,1:0:0:0:
466,237,342328,1,0,1:0:0:0:
442,184,342392,1,0,1:0:0:0:
396,149,342456,1,0,1:0:0:0:
339,142,342520,1,0,1:0:0:0:
285,163,342584,1,0,1:0:0:0:
249,208,342648,1,0,1:0:0:0:
211,252,342712,1,0,1:0:0:0:
157,275,342776,1,0,1:0:0:0:
99,272,342841,1,0,1:0:0:0:
48,244,342905,1,0,1:0:0:0:
15,197,342969,1,0,1:0:0:0:
5,140,343033,1,0,1:0:0:0:
21,84,343097,1,0,1:0:0:0:
60,41,343161,1,0,1:0:0:0:
115,26,343225,1,0,1:0:0:0:
134,78,343289,1,0,1:0:0:0:
179,113,343353,1,0,1:0:0:0:
237,119,343417,1,0,1:0:0:0:
290,95,343482,1,0,1:0:0:0:
345,76,343546,1,0,1:0:0:0:
402,83,343610,1,0,1:0:0:0:
451,115,343674,1,0,1:0:0:0:
481,165,343738,1,0,1:0:0:0:
486,222,343802,1,0,1:0:0:0:
465,277,343866,1,0,1:0:0:0:
423,316,343930,1,0,1:0:0:0:
367,333,343994,1,0,1:0:0:0:
311,323,344058,1,0,1:0:0:0:
262,291,344123,1,0,1:0:0:0:
168,318,344187,6,0,L|170:288,3,17.55,2|0|0|0,2:0|2:0|2:0|2:0,2:0:0:0:
90,285,344443,6,0,L|92:315,1,17.55,2|0,2:0|2:0,2:0:0:0:
11,292,344571,2,0,L|13:322,1,17.55,0|0,2:0|2:0,2:0:0:0:
147,192,344699,1,2,2:0:0:0:
306,222,344828,86,0,L|307:204,1,17.55,2|0,2:0|2:0,2:0:0:0:
227,215,344956,2,0,L|228:197,1,17.55,0|0,2:0|2:0,2:0:0:0:
39,141,345084,5,2,2:0:0:0:
39,141,345148,1,2,2:0:0:0:
39,141,345212,2,0,L|85:131,1,35.1,2|0,2:0|2:0,2:0:0:0:
303,56,345469,6,0,L|204:46,1,70.1999999999998,2|0,2:0|2:0,2:0:0:0:
158,4,345725,6,0,B|144:54|144:54|175:144,1,105.3,2|0,2:0|2:0,2:0:0:0:
227,157,345917,6,0,B|246:227|246:227|216:323,1,140.4,2|0,2:0|2:0,2:0:0:0:
151,357,346110,6,0,L|140:217,1,117,0|0,2:0|2:0,2:0:0:0:
70,208,346238,5,0,1:0:0:0:
39,159,346302,1,0,1:0:0:0:
39,101,346366,1,0,1:0:0:0:
70,52,346430,1,0,1:0:0:0:
122,28,346494,1,0,1:0:0:0:
179,35,346558,1,0,1:0:0:0:
224,72,346623,1,0,1:0:0:0:
241,127,346687,1,0,1:0:0:0:
251,185,346751,1,0,1:0:0:0:
284,233,346815,1,0,1:0:0:0:
333,263,346879,1,0,1:0:0:0:
391,270,346943,1,0,1:0:0:0:
446,253,347007,1,0,1:0:0:0:
489,214,347071,1,0,1:0:0:0:
512,161,347135,1,0,1:0:0:0:
511,103,347199,1,0,1:0:0:0:
487,50,347264,1,0,1:0:0:0:
452,3,347328,1,0,1:0:0:0:
432,57,347392,1,0,1:0:0:0:
395,101,347456,1,0,1:0:0:0:
343,127,347520,1,0,1:0:0:0:
284,134,347584,1,0,1:0:0:0:
228,116,347648,1,0,1:0:0:0:
184,81,347712,1,0,1:0:0:0:
131,55,347776,1,0,1:0:0:0:
73,59,347841,1,0,1:0:0:0:
26,91,347905,1,0,1:0:0:0:
0,143,347969,1,0,1:0:0:0:
5,200,348033,1,0,1:0:0:0:
39,249,348097,1,0,1:0:0:0:
91,272,348161,1,0,1:0:0:0:
148,266,348225,1,0,1:0:0:0:
242,298,348289,6,0,L|239:265,1,17.55,2|0,2:0|2:0,2:0:0:0:
327,283,348417,1,0,2:0:0:0:
327,283,348482,1,0,2:0:0:0:
327,283,348546,2,0,L|330:250,1,17.55,2|0,2:0|2:0,2:0:0:0:
118,179,348674,5,0,2:0:0:0:
118,179,348738,1,0,2:0:0:0:
118,179,348802,2,0,L|116:161,1,17.55,2|0,2:0|2:0,2:0:0:0:
203,194,348930,2,0,L|204:176,1,17.55,0|0,2:0|2:0,2:0:0:0:
434,220,349058,85,2,2:0:0:0:
434,220,349123,1,2,2:0:0:0:
434,220,349187,2,0,L|481:213,2,35.1,2|0|0,2:0|2:0|2:0,2:0:0:0:
340,244,349571,22,0,L|343:185,1,43.8750000000001,2|0,2:0|2:0,2:0:0:0:
273,85,349699,6,0,L|276:144,1,58.5,2|0,2:0|2:0,2:0:0:0:
201,268,349828,6,0,L|204:194,1,73.125,2|0,2:0|2:0,2:0:0:0:
123,72,349956,6,0,L|127:160,1,87.75,2|0,2:0|2:0,2:0:0:0:
16,286,350084,5,2,2:0:0:0:
23,207,350148,1,2,2:0:0:0:
30,128,350212,1,2,2:0:0:0:
37,49,350276,1,2,2:0:0:0:
123,72,350341,6,0,L|131:151,1,46.8,0|0,1:0|2:0,2:0:0:0:
122,130,350405,2,0,L|130:209,1,46.8,0|0,1:0|2:0,2:0:0:0:
121,188,350469,2,0,L|129:267,1,46.8,0|0,1:0|2:0,2:0:0:0:
120,246,350533,2,0,L|128:325,1,46.8,0|0,1:0|2:0,2:0:0:0:
185,360,350597,22,0,P|235:337|318:340,1,93.6,0|0,1:0|2:0,2:0:0:0:
512,335,350725,2,0,P|415:323|319:255,1,187.2,2|0,2:0|1:0,2:0:0:0:
219,90,350982,5,2,2:0:0:0:
219,90,351046,1,2,2:0:0:0:
219,90,351110,2,0,L|227:207,1,93.6,0|0,1:0|2:0,2:0:0:0:
311,141,351238,2,0,L|318:48,1,93.6,2|0,2:0|2:0,2:0:0:0:
512,57,351366,85,0,1:0:0:0:
495,64,351430,2,0,B|448:94|448:94|475:247,1,187.2,2|0,2:0|2:0,2:0:0:0:
345,356,351623,2,0,P|280:326|396:284,1,280.8,0|0,1:0|2:0,2:0:0:0:
160,310,351879,6,0,B|180:342|180:342|204:143,1,187.2,0|0,1:0|2:0,2:0:0:0:
68,51,352071,2,0,B|88:19|88:19|112:218,1,187.2,2|0,2:0|2:0,0:0:0:0:
7,275,352264,2,0,L|18:155,1,93.6,2|0,2:0|2:0,2:0:0:0:
181,101,352392,86,0,B|242:65|312:100|312:100|304:105|304:105|372:151|452:108,1,280.8,0|0,1:0|2:0,2:0:0:0:
492,63,352648,1,2,2:0:0:0:
492,63,352712,1,2,2:0:0:0:
492,63,352776,2,0,B|516:96|516:96|503:204,1,93.6,2|0,2:0|2:0,2:0:0:0:
264,254,352905,2,0,B|240:221|240:221|253:113,1,93.6,0|0,1:0|2:0,2:0:0:0:
359,23,353033,5,2,2:0:0:0:
364,78,353097,1,2,2:0:0:0:
369,134,353161,1,0,1:0:0:0:
374,190,353225,1,2,2:0:0:0:
379,246,353289,1,2,2:0:0:0:
384,302,353353,1,2,2:0:0:0:
462,337,353417,86,0,B|508:373|508:373|376:329|274:336,1,280.8,0|0,1:0|2:0,2:0:0:0:
92,255,353674,2,0,B|45:291|45:291|177:247|279:254,1,280.8,0|0,1:0|2:0,2:0:0:0:
453,30,353930,6,0,B|484:64|484:64|456:228,1,187.2,0|0,1:0|2:0,2:0:0:0:
289,335,354123,2,0,B|320:301|320:301|292:137,1,187.2,0|0,1:0|2:0,2:0:0:0:
216,176,354315,2,0,L|102:165,1,93.6,0|0,1:0|2:0,2:0:0:0:
4,78,354443,86,0,P|104:15|204:64,1,187.2,0|0,1:0|2:0,2:0:0:0:
276,16,354635,1,2,2:0:0:0:
280,36,354699,2,0,L|293:176,1,93.6,0|0,1:0|2:0,2:0:0:0:
446,357,354828,5,2,2:0:0:0:
446,357,354892,1,2,2:0:0:0:
446,357,354956,2,0,B|461:315|461:315|448:255,1,93.6,0|0,1:0|2:0,2:0:0:0:
112,255,355084,2,0,B|101:302|101:302|116:344,1,93.6,0|0,1:0|2:0,2:0:0:0:
405,197,355212,86,0,B|420:155|420:155|407:95,1,93.6,0|0,1:0|2:0,2:0:0:0:
165,87,355341,2,0,B|154:134|154:134|169:176,1,93.6,0|0,1:0|2:0,2:0:0:0:
499,200,355469,5,0,1:0:0:0:
184,298,355597,1,0,1:0:0:0:
339,72,355725,86,0,B|263:8|263:8|257:235,1,280.8,0|0,1:0|2:0,2:0:0:0:
450,267,355982,5,0,1:0:0:0:
68,150,356110,1,0,1:0:0:0:
409,107,356238,85,0,1:0:0:0:
0,271,356366,1,0,1:0:0:0:
324,380,356494,22,0,P|326:338|339:267,1,93.6,0|0,1:0|2:0,2:0:0:0:
165,87,356623,5,0,1:0:0:0:
186,128,356687,1,0,1:0:0:0:
205,171,356751,1,0,1:0:0:0:
219,216,356815,1,0,1:0:0:0:
228,261,356879,1,0,1:0:0:0:
234,308,356943,1,0,1:0:0:0:
236,355,357007,1,0,1:0:0:0:
501,151,357135,5,0,1:0:0:0:
442,170,357199,1,0,1:0:0:0:
381,158,357264,1,0,1:0:0:0:
333,119,357328,1,0,1:0:0:0:
285,80,357392,1,0,1:0:0:0:
224,68,357456,1,0,1:0:0:0:
165,87,357520,6,0,B|86:78|14:43|14:43|59:103,1,219.375000000001,2|0,2:0|2:0,2:0:0:0:
11,168,357905,5,2,2:0:0:0:
11,168,357969,1,2,2:0:0:0:
11,168,358033,2,0,L|18:285,1,87.7500000000002,2|0,2:0|2:0,2:0:0:0:
98,281,358225,2,0,L|105:164,1,87.7500000000002,2|0,2:0|2:0,2:0:0:0:
183,179,358417,2,0,L|190:242,1,43.8750000000001,2|0,2:0|2:0,2:0:0:0:
512,337,358546,6,0,B|497:289|497:289|404:285|404:285|365:376|365:376|283:371|283:371|252:306,1,374.4,4|0,1:0|2:0,2:0:0:0:
456,204,358930,2,0,B|508:160|508:160|273:193|273:193|336:221,1,374.4,0|0,1:0|2:0,2:0:0:0:
0,195,359315,6,0,B|15:147|15:147|108:143|108:143|147:234|147:234|229:229|229:229|260:164,1,374.4,0|0,1:0|2:0,2:0:0:0:
56,62,359699,2,0,B|3:18|3:18|238:51|238:51|175:79,1,374.4,0|0,1:0|2:0,2:0:0:0:
63,253,360084,38,0,B|5:357|5:357|152:310|152:310|154:302|154:302|329:241|329:241|256:384|256:384|203:42|203:42|215:35|215:35|365:61|365:61|388:104|388:104|520:137|520:137|521:11|521:11|377:322|377:322|435:263,1,1872,8|8,0:0|0:0,0:0:0:0:
46,118,362392,37,2,2:0:0:0:
46,118,362456,1,2,2:0:0:0:
46,118,362520,1,2,2:0:0:0:
46,118,362584,1,2,2:0:0:0:
46,118,362648,6,0,B|14:72|14:72|107:77|107:77|143:133|143:133|240:142|240:142|188:57,1,374.4,0|0,1:0|2:0,2:0:0:0:
469,97,363033,2,0,B|331:74|246:7|246:7|323:124,1,374.4,0|0,1:0|2:0,0:0:0:0:
466,352,363417,86,0,B|497:306|497:306|404:311|404:311|368:367|368:367|271:376|271:376|323:291,1,374.4,0|0,1:0|2:0,2:0:0:0:
43,331,363802,2,0,B|180:308|266:241|266:241|189:358,1,374.4,0|0,1:0|2:0,2:0:0:0:
135,204,364187,54,0,B|175:329|38:381|38:381|-25:308|-10:189|82:142|82:142|152:100|157:29|106:-17|106:-17|130:44|88:105|88:105|186:40|305:54|368:102|368:102|360:105|360:105|460:168|529:120|536:82|536:82|484:74|344:86|415:303|296:348|115:301|185:132|253:111|330:176,1,1872,8|8,0:0|0:0,0:0:0:0:
425,323,366494,6,0,L|433:377,3,43.8750000000001,2|2|2|2,2:0|2:0|2:0|2:0,2:0:0:0:
512,363,366751,22,0,B|329:319|329:319|256:385,1,280.8,0|0,1:0|2:0,2:0:0:0:
181,377,367007,1,0,1:0:0:0:
13,184,367135,5,0,2:0:0:0:
99,384,367264,2,0,B|70:267|70:267|108:203,1,187.2,0|0,1:0|2:0,2:0:0:0:
0,28,367520,86,0,B|183:72|183:72|256:6,1,280.8,0|0,1:0|2:0,2:0:0:0:
331,7,367776,1,0,1:0:0:0:
499,200,367905,5,0,2:0:0:0:
413,7,368033,2,0,B|442:124|442:124|404:188,1,187.2,0|0,1:0|2:0,2:0:0:0:
13,184,368289,86,0,B|-12:133|-12:133|4:62,1,117,0|0,1:0|2:0,2:0:0:0:
87,17,368546,2,0,L|107:232,1,187.2,0|0,1:0|2:0,2:0:0:0:
499,200,368802,6,0,B|524:251|524:251|508:322,1,117,0|0,1:0|2:0,2:0:0:0:
425,367,369058,2,0,L|405:152,1,187.2,0|0,1:0|2:0,2:0:0:0:
104,203,369315,86,0,B|88:148|88:148|116:81,1,117,0|0,1:0|2:0,2:0:0:0:
203,58,369571,2,0,L|185:273,1,187.2,0|0,1:0|2:0,2:0:0:0:
408,181,369828,6,0,B|423:235|423:235|395:302,1,117,0|0,1:0|2:0,2:0:0:0:
309,326,370084,2,0,L|326:110,1,187.2,0|0,1:0|2:0,2:0:0:0:
52,324,370341,54,0,B|115:316|115:316|156:339|156:339|260:330,1,175.5,0|0,1:0|2:0,2:0:0:0:
498,240,370597,5,0,1:0:0:0:
498,240,370661,1,2,2:0:0:0:
498,240,370725,1,2,2:0:0:0:
498,240,370789,1,2,2:0:0:0:
498,240,370853,2,0,B|403:218|403:218|340:260,1,152.1,0|0,1:0|2:0,2:0:0:0:
187,244,371110,1,0,3:0:0:0:
259,44,371238,86,0,B|287:137|287:137|355:170,1,152.1,0|0,1:0|2:0,2:0:0:0:
419,310,371494,1,0,3:0:0:0:
209,349,371623,6,0,B|275:277|275:277|270:202,1,152.1,0|0,1:0|2:0,2:0:0:0:
360,77,371879,1,0,3:0:0:0:
167,156,372007,86,0,L|180:-9,1,152.1,0|0,1:0|2:0,2:0:0:0:
9,258,372264,21,0,1:0:0:0:
9,258,372328,1,0,1:0:0:0:
9,258,372392,2,0,B|66:240|66:240|145:270,1,117,0|0,1:0|2:0,2:0:0:0:
209,349,372648,2,0,L|192:154,1,187.2,0|0,1:0|2:0,2:0:0:0:
499,200,372905,6,0,B|442:182|442:182|363:212,1,117,0|0,1:0|2:0,2:0:0:0:
299,291,373161,2,0,L|316:96,1,187.2,0|0,1:0|2:0,2:0:0:0:
76,24,373417,86,0,L|217:32,1,117,0|0,1:0|2:0,2:0:0:0:
489,102,373674,69,0,1:0:0:0:
489,102,373738,1,2,2:0:0:0:
489,102,373802,1,2,2:0:0:0:
489,102,373866,1,2,2:0:0:0:
489,102,373930,1,0,1:0:0:0:
246,146,374058,1,2,2:0:0:0:
458,225,374187,1,0,1:0:0:0:
422,21,374315,1,2,2:0:0:0:
213,285,374443,5,0,1:0:0:0:
237,4,374571,1,2,2:0:0:0:
148,219,374699,6,0,B|156:160|156:160|133:79,1,117,0|0,1:0|2:0,2:0:0:0:
36,177,374956,2,0,L|51:324,1,117,0|0,1:0|2:0,2:0:0:0:
377,144,375212,6,0,B|369:85|369:85|392:4,1,117,0|0,1:0|2:0,2:0:0:0:
489,102,375469,2,0,L|474:249,1,117,0|0,1:0|2:0,2:0:0:0:
272,362,375725,53,0,1:0:0:0:
272,362,375789,1,2,2:0:0:0:
272,362,375853,1,2,2:0:0:0:
272,362,375917,1,2,2:0:0:0:
272,362,375982,1,0,1:0:0:0:
462,301,376110,1,2,2:0:0:0:
377,144,376238,1,0,1:0:0:0:
356,384,376366,1,2,2:0:0:0:
132,215,376494,5,0,1:0:0:0:
151,342,376623,1,2,2:0:0:0:
36,177,376751,6,0,B|14:231|14:231|35:319,1,117,0|0,1:0|2:0,2:0:0:0:
234,337,377007,2,0,L|226:185,1,117,0|0,1:0|2:0,2:0:0:0:
499,5,377264,6,0,B|521:59|521:59|500:147,1,117,0|0,1:0|2:0,2:0:0:0:
301,165,377520,2,0,L|309:13,1,117,0|0,1:0|2:0,2:0:0:0:
28,98,377776,53,0,1:0:0:0:
28,98,377841,1,2,2:0:0:0:
28,98,377905,1,2,2:0:0:0:
28,98,377969,1,2,2:0:0:0:
28,98,378033,1,0,1:0:0:0:
220,56,378161,1,2,2:0:0:0:
11,210,378289,1,0,1:0:0:0:
263,262,378417,1,2,2:0:0:0:
116,35,378546,5,0,1:0:0:0:
147,349,378674,1,0,2:0:0:0:
465,246,378802,6,0,L|454:388,1,117,0|0,1:0|2:0,2:0:0:0:
365,317,379058,2,0,B|351:258|351:258|379:184,1,117,0|0,1:0|2:0,2:0:0:0:
41,194,379315,6,0,L|52:336,1,117,0|0,1:0|2:0,2:0:0:0:
141,265,379571,2,0,B|155:206|155:206|127:132,1,117,0|0,1:0|2:0,2:0:0:0:
512,36,379828,86,0,L|371:23,1,117,0|0,1:0|2:0,2:0:0:0:
465,246,380084,2,0,L|324:259,1,117,0|0,1:0|2:0,2:0:0:0:
234,153,380341,69,0,1:0:0:0:
41,194,380469,1,2,2:0:0:0:
41,194,380533,1,2,2:0:0:0:
41,194,380597,2,0,L|182:207,1,117,0|0,1:0|2:0,2:0:0:0:
72,46,380853,2,0,L|213:33,1,117,0|0,1:0|2:0,2:0:0:0:
268,26,381046,1,0,2:0:0:0:
285,23,381110,22,0,B|303:77|303:77|273:175,1,117,0|0,1:0|2:0,2:0:0:0:
449,247,381366,2,0,B|393:235|393:235|323:160,1,117,0|0,1:0|2:0,2:0:0:0:
173,277,381623,2,0,B|210:234|210:234|310:211,1,117,0|0,1:0|2:0,2:0:0:0:
455,156,381879,69,0,1:0:0:0:
455,156,381943,1,2,2:0:0:0:
455,156,382007,1,2,2:0:0:0:
455,156,382071,1,2,2:0:0:0:
455,156,382135,1,0,1:0:0:0:
428,35,382264,1,2,2:0:0:0:
304,187,382392,1,0,1:0:0:0:
325,0,382520,1,2,2:0:0:0:
512,89,382648,5,0,1:0:0:0:
206,136,382776,1,2,2:0:0:0:
512,260,382905,6,0,L|362:247,1,117,0|0,1:0|2:0,2:0:0:0:
172,308,383161,2,0,L|322:295,1,117,0|0,1:0|2:0,2:0:0:0:
486,371,383417,2,0,L|336:358,1,117,0|0,1:0|2:0,2:0:0:0:
91,115,383674,69,0,1:0:0:0:
46,375,383802,1,2,2:0:0:0:
109,199,383930,6,0,L|37:202,1,58.5,0|0,1:0|2:0,2:0:0:0:
34,283,384058,2,0,L|93:281,1,58.5,2|0,2:0|2:0,2:0:0:0:
258,370,384187,69,0,1:0:0:0:
244,338,384272,1,2,2:0:0:0:
258,306,384358,1,2,2:0:0:0:
244,274,384443,1,2,2:0:0:0:
258,242,384529,1,2,2:0:0:0:
244,210,384614,1,2,2:0:0:0:
258,178,384699,1,2,2:0:0:0:
244,146,384785,1,2,2:0:0:0:
258,114,384870,1,2,2:0:0:0:
244,82,384956,1,2,2:0:0:0:
258,50,385041,1,2,2:0:0:0:
244,18,385127,1,2,2:0:0:0:
340,12,385212,6,0,L|346:106,1,58.5,0|0,2:0|2:0,2:0:0:0:
348,314,385341,53,0,1:0:0:0:
356,235,385405,1,0,1:0:0:0:
365,156,385469,2,0,L|372:54,1,87.75,0|0,1:0|2:0,2:0:0:0:
164,70,385725,5,0,1:0:0:0:
156,149,385789,1,0,1:0:0:0:
147,228,385853,2,0,L|140:330,1,87.75,0|0,1:0|2:0,2:0:0:0:
478,365,386110,85,0,1:0:0:0:
470,286,386174,1,0,1:0:0:0:
461,207,386238,2,0,L|454:105,1,87.75,0|0,1:0|2:0,2:0:0:0:
34,19,386494,5,0,1:0:0:0:
42,98,386558,1,0,1:0:0:0:
51,177,386623,2,0,L|58:279,1,87.75,0|0,1:0|2:0,2:0:0:0:
258,370,386751,5,0,1:0:0:0:
264,49,386879,2,0,B|336:15|336:15|314:127|314:127|231:177|231:177|196:313|196:313|295:253,1,526.5,0|0,1:0|2:0,2:0:0:0:
414,139,387392,69,0,1:0:0:0:
335,130,387456,1,0,1:0:0:0:
256,121,387520,2,0,L|168:112,1,87.75,0|0,1:0|2:0,2:0:0:0:
98,245,387776,5,0,1:0:0:0:
177,254,387841,1,0,1:0:0:0:
256,263,387905,2,0,L|370:274,1,87.75,0|0,1:0|2:0,2:0:0:0:
454,4,388161,85,0,1:0:0:0:
375,13,388225,1,0,1:0:0:0:
296,22,388289,2,0,L|208:30,1,87.75,0|0,1:0|2:0,2:0:0:0:
58,380,388546,5,0,1:0:0:0:
137,371,388610,1,0,1:0:0:0:
216,362,388674,2,0,L|330:351,1,87.75,0|0,1:0|2:0,2:0:0:0:
438,125,388802,5,0,1:0:0:0:
102,170,388930,2,0,B|164:171|210:141|210:141|286:222|286:222|365:178|365:178|418:213|418:213|450:204|494:202,1,438.75,0|0,1:0|2:0,2:0:0:0:
346,382,389315,5,0,1:0:0:0:
304,370,389379,1,0,1:0:0:0:
261,358,389443,1,0,1:0:0:0:
219,344,389507,1,0,1:0:0:0:
177,330,389571,5,0,1:0:0:0:
214,318,389635,1,0,1:0:0:0:
251,306,389699,1,0,1:0:0:0:
289,294,389764,1,0,1:0:0:0:
326,282,389828,5,0,1:0:0:0:
294,269,389892,1,0,1:0:0:0:
261,258,389956,1,0,1:0:0:0:
229,246,390020,1,0,1:0:0:0:
196,238,390084,5,0,1:0:0:0:
224,226,390148,1,0,1:0:0:0:
251,214,390212,1,0,1:0:0:0:
279,201,390276,1,0,1:0:0:0:
306,190,390341,5,0,1:0:0:0:
284,178,390405,1,0,1:0:0:0:
261,166,390469,1,0,1:0:0:0:
239,154,390533,1,0,1:0:0:0:
216,141,390597,5,0,1:0:0:0:
236,133,390661,1,0,1:0:0:0:
256,125,390725,1,0,1:0:0:0:
276,117,390789,1,0,1:0:0:0:
256,96,390853,6,0,L|258:30,6,43.875,0|0|0|0|0|0|0,1:0|2:0|2:0|2:0|2:0|2:0|2:0,2:0:0:0:
270,43,391110,2,0,L|268:-23,6,43.875,0|0|0|0|0|0|0,1:0|2:0|2:0|2:0|2:0|2:0|2:0,2:0:0:0:
463,21,391366,6,0,B|478:171|478:171|420:119,1,219.375000000001,2|0,2:0|2:0,2:0:0:0:
339,213,391751,2,0,B|402:217|402:217|434:250|434:250|517:263,1,175.5,2|0,2:0|2:0,2:0:0:0:
363,303,392135,70,0,B|249:285|163:240|163:240|226:333,1,307.125,2|0,2:0|2:0,2:0:0:0:
106,356,392392,5,4,1:0:0:0:
34,309,392477,1,0,1:0:0:0:
9,226,392563,1,0,1:0:0:0:
42,147,392648,1,0,1:0:0:0:
118,107,392734,1,0,1:0:0:0:
202,124,392819,1,0,1:0:0:0:
256,192,392905,1,0,1:0:0:0:
309,259,392990,1,0,1:0:0:0:
393,276,393076,1,0,1:0:0:0:
469,236,393161,1,0,1:0:0:0:
502,157,393247,1,0,1:0:0:0:
477,74,393332,1,0,1:0:0:0:
405,27,393417,70,0,L|283:37,1,102.375,0|0,1:0|2:0,2:0:0:0:
118,107,393546,2,0,L|240:116,1,102.375,0|0,1:0|2:0,2:0:0:0:
221,276,393674,6,0,B|153:271|153:271|100:306|100:306|2:298,1,204.75,0|0,1:0|2:0,2:0:0:0:
469,333,393930,86,0,B|486:287|486:287|456:196,1,102.375,0|0,1:0|2:0,2:0:0:0:
375,71,394058,2,0,B|392:117|392:117|362:208,1,102.375,0|0,1:0|2:0,2:0:0:0:
308,384,394187,2,0,B|325:338|325:338|295:247,1,102.375,0|0,1:0|2:0,2:0:0:0:
79,211,394315,5,0,1:0:0:0:
79,211,394379,1,0,1:0:0:0:
79,211,394443,2,0,L|70:82,1,102.375,0|0,1:0|2:0,2:0:0:0:
181,199,394571,2,0,L|172:328,1,102.375,0|0,1:0|2:0,2:0:0:0:
287,127,394699,2,0,L|278:-2,1,102.375,0|0,1:0|2:0,2:0:0:0:
354,274,394828,2,0,L|345:403,1,102.375,0|0,1:0|2:0,2:0:0:0:
478,81,394956,85,0,1:0:0:0:
478,81,395020,1,0,1:0:0:0:
478,81,395084,2,0,B|426:69|426:69|371:90,1,102.375,0|0,1:0|2:0,2:0:0:0:
265,329,395212,1,0,1:0:0:0:
254,327,395276,1,0,1:0:0:0:
243,325,395341,1,0,1:0:0:0:
232,323,395405,1,0,1:0:0:0:
166,378,395469,6,0,B|149:332|149:332|164:255,1,102.375,0|0,1:0|2:0,2:0:0:0:
191,46,395597,2,0,B|229:-8|229:-8|247:204,1,204.75,0|0,1:0|2:0,2:0:0:0:
419,59,395853,86,0,L|300:43,1,102.375,0|0,1:0|2:0,2:0:0:0:
55,144,395982,2,0,L|174:128,1,102.375,0|0,1:0|2:0,2:0:0:0:
382,193,396110,2,0,B|312:183|312:183|251:215|251:215|167:206,1,204.75,0|0,1:0|2:0,2:0:0:0:
478,302,396366,5,0,1:0:0:0:
467,303,396430,1,0,1:0:0:0:
456,304,396494,1,0,1:0:0:0:
445,305,396558,1,0,1:0:0:0:
366,316,396623,2,0,L|232:332,1,102.375,0|0,1:0|2:0,2:0:0:0:
213,231,396751,85,0,1:0:0:0:
202,230,396815,1,0,1:0:0:0:
191,229,396879,1,0,1:0:0:0:
180,228,396943,1,0,1:0:0:0:
101,217,397007,22,0,B|56:254|56:254|86:54|86:54|138:124,1,307.125,0|0,1:0|2:0,2:0:0:0:
378,190,397264,2,0,B|423:153|423:153|393:353|393:353|341:283,1,307.125,0|0,1:0|2:0,2:0:0:0:
204,38,397520,69,0,1:0:0:0:
205,48,397584,1,0,1:0:0:0:
206,58,397648,1,0,1:0:0:0:
207,68,397712,1,0,1:0:0:0:
214,148,397776,2,0,B|226:294|226:294|276:219,1,204.75,0|0,1:0|2:0,2:0:0:0:
396,60,398033,6,0,L|275:51,1,102.375,0|0,1:0|2:0,2:0:0:0:
30,124,398161,2,0,L|151:115,1,102.375,0|0,1:0|2:0,2:0:0:0:
399,182,398289,2,0,L|278:173,1,102.375,0|0,1:0|2:0,2:0:0:0:
97,366,398417,85,0,1:0:0:0:
97,366,398482,1,0,1:0:0:0:
97,366,398546,2,0,L|87:243,1,102.375,0|0,1:0|2:0,2:0:0:0:
249,45,398674,2,0,L|239:168,1,102.375,0|0,1:0|2:0,2:0:0:0:
386,311,398802,6,0,L|376:188,1,102.375,0|0,1:0|2:0,2:0:0:0:
500,106,398930,2,0,L|490:229,1,102.375,0|0,1:0|2:0,2:0:0:0:
315,357,399058,85,0,1:0:0:0:
315,357,399123,1,0,1:0:0:0:
315,357,399187,2,0,B|261:375|261:375|176:356,1,102.375,0|0,1:0|2:0,2:0:0:0:
255,179,399315,5,0,1:0:0:0:
256,189,399379,1,0,1:0:0:0:
257,199,399443,1,0,1:0:0:0:
258,209,399507,1,0,1:0:0:0:
267,282,399571,54,0,L|148:294,1,102.375,0|0,1:0|2:0,2:0:0:0:
245,102,399699,2,0,L|364:90,1,102.375,0|0,1:0|2:0,2:0:0:0:
92,352,399828,6,0,L|71:219,1,102.375,0|0,1:0|2:0,2:0:0:0:
420,32,399956,2,0,L|441:165,1,102.375,0|0,1:0|2:0,2:0:0:0:
131,175,400084,85,0,1:0:0:0:
381,209,400212,1,0,1:0:0:0:
381,209,400276,1,2,2:0:0:0:
381,209,400341,2,0,B|399:257|399:257|362:350,1,102.375,0|0,1:0|2:0,2:0:0:0:
92,352,400469,5,0,1:0:0:0:
92,352,400533,1,0,1:0:0:0:
92,352,400597,2,0,L|210:345,1,102.375,0|0,1:0|2:0,2:0:0:0:
413,335,400725,1,0,1:0:0:0:
28,168,400853,86,0,L|146:175,1,102.375,0|0,1:0|2:0,2:0:0:0:
489,190,400982,1,0,1:0:0:0:
252,15,401110,70,0,B|266:53|266:53|257:119,1,87.7500000000002,2|0,2:0|2:0,2:0:0:0:
256,320,401366,85,2,2:0:0:0:
256,320,401430,1,2,2:0:0:0:
256,320,401494,1,2,2:0:0:0:
256,320,401558,1,2,2:0:0:0:
256,320,401623,70,0,L|270:209,2,58.5,0|0|0,1:0|2:0|2:0,2:0:0:0:
345,291,401751,2,0,L|359:402,2,58.5,0|0|0,1:0|2:0|2:0,2:0:0:0:
430,306,401879,6,0,L|515:315,6,58.5,0|0|0|0|0|0|0,1:0|2:0|2:0|2:0|2:0|2:0|2:0,2:0:0:0:
428,176,402135,86,0,L|414:65,2,58.5,0|0|0,1:0|2:0|2:0,2:0:0:0:
339,147,402264,2,0,L|325:258,2,58.5,0|0|0,1:0|2:0|2:0,2:0:0:0:
246,163,402392,5,0,1:0:0:0:
169,172,402456,2,0,L|84:181,4,58.5,0|0|0|0|0,1:0|2:0|2:0|2:0|2:0,2:0:0:0:
0,105,402648,86,0,L|8:178,2,58.5,0|0|0,1:0|2:0|2:0,2:0:0:0:
46,353,402776,1,0,1:0:0:0:
46,353,402841,1,0,1:0:0:0:
46,353,402905,2,0,B|62:298|62:298|42:211,1,117,0|0,1:0|2:0,2:0:0:0:
113,64,403033,2,0,B|97:119|97:119|117:206,1,117,0|0,1:0|2:0,2:0:0:0:
201,290,403161,6,0,L|129:283,2,58.5,0|0|0,1:0|2:0|2:0,2:0:0:0:
200,63,403289,2,0,L|258:57,2,58.5,0|0|0,1:0|2:0|2:0,2:0:0:0:
216,205,403417,86,0,L|209:133,6,58.5,0|0|0|0|0|0|0,1:0|2:0|2:0|2:0|2:0|2:0|2:0,2:0:0:0:
302,170,403674,5,0,1:0:0:0:
505,186,403802,2,0,L|360:176,1,117,0|0,1:0|2:0,2:0:0:0:
285,285,403930,86,0,L|289:354,2,58.5,0|0|0,1:0|2:0|2:0,2:0:0:0:
373,314,404058,5,0,1:0:0:0:
384,315,404123,1,0,1:0:0:0:
395,316,404187,1,0,1:0:0:0:
406,316,404251,1,0,1:0:0:0:
490,351,404315,86,0,L|494:282,6,58.5,0|0|0|0|0|0|0,1:0|2:0|2:0|2:0|2:0|2:0|2:0,2:0:0:0:
428,124,404571,2,0,B|412:182|412:182|437:254,1,117,0|0,1:0|2:0,2:0:0:0:
302,170,404699,22,0,B|252:164|206:139|206:139|145:216|145:216|82:177|82:177|44:195|6:197,1,351,2|0,2:0|2:0,2:0:0:0:
73,264,404956,5,2,2:0:0:0:
73,272,405020,1,2,2:0:0:0:
74,280,405084,1,2,2:0:0:0:
74,289,405148,1,2,2:0:0:0:
75,297,405212,1,2,2:0:0:0:
76,305,405276,1,2,2:0:0:0:
76,314,405341,1,2,2:0:0:0:
77,322,405405,1,2,2:0:0:0:
158,351,405469,86,0,P|223:375|145:279,1,351,2|0,2:0|2:0,2:0:0:0:
16,173,405725,38,0,L|147:181,1,102.375,0|0,1:0|2:0,2:0:0:0:
349,116,405853,2,0,L|218:124,1,102.375,0|0,1:0|2:0,2:0:0:0:
25,65,405982,2,0,L|156:73,1,102.375,0|0,1:0|2:0,2:0:0:0:
466,148,406110,6,0,B|422:188|422:188|435:40,1,204.75,0|0,1:0|1:0,2:0:0:0:
156,259,406366,2,0,B|200:219|200:219|186:366,1,204.75,0|0,1:0|1:0,2:0:0:0:
498,267,406623,85,0,1:0:0:0:
498,267,406687,1,0,1:0:0:0:
498,267,406751,1,0,1:0:0:0:
274,325,406879,2,0,B|348:319|348:319|394:350|394:350|490:342,1,204.75,0|0,1:0|1:0,2:0:0:0:
184,281,407135,2,0,L|74:293,1,102.375,0|0,1:0|2:0,2:0:0:0:
4,340,407264,5,0,1:0:0:0:
4,340,407328,1,0,1:0:0:0:
4,340,407392,2,0,B|-8:292|-8:292|13:217,1,102.375,0|0,1:0|2:0,2:0:0:0:
264,225,407520,85,0,1:0:0:0:
264,225,407584,1,0,1:0:0:0:
264,225,407648,1,0,1:0:0:0:
264,225,407712,1,0,1:0:0:0:
264,225,407776,2,0,L|274:101,1,102.375,0|0,1:0|2:0,2:0:0:0:
365,29,407905,2,0,L|375:153,1,102.375,0|0,1:0|2:0,2:0:0:0:
452,231,408033,2,0,L|462:107,1,102.375,0|0,1:0|2:0,2:0:0:0:
282,38,408161,6,0,B|159:13|159:13|89:71,1,204.75,0|0,1:0|1:0,2:0:0:0:
180,265,408417,2,0,B|303:240|303:240|373:298,1,204.75,0|0,1:0|1:0,2:0:0:0:
169,148,408674,85,0,1:0:0:0:
169,148,408738,1,0,1:0:0:0:
169,148,408802,1,0,1:0:0:0:
51,310,408930,2,0,B|100:348|100:348|88:157,1,204.75,0|0,1:0|1:0,2:0:0:0:
33,14,409187,2,0,B|13:59|13:59|23:122,1,102.375,0|0,1:0|2:0,2:0:0:0:
180,265,409315,5,0,1:0:0:0:
180,265,409379,1,0,1:0:0:0:
180,265,409443,2,0,L|186:382,1,102.375,0|0,1:0|2:0,2:0:0:0:
259,225,409571,85,0,1:0:0:0:
258,214,409635,1,0,1:0:0:0:
257,203,409699,1,0,1:0:0:0:
256,192,409764,1,0,1:0:0:0:
252,110,409828,6,0,L|246:7,1,102.375,0|0,1:0|2:0,2:0:0:0:
369,24,409956,37,0,1:0:0:0:
426,50,410020,1,0,1:0:0:0:
460,104,410084,1,0,1:0:0:0:
459,168,410148,1,0,1:0:0:0:
424,221,410212,1,0,1:0:0:0:
365,246,410276,1,0,1:0:0:0:
302,235,410341,1,0,1:0:0:0:
256,192,410405,1,0,1:0:0:0:
216,142,410469,1,0,1:0:0:0:
155,121,410533,1,0,1:0:0:0:
94,137,410597,1,0,1:0:0:0:
51,183,410661,1,0,1:0:0:0:
40,247,410725,1,0,1:0:0:0:
65,304,410789,1,0,1:0:0:0:
118,340,410853,70,0,L|240:332,1,102.375,0|0,1:0|2:0,2:0:0:0:
300,320,410982,2,0,L|306:370,4,51.1875,0|0|0|0|0,1:0|2:0|2:0|2:0|2:0,2:0:0:0:
512,145,411238,6,0,L|390:137,1,102.375,0|0,1:0|2:0,2:0:0:0:
339,89,411366,2,0,L|332:139,2,51.1875,0|0|0,1:0|2:0|2:0,2:0:0:0:
256,192,411494,2,0,L|249:141,4,51.1875,0|0|0|0|0,1:0|2:0|2:0|2:0|2:0,2:0:0:0:
177,49,411687,1,0,1:0:0:0:
175,67,411751,2,0,L|157:206,1,102.375,0|0,1:0|2:0,2:0:0:0:
83,266,411879,5,0,1:0:0:0:
33,225,411943,1,0,1:0:0:0:
11,166,412007,1,0,1:0:0:0:
20,103,412071,1,0,1:0:0:0:
58,52,412135,1,0,1:0:0:0:
117,27,412199,1,0,1:0:0:0:
180,34,412264,1,0,1:0:0:0:
232,71,412328,1,0,1:0:0:0:
259,128,412392,1,0,1:0:0:0:
255,192,412456,1,0,1:0:0:0:
252,255,412520,1,0,1:0:0:0:
279,314,412584,1,0,1:0:0:0:
331,349,412648,1,0,1:0:0:0:
394,356,412712,1,0,1:0:0:0:
453,331,412776,1,0,1:0:0:0:
491,280,412841,1,0,1:0:0:0:
500,217,412905,1,0,1:0:0:0:
478,158,412969,1,0,1:0:0:0:
429,118,413033,1,0,1:0:0:0:
402,176,413097,1,0,1:0:0:0:
355,218,413161,1,0,1:0:0:0:
294,238,413225,1,0,1:0:0:0:
230,231,413289,1,0,1:0:0:0:
175,199,413353,1,0,1:0:0:0:
138,147,413417,6,0,L|143:88,3,43.8750000000001,2|0|0|0,2:0|2:0|2:0|2:0,2:0:0:0:
58,80,413674,6,0,B|47:121|47:121|63:195,1,87.75,2|0,2:0|2:0,2:0:0:0:
23,257,413802,2,0,L|127:268,1,87.75,2|0,2:0|2:0,2:0:0:0:
388,335,413930,6,0,L|312:326,3,76.0499965187074,0|0|0|0,1:0|2:0|2:0|2:0,2:0:0:0:
141,360,414187,2,0,L|217:351,5,76.0499965187074,0|0|0|0|0|0,1:0|2:0|2:0|2:0|2:0|2:0,2:0:0:0:
416,237,414571,6,0,L|340:228,3,76.0499965187074,0|0|0|0,1:0|2:0|2:0|2:0,2:0:0:0:
101,261,414828,2,0,L|177:252,5,76.0499965187074,0|0|0|0|0|0,1:0|2:0|2:0|2:0|2:0|2:0,2:0:0:0:
12,290,415212,54,0,B|5:263|5:263|19:184,5,58.5,0|0|0|0|0|0,2:0|2:0|2:0|2:0|2:0|2:0,2:0:0:0:
158,167,415597,2,0,B|129:160|129:160|73:167,3,58.5,0|0|0|0,2:0|2:0|2:0|2:0,2:0:0:0:
94,351,415853,2,0,B|123:359|123:359|180:350,1,58.5,0|0,2:0|2:0,2:0:0:0:
262,280,415982,22,0,L|270:204,3,76.0499965187074,0|0|0|0,1:0|2:0|2:0|2:0,2:0:0:0:
347,120,416238,2,0,L|355:196,5,76.0499965187074,0|0|0|0|0|0,1:0|2:0|2:0|2:0|2:0|2:0,2:0:0:0:
415,339,416623,6,0,L|423:263,3,76.0499965187074,0|0|0|0,1:0|2:0|2:0|2:0,2:0:0:0:
459,73,416879,2,0,L|467:149,3,76.0499965187074,0|0|0|0,1:0|2:0|2:0|2:0,2:0:0:0:
244,110,417135,86,0,B|206:104|206:104|169:112,5,76.0499965187074,0|0|0|0|0|0,1:0|2:0|2:0|2:0|2:0|2:0,2:0:0:0:
20,149,417520,2,0,B|57:158|57:158|94:147,1,76.0499965187074,0|0,2:0|2:0,2:0:0:0:
158,197,417648,70,0,L|168:304,5,58.5,0|0|0|0|0|0,2:0|2:0|2:0|2:0|2:0|2:0,2:0:0:0:
43,350,418033,54,0,L|-8:345,2,29.25,0|0|0,1:0|2:0|2:0,2:0:0:0:
124,359,418161,1,0,1:0:0:0:
124,359,418225,1,0,1:0:0:0:
124,359,418289,2,0,L|207:365,1,58.5,0|0,1:0|2:0,2:0:0:0:
469,320,418417,6,0,L|519:315,2,29.25,0|0|0,1:0|2:0|2:0,2:0:0:0:
388,329,418546,1,0,1:0:0:0:
388,329,418610,1,0,1:0:0:0:
388,329,418674,2,0,L|311:335,1,58.5,0|0,1:0|2:0,2:0:0:0:
44,256,418802,86,0,L|-12:251,2,35.1,0|0|0,1:0|2:0|2:0,2:0:0:0:
125,265,418930,1,0,1:0:0:0:
125,265,418994,1,0,1:0:0:0:
125,265,419058,2,0,L|205:271,1,70.2,0|0,1:0|2:0,2:0:0:0:
468,226,419187,6,0,L|527:220,2,35.1,0|0|0,1:0|2:0|2:0,2:0:0:0:
387,235,419315,1,0,1:0:0:0:
387,235,419379,1,0,1:0:0:0:
387,235,419443,2,0,L|299:242,1,70.2,0|0,1:0|2:0,2:0:0:0:
45,162,419571,86,0,L|-25:156,2,40.95,0|0|0,1:0|2:0|2:0,2:0:0:0:
126,171,419699,1,0,1:0:0:0:
126,171,419764,1,0,1:0:0:0:
126,171,419828,2,0,L|237:180,1,81.9,0|0,1:0|2:0,2:0:0:0:
467,132,419956,6,0,L|537:126,2,40.95,0|0|0,1:0|2:0|2:0,2:0:0:0:
386,141,420084,1,0,1:0:0:0:
386,141,420148,1,0,1:0:0:0:
386,141,420212,2,0,L|275:150,1,81.9,0|0,1:0|2:0,2:0:0:0:
46,68,420341,86,0,L|-24:62,2,46.8,0|0|0,1:0|2:0|2:0,2:0:0:0:
127,77,420469,1,0,1:0:0:0:
127,77,420533,1,0,1:0:0:0:
127,77,420597,2,0,L|238:86,1,93.6,0|0,1:0|2:0,2:0:0:0:
466,38,420725,6,0,L|536:32,2,46.8,0|0|0,1:0|2:0|2:0,2:0:0:0:
385,47,420853,1,0,1:0:0:0:
385,47,420917,1,0,1:0:0:0:
385,47,420982,2,0,L|274:56,1,93.6,0|0,1:0|2:0,2:0:0:0:
270,287,421110,22,0,B|281:133|281:133|231:186,1,219.375000000001,0|0,2:0|2:0,2:0:0:0:
187,350,421494,2,0,B|272:375|272:375|376:339,1,175.5,0|0,2:0|2:0,2:0:0:0:
370,205,421879,86,0,B|405:150|405:150|293:164|293:164|237:241|237:241|125:258|125:258|168:185,1,468,2|4,2:0|1:0,2:0:0:0:
