osu file format v14

[General]
AudioFilename: Lunatic Rough Party!! (Long Ver.).mp3
AudioLeadIn: 0
PreviewTime: 36575
Countdown: 1
SampleSet: None
StackLeniency: 0.7
Mode: 1
LetterboxInBreaks: 0
WidescreenStoryboard: 1

[Editor]
Bookmarks: 16680,16700,42700,44700,50700,52700,58700,61450,66700,76700,80700,84700,92700,116607,121407,126207,131007,133407,135807,140607,145407,155200,157246,166992,173392,186192,198992,211792,226192
DistanceSpacing: 1.2
BeatDivisor: 4
GridSize: 32
TimelineZoom: 5.299997

[Metadata]
Title:Lunatic Rough Party!! (Long Ver.)
TitleUnicode:Lunatic Rough Party!! (Long Ver.)
Artist:Camellia
ArtistUnicode:かめりあ
Creator:tasuke912
Version:TWC ver.
Source:SOUND VOLTEX II
Tags:Touhou 東方Project Lunate Elf
BeatmapID:1168599
BeatmapSetID:390806

[Difficulty]
HPDrainRate:5
CircleSize:2
OverallDifficulty:5
ApproachRate:5
SliderMultiplier:1.4
SliderTickRate:1

[Events]
//Background and Video events
0,0,"bg.jpg",0,0
//Break Periods
2,218400,223000
//Storyboard Layer 0 (Background)
//Storyboard Layer 1 (Fail)
//Storyboard Layer 2 (Pass)
//Storyboard Layer 3 (Foreground)
//Storyboard Sound Samples

[TimingPoints]
700,500,4,1,0,60,1,0
15700,-100,4,1,0,75,0,0
28700,-66.6666666666667,4,1,0,80,0,0
29700,-66.6666666666667,4,1,0,85,0,0
30700,-66.6666666666667,4,1,0,90,0,0
31783,-66.6666666666667,4,1,0,70,0,0
33200,-66.6666666666667,4,1,0,20,0,0
35075,-66.6666666666667,4,1,0,40,0,0
35325,-66.6666666666667,4,1,0,55,0,0
35575,-66.6666666666667,4,1,0,70,0,0
36616,-66.6666666666667,4,1,0,85,0,0
36700,-66.6666666666667,4,1,0,95,0,1
60700,-66.6666666666667,4,1,0,85,0,0
61450,-66.6666666666667,4,1,0,95,0,1
68700,250,8,1,0,80,1,0
68700,-133.333333333333,4,1,0,80,0,0
68866,-133.333333333333,4,1,0,60,0,0
72616,-133.333333333333,4,1,0,80,0,0
73700,-133.333333333333,4,1,0,85,0,0
74700,-133.333333333333,4,1,0,90,0,0
76700,250,4,1,0,95,1,1
84700,-100,4,1,0,95,0,0
84950,-100,4,1,0,95,0,1
92700,500,4,1,0,90,1,0
92700,-50,4,1,0,90,0,0
92866,-100,4,1,0,80,0,0
100700,461.538461538462,4,1,0,80,1,0
102546,428.571428571429,4,1,0,80,1,0
104260,375,4,1,0,80,1,0
105760,333.333333333333,4,1,0,80,1,0
107093,300,4,1,0,80,1,0
108293,272.727272727273,4,1,0,80,1,0
108293,-101.010101010101,4,1,0,80,0,0
109383,250,4,1,0,80,1,0
109383,-102.040816326531,4,1,0,80,0,0
110383,214.285714285714,4,1,0,80,1,0
110383,-103.092783505155,4,1,0,80,0,0
111240,200,4,1,0,80,1,0
111240,-104.166666666667,4,1,0,80,0,0
112040,187.5,4,1,0,80,1,0
112040,-105.263157894737,4,1,0,80,0,0
112790,176.470588235294,4,1,0,80,1,0
112790,-106.382978723404,4,1,0,80,0,0
113495,166.666666666667,4,1,0,80,1,0
113495,-107.52688172043,4,1,0,80,0,0
114161,157.894736842105,4,1,0,80,1,8
114162,157.894736842105,4,1,0,80,1,0
114162,-108.695652173913,4,1,0,80,0,0
114793,153.846153846154,4,1,0,80,1,0
114793,-109.89010989011,4,1,0,80,0,0
115408,150,4,1,0,80,1,0
115408,-111.111111111111,4,1,0,80,0,0
116608,300,4,1,0,90,1,9
116610,300,4,1,0,90,1,0
116610,-55.5555555555556,4,1,0,90,0,1
116685,-62.5,4,1,0,90,0,1
145410,600,4,1,0,80,1,0
145410,-31.25,4,1,0,80,0,0
145610,-100,4,1,0,70,0,0
146610,545.454545454546,4,1,0,70,1,8
147700,500,4,1,0,70,1,0
148700,461.538461538462,4,1,0,70,1,8
149623,428.571428571429,4,1,0,80,1,0
150051,-97.0873786407767,4,1,0,80,0,0
150480,400,4,1,0,80,1,8
150880,-97.0873786407767,4,1,0,80,0,0
151280,375,4,1,0,80,1,0
151655,-97.0873786407767,4,1,0,80,0,0
152030,352.941176470588,4,1,0,80,1,8
152382,-97.0873786407767,4,1,0,80,0,0
152735,333.333333333333,4,1,0,80,1,0
152735,-99.009900990099,4,1,0,80,0,0
152901,-98.0392156862745,4,1,0,80,0,0
153068,-97.0873786407767,4,1,0,80,0,0
153235,-96.1538461538461,4,1,0,80,0,0
153401,315.789473684211,4,1,0,80,1,8
153558,-99.009900990099,4,1,0,80,0,0
153716,-98.0392156862745,4,1,0,80,0,0
153874,-96.1538461538461,4,1,0,80,0,0
154032,300,4,1,0,80,1,0
154182,-99.009900990099,4,1,0,80,0,0
154332,-98.0392156862745,4,1,0,80,0,0
154482,-96.1538461538461,4,1,0,80,0,0
154632,285.714285714286,4,1,0,80,1,8
154774,-99.009900990099,4,1,0,80,0,0
154917,-98.0392156862745,4,1,0,80,0,0
155060,-97.0873786407767,4,1,0,80,0,0
155203,272.727272727273,4,1,0,80,1,0
155339,-99.009900990099,4,1,0,80,0,0
155475,-98.0392156862745,4,1,0,80,0,0
155612,-97.0873786407767,4,1,0,80,0,0
155748,260.869565217391,4,1,0,80,1,8
155878,-99.009900990099,4,1,0,80,0,0
156008,-98.0392156862745,4,1,0,80,0,0
156139,-97.0873786407767,4,1,0,80,0,0
156269,250,4,1,0,80,1,0
156394,-99.009900990099,4,1,0,80,0,0
156519,-98.0392156862745,4,1,0,80,0,0
156644,-97.0873786407767,4,1,0,80,0,0
156769,240,4,1,0,80,1,8
156889,-99.009900990099,4,1,0,80,0,0
157009,-98.0392156862745,4,1,0,80,0,0
157129,-97.0873786407767,4,1,0,80,0,0
157249,230.769230769231,4,1,0,80,1,0
157364,-99.009900990099,4,1,0,80,0,0
157479,-98.0392156862745,4,1,0,80,0,0
157595,-97.0873786407767,4,1,0,80,0,0
157710,222.222222222222,4,1,0,80,1,8
157821,-99.009900990099,4,1,0,80,0,0
157932,-98.0392156862745,4,1,0,80,0,0
158043,-97.0873786407767,4,1,0,80,0,0
158154,214.285714285714,4,1,0,80,1,0
158261,-99.009900990099,4,1,0,80,0,0
158368,-98.0392156862745,4,1,0,80,0,0
158475,-97.0873786407767,4,1,0,80,0,0
158582,206.896551724138,4,1,0,80,1,8
158685,-99.009900990099,4,1,0,80,0,0
158788,-98.0392156862745,4,1,0,80,0,0
158892,-97.0873786407767,4,1,0,80,0,0
158995,200,4,1,0,80,1,0
165395,400,8,1,0,80,1,0
165395,-50,8,1,0,80,0,0
165595,-62.5,4,1,0,80,0,0
166295,-71.4285714285714,4,1,0,80,0,0
166999,400,4,1,0,90,1,1
166999,-100,4,1,0,90,0,1
178199,-100,4,1,0,80,0,0
179799,-100,4,1,0,90,0,1
186199,-100,4,1,0,90,0,0
186599,-100,4,1,0,90,0,1
190999,-100,4,1,0,90,0,0
192599,-66.6666666666667,4,1,0,90,0,1
203799,-66.6666666666667,4,1,0,90,0,0
205399,-66.6666666666667,4,1,0,90,0,1
211799,-66.6666666666667,4,1,0,90,0,0
212199,-66.6666666666667,4,1,0,90,0,1
218200,500,4,1,0,85,1,0
218200,-53.475935828877,4,1,0,85,0,0
218449,-100,4,1,0,50,0,0
226199,-100,4,1,0,75,0,0
226637,-100,4,1,0,45,0,0
228137,-100,4,1,0,75,0,0
228637,-100,4,1,0,45,0,0
230137,-100,4,1,0,75,0,0
230637,-100,4,1,0,45,0,0
232137,-100,4,1,0,75,0,0
232637,-100,4,1,0,45,0,0
234137,-100,4,1,0,75,0,0
238199,-66.6666666666667,4,1,0,75,0,0
242200,-66.6666666666667,4,1,0,90,0,1
243200,480,4,1,0,90,1,1
243200,-66.6666666666667,4,1,0,90,0,1
244161,461.538461538462,4,1,0,90,1,1
244161,-66.6666666666667,4,1,0,90,0,1
245084,444.444444444444,4,1,0,90,1,1
245084,-66.6666666666667,4,1,0,90,0,1
245973,444.444444444444,4,1,0,90,1,1
245973,-66.6666666666667,4,1,0,90,0,1
246861,428.571428571429,4,1,0,90,1,1
246861,-66.6666666666667,4,1,0,90,0,1
247719,413.793103448276,4,1,0,90,1,1
247719,-66.6666666666667,4,1,0,90,0,1
248546,400,4,1,0,90,1,1
248546,-66.6666666666667,4,1,0,90,0,1
249346,400,4,1,0,90,1,1
249346,-66.6666666666667,4,1,0,90,0,1
250147,387.096774193548,4,1,0,90,1,1
250147,-66.6666666666667,4,1,0,90,0,1
250921,375,4,1,0,90,1,1
250921,-66.6666666666667,4,1,0,90,0,1
252421,363.636363636364,4,1,0,90,1,1
252421,-66.6666666666667,4,1,0,90,0,1
253875,352.941176470588,4,1,0,90,1,1
253875,-66.6666666666667,4,1,0,90,0,1
255286,333.333333333333,4,1,0,90,1,1
255286,-66.6666666666667,4,1,0,90,0,1
256619,324.324324324324,4,1,0,90,1,1
256619,-66.6666666666667,4,1,0,90,0,1
257916,315.789473684211,4,1,0,90,1,1
257916,-66.6666666666667,4,1,0,90,0,1
259179,307.692307692308,4,1,0,90,1,1
259179,-66.6666666666667,4,1,0,90,0,1
260409,300,4,1,0,90,1,1
260409,-66.6666666666667,4,1,0,90,0,1
261009,285.714285714286,4,1,0,90,1,1
261009,-66.6666666666667,4,1,0,90,0,1
261580,272.727272727273,4,1,0,90,1,1
261580,-68.9655172413793,4,1,0,90,0,1
262125,266.666666666667,4,1,0,90,1,1
262125,-71.4285714285714,4,1,0,90,0,1
262658,260.869565217391,4,1,0,90,1,1
262658,-83.3333333333333,4,1,0,90,0,1
263179,255.31914893617,4,1,0,90,1,1
263179,-92.5925925925926,4,1,0,90,0,1
263689,260.869565217391,4,1,0,90,1,1
263750,-101.010101010101,4,1,0,90,0,1
263819,272.727272727273,4,1,0,90,1,9
263819,-98.0392156862745,4,1,0,90,0,1
263887,-99.009900990099,4,1,0,90,0,1
263955,333.333333333333,4,1,0,90,1,9
263955,-82.6446280991736,4,1,0,90,0,1
264032,-85.4700854700855,4,1,0,90,0,1
264121,352.941176470588,4,1,0,90,1,9
264121,-81.9672131147541,4,1,0,90,0,1
264209,-84.7457627118644,4,1,0,90,0,1
264297,428.571428571429,4,1,0,90,1,1
264297,-71.4285714285714,4,1,0,90,0,1
264404,-74.0740740740741,4,1,0,90,0,1
264511,-76.9230769230769,4,1,0,90,0,1
264618,-80,4,1,0,90,0,1
264725,600,4,1,0,90,1,9
264725,-59.5238095238095,4,1,0,90,0,1
264875,-61.7283950617284,4,1,0,90,0,1
265025,666.666666666667,4,1,0,90,1,9
265025,-57.1428571428571,4,1,0,90,0,1
265191,-58.1395348837209,4,1,0,90,0,1
265358,300,4,1,0,90,1,1
266558,315.789473684211,4,1,0,90,1,1
267821,352.941176470588,4,1,0,90,1,1
268173,-103.092783505155,4,1,0,90,0,1
268526,375,4,1,0,90,1,9
268901,-103.092783505155,4,1,0,90,0,1
269276,400,4,1,0,90,1,1
269476,-104.166666666667,4,1,0,90,0,1
269676,428.571428571429,4,1,0,90,1,9
269676,-102.040816326531,4,1,0,90,0,1
269890,461.538461538462,4,1,0,90,1,9
269890,-100,4,1,0,90,0,1
270120,500,4,1,0,90,1,1
271120,-100,4,1,0,90,0,0

[HitObjects]
256,192,700,5,4,0:0:0:0:
256,192,1200,1,2,0:0:0:0:
256,192,1366,1,0,0:0:0:0:
256,192,1533,1,2,0:0:0:0:
256,192,1700,1,2,0:0:0:0:
256,192,1866,1,0,0:0:0:0:
256,192,2033,1,0,0:0:0:0:
256,192,2200,1,2,0:0:0:0:
256,192,2700,1,2,0:0:0:0:
256,192,3200,1,2,0:0:0:0:
256,192,3366,1,0,0:0:0:0:
256,192,3533,1,2,0:0:0:0:
256,192,3700,1,2,0:0:0:0:
256,192,3866,1,2,0:0:0:0:
256,192,4033,1,0,0:0:0:0:
256,192,4200,1,2,0:0:0:0:
256,192,4700,1,0,0:0:0:0:
256,192,5200,1,2,0:0:0:0:
256,192,5366,1,0,0:0:0:0:
256,192,5533,1,2,0:0:0:0:
256,192,5700,1,0,0:0:0:0:
256,192,5866,1,0,0:0:0:0:
256,192,6033,1,0,0:0:0:0:
256,192,6200,1,2,0:0:0:0:
256,192,6700,1,2,0:0:0:0:
256,192,7200,1,2,0:0:0:0:
256,192,7366,1,0,0:0:0:0:
256,192,7533,1,2,0:0:0:0:
256,192,7700,1,2,0:0:0:0:
256,192,7866,1,0,0:0:0:0:
256,192,8033,1,2,0:0:0:0:
256,192,8200,1,2,0:0:0:0:
256,192,8700,5,0,0:0:0:0:
256,192,9200,1,2,0:0:0:0:
256,192,9366,1,0,0:0:0:0:
256,192,9533,1,2,0:0:0:0:
256,192,9700,1,2,0:0:0:0:
256,192,9866,1,0,0:0:0:0:
256,192,10033,1,0,0:0:0:0:
256,192,10200,1,2,0:0:0:0:
256,192,10700,1,2,0:0:0:0:
256,192,11200,1,2,0:0:0:0:
256,192,11366,1,0,0:0:0:0:
256,192,11533,1,2,0:0:0:0:
256,192,11700,1,2,0:0:0:0:
256,192,11866,1,2,0:0:0:0:
256,192,12033,1,0,0:0:0:0:
256,192,12200,1,2,0:0:0:0:
256,192,12700,1,0,0:0:0:0:
256,192,13200,1,2,0:0:0:0:
256,192,13366,1,0,0:0:0:0:
256,192,13533,1,2,0:0:0:0:
256,192,13700,1,0,0:0:0:0:
256,192,13866,1,0,0:0:0:0:
256,192,14033,1,0,0:0:0:0:
256,192,14200,1,2,0:0:0:0:
256,192,14700,1,2,0:0:0:0:
256,192,15200,1,2,0:0:0:0:
256,192,15366,1,0,0:0:0:0:
256,192,15533,1,2,0:0:0:0:
256,192,15700,1,2,0:0:0:0:
256,192,15825,1,2,0:0:0:0:
256,192,15950,1,0,0:0:0:0:
256,192,16075,1,0,0:0:0:0:
256,192,16200,1,2,0:0:0:0:
256,192,16325,1,0,0:0:0:0:
256,192,16450,1,2,0:0:0:0:
256,192,16575,1,2,0:0:0:0:
256,192,16700,5,4,0:0:0:0:
256,192,17200,1,2,0:0:0:0:
256,192,17366,1,0,0:0:0:0:
256,192,17533,1,2,0:0:0:0:
256,192,17700,1,2,0:0:0:0:
256,192,17866,1,0,0:0:0:0:
256,192,18033,1,0,0:0:0:0:
256,192,18200,1,2,0:0:0:0:
256,192,18700,1,6,0:0:0:0:
256,192,19200,1,2,0:0:0:0:
256,192,19366,1,0,0:0:0:0:
256,192,19533,1,2,0:0:0:0:
256,192,19700,1,2,0:0:0:0:
256,192,19866,1,2,0:0:0:0:
256,192,20033,1,0,0:0:0:0:
256,192,20200,1,2,0:0:0:0:
256,192,20700,1,4,0:0:0:0:
256,192,21200,1,2,0:0:0:0:
256,192,21366,1,0,0:0:0:0:
256,192,21533,1,2,0:0:0:0:
256,192,21700,1,0,0:0:0:0:
256,192,21866,1,0,0:0:0:0:
256,192,22033,1,0,0:0:0:0:
256,192,22200,1,2,0:0:0:0:
256,192,22700,1,6,0:0:0:0:
256,192,23200,1,2,0:0:0:0:
256,192,23366,1,0,0:0:0:0:
256,192,23533,1,2,0:0:0:0:
256,192,23700,1,2,0:0:0:0:
256,192,23866,1,0,0:0:0:0:
256,192,24033,1,2,0:0:0:0:
256,192,24200,1,2,0:0:0:0:
256,192,24700,1,4,0:0:0:0:
256,192,25200,1,2,0:0:0:0:
256,192,25366,1,0,0:0:0:0:
256,192,25533,1,2,0:0:0:0:
256,192,25700,1,2,0:0:0:0:
256,192,25866,1,0,0:0:0:0:
256,192,26033,1,0,0:0:0:0:
256,192,26200,1,0,0:0:0:0:
256,192,26366,1,2,0:0:0:0:
256,192,26533,1,2,0:0:0:0:
256,192,26700,1,2,0:0:0:0:
256,192,26866,1,0,0:0:0:0:
256,192,27033,1,2,0:0:0:0:
256,192,27200,1,2,0:0:0:0:
256,192,27366,1,0,0:0:0:0:
256,192,27533,1,2,0:0:0:0:
256,192,27700,1,0,0:0:0:0:
256,192,27866,1,0,0:0:0:0:
256,192,28033,1,2,0:0:0:0:
256,192,28200,1,2,0:0:0:0:
256,192,28450,1,0,0:0:0:0:
256,192,28700,5,0,0:0:0:0:
256,192,28866,1,0,0:0:0:0:
256,192,28950,1,0,0:0:0:0:
256,192,29116,1,2,0:0:0:0:
256,192,29200,1,0,0:0:0:0:
256,192,29366,1,0,0:0:0:0:
256,192,29450,1,2,0:0:0:0:
256,192,29616,1,2,0:0:0:0:
256,192,29700,1,0,0:0:0:0:
256,192,29866,1,2,0:0:0:0:
256,192,29950,1,2,0:0:0:0:
256,192,30116,1,2,0:0:0:0:
256,192,30200,1,0,0:0:0:0:
256,192,30366,1,0,0:0:0:0:
256,192,30450,1,2,0:0:0:0:
256,192,30616,1,2,0:0:0:0:
256,192,30700,1,0,0:0:0:0:
256,192,30783,1,0,0:0:0:0:
256,192,30866,1,0,0:0:0:0:
256,192,30950,1,2,0:0:0:0:
256,192,31033,1,2,0:0:0:0:
256,192,31116,1,2,0:0:0:0:
256,192,31200,1,0,0:0:0:0:
256,192,31283,1,2,0:0:0:0:
256,192,31366,1,2,0:0:0:0:
256,192,31450,1,0,0:0:0:0:
256,192,31533,1,2,0:0:0:0:
256,192,31616,1,2,0:0:0:0:
256,192,31700,1,0,0:0:0:0:
256,192,31866,1,2,0:0:0:0:
256,192,32158,1,2,0:0:0:0:
256,192,32324,1,2,0:0:0:0:
256,192,32408,1,2,0:0:0:0:
256,192,32533,1,2,0:0:0:0:
256,192,32575,1,2,0:0:0:0:
256,192,32616,1,2,0:0:0:0:
256,192,32658,1,2,0:0:0:0:
256,192,32762,1,2,0:0:0:0:
256,192,32950,1,0,0:0:0:0:
256,192,33012,1,2,0:0:0:0:
256,192,33366,12,0,34700,0:0:0:0:
256,192,35200,5,0,0:0:0:0:
256,192,35450,1,0,0:0:0:0:
256,192,35700,1,0,0:0:0:0:
256,192,35825,5,2,0:0:0:0:
256,192,35950,1,0,0:0:0:0:
256,192,36075,1,0,0:0:0:0:
256,192,36200,1,2,0:0:0:0:
256,192,36325,1,0,0:0:0:0:
256,192,36450,1,2,0:0:0:0:
256,192,36700,5,4,0:0:0:0:
256,192,37200,1,0,0:0:0:0:
256,192,37284,1,2,0:0:0:0:
256,192,37367,1,0,0:0:0:0:
256,192,37450,1,0,0:0:0:0:
256,192,37534,1,2,0:0:0:0:
256,192,37617,1,2,0:0:0:0:
256,192,37866,1,0,0:0:0:0:
256,192,37950,1,0,0:0:0:0:
256,192,38116,1,2,0:0:0:0:
256,192,38200,1,0,0:0:0:0:
256,192,38366,1,0,0:0:0:0:
256,192,38450,1,2,0:0:0:0:
256,192,38700,1,6,0:0:0:0:
256,192,39116,1,2,0:0:0:0:
256,192,39283,1,2,0:0:0:0:
256,192,39366,1,2,0:0:0:0:
256,192,39450,1,2,0:0:0:0:
256,192,39616,1,2,0:0:0:0:
256,192,39700,1,0,0:0:0:0:
256,192,39783,1,0,0:0:0:0:
256,192,39866,1,0,0:0:0:0:
256,192,39950,1,2,0:0:0:0:
256,192,40116,1,0,0:0:0:0:
256,192,40200,1,2,0:0:0:0:
256,192,40366,1,2,0:0:0:0:
256,192,40450,1,0,0:0:0:0:
256,192,40700,1,4,0:0:0:0:
256,192,41200,1,0,0:0:0:0:
256,192,41283,1,2,0:0:0:0:
256,192,41366,1,0,0:0:0:0:
256,192,41450,1,0,0:0:0:0:
256,192,41533,1,2,0:0:0:0:
256,192,41616,1,2,0:0:0:0:
256,192,41700,1,0,0:0:0:0:
256,192,41866,1,2,0:0:0:0:
256,192,41950,1,0,0:0:0:0:
256,192,42033,1,2,0:0:0:0:
256,192,42116,1,2,0:0:0:0:
256,192,42200,1,0,0:0:0:0:
256,192,42366,1,0,0:0:0:0:
256,192,42450,1,2,0:0:0:0:
256,192,42700,5,0,0:0:0:0:
256,192,42783,1,0,0:0:0:0:
256,192,42866,1,0,0:0:0:0:
256,192,42950,1,0,0:0:0:0:
256,192,43116,1,6,0:0:0:0:
256,192,43450,1,0,0:0:0:0:
256,192,43533,1,0,0:0:0:0:
256,192,43616,1,0,0:0:0:0:
256,192,43700,1,0,0:0:0:0:
256,192,43866,1,6,0:0:0:0:
256,192,44116,1,0,0:0:0:0:
256,192,44200,1,2,0:0:0:0:
256,192,44450,1,2,0:0:0:0:
256,192,44700,5,4,0:0:0:0:
256,192,45200,1,0,0:0:0:0:
256,192,45283,1,2,0:0:0:0:
256,192,45366,1,0,0:0:0:0:
256,192,45450,1,0,0:0:0:0:
256,192,45533,1,2,0:0:0:0:
256,192,45616,1,2,0:0:0:0:
256,192,45866,1,0,0:0:0:0:
256,192,45950,1,0,0:0:0:0:
256,192,46116,1,2,0:0:0:0:
256,192,46200,1,0,0:0:0:0:
256,192,46366,1,0,0:0:0:0:
256,192,46450,1,2,0:0:0:0:
256,192,46700,1,6,0:0:0:0:
256,192,47116,1,2,0:0:0:0:
256,192,47283,1,2,0:0:0:0:
256,192,47366,1,2,0:0:0:0:
256,192,47450,1,2,0:0:0:0:
256,192,47616,1,2,0:0:0:0:
256,192,47700,1,0,0:0:0:0:
256,192,47783,1,0,0:0:0:0:
256,192,47866,1,0,0:0:0:0:
256,192,47950,1,2,0:0:0:0:
256,192,48116,1,0,0:0:0:0:
256,192,48200,1,2,0:0:0:0:
256,192,48366,1,2,0:0:0:0:
256,192,48450,1,0,0:0:0:0:
256,192,48700,1,4,0:0:0:0:
256,192,49200,1,0,0:0:0:0:
256,192,49283,1,2,0:0:0:0:
256,192,49366,1,0,0:0:0:0:
256,192,49450,1,0,0:0:0:0:
256,192,49533,1,2,0:0:0:0:
256,192,49616,1,2,0:0:0:0:
256,192,49700,1,0,0:0:0:0:
256,192,49866,1,0,0:0:0:0:
256,192,49950,1,2,0:0:0:0:
256,192,50033,1,2,0:0:0:0:
256,192,50116,1,2,0:0:0:0:
256,192,50200,1,0,0:0:0:0:
256,192,50283,1,0,0:0:0:0:
256,192,50366,1,2,0:0:0:0:
256,192,50450,1,0,0:0:0:0:
256,192,50533,1,2,0:0:0:0:
256,192,50700,1,0,0:0:0:0:
256,192,50783,1,0,0:0:0:0:
256,192,50866,1,0,0:0:0:0:
256,192,50950,1,0,0:0:0:0:
256,192,51116,1,6,0:0:0:0:
256,192,51449,1,0,0:0:0:0:
256,192,51533,1,0,0:0:0:0:
256,192,51616,1,0,0:0:0:0:
256,192,51699,1,0,0:0:0:0:
256,192,51866,1,6,0:0:0:0:
256,192,52116,1,0,0:0:0:0:
256,192,52200,1,2,0:0:0:0:
256,192,52450,1,2,0:0:0:0:
256,192,52700,1,6,0:0:0:0:
256,192,52950,1,4,0:0:0:0:
256,192,53200,1,2,0:0:0:0:
256,192,53366,1,0,0:0:0:0:
256,192,53450,1,0,0:0:0:0:
256,192,53533,1,2,0:0:0:0:
256,192,53616,1,2,0:0:0:0:
256,192,53700,1,0,0:0:0:0:
256,192,53783,1,0,0:0:0:0:
256,192,53866,1,0,0:0:0:0:
256,192,53950,1,2,0:0:0:0:
256,192,54033,1,2,0:0:0:0:
256,192,54116,1,2,0:0:0:0:
256,192,54200,1,0,0:0:0:0:
256,192,54366,1,2,0:0:0:0:
256,192,54533,1,0,0:0:0:0:
256,192,54616,1,2,0:0:0:0:
256,192,54700,1,0,0:0:0:0:
256,192,54866,1,2,0:0:0:0:
256,192,54950,1,0,0:0:0:0:
256,192,55033,1,0,0:0:0:0:
256,192,55116,1,2,0:0:0:0:
256,192,55283,1,2,0:0:0:0:
256,192,55366,1,2,0:0:0:0:
256,192,55450,1,2,0:0:0:0:
256,192,55616,1,2,0:0:0:0:
256,192,55700,1,0,0:0:0:0:
256,192,55783,1,0,0:0:0:0:
256,192,55866,1,0,0:0:0:0:
256,192,55950,1,2,0:0:0:0:
256,192,56116,1,0,0:0:0:0:
256,192,56200,1,2,0:0:0:0:
256,192,56366,1,2,0:0:0:0:
256,192,56450,1,0,0:0:0:0:
256,192,56700,1,0,0:0:0:0:
256,192,56866,1,0,0:0:0:0:
256,192,56950,1,2,0:0:0:0:
256,192,57033,1,2,0:0:0:0:
256,192,57116,1,2,0:0:0:0:
256,192,57200,1,0,0:0:0:0:
256,192,57283,1,2,0:0:0:0:
256,192,57366,1,0,0:0:0:0:
256,192,57450,1,0,0:0:0:0:
256,192,57533,1,2,0:0:0:0:
256,192,57616,1,2,0:0:0:0:
256,192,57700,1,0,0:0:0:0:
256,192,57783,1,0,0:0:0:0:
256,192,57866,1,0,0:0:0:0:
256,192,57950,1,2,0:0:0:0:
256,192,58033,1,2,0:0:0:0:
256,192,58116,1,2,0:0:0:0:
256,192,58200,1,0,0:0:0:0:
256,192,58366,1,2,0:0:0:0:
256,192,58533,1,2,0:0:0:0:
256,192,58700,5,0,0:0:0:0:
256,192,58783,1,0,0:0:0:0:
256,192,58866,1,0,0:0:0:0:
256,192,58950,1,0,0:0:0:0:
256,192,59116,1,6,0:0:0:0:
256,192,59450,1,0,0:0:0:0:
256,192,59534,1,0,0:0:0:0:
256,192,59617,1,0,0:0:0:0:
256,192,59700,1,0,0:0:0:0:
256,192,59866,1,6,0:0:0:0:
256,192,60116,1,0,0:0:0:0:
256,192,60200,1,2,0:0:0:0:
256,192,60450,1,2,0:0:0:0:
256,192,60700,1,2,0:0:0:0:
256,192,60950,1,0,0:0:0:0:
256,192,61200,1,0,0:0:0:0:
256,192,61450,1,4,0:0:0:0:
256,192,61700,1,0,0:0:0:0:
256,192,61866,1,0,0:0:0:0:
256,192,61950,1,0,0:0:0:0:
256,192,62033,1,2,0:0:0:0:
256,192,62116,1,2,0:0:0:0:
256,192,62200,1,2,0:0:0:0:
256,192,62366,1,0,0:0:0:0:
256,192,62450,1,2,0:0:0:0:
256,192,62700,1,0,0:0:0:0:
256,192,62866,1,2,0:0:0:0:
256,192,62950,1,0,0:0:0:0:
256,192,63033,1,0,0:0:0:0:
256,192,63116,1,2,0:0:0:0:
256,192,63283,1,2,0:0:0:0:
256,192,63366,1,2,0:0:0:0:
256,192,63450,1,2,0:0:0:0:
256,192,63616,1,2,0:0:0:0:
256,192,63700,1,0,0:0:0:0:
256,192,63783,1,0,0:0:0:0:
256,192,63866,1,0,0:0:0:0:
256,192,63949,1,2,0:0:0:0:
256,192,64116,1,0,0:0:0:0:
256,192,64200,1,2,0:0:0:0:
256,192,64366,1,2,0:0:0:0:
256,192,64449,1,0,0:0:0:0:
256,192,64700,1,0,0:0:0:0:
256,192,64866,1,0,0:0:0:0:
256,192,64949,1,2,0:0:0:0:
256,192,65033,1,2,0:0:0:0:
256,192,65116,1,2,0:0:0:0:
256,192,65199,1,0,0:0:0:0:
256,192,65283,1,2,0:0:0:0:
256,192,65366,1,0,0:0:0:0:
256,192,65450,1,0,0:0:0:0:
256,192,65533,1,2,0:0:0:0:
256,192,65616,1,2,0:0:0:0:
256,192,65700,1,0,0:0:0:0:
256,192,65866,1,0,0:0:0:0:
256,192,65950,1,2,0:0:0:0:
256,192,66033,1,2,0:0:0:0:
256,192,66116,1,2,0:0:0:0:
256,192,66200,1,0,0:0:0:0:
256,192,66283,1,0,0:0:0:0:
256,192,66366,1,0,0:0:0:0:
256,192,66450,1,2,0:0:0:0:
256,192,66700,5,6,0:0:0:0:
256,192,66950,1,0,0:0:0:0:
256,192,67200,1,4,0:0:0:0:
256,192,67450,1,0,0:0:0:0:
256,192,67700,1,6,0:0:0:0:
256,192,67950,1,0,0:0:0:0:
256,192,68200,1,2,0:0:0:0:
256,192,68450,1,2,0:0:0:0:
256,192,68700,5,4,0:0:0:0:
256,192,72700,1,0,0:0:0:0:
256,192,72866,1,0,0:0:0:0:
256,192,72950,1,0,0:0:0:0:
256,192,73116,1,0,0:0:0:0:
256,192,73200,1,0,0:0:0:0:
256,192,73366,1,0,0:0:0:0:
256,192,73450,1,0,0:0:0:0:
256,192,73616,1,0,0:0:0:0:
256,192,73700,1,0,0:0:0:0:
256,192,73866,1,0,0:0:0:0:
256,192,73950,1,0,0:0:0:0:
256,192,74116,1,0,0:0:0:0:
256,192,74200,1,0,0:0:0:0:
256,192,74366,1,0,0:0:0:0:
256,192,74450,1,0,0:0:0:0:
256,192,74616,1,0,0:0:0:0:
256,192,74700,1,0,0:0:0:0:
256,192,74783,1,0,0:0:0:0:
256,192,74866,1,0,0:0:0:0:
256,192,74950,1,0,0:0:0:0:
256,192,75033,1,0,0:0:0:0:
256,192,75116,1,0,0:0:0:0:
256,192,75200,1,0,0:0:0:0:
256,192,75283,1,0,0:0:0:0:
256,192,75366,1,0,0:0:0:0:
256,192,75450,1,0,0:0:0:0:
256,192,75533,1,0,0:0:0:0:
256,192,75616,1,0,0:0:0:0:
256,192,75700,1,0,0:0:0:0:
256,192,76116,1,2,0:0:0:0:
256,192,76200,1,2,0:0:0:0:
256,192,76283,1,2,0:0:0:0:
256,192,76366,1,2,0:0:0:0:
256,192,76450,1,0,0:0:0:0:
256,192,76533,1,2,0:0:0:0:
256,192,76616,1,2,0:0:0:0:
256,192,76700,5,0,0:0:0:0:
256,192,76866,1,0,0:0:0:0:
256,192,76950,1,2,0:0:0:0:
256,192,77116,1,2,0:0:0:0:
256,192,77200,1,0,0:0:0:0:
256,192,77366,1,0,0:0:0:0:
256,192,77450,1,2,0:0:0:0:
256,192,77533,1,0,0:0:0:0:
256,192,77616,1,0,0:0:0:0:
256,192,77700,1,2,0:0:0:0:
256,192,77866,1,0,0:0:0:0:
256,192,77950,1,2,0:0:0:0:
256,192,78116,1,2,0:0:0:0:
256,192,78200,1,0,0:0:0:0:
256,192,78283,1,2,0:0:0:0:
256,192,78366,1,2,0:0:0:0:
256,192,78450,1,0,0:0:0:0:
256,192,78616,1,0,0:0:0:0:
256,192,78700,1,0,0:0:0:0:
256,192,78866,1,0,0:0:0:0:
256,192,78950,1,2,0:0:0:0:
256,192,79116,1,2,0:0:0:0:
256,192,79200,1,0,0:0:0:0:
256,192,79366,1,0,0:0:0:0:
256,192,79450,1,2,0:0:0:0:
256,192,79533,1,0,0:0:0:0:
256,192,79616,1,0,0:0:0:0:
256,192,79700,1,2,0:0:0:0:
256,192,79866,1,0,0:0:0:0:
256,192,79950,1,2,0:0:0:0:
256,192,80116,1,2,0:0:0:0:
256,192,80200,1,0,0:0:0:0:
256,192,80283,1,2,0:0:0:0:
256,192,80366,1,2,0:0:0:0:
256,192,80450,1,0,0:0:0:0:
256,192,80533,1,0,0:0:0:0:
256,192,80616,1,2,0:0:0:0:
256,192,80700,5,0,0:0:0:0:
256,192,80866,1,0,0:0:0:0:
256,192,80950,1,2,0:0:0:0:
256,192,81116,1,2,0:0:0:0:
256,192,81200,1,0,0:0:0:0:
256,192,81366,1,0,0:0:0:0:
256,192,81450,1,2,0:0:0:0:
256,192,81533,1,0,0:0:0:0:
256,192,81616,1,0,0:0:0:0:
256,192,81700,1,2,0:0:0:0:
256,192,81866,1,0,0:0:0:0:
256,192,81950,1,2,0:0:0:0:
256,192,82116,1,2,0:0:0:0:
256,192,82200,1,0,0:0:0:0:
256,192,82283,1,2,0:0:0:0:
256,192,82366,1,2,0:0:0:0:
256,192,82450,1,0,0:0:0:0:
256,192,82533,1,0,0:0:0:0:
256,192,82616,1,2,0:0:0:0:
256,192,82700,1,0,0:0:0:0:
256,192,82866,1,0,0:0:0:0:
256,192,82950,1,2,0:0:0:0:
256,192,83033,1,0,0:0:0:0:
256,192,83116,1,0,0:0:0:0:
256,192,83200,1,2,0:0:0:0:
256,192,83283,1,2,0:0:0:0:
256,192,83366,1,0,0:0:0:0:
256,192,83450,1,2,0:0:0:0:
256,192,83616,1,0,0:0:0:0:
256,192,83700,1,2,0:0:0:0:
256,192,83866,1,0,0:0:0:0:
256,192,84033,1,2,0:0:0:0:
256,192,84116,1,0,0:0:0:0:
256,192,84200,1,0,0:0:0:0:
256,192,84366,1,0,0:0:0:0:
256,192,84533,1,2,0:0:0:0:
256,192,84950,5,6,0:0:0:0:
256,192,85116,1,2,0:0:0:0:
256,192,85200,1,0,0:0:0:0:
256,192,85366,1,0,0:0:0:0:
256,192,85450,1,2,0:0:0:0:
256,192,85533,1,0,0:0:0:0:
256,192,85616,1,0,0:0:0:0:
256,192,85700,1,2,0:0:0:0:
256,192,85866,1,0,0:0:0:0:
256,192,85950,1,2,0:0:0:0:
256,192,86116,1,2,0:0:0:0:
256,192,86200,1,0,0:0:0:0:
256,192,86283,1,2,0:0:0:0:
256,192,86366,1,2,0:0:0:0:
256,192,86450,1,0,0:0:0:0:
256,192,86533,1,0,0:0:0:0:
256,192,86616,1,2,0:0:0:0:
256,192,86700,1,0,0:0:0:0:
256,192,86866,1,0,0:0:0:0:
256,192,86950,1,2,0:0:0:0:
256,192,87116,1,2,0:0:0:0:
256,192,87200,1,0,0:0:0:0:
256,192,87283,1,0,0:0:0:0:
256,192,87366,1,0,0:0:0:0:
256,192,87450,1,2,0:0:0:0:
256,192,87533,1,0,0:0:0:0:
256,192,87616,1,0,0:0:0:0:
256,192,87700,1,2,0:0:0:0:
256,192,87866,1,0,0:0:0:0:
256,192,87950,1,2,0:0:0:0:
256,192,88116,1,2,0:0:0:0:
256,192,88200,1,0,0:0:0:0:
256,192,88283,1,2,0:0:0:0:
256,192,88366,1,2,0:0:0:0:
256,192,88450,1,0,0:0:0:0:
256,192,88533,1,0,0:0:0:0:
256,192,88616,1,2,0:0:0:0:
256,192,88700,5,0,0:0:0:0:
256,192,88866,1,0,0:0:0:0:
256,192,88950,1,2,0:0:0:0:
256,192,89116,1,2,0:0:0:0:
256,192,89200,1,0,0:0:0:0:
256,192,89283,1,0,0:0:0:0:
256,192,89366,1,2,0:0:0:0:
256,192,89450,1,0,0:0:0:0:
256,192,89533,1,2,0:0:0:0:
256,192,89616,1,2,0:0:0:0:
256,192,89700,1,0,0:0:0:0:
256,192,89866,1,0,0:0:0:0:
256,192,89950,1,2,0:0:0:0:
256,192,90033,1,2,0:0:0:0:
256,192,90116,1,2,0:0:0:0:
256,192,90200,1,0,0:0:0:0:
256,192,90283,1,0,0:0:0:0:
256,192,90366,1,0,0:0:0:0:
256,192,90450,1,2,0:0:0:0:
256,192,90616,1,2,0:0:0:0:
256,192,90700,1,0,0:0:0:0:
256,192,91116,1,2,0:0:0:0:
256,192,91450,1,2,0:0:0:0:
256,192,91700,1,0,0:0:0:0:
256,192,91866,1,0,0:0:0:0:
256,192,92033,1,0,0:0:0:0:
256,192,92116,1,2,0:0:0:0:
256,192,92200,1,0,0:0:0:0:
256,192,92283,1,2,0:0:0:0:
256,192,92366,1,0,0:0:0:0:
256,192,92450,1,0,0:0:0:0:
256,192,92533,1,2,0:0:0:0:
256,192,92616,1,0,0:0:0:0:
256,192,92700,5,0,0:0:0:0:
256,192,94700,1,2,0:0:0:0:
256,192,96700,1,0,0:0:0:0:
256,192,98700,1,2,0:0:0:0:
256,192,100700,1,4,0:0:0:0:
256,192,101161,1,2,0:0:0:0:
256,192,101315,1,0,0:0:0:0:
256,192,101469,1,2,0:0:0:0:
256,192,101623,1,2,0:0:0:0:
256,192,101776,1,0,0:0:0:0:
256,192,101930,1,0,0:0:0:0:
256,192,102084,1,2,0:0:0:0:
256,192,102546,1,6,0:0:0:0:
256,192,102974,1,2,0:0:0:0:
256,192,103117,1,0,0:0:0:0:
256,192,103260,1,2,0:0:0:0:
256,192,103403,1,2,0:0:0:0:
256,192,103546,1,2,0:0:0:0:
256,192,103688,1,0,0:0:0:0:
256,192,103831,1,2,0:0:0:0:
256,192,104260,1,4,0:0:0:0:
256,192,104635,1,2,0:0:0:0:
256,192,104760,1,0,0:0:0:0:
256,192,104885,1,2,0:0:0:0:
256,192,105010,1,0,0:0:0:0:
256,192,105135,1,0,0:0:0:0:
256,192,105260,1,0,0:0:0:0:
256,192,105385,1,2,0:0:0:0:
256,192,105760,1,6,0:0:0:0:
256,192,106093,1,2,0:0:0:0:
256,192,106204,1,0,0:0:0:0:
256,192,106315,1,2,0:0:0:0:
256,192,106426,1,2,0:0:0:0:
256,192,106537,1,0,0:0:0:0:
256,192,106648,1,2,0:0:0:0:
256,192,106760,1,2,0:0:0:0:
256,192,107093,1,4,0:0:0:0:
256,192,107393,1,2,0:0:0:0:
256,192,107493,1,2,0:0:0:0:
256,192,107593,1,2,0:0:0:0:
256,192,107693,1,4,0:0:0:0:
256,192,107993,1,0,0:0:0:0:
256,192,108293,1,6,0:0:0:0:
256,192,108565,1,0,0:0:0:0:
256,192,108838,1,6,0:0:0:0:
256,192,109111,1,2,0:0:0:0:
256,192,109383,1,4,0:0:0:0:
256,192,109633,1,2,0:0:0:0:
256,192,109883,1,4,0:0:0:0:
256,192,110133,1,0,0:0:0:0:
256,192,110383,1,6,0:0:0:0:
256,192,110597,1,0,0:0:0:0:
256,192,110811,1,6,0:0:0:0:
256,192,111025,1,2,0:0:0:0:
256,192,111240,5,4,0:0:0:0:
256,192,111440,1,0,0:0:0:0:
256,192,111640,1,0,0:0:0:0:
256,192,111840,1,0,0:0:0:0:
256,192,112040,1,0,0:0:0:0:
256,192,112227,1,0,0:0:0:0:
256,192,112415,1,0,0:0:0:0:
256,192,112602,1,0,0:0:0:0:
256,192,112790,1,0,0:0:0:0:
256,192,112966,1,0,0:0:0:0:
256,192,113142,1,0,0:0:0:0:
256,192,113319,1,0,0:0:0:0:
256,192,113495,1,0,0:0:0:0:
256,192,113661,1,0,0:0:0:0:
256,192,113828,1,0,0:0:0:0:
256,192,113995,1,0,0:0:0:0:
256,192,114162,1,0,0:0:0:0:
256,192,114240,1,0,0:0:0:0:
256,192,114319,1,0,0:0:0:0:
256,192,114398,1,0,0:0:0:0:
256,192,114477,1,0,0:0:0:0:
256,192,114556,1,0,0:0:0:0:
256,192,114635,1,0,0:0:0:0:
256,192,114714,1,0,0:0:0:0:
256,192,114793,1,0,0:0:0:0:
256,192,114869,1,0,0:0:0:0:
256,192,114946,1,0,0:0:0:0:
256,192,115023,1,0,0:0:0:0:
256,192,115100,1,0,0:0:0:0:
256,192,115177,1,0,0:0:0:0:
256,192,115254,1,0,0:0:0:0:
256,192,115331,1,0,0:0:0:0:
256,192,115408,1,0,0:0:0:0:
256,192,115483,1,0,0:0:0:0:
256,192,115558,1,0,0:0:0:0:
256,192,115633,1,0,0:0:0:0:
256,192,115708,1,0,0:0:0:0:
256,192,115783,1,0,0:0:0:0:
256,192,115858,1,0,0:0:0:0:
256,192,115933,1,0,0:0:0:0:
256,192,116008,1,0,0:0:0:0:
256,192,116158,1,0,0:0:0:0:
256,192,116308,1,6,0:0:0:0:
256,192,116610,5,4,0:0:0:0:
256,192,117210,1,0,0:0:0:0:
256,192,117285,1,2,0:0:0:0:
256,192,117360,1,2,0:0:0:0:
256,192,117435,1,2,0:0:0:0:
256,192,117510,1,2,0:0:0:0:
256,192,117585,1,2,0:0:0:0:
256,192,117660,1,2,0:0:0:0:
256,192,117735,1,2,0:0:0:0:
256,192,117810,1,0,0:0:0:0:
256,192,117960,1,0,0:0:0:0:
256,192,118110,1,2,0:0:0:0:
256,192,118260,1,0,0:0:0:0:
256,192,118410,1,2,0:0:0:0:
256,192,118710,1,2,0:0:0:0:
256,192,118860,1,2,0:0:0:0:
256,192,119010,1,4,0:0:0:0:
256,192,119610,1,0,0:0:0:0:
256,192,119685,1,2,0:0:0:0:
256,192,119760,1,2,0:0:0:0:
256,192,119835,1,2,0:0:0:0:
256,192,119910,1,0,0:0:0:0:
256,192,119985,1,0,0:0:0:0:
256,192,120060,1,2,0:0:0:0:
256,192,120135,1,2,0:0:0:0:
256,192,120210,1,0,0:0:0:0:
256,192,120285,1,2,0:0:0:0:
256,192,120360,1,2,0:0:0:0:
256,192,120435,1,0,0:0:0:0:
256,192,120510,1,2,0:0:0:0:
256,192,120585,1,2,0:0:0:0:
256,192,120660,1,0,0:0:0:0:
256,192,120735,1,2,0:0:0:0:
256,192,120810,1,2,0:0:0:0:
256,192,120885,1,2,0:0:0:0:
256,192,120960,1,0,0:0:0:0:
256,192,121035,1,0,0:0:0:0:
256,192,121110,1,2,0:0:0:0:
256,192,121260,1,2,0:0:0:0:
256,192,121410,5,4,0:0:0:0:
256,192,122010,1,0,0:0:0:0:
256,192,122085,1,0,0:0:0:0:
256,192,122160,1,0,0:0:0:0:
256,192,122235,1,0,0:0:0:0:
256,192,122310,1,2,0:0:0:0:
256,192,122385,1,2,0:0:0:0:
256,192,122460,1,2,0:0:0:0:
256,192,122535,1,2,0:0:0:0:
256,192,122610,1,0,0:0:0:0:
256,192,122710,1,2,0:0:0:0:
256,192,122810,1,2,0:0:0:0:
256,192,122910,1,2,0:0:0:0:
256,192,123060,1,2,0:0:0:0:
256,192,123210,1,0,0:0:0:0:
256,192,123510,1,2,0:0:0:0:
256,192,123660,1,2,0:0:0:0:
256,192,123810,1,4,0:0:0:0:
256,192,124035,1,2,0:0:0:0:
256,192,124260,1,2,0:0:0:0:
256,192,124410,1,0,0:0:0:0:
256,192,124560,1,0,0:0:0:0:
256,192,124635,1,0,0:0:0:0:
256,192,124710,1,2,0:0:0:0:
256,192,124860,1,0,0:0:0:0:
256,192,125010,1,2,0:0:0:0:
256,192,125235,1,2,0:0:0:0:
256,192,125460,1,2,0:0:0:0:
256,192,125610,1,0,0:0:0:0:
256,192,125910,1,2,0:0:0:0:
256,192,126210,5,4,0:0:0:0:
256,192,126810,1,0,0:0:0:0:
256,192,126885,1,2,0:0:0:0:
256,192,126960,1,2,0:0:0:0:
256,192,127035,1,2,0:0:0:0:
256,192,127110,1,2,0:0:0:0:
256,192,127185,1,2,0:0:0:0:
256,192,127260,1,2,0:0:0:0:
256,192,127335,1,2,0:0:0:0:
256,192,127410,1,0,0:0:0:0:
256,192,127560,1,0,0:0:0:0:
256,192,127710,1,2,0:0:0:0:
256,192,127860,1,0,0:0:0:0:
256,192,128010,1,2,0:0:0:0:
256,192,128310,1,2,0:0:0:0:
256,192,128460,1,2,0:0:0:0:
256,192,128610,1,4,0:0:0:0:
256,192,129210,1,0,0:0:0:0:
256,192,129285,1,2,0:0:0:0:
256,192,129360,1,2,0:0:0:0:
256,192,129435,1,2,0:0:0:0:
256,192,129510,1,0,0:0:0:0:
256,192,129585,1,0,0:0:0:0:
256,192,129660,1,2,0:0:0:0:
256,192,129735,1,2,0:0:0:0:
256,192,129810,1,0,0:0:0:0:
256,192,129885,1,2,0:0:0:0:
256,192,129960,1,2,0:0:0:0:
256,192,130035,1,0,0:0:0:0:
256,192,130110,1,2,0:0:0:0:
256,192,130185,1,2,0:0:0:0:
256,192,130260,1,0,0:0:0:0:
256,192,130335,1,2,0:0:0:0:
256,192,130410,1,2,0:0:0:0:
256,192,130485,1,2,0:0:0:0:
256,192,130560,1,0,0:0:0:0:
256,192,130635,1,0,0:0:0:0:
256,192,130710,1,2,0:0:0:0:
256,192,130860,1,2,0:0:0:0:
256,192,131010,5,4,0:0:0:0:
256,192,131610,1,0,0:0:0:0:
256,192,131685,1,0,0:0:0:0:
256,192,131760,1,0,0:0:0:0:
256,192,131835,1,0,0:0:0:0:
256,192,131910,1,2,0:0:0:0:
256,192,131985,1,2,0:0:0:0:
256,192,132060,1,2,0:0:0:0:
256,192,132135,1,2,0:0:0:0:
256,192,132210,1,0,0:0:0:0:
256,192,132310,1,2,0:0:0:0:
256,192,132410,1,2,0:0:0:0:
256,192,132510,1,2,0:0:0:0:
256,192,132660,1,0,0:0:0:0:
256,192,132810,1,2,0:0:0:0:
256,192,133110,1,2,0:0:0:0:
256,192,133260,1,2,0:0:0:0:
256,192,133410,5,0,0:0:0:0:
256,192,133560,1,0,0:0:0:0:
256,192,133710,1,0,0:0:0:0:
256,192,133860,1,0,0:0:0:0:
256,192,134010,1,2,0:0:0:0:
256,192,134160,1,0,0:0:0:0:
256,192,134310,1,0,0:0:0:0:
256,192,134460,1,0,0:0:0:0:
256,192,134610,1,0,0:0:0:0:
256,192,134685,1,0,0:0:0:0:
256,192,134760,1,0,0:0:0:0:
256,192,134835,1,0,0:0:0:0:
256,192,134910,1,2,0:0:0:0:
256,192,134985,1,0,0:0:0:0:
256,192,135060,1,0,0:0:0:0:
256,192,135135,1,0,0:0:0:0:
256,192,135210,1,0,0:0:0:0:
256,192,135285,1,0,0:0:0:0:
256,192,135360,1,0,0:0:0:0:
256,192,135435,1,0,0:0:0:0:
256,192,135510,1,2,0:0:0:0:
256,192,135585,1,0,0:0:0:0:
256,192,135660,1,0,0:0:0:0:
256,192,135735,1,0,0:0:0:0:
256,192,135810,5,0,0:0:0:0:
256,192,136110,1,2,0:0:0:0:
256,192,136410,1,0,0:0:0:0:
256,192,136485,1,0,0:0:0:0:
256,192,136560,1,2,0:0:0:0:
256,192,136635,1,2,0:0:0:0:
256,192,136710,1,0,0:0:0:0:
256,192,136785,1,2,0:0:0:0:
256,192,136860,1,2,0:0:0:0:
256,192,136935,1,2,0:0:0:0:
256,192,137010,1,0,0:0:0:0:
256,192,137160,1,0,0:0:0:0:
256,192,137310,1,2,0:0:0:0:
256,192,137460,1,0,0:0:0:0:
256,192,137610,1,2,0:0:0:0:
256,192,137685,1,2,0:0:0:0:
256,192,137760,1,2,0:0:0:0:
256,192,137910,1,0,0:0:0:0:
256,192,138060,1,2,0:0:0:0:
256,192,138210,1,4,0:0:0:0:
256,192,138510,1,2,0:0:0:0:
256,192,138810,1,0,0:0:0:0:
256,192,138885,1,2,0:0:0:0:
256,192,138960,1,2,0:0:0:0:
256,192,139035,1,2,0:0:0:0:
256,192,139110,1,0,0:0:0:0:
256,192,139185,1,0,0:0:0:0:
256,192,139260,1,2,0:0:0:0:
256,192,139335,1,2,0:0:0:0:
256,192,139410,1,0,0:0:0:0:
256,192,139560,1,0,0:0:0:0:
256,192,139710,1,2,0:0:0:0:
256,192,139860,1,0,0:0:0:0:
256,192,139935,1,0,0:0:0:0:
256,192,140010,1,2,0:0:0:0:
256,192,140085,1,2,0:0:0:0:
256,192,140160,1,0,0:0:0:0:
256,192,140235,1,0,0:0:0:0:
256,192,140310,1,2,0:0:0:0:
256,192,140460,1,2,0:0:0:0:
256,192,140610,5,4,0:0:0:0:
256,192,140910,1,2,0:0:0:0:
256,192,141210,1,0,0:0:0:0:
256,192,141285,1,0,0:0:0:0:
256,192,141360,1,0,0:0:0:0:
256,192,141435,1,0,0:0:0:0:
256,192,141510,1,2,0:0:0:0:
256,192,141585,1,2,0:0:0:0:
256,192,141660,1,2,0:0:0:0:
256,192,141735,1,2,0:0:0:0:
256,192,141810,1,0,0:0:0:0:
256,192,141910,1,2,0:0:0:0:
256,192,142010,1,2,0:0:0:0:
256,192,142110,1,2,0:0:0:0:
256,192,142260,1,2,0:0:0:0:
256,192,142410,1,0,0:0:0:0:
256,192,142560,1,0,0:0:0:0:
256,192,142635,1,0,0:0:0:0:
256,192,142710,1,2,0:0:0:0:
256,192,142860,1,2,0:0:0:0:
256,192,143010,1,0,0:0:0:0:
256,192,143160,1,0,0:0:0:0:
256,192,143310,1,2,0:0:0:0:
256,192,143460,1,0,0:0:0:0:
256,192,143610,1,0,0:0:0:0:
256,192,143760,1,0,0:0:0:0:
256,192,143910,1,2,0:0:0:0:
256,192,144060,1,0,0:0:0:0:
256,192,144210,1,0,0:0:0:0:
256,192,144285,1,0,0:0:0:0:
256,192,144360,1,0,0:0:0:0:
256,192,144435,1,0,0:0:0:0:
256,192,144510,1,2,0:0:0:0:
256,192,144585,1,0,0:0:0:0:
256,192,144660,1,0,0:0:0:0:
256,192,144735,1,0,0:0:0:0:
256,192,144810,1,0,0:0:0:0:
256,192,144885,1,0,0:0:0:0:
256,192,144960,1,0,0:0:0:0:
256,192,145035,1,0,0:0:0:0:
256,192,145110,1,2,0:0:0:0:
256,192,145185,1,0,0:0:0:0:
256,192,145260,1,0,0:0:0:0:
256,192,145335,1,0,0:0:0:0:
256,192,145410,5,0,0:0:0:0:
256,192,147700,1,6,0:0:0:0:
256,192,149623,1,4,0:0:0:0:
256,192,150051,1,0,0:0:0:0:
256,192,150480,1,0,0:0:0:0:
256,192,150880,1,0,0:0:0:0:
256,192,151280,1,6,0:0:0:0:
256,192,151655,1,2,0:0:0:0:
256,192,152030,1,2,0:0:0:0:
256,192,152382,1,2,0:0:0:0:
256,192,152735,1,0,0:0:0:0:
256,192,152901,1,0,0:0:0:0:
256,192,153068,1,0,0:0:0:0:
256,192,153235,1,0,0:0:0:0:
256,192,153401,1,0,0:0:0:0:
256,192,153558,1,0,0:0:0:0:
256,192,153716,1,0,0:0:0:0:
256,192,153874,1,0,0:0:0:0:
256,192,154032,1,2,0:0:0:0:
256,192,154182,1,2,0:0:0:0:
256,192,154332,1,2,0:0:0:0:
256,192,154482,1,2,0:0:0:0:
256,192,154632,1,2,0:0:0:0:
256,192,154774,1,2,0:0:0:0:
256,192,154917,1,2,0:0:0:0:
256,192,155060,1,2,0:0:0:0:
256,192,155203,1,0,0:0:0:0:
256,192,155339,1,0,0:0:0:0:
256,192,155475,1,0,0:0:0:0:
256,192,155612,1,0,0:0:0:0:
256,192,155748,1,0,0:0:0:0:
256,192,155878,1,0,0:0:0:0:
256,192,156008,1,0,0:0:0:0:
256,192,156139,1,0,0:0:0:0:
256,192,156269,1,2,0:0:0:0:
256,192,156394,1,2,0:0:0:0:
256,192,156519,1,2,0:0:0:0:
256,192,156644,1,2,0:0:0:0:
256,192,156769,1,2,0:0:0:0:
256,192,156889,1,2,0:0:0:0:
256,192,157009,1,2,0:0:0:0:
256,192,157129,1,2,0:0:0:0:
256,192,157249,5,0,0:0:0:0:
256,192,157364,1,0,0:0:0:0:
256,192,157479,1,0,0:0:0:0:
256,192,157595,1,0,0:0:0:0:
256,192,157710,1,0,0:0:0:0:
256,192,157821,1,0,0:0:0:0:
256,192,157932,1,0,0:0:0:0:
256,192,158043,1,0,0:0:0:0:
256,192,158154,1,2,0:0:0:0:
256,192,158261,1,2,0:0:0:0:
256,192,158368,1,2,0:0:0:0:
256,192,158475,1,2,0:0:0:0:
256,192,158582,1,2,0:0:0:0:
256,192,158685,1,2,0:0:0:0:
256,192,158788,1,2,0:0:0:0:
256,192,158892,1,2,0:0:0:0:
256,192,158995,1,0,0:0:0:0:
256,192,159095,1,0,0:0:0:0:
256,192,159195,1,0,0:0:0:0:
256,192,159295,1,0,0:0:0:0:
256,192,159395,1,0,0:0:0:0:
256,192,159495,1,0,0:0:0:0:
256,192,159595,1,0,0:0:0:0:
256,192,159695,1,0,0:0:0:0:
256,192,159795,1,2,0:0:0:0:
256,192,159895,1,2,0:0:0:0:
256,192,159995,1,2,0:0:0:0:
256,192,160095,1,2,0:0:0:0:
256,192,160195,1,2,0:0:0:0:
256,192,160295,1,2,0:0:0:0:
256,192,160395,1,2,0:0:0:0:
256,192,160495,1,2,0:0:0:0:
256,192,160595,1,0,0:0:0:0:
256,192,160795,1,0,0:0:0:0:
256,192,160895,1,2,0:0:0:0:
256,192,160995,1,0,0:0:0:0:
256,192,161095,1,0,0:0:0:0:
256,192,161195,1,2,0:0:0:0:
256,192,161295,1,2,0:0:0:0:
256,192,161395,1,0,0:0:0:0:
256,192,161495,1,2,0:0:0:0:
256,192,161595,1,2,0:0:0:0:
256,192,161695,1,2,0:0:0:0:
256,192,161795,1,0,0:0:0:0:
256,192,161895,1,0,0:0:0:0:
256,192,161995,1,2,0:0:0:0:
256,192,162095,1,2,0:0:0:0:
256,192,162195,1,0,0:0:0:0:
256,192,162295,1,2,0:0:0:0:
256,192,162395,1,0,0:0:0:0:
256,192,162495,1,2,0:0:0:0:
256,192,162595,1,0,0:0:0:0:
256,192,162695,1,0,0:0:0:0:
256,192,162795,1,2,0:0:0:0:
256,192,162895,1,2,0:0:0:0:
256,192,162995,1,0,0:0:0:0:
256,192,163095,1,2,0:0:0:0:
256,192,163195,1,2,0:0:0:0:
256,192,163295,1,2,0:0:0:0:
256,192,163395,1,0,0:0:0:0:
256,192,163495,1,0,0:0:0:0:
256,192,163595,1,2,0:0:0:0:
256,192,163695,1,2,0:0:0:0:
256,192,163795,1,0,0:0:0:0:
256,192,163895,1,2,0:0:0:0:
256,192,163995,1,2,0:0:0:0:
256,192,164095,1,2,0:0:0:0:
256,192,164195,1,2,0:0:0:0:
256,192,164295,1,2,0:0:0:0:
256,192,164395,1,2,0:0:0:0:
256,192,164495,1,2,0:0:0:0:
256,192,164595,1,2,0:0:0:0:
256,192,164695,1,2,0:0:0:0:
256,192,164795,1,2,0:0:0:0:
256,192,164895,1,2,0:0:0:0:
256,192,164995,1,2,0:0:0:0:
256,192,165095,1,2,0:0:0:0:
256,192,165195,1,2,0:0:0:0:
256,192,165295,1,2,0:0:0:0:
256,192,165395,1,0,0:0:0:0:
256,192,165795,1,2,0:0:0:0:
256,192,165995,1,2,0:0:0:0:
256,192,166095,1,2,0:0:0:0:
256,192,166195,1,0,0:0:0:0:
256,192,166395,1,0,0:0:0:0:
256,192,166445,1,0,0:0:0:0:
256,192,166495,1,0,0:0:0:0:
256,192,166545,1,0,0:0:0:0:
256,192,166595,1,2,0:0:0:0:
256,192,166999,5,4,0:0:0:0:
256,192,167399,1,0,0:0:0:0:
256,192,167532,1,2,0:0:0:0:
256,192,167599,1,2,0:0:0:0:
256,192,167732,1,2,0:0:0:0:
256,192,167799,1,0,0:0:0:0:
256,192,167999,1,2,0:0:0:0:
256,192,168199,1,0,0:0:0:0:
256,192,168299,1,0,0:0:0:0:
256,192,168399,1,2,0:0:0:0:
256,192,168599,1,0,0:0:0:0:
256,192,168799,1,2,0:0:0:0:
256,192,168899,1,0,0:0:0:0:
256,192,168999,1,2,0:0:0:0:
256,192,169099,1,2,0:0:0:0:
256,192,169199,1,0,0:0:0:0:
256,192,169332,1,0,0:0:0:0:
256,192,169399,1,2,0:0:0:0:
256,192,169599,1,0,0:0:0:0:
256,192,169799,1,2,0:0:0:0:
256,192,169899,1,2,0:0:0:0:
256,192,169999,1,2,0:0:0:0:
256,192,170199,1,0,0:0:0:0:
256,192,170399,1,2,0:0:0:0:
256,192,170599,1,0,0:0:0:0:
256,192,170732,1,2,0:0:0:0:
256,192,170799,1,2,0:0:0:0:
256,192,170932,1,2,0:0:0:0:
256,192,170999,1,0,0:0:0:0:
256,192,171199,1,2,0:0:0:0:
256,192,171399,1,0,0:0:0:0:
256,192,171499,1,0,0:0:0:0:
256,192,171599,1,2,0:0:0:0:
256,192,171699,1,2,0:0:0:0:
256,192,171799,1,0,0:0:0:0:
256,192,171899,1,2,0:0:0:0:
256,192,171999,1,0,0:0:0:0:
256,192,172099,1,0,0:0:0:0:
256,192,172199,1,2,0:0:0:0:
256,192,172299,1,0,0:0:0:0:
256,192,172499,1,0,0:0:0:0:
256,192,172599,1,2,0:0:0:0:
256,192,172732,1,2,0:0:0:0:
256,192,172799,1,0,0:0:0:0:
256,192,172999,1,6,0:0:0:0:
256,192,173399,5,4,0:0:0:0:
256,192,173599,1,2,0:0:0:0:
256,192,173799,1,0,0:0:0:0:
256,192,173932,1,2,0:0:0:0:
256,192,173999,1,2,0:0:0:0:
256,192,174132,1,2,0:0:0:0:
256,192,174199,1,0,0:0:0:0:
256,192,174399,1,2,0:0:0:0:
256,192,174532,1,2,0:0:0:0:
256,192,174599,1,0,0:0:0:0:
256,192,174799,1,2,0:0:0:0:
256,192,174999,1,0,0:0:0:0:
256,192,175099,1,2,0:0:0:0:
256,192,175199,1,0,0:0:0:0:
256,192,175299,1,0,0:0:0:0:
256,192,175399,1,2,0:0:0:0:
256,192,175499,1,0,0:0:0:0:
256,192,175699,1,0,0:0:0:0:
256,192,175799,1,2,0:0:0:0:
256,192,175999,1,2,0:0:0:0:
256,192,176132,1,0,0:0:0:0:
256,192,176199,1,0,0:0:0:0:
256,192,176399,1,2,0:0:0:0:
256,192,176599,1,0,0:0:0:0:
256,192,176732,1,2,0:0:0:0:
256,192,176799,1,2,0:0:0:0:
256,192,176999,1,0,0:0:0:0:
256,192,177199,1,2,0:0:0:0:
256,192,177332,1,0,0:0:0:0:
256,192,177399,1,0,0:0:0:0:
256,192,177599,1,2,0:0:0:0:
256,192,177699,1,2,0:0:0:0:
256,192,177799,1,0,0:0:0:0:
256,192,177999,1,2,0:0:0:0:
256,192,178199,1,4,0:0:0:0:
256,192,178999,1,2,0:0:0:0:
256,192,179099,1,2,0:0:0:0:
256,192,179199,1,2,0:0:0:0:
256,192,179299,1,2,0:0:0:0:
256,192,179399,1,2,0:0:0:0:
256,192,179599,1,2,0:0:0:0:
256,192,179799,5,4,0:0:0:0:
256,192,179999,1,0,0:0:0:0:
256,192,180132,1,2,0:0:0:0:
256,192,180199,1,0,0:0:0:0:
256,192,180399,1,2,0:0:0:0:
256,192,180599,1,0,0:0:0:0:
256,192,180732,1,2,0:0:0:0:
256,192,180799,1,2,0:0:0:0:
256,192,180932,1,2,0:0:0:0:
256,192,180999,1,0,0:0:0:0:
256,192,181199,1,2,0:0:0:0:
256,192,181299,1,0,0:0:0:0:
256,192,181399,1,0,0:0:0:0:
256,192,181599,1,0,0:0:0:0:
256,192,181699,1,2,0:0:0:0:
256,192,181799,1,0,0:0:0:0:
256,192,181899,1,0,0:0:0:0:
256,192,181999,1,2,0:0:0:0:
256,192,182099,1,2,0:0:0:0:
256,192,182199,1,0,0:0:0:0:
256,192,182332,1,2,0:0:0:0:
256,192,182399,1,2,0:0:0:0:
256,192,182532,1,0,0:0:0:0:
256,192,182599,1,2,0:0:0:0:
256,192,182799,1,2,0:0:0:0:
256,192,182899,1,2,0:0:0:0:
256,192,182999,1,0,0:0:0:0:
256,192,183199,1,0,0:0:0:0:
256,192,183332,1,2,0:0:0:0:
256,192,183399,1,0,0:0:0:0:
256,192,183599,1,2,0:0:0:0:
256,192,183799,1,0,0:0:0:0:
256,192,183899,1,2,0:0:0:0:
256,192,183999,1,2,0:0:0:0:
256,192,184099,1,2,0:0:0:0:
256,192,184199,1,0,0:0:0:0:
256,192,184299,1,2,0:0:0:0:
256,192,184399,1,0,0:0:0:0:
256,192,184532,1,0,0:0:0:0:
256,192,184599,1,0,0:0:0:0:
256,192,184799,1,2,0:0:0:0:
256,192,184932,1,2,0:0:0:0:
256,192,184999,1,0,0:0:0:0:
256,192,185099,1,2,0:0:0:0:
256,192,185199,1,2,0:0:0:0:
256,192,185399,1,0,0:0:0:0:
256,192,185499,1,2,0:0:0:0:
256,192,185599,1,2,0:0:0:0:
256,192,185699,1,0,0:0:0:0:
256,192,185799,1,2,0:0:0:0:
256,192,185899,1,2,0:0:0:0:
256,192,185999,1,0,0:0:0:0:
256,192,186199,5,0,0:0:0:0:
256,192,186599,1,6,0:0:0:0:
256,192,186932,1,2,0:0:0:0:
256,192,186999,1,0,0:0:0:0:
256,192,187132,1,2,0:0:0:0:
256,192,187199,1,2,0:0:0:0:
256,192,187332,1,0,0:0:0:0:
256,192,187399,1,2,0:0:0:0:
256,192,187599,1,2,0:0:0:0:
256,192,187699,1,0,0:0:0:0:
256,192,187799,1,0,0:0:0:0:
256,192,187999,1,0,0:0:0:0:
256,192,188099,1,2,0:0:0:0:
256,192,188199,1,0,0:0:0:0:
256,192,188299,1,0,0:0:0:0:
256,192,188399,1,2,0:0:0:0:
256,192,188499,1,2,0:0:0:0:
256,192,188599,1,0,0:0:0:0:
256,192,188732,1,2,0:0:0:0:
256,192,188799,1,2,0:0:0:0:
256,192,188932,1,0,0:0:0:0:
256,192,188999,1,2,0:0:0:0:
256,192,189199,1,2,0:0:0:0:
256,192,189299,1,2,0:0:0:0:
256,192,189399,1,0,0:0:0:0:
256,192,189599,1,0,0:0:0:0:
256,192,189699,1,2,0:0:0:0:
256,192,189799,1,0,0:0:0:0:
256,192,189899,1,0,0:0:0:0:
256,192,189999,1,2,0:0:0:0:
256,192,190099,1,2,0:0:0:0:
256,192,190199,1,0,0:0:0:0:
256,192,190299,1,2,0:0:0:0:
256,192,190399,1,2,0:0:0:0:
256,192,190499,1,2,0:0:0:0:
256,192,190599,1,0,0:0:0:0:
256,192,190699,1,2,0:0:0:0:
256,192,190799,1,0,0:0:0:0:
256,192,190865,1,0,0:0:0:0:
256,192,190932,1,0,0:0:0:0:
256,192,190999,1,2,0:0:0:0:
256,192,191299,1,2,0:0:0:0:
256,192,191399,1,2,0:0:0:0:
256,192,191599,1,2,0:0:0:0:
256,192,191799,1,4,0:0:0:0:
256,192,192099,1,4,0:0:0:0:
256,192,192399,1,4,0:0:0:0:
256,192,192599,5,0,0:0:0:0:
256,192,192799,1,2,0:0:0:0:
256,192,192899,1,0,0:0:0:0:
256,192,192999,1,2,0:0:0:0:
256,192,193099,1,2,0:0:0:0:
256,192,193199,1,0,0:0:0:0:
256,192,193299,1,2,0:0:0:0:
256,192,193399,1,0,0:0:0:0:
256,192,193499,1,0,0:0:0:0:
256,192,193599,1,2,0:0:0:0:
256,192,193699,1,0,0:0:0:0:
256,192,193799,1,2,0:0:0:0:
256,192,193899,1,2,0:0:0:0:
256,192,193999,1,0,0:0:0:0:
256,192,194099,1,0,0:0:0:0:
256,192,194199,1,0,0:0:0:0:
256,192,194299,1,2,0:0:0:0:
256,192,194399,1,2,0:0:0:0:
256,192,194499,1,0,0:0:0:0:
256,192,194599,1,2,0:0:0:0:
256,192,194699,1,0,0:0:0:0:
256,192,194799,1,0,0:0:0:0:
256,192,194899,1,2,0:0:0:0:
256,192,194999,1,0,0:0:0:0:
256,192,195099,1,0,0:0:0:0:
256,192,195199,1,2,0:0:0:0:
256,192,195299,1,2,0:0:0:0:
256,192,195399,1,0,0:0:0:0:
256,192,195499,1,2,0:0:0:0:
256,192,195599,1,0,0:0:0:0:
256,192,195699,1,0,0:0:0:0:
256,192,195799,1,0,0:0:0:0:
256,192,195899,1,2,0:0:0:0:
256,192,195999,1,0,0:0:0:0:
256,192,196099,1,0,0:0:0:0:
256,192,196199,1,2,0:0:0:0:
256,192,196299,1,2,0:0:0:0:
256,192,196399,1,0,0:0:0:0:
256,192,196499,1,2,0:0:0:0:
256,192,196599,1,0,0:0:0:0:
256,192,196699,1,0,0:0:0:0:
256,192,196799,1,2,0:0:0:0:
256,192,196899,1,0,0:0:0:0:
256,192,196999,1,2,0:0:0:0:
256,192,197099,1,2,0:0:0:0:
256,192,197199,1,0,0:0:0:0:
256,192,197299,1,0,0:0:0:0:
256,192,197399,1,0,0:0:0:0:
256,192,197499,1,2,0:0:0:0:
256,192,197599,1,2,0:0:0:0:
256,192,197699,1,0,0:0:0:0:
256,192,197799,1,2,0:0:0:0:
256,192,197899,1,2,0:0:0:0:
256,192,197999,1,0,0:0:0:0:
256,192,198099,1,2,0:0:0:0:
256,192,198199,1,0,0:0:0:0:
256,192,198299,1,0,0:0:0:0:
256,192,198399,1,2,0:0:0:0:
256,192,198499,1,2,0:0:0:0:
256,192,198599,1,0,0:0:0:0:
256,192,198699,1,2,0:0:0:0:
256,192,198799,1,2,0:0:0:0:
256,192,198899,1,0,0:0:0:0:
256,192,198999,5,0,0:0:0:0:
256,192,199099,1,0,0:0:0:0:
256,192,199199,1,2,0:0:0:0:
256,192,199299,1,0,0:0:0:0:
256,192,199399,1,2,0:0:0:0:
256,192,199499,1,2,0:0:0:0:
256,192,199599,1,0,0:0:0:0:
256,192,199699,1,2,0:0:0:0:
256,192,199799,1,0,0:0:0:0:
256,192,199899,1,0,0:0:0:0:
256,192,199999,1,2,0:0:0:0:
256,192,200099,1,0,0:0:0:0:
256,192,200199,1,2,0:0:0:0:
256,192,200299,1,2,0:0:0:0:
256,192,200399,1,0,0:0:0:0:
256,192,200499,1,0,0:0:0:0:
256,192,200599,1,0,0:0:0:0:
256,192,200699,1,2,0:0:0:0:
256,192,200799,1,2,0:0:0:0:
256,192,200899,1,0,0:0:0:0:
256,192,200999,1,2,0:0:0:0:
256,192,201099,1,0,0:0:0:0:
256,192,201199,1,0,0:0:0:0:
256,192,201299,1,2,0:0:0:0:
256,192,201399,1,0,0:0:0:0:
256,192,201499,1,0,0:0:0:0:
256,192,201599,1,2,0:0:0:0:
256,192,201699,1,2,0:0:0:0:
256,192,201799,1,0,0:0:0:0:
256,192,201899,1,2,0:0:0:0:
256,192,201999,1,0,0:0:0:0:
256,192,202099,1,0,0:0:0:0:
256,192,202199,1,0,0:0:0:0:
256,192,202299,1,2,0:0:0:0:
256,192,202399,1,0,0:0:0:0:
256,192,202499,1,0,0:0:0:0:
256,192,202599,1,2,0:0:0:0:
256,192,202699,1,2,0:0:0:0:
256,192,202799,1,0,0:0:0:0:
256,192,202899,1,2,0:0:0:0:
256,192,202999,1,0,0:0:0:0:
256,192,203099,1,0,0:0:0:0:
256,192,203199,1,0,0:0:0:0:
256,192,203299,1,2,0:0:0:0:
256,192,203399,1,2,0:0:0:0:
256,192,203499,1,2,0:0:0:0:
256,192,203599,1,0,0:0:0:0:
256,192,203799,1,6,0:0:0:0:
256,192,204199,1,6,0:0:0:0:
256,192,204599,1,4,0:0:0:0:
256,192,204999,1,2,0:0:0:0:
256,192,205099,1,2,0:0:0:0:
256,192,205199,1,2,0:0:0:0:
256,192,205299,1,2,0:0:0:0:
256,192,205399,5,0,0:0:0:0:
256,192,205599,1,2,0:0:0:0:
256,192,205665,1,2,0:0:0:0:
256,192,205732,1,2,0:0:0:0:
256,192,205799,1,0,0:0:0:0:
256,192,205899,1,0,0:0:0:0:
256,192,205999,1,2,0:0:0:0:
256,192,206065,1,2,0:0:0:0:
256,192,206132,1,2,0:0:0:0:
256,192,206199,1,0,0:0:0:0:
256,192,206299,1,2,0:0:0:0:
256,192,206399,1,0,0:0:0:0:
256,192,206499,1,0,0:0:0:0:
256,192,206599,1,2,0:0:0:0:
256,192,206699,1,2,0:0:0:0:
256,192,206799,1,0,0:0:0:0:
256,192,206899,1,0,0:0:0:0:
256,192,206999,1,2,0:0:0:0:
256,192,207199,1,0,0:0:0:0:
256,192,207265,1,0,0:0:0:0:
256,192,207332,1,0,0:0:0:0:
256,192,207399,1,2,0:0:0:0:
256,192,207499,1,2,0:0:0:0:
256,192,207599,1,0,0:0:0:0:
256,192,207665,1,0,0:0:0:0:
256,192,207732,1,0,0:0:0:0:
256,192,207799,1,2,0:0:0:0:
256,192,207899,1,0,0:0:0:0:
256,192,207999,1,2,0:0:0:0:
256,192,208099,1,2,0:0:0:0:
256,192,208199,1,0,0:0:0:0:
256,192,208299,1,0,0:0:0:0:
256,192,208399,1,2,0:0:0:0:
256,192,208499,1,2,0:0:0:0:
256,192,208599,1,0,0:0:0:0:
256,192,208799,1,2,0:0:0:0:
256,192,208865,1,2,0:0:0:0:
256,192,208932,1,0,0:0:0:0:
256,192,208999,1,0,0:0:0:0:
256,192,209099,1,0,0:0:0:0:
256,192,209199,1,2,0:0:0:0:
256,192,209265,1,2,0:0:0:0:
256,192,209332,1,0,0:0:0:0:
256,192,209399,1,0,0:0:0:0:
256,192,209499,1,2,0:0:0:0:
256,192,209599,1,0,0:0:0:0:
256,192,209699,1,0,0:0:0:0:
256,192,209799,1,2,0:0:0:0:
256,192,209899,1,2,0:0:0:0:
256,192,209999,1,0,0:0:0:0:
256,192,210099,1,0,0:0:0:0:
256,192,210199,1,2,0:0:0:0:
256,192,210399,1,0,0:0:0:0:
256,192,210465,1,0,0:0:0:0:
256,192,210532,1,2,0:0:0:0:
256,192,210599,1,2,0:0:0:0:
256,192,210699,1,2,0:0:0:0:
256,192,210799,1,0,0:0:0:0:
256,192,210865,1,0,0:0:0:0:
256,192,210932,1,2,0:0:0:0:
256,192,210999,1,2,0:0:0:0:
256,192,211099,1,2,0:0:0:0:
256,192,211199,1,0,0:0:0:0:
256,192,211499,1,0,0:0:0:0:
256,192,211799,5,4,0:0:0:0:
256,192,212199,1,6,0:0:0:0:
256,192,212399,1,2,0:0:0:0:
256,192,212465,1,2,0:0:0:0:
256,192,212532,1,2,0:0:0:0:
256,192,212599,1,0,0:0:0:0:
256,192,212699,1,0,0:0:0:0:
256,192,212799,1,2,0:0:0:0:
256,192,212899,1,0,0:0:0:0:
256,192,212999,1,2,0:0:0:0:
256,192,213099,1,2,0:0:0:0:
256,192,213199,1,0,0:0:0:0:
256,192,213299,1,0,0:0:0:0:
256,192,213399,1,2,0:0:0:0:
256,192,213599,1,0,0:0:0:0:
256,192,213665,1,0,0:0:0:0:
256,192,213732,1,0,0:0:0:0:
256,192,213799,1,2,0:0:0:0:
256,192,213899,1,2,0:0:0:0:
256,192,213999,1,0,0:0:0:0:
256,192,214065,1,0,0:0:0:0:
256,192,214132,1,0,0:0:0:0:
256,192,214199,1,2,0:0:0:0:
256,192,214299,1,0,0:0:0:0:
256,192,214399,1,2,0:0:0:0:
256,192,214499,1,2,0:0:0:0:
256,192,214599,1,2,0:0:0:0:
256,192,214799,1,2,0:0:0:0:
256,192,214899,1,2,0:0:0:0:
256,192,214999,1,0,0:0:0:0:
256,192,215199,1,0,0:0:0:0:
256,192,215299,1,2,0:0:0:0:
256,192,215399,1,0,0:0:0:0:
256,192,215499,1,0,0:0:0:0:
256,192,215599,1,2,0:0:0:0:
256,192,215699,1,2,0:0:0:0:
256,192,215799,1,0,0:0:0:0:
256,192,215899,1,2,0:0:0:0:
256,192,215999,1,0,0:0:0:0:
256,192,216099,1,2,0:0:0:0:
256,192,216199,1,2,0:0:0:0:
256,192,216299,1,2,0:0:0:0:
256,192,216399,1,0,0:0:0:0:
256,192,216499,1,2,0:0:0:0:
256,192,216599,1,0,0:0:0:0:
256,192,216699,1,2,0:0:0:0:
256,192,216799,1,2,0:0:0:0:
256,192,216899,1,0,0:0:0:0:
256,192,216999,1,2,0:0:0:0:
256,192,217099,1,0,0:0:0:0:
256,192,217199,1,0,0:0:0:0:
256,192,217299,1,2,0:0:0:0:
256,192,217399,1,0,0:0:0:0:
256,192,217499,1,0,0:0:0:0:
256,192,217599,1,2,0:0:0:0:
256,192,217699,1,2,0:0:0:0:
256,192,217799,1,0,0:0:0:0:
256,192,217899,1,2,0:0:0:0:
256,192,217999,1,0,0:0:0:0:
256,192,218200,5,6,0:0:0:0:
256,192,224200,5,2,0:0:0:0:
256,192,226200,1,4,0:0:0:0:
256,192,226700,1,2,0:0:0:0:
256,192,226866,1,0,0:0:0:0:
256,192,227033,1,2,0:0:0:0:
256,192,227200,1,2,0:0:0:0:
256,192,227366,1,0,0:0:0:0:
256,192,227533,1,0,0:0:0:0:
256,192,227700,1,2,0:0:0:0:
256,192,228200,1,6,0:0:0:0:
256,192,228700,1,2,0:0:0:0:
256,192,228866,1,0,0:0:0:0:
256,192,229033,1,2,0:0:0:0:
256,192,229200,1,2,0:0:0:0:
256,192,229366,1,2,0:0:0:0:
256,192,229533,1,0,0:0:0:0:
256,192,229700,1,2,0:0:0:0:
256,192,230200,1,4,0:0:0:0:
256,192,230700,1,2,0:0:0:0:
256,192,230866,1,0,0:0:0:0:
256,192,231033,1,2,0:0:0:0:
256,192,231200,1,0,0:0:0:0:
256,192,231366,1,0,0:0:0:0:
256,192,231533,1,0,0:0:0:0:
256,192,231700,1,2,0:0:0:0:
256,192,232200,1,6,0:0:0:0:
256,192,232700,1,2,0:0:0:0:
256,192,232866,1,0,0:0:0:0:
256,192,233033,1,2,0:0:0:0:
256,192,233200,1,2,0:0:0:0:
256,192,233366,1,0,0:0:0:0:
256,192,233533,1,2,0:0:0:0:
256,192,233700,1,2,0:0:0:0:
256,192,234200,1,4,0:0:0:0:
256,192,234700,1,2,0:0:0:0:
256,192,234866,1,0,0:0:0:0:
256,192,235033,1,2,0:0:0:0:
256,192,235200,1,2,0:0:0:0:
256,192,235366,1,0,0:0:0:0:
256,192,235533,1,0,0:0:0:0:
256,192,235700,1,0,0:0:0:0:
256,192,235866,1,2,0:0:0:0:
256,192,236033,1,2,0:0:0:0:
256,192,236200,1,2,0:0:0:0:
256,192,236366,1,0,0:0:0:0:
256,192,236533,1,2,0:0:0:0:
256,192,236700,1,2,0:0:0:0:
256,192,236866,1,0,0:0:0:0:
256,192,237033,1,2,0:0:0:0:
256,192,237200,1,0,0:0:0:0:
256,192,237366,1,0,0:0:0:0:
256,192,237533,1,2,0:0:0:0:
256,192,237700,1,2,0:0:0:0:
256,192,237950,1,0,0:0:0:0:
256,192,238200,5,0,0:0:0:0:
256,192,238366,1,0,0:0:0:0:
256,192,238450,1,0,0:0:0:0:
256,192,238616,1,2,0:0:0:0:
256,192,238700,1,0,0:0:0:0:
256,192,238866,1,0,0:0:0:0:
256,192,238950,1,2,0:0:0:0:
256,192,239116,1,2,0:0:0:0:
256,192,239200,1,0,0:0:0:0:
256,192,239366,1,2,0:0:0:0:
256,192,239450,1,2,0:0:0:0:
256,192,239616,1,2,0:0:0:0:
256,192,239700,1,0,0:0:0:0:
256,192,239866,1,0,0:0:0:0:
256,192,239950,1,2,0:0:0:0:
256,192,240116,1,2,0:0:0:0:
256,192,240200,1,0,0:0:0:0:
256,192,240283,1,0,0:0:0:0:
256,192,240366,1,0,0:0:0:0:
256,192,240450,1,2,0:0:0:0:
256,192,240533,1,2,0:0:0:0:
256,192,240616,1,2,0:0:0:0:
256,192,240700,1,0,0:0:0:0:
256,192,240783,1,2,0:0:0:0:
256,192,240866,1,2,0:0:0:0:
256,192,240950,1,0,0:0:0:0:
256,192,241033,1,2,0:0:0:0:
256,192,241116,1,2,0:0:0:0:
256,192,241200,1,0,0:0:0:0:
256,192,241325,1,2,0:0:0:0:
256,192,241450,1,0,0:0:0:0:
256,192,241575,1,0,0:0:0:0:
256,192,241700,1,2,0:0:0:0:
256,192,241950,1,2,0:0:0:0:
256,192,242200,5,4,0:0:0:0:
256,192,242700,1,0,0:0:0:0:
256,192,242784,1,2,0:0:0:0:
256,192,242867,1,0,0:0:0:0:
256,192,242950,1,0,0:0:0:0:
256,192,243034,1,2,0:0:0:0:
256,192,243117,1,2,0:0:0:0:
256,192,243360,1,0,0:0:0:0:
256,192,243440,1,0,0:0:0:0:
256,192,243600,1,2,0:0:0:0:
256,192,243680,1,0,0:0:0:0:
256,192,243840,1,0,0:0:0:0:
256,192,243920,1,2,0:0:0:0:
256,192,244161,1,6,0:0:0:0:
256,192,244545,1,2,0:0:0:0:
256,192,244699,1,2,0:0:0:0:
256,192,244776,1,2,0:0:0:0:
256,192,244853,1,2,0:0:0:0:
256,192,245007,1,2,0:0:0:0:
256,192,245084,1,0,0:0:0:0:
256,192,245158,1,0,0:0:0:0:
256,192,245232,1,0,0:0:0:0:
256,192,245306,1,2,0:0:0:0:
256,192,245454,1,0,0:0:0:0:
256,192,245528,1,2,0:0:0:0:
256,192,245676,1,2,0:0:0:0:
256,192,245750,1,0,0:0:0:0:
256,192,245972,1,4,0:0:0:0:
256,192,246417,1,0,0:0:0:0:
256,192,246491,1,2,0:0:0:0:
256,192,246565,1,0,0:0:0:0:
256,192,246639,1,0,0:0:0:0:
256,192,246713,1,2,0:0:0:0:
256,192,246787,1,2,0:0:0:0:
256,192,246861,1,0,0:0:0:0:
256,192,247003,1,2,0:0:0:0:
256,192,247075,1,0,0:0:0:0:
256,192,247146,1,2,0:0:0:0:
256,192,247218,1,2,0:0:0:0:
256,192,247289,1,0,0:0:0:0:
256,192,247432,1,0,0:0:0:0:
256,192,247503,1,2,0:0:0:0:
256,192,247719,1,0,0:0:0:0:
256,192,247787,1,0,0:0:0:0:
256,192,247856,1,0,0:0:0:0:
256,192,247925,1,0,0:0:0:0:
256,192,248063,1,6,0:0:0:0:
256,192,248339,1,0,0:0:0:0:
256,192,248408,1,0,0:0:0:0:
256,192,248477,1,0,0:0:0:0:
256,192,248546,1,0,0:0:0:0:
256,192,248679,1,6,0:0:0:0:
256,192,248879,1,0,0:0:0:0:
256,192,248946,1,2,0:0:0:0:
256,192,249146,1,2,0:0:0:0:
256,192,249347,5,4,0:0:0:0:
256,192,249546,1,2,0:0:0:0:
256,192,249746,1,0,0:0:0:0:
256,192,249879,1,2,0:0:0:0:
256,192,249946,1,2,0:0:0:0:
256,192,250079,1,2,0:0:0:0:
256,192,250147,1,0,0:0:0:0:
256,192,250340,1,2,0:0:0:0:
256,192,250534,1,0,0:0:0:0:
256,192,250630,1,0,0:0:0:0:
256,192,250727,1,2,0:0:0:0:
256,192,250921,1,0,0:0:0:0:
256,192,251108,1,2,0:0:0:0:
256,192,251202,1,0,0:0:0:0:
256,192,251296,1,2,0:0:0:0:
256,192,251389,1,2,0:0:0:0:
256,192,251483,1,0,0:0:0:0:
256,192,251608,1,0,0:0:0:0:
256,192,251671,1,2,0:0:0:0:
256,192,251796,1,2,0:0:0:0:
256,192,251858,1,0,0:0:0:0:
256,192,252046,1,2,0:0:0:0:
256,192,252233,1,2,0:0:0:0:
256,192,252327,1,2,0:0:0:0:
256,192,252421,1,0,0:0:0:0:
256,192,252602,1,2,0:0:0:0:
256,192,252784,1,0,0:0:0:0:
256,192,252905,1,2,0:0:0:0:
256,192,252966,1,2,0:0:0:0:
256,192,253087,1,2,0:0:0:0:
256,192,253148,1,0,0:0:0:0:
256,192,253269,1,2,0:0:0:0:
256,192,253330,1,0,0:0:0:0:
256,192,253511,1,2,0:0:0:0:
256,192,253693,1,2,0:0:0:0:
256,192,253784,1,2,0:0:0:0:
256,192,253875,1,0,0:0:0:0:
256,192,253963,1,2,0:0:0:0:
256,192,254051,1,0,0:0:0:0:
256,192,254139,1,0,0:0:0:0:
256,192,254227,1,2,0:0:0:0:
256,192,254316,1,0,0:0:0:0:
256,192,254492,1,0,0:0:0:0:
256,192,254580,1,2,0:0:0:0:
256,192,254698,1,2,0:0:0:0:
256,192,254757,1,0,0:0:0:0:
256,192,254933,1,6,0:0:0:0:
256,192,255110,1,2,0:0:0:0:
256,192,255198,1,2,0:0:0:0:
256,192,255286,1,0,0:0:0:0:
256,192,255619,1,2,0:0:0:0:
256,192,255952,1,0,0:0:0:0:
256,192,256036,1,0,0:0:0:0:
256,192,256119,1,2,0:0:0:0:
256,192,256202,1,2,0:0:0:0:
256,192,256286,1,0,0:0:0:0:
256,192,256369,1,2,0:0:0:0:
256,192,256452,1,2,0:0:0:0:
256,192,256536,1,2,0:0:0:0:
256,192,256619,1,0,0:0:0:0:
256,192,256781,1,0,0:0:0:0:
256,192,256943,1,2,0:0:0:0:
256,192,257105,1,0,0:0:0:0:
256,192,257267,1,2,0:0:0:0:
256,192,257348,1,2,0:0:0:0:
256,192,257429,1,2,0:0:0:0:
256,192,257591,1,0,0:0:0:0:
256,192,257754,1,2,0:0:0:0:
256,192,257916,1,4,0:0:0:0:
256,192,258231,1,2,0:0:0:0:
256,192,258547,1,0,0:0:0:0:
256,192,258626,1,2,0:0:0:0:
256,192,258705,1,2,0:0:0:0:
256,192,258784,1,2,0:0:0:0:
256,192,258863,1,0,0:0:0:0:
256,192,258942,1,0,0:0:0:0:
256,192,259021,1,2,0:0:0:0:
256,192,259100,1,2,0:0:0:0:
256,192,259179,1,0,0:0:0:0:
256,192,259255,1,2,0:0:0:0:
256,192,259332,1,0,0:0:0:0:
256,192,259409,1,0,0:0:0:0:
256,192,259486,1,2,0:0:0:0:
256,192,259563,1,0,0:0:0:0:
256,192,259640,1,2,0:0:0:0:
256,192,259717,1,2,0:0:0:0:
256,192,259794,1,0,0:0:0:0:
256,192,259871,1,2,0:0:0:0:
256,192,259948,1,0,0:0:0:0:
256,192,260025,1,0,0:0:0:0:
256,192,260102,1,2,0:0:0:0:
256,192,260255,1,2,0:0:0:0:
256,192,260332,1,2,0:0:0:0:
256,192,260409,1,0,0:0:0:0:
256,192,260709,5,2,0:0:0:0:
256,192,261009,1,0,0:0:0:0:
256,192,261080,1,0,0:0:0:0:
256,192,261151,1,0,0:0:0:0:
256,192,261223,1,0,0:0:0:0:
256,192,261294,1,2,0:0:0:0:
256,192,261366,1,2,0:0:0:0:
256,192,261437,1,2,0:0:0:0:
256,192,261509,1,2,0:0:0:0:
256,192,261580,1,0,0:0:0:0:
256,192,261670,1,2,0:0:0:0:
256,192,261761,1,2,0:0:0:0:
256,192,261852,1,2,0:0:0:0:
256,192,261989,1,2,0:0:0:0:
256,192,262125,1,0,0:0:0:0:
256,192,262258,1,0,0:0:0:0:
256,192,262325,1,0,0:0:0:0:
256,192,262391,1,2,0:0:0:0:
256,192,262525,1,2,0:0:0:0:
256,192,262658,5,0,0:0:0:0:
256,192,262788,1,0,0:0:0:0:
256,192,262918,1,0,0:0:0:0:
256,192,263049,1,0,0:0:0:0:
256,192,263179,1,2,0:0:0:0:
256,192,263306,1,0,0:0:0:0:
256,192,263434,1,0,0:0:0:0:
256,192,263561,1,0,0:0:0:0:
256,192,263689,1,0,0:0:0:0:
256,192,263754,1,0,0:0:0:0:
256,192,263819,1,0,0:0:0:0:
256,192,263887,1,0,0:0:0:0:
256,192,263955,1,2,0:0:0:0:
256,192,264038,1,0,0:0:0:0:
256,192,264121,1,0,0:0:0:0:
256,192,264209,1,0,0:0:0:0:
256,192,264297,1,0,0:0:0:0:
256,192,264404,1,0,0:0:0:0:
256,192,264511,1,0,0:0:0:0:
256,192,264618,1,0,0:0:0:0:
256,192,264725,1,2,0:0:0:0:
256,192,264875,1,0,0:0:0:0:
256,192,265025,1,0,0:0:0:0:
256,192,265191,1,0,0:0:0:0:
256,192,265358,1,4,0:0:0:0:
256,192,265658,1,2,0:0:0:0:
256,192,265758,1,0,0:0:0:0:
256,192,265858,1,2,0:0:0:0:
256,192,265958,1,2,0:0:0:0:
256,192,266058,1,0,0:0:0:0:
256,192,266158,1,0,0:0:0:0:
256,192,266258,1,2,0:0:0:0:
256,192,266558,1,6,0:0:0:0:
256,192,266873,1,2,0:0:0:0:
256,192,266979,1,0,0:0:0:0:
256,192,267084,1,2,0:0:0:0:
256,192,267189,1,2,0:0:0:0:
256,192,267294,1,2,0:0:0:0:
256,192,267400,1,0,0:0:0:0:
256,192,267505,1,2,0:0:0:0:
256,192,267821,1,4,0:0:0:0:
256,192,268173,1,0,0:0:0:0:
256,192,268526,1,0,0:0:0:0:
256,192,268901,1,0,0:0:0:0:
256,192,269276,1,4,0:0:0:0:
256,192,269476,1,0,0:0:0:0:
256,192,269676,1,2,0:0:0:0:
256,192,269890,1,0,0:0:0:0:
256,192,270120,1,0,0:0:0:0:
256,192,270245,1,2,0:0:0:0:
256,192,270369,1,0,0:0:0:0:
256,192,270494,1,0,0:0:0:0:
256,192,270620,1,2,0:0:0:0:
256,192,270745,1,0,0:0:0:0:
256,192,270870,1,2,0:0:0:0:
256,192,270995,1,0,0:0:0:0:
256,192,271120,1,0,0:0:0:0:
