osu file format v14

[General]
AudioFilename: 08. Lunatic Rough Party!! (Long Ver.).mp3
AudioLeadIn: 0
PreviewTime: 116548
Countdown: 0
SampleSet: Normal
StackLeniency: 0.7
Mode: 1
LetterboxInBreaks: 0
WidescreenStoryboard: 0

[Editor]
Bookmarks: 32200,32325,32450,32575,32637,32762,32887,32950,33012,33325
DistanceSpacing: 1.2
BeatDivisor: 16
GridSize: 16
TimelineZoom: 6.500001

[Metadata]
Title:Lunatic Rough Party!! (Long Ver.)
TitleUnicode:Lunatic Rough Party!! (Long Ver.)
Artist:Camellia
ArtistUnicode:かめりあ
Creator:_MMMMMM_MMMMMM_
Version:Do you wanna party?
Source:東方Project
Tags:Lunate Elf ルーネイトエルフ SOUND VOLTEX -infinite infection- 2nd ULTIMATE TRACKS - 東方紅魔郷REMIX - album 東方紅魔郷 ~ the Embodiment of Scarlet Devil Touhou ZUN (Team Shanghai Alice) Kuo Kyoka Starry- Ryu Sei Dubstep anpu un-plugged
BeatmapID:1964706
BeatmapSetID:701779

[Difficulty]
HPDrainRate:4
CircleSize:5
OverallDifficulty:6
ApproachRate:5
SliderMultiplier:1.4
SliderTickRate:1

[Events]
//Background and Video events
0,0,"new bg.jpg",0,0
//Break Periods
//Storyboard Layer 0 (Background)
//Storyboard Layer 1 (Fail)
//Storyboard Layer 2 (Pass)
//Storyboard Layer 3 (Foreground)
//Storyboard Layer 4 (Overlay)
//Storyboard Sound Samples

[TimingPoints]
700,500,4,1,0,100,1,0
700,-100,4,1,0,100,0,1
950,-100,4,1,0,100,0,0
2700,-100,4,1,0,100,0,1
2950,-100,4,1,0,100,0,0
4700,-100,4,1,0,100,0,1
4950,-100,4,1,0,100,0,0
6700,-100,4,1,0,100,0,1
6950,-100,4,1,0,100,0,0
8700,-100,4,1,0,100,0,1
8950,-100,4,1,0,100,0,0
10700,-100,4,1,0,100,0,1
10950,-100,4,1,0,100,0,0
12700,-100,4,1,0,100,0,1
12950,-100,4,1,0,100,0,0
14700,-100,4,1,0,100,0,1
14950,-100,4,1,0,100,0,0
15700,-90.9090909090909,4,1,0,100,0,0
15825,-83.3333333333333,4,1,0,100,0,0
15950,-76.9230769230769,4,1,0,100,0,0
16075,-71.4285714285714,4,1,0,100,0,0
16200,-66.6666666666667,4,1,0,100,0,0
16325,-62.5,4,1,0,100,0,0
16450,-58.8235294117647,4,1,0,100,0,0
16700,500,4,1,0,100,1,8
16700,-25,4,1,0,100,0,1
16950,-100,4,1,0,100,0,0
18700,500,4,1,0,100,1,8
18700,-25,4,1,0,100,0,1
18950,-100,4,1,0,100,0,0
20700,500,4,1,0,100,1,8
20700,-25,4,1,0,100,0,1
20950,-100,4,1,0,100,0,0
22700,500,4,1,0,100,1,8
22700,-25,4,1,0,100,0,1
22950,-100,4,1,0,100,0,0
24700,500,4,1,0,100,1,8
24700,-25,4,1,0,100,0,1
24950,-100,4,1,0,100,0,0
28200,-97.5609756097561,4,1,0,100,0,0
28450,-95.2380952380952,4,1,0,100,0,0
28700,-90.9090909090909,4,1,0,100,0,0
28866,-86.9565217391304,4,1,0,100,0,0
28950,-83.3333333333333,4,1,0,100,0,0
29116,-80,4,1,0,100,0,0
29200,-76.9230769230769,4,1,0,100,0,0
29366,-74.0740740740741,4,1,0,100,0,0
29450,-71.4285714285714,4,1,0,100,0,0
29616,-68.9655172413793,4,1,0,100,0,0
29700,-66.6666666666667,4,1,0,100,0,0
29866,-64.5161290322581,4,1,0,100,0,0
29950,-62.5,4,1,0,100,0,0
30116,-60.6060606060606,4,1,0,100,0,0
30200,-58.8235294117647,4,1,0,100,0,0
30366,-57.1428571428571,4,1,0,100,0,0
30450,-55.5555555555556,4,1,0,100,0,0
30616,-51.2820512820513,4,1,0,100,0,0
30700,-47.6190476190476,4,1,0,100,0,0
30783,-46.5116279069767,4,1,0,100,0,0
30866,-43.4782608695652,4,1,0,100,0,0
30950,-42.5531914893617,4,1,0,100,0,0
31033,-40,4,1,0,100,0,0
31116,-37.7358490566038,4,1,0,100,0,0
31200,-35.7142857142857,4,1,0,100,0,0
31283,-33.3333333333333,4,1,0,100,0,0
31366,-31.25,4,1,0,100,0,0
31450,-29.4117647058824,4,1,0,100,0,0
31533,-27.7777777777778,4,1,0,100,0,0
31616,-26.3157894736842,4,1,0,100,0,0
31700,-25,4,1,0,100,0,0
31762,0.54000054000054,4,1,0,100,1,8
31762,-10000000000,4,1,0,100,0,8
31825,0.27000027000027,4,1,0,100,1,8
31825,-10000000000,4,1,0,100,0,8
32012,0.18000018000018,4,1,0,100,1,8
32012,-10000000000,4,1,0,100,0,8
32137,0.18000018000018,4,1,0,100,1,8
32137,-10000000000,4,1,0,100,0,8
32200,0.0861207757759482,4,1,0,100,1,8
32200,-10000000000,4,1,0,100,0,8
32325,0.100678066779762,4,1,0,100,1,8
32325,-10000000000,4,1,0,100,0,8
32450,0.18000018000018,4,1,0,100,1,8
32450,-10000000000,4,1,0,100,0,8
32512,0.108000108000108,4,1,0,100,1,8
32512,-10000000000,4,1,0,100,0,8
32575,0.0957508944729392,4,1,0,100,1,8
32575,-10000000000,4,1,0,100,0,8
32762,0.486003110419907,4,1,0,100,1,8
32762,-10000000000,4,1,0,100,0,8
32887,0.54000054000054,4,1,0,100,1,8
32887,-10000000000,4,1,0,100,0,8
32950,0.27000027000027,4,1,0,100,1,8
32950,-10000000000,4,1,0,100,0,8
33012,0.18000018000018,4,1,0,100,1,8
33012,-10000000000,4,1,0,100,0,8
33325,0.99999999,4,1,0,100,1,0
33325,-10000000000,4,1,0,100,0,8
35200,500,4,1,0,100,1,8
35200,-66.6666666666667,4,1,0,100,0,0
35450,-50,4,1,0,100,0,0
35700,-40,4,1,0,100,0,0
35825,-41.6666666666667,4,1,0,100,0,0
35950,-43.4782608695652,4,1,0,100,0,0
36075,-45.4545454545455,4,1,0,100,0,0
36200,-47.6190476190476,4,1,0,100,0,0
36325,-50,4,1,0,100,0,0
36450,-52.6315789473684,4,1,0,100,0,0
36700,500,4,1,0,100,1,8
36700,-40,4,1,0,100,0,1
36701,-6.66660000066666E-06,4,1,0,100,0,0
36950,-40,4,1,0,100,0,0
37200,-58.8235294117647,4,1,0,100,0,0
38701,-6.66660000066666E-06,4,1,0,100,0,0
39116,-58.8235294117647,4,1,0,100,0,0
40450,-41.6666666666667,4,1,0,100,0,0
40550,-58.8235294117647,4,1,0,100,0,0
40701,-6.66660000066666E-06,4,1,0,100,0,0
41199,-58.8235294117647,4,1,0,100,0,0
42700,-50,4,1,0,100,0,0
43116,-40,4,1,0,100,0,1
43283,-40,4,1,0,100,0,0
43450,-50,4,1,0,100,0,0
43866,-40,4,1,0,100,0,1
44033,-40,4,1,0,100,0,0
44200,-50,4,1,0,100,0,0
44700,-58.8235294117647,4,1,0,100,0,0
44701,-6.66660000066666E-06,4,1,0,100,0,0
45198,-58.8235294117647,4,1,0,100,0,0
46701,-6.66660000066666E-06,4,1,0,100,0,0
47197,-58.8235294117647,4,1,0,100,0,0
48450,-41.6666666666667,4,1,0,100,0,0
48550,-58.8235294117647,4,1,0,100,0,0
48701,-6.66660000066666E-06,4,1,0,100,0,0
49196,-58.8235294117647,4,1,0,100,0,0
50700,-50,4,1,0,100,0,0
51116,-40,4,1,0,100,0,1
51283,-40,4,1,0,100,0,0
51450,-50,4,1,0,100,0,0
51866,-40,4,1,0,100,0,1
52033,-40,4,1,0,100,0,1
52200,-50,4,1,0,100,0,0
52731,0.019999999,4,1,0,100,1,0
52731,-1E+20,4,1,0,100,0,0
52762,0.039999999,4,1,0,100,1,0
52762,-1E+20,4,1,0,100,0,0
52793,0.029999999,4,1,0,100,1,0
52793,-1E+20,4,1,0,100,0,0
52824,0.069999999,4,1,0,100,1,0
52824,-1E+20,4,1,0,100,0,0
52855,0.059999999,4,1,0,100,1,0
52855,-1E+20,4,1,0,100,0,0
52886,0.079999999,4,1,0,100,1,0
52886,-1E+20,4,1,0,100,0,0
52917,0.069999999,4,1,0,100,1,0
52917,-1E+20,4,1,0,100,0,0
52950,500,4,1,0,100,1,8
52950,-58.8235294117647,4,1,0,100,0,1
53200,-58.8235294117647,4,1,0,100,0,0
56450,-41.6666666666667,4,1,0,100,0,0
56550,-58.8235294117647,4,1,0,100,0,0
58700,-50,4,1,0,100,0,0
59116,-40,4,1,0,100,0,1
59283,-40,4,1,0,100,0,0
59450,-50,4,1,0,100,0,0
59866,-40,4,1,0,100,0,1
60033,-40,4,1,0,100,0,0
60200,-50,4,1,0,100,0,0
60700,-90.9090909090909,4,1,0,100,0,0
60950,-76.9230769230769,4,1,0,100,0,0
61200,-66.6666666666667,4,1,0,100,0,0
61450,-25,4,1,0,100,0,1
61700,-58.8235294117647,4,1,0,100,0,0
64450,-41.6666666666667,4,1,0,100,0,0
64550,-58.8235294117647,4,1,0,100,0,0
66700,-33.3333333333333,4,1,0,100,0,1
66950,-58.8235294117647,4,1,0,100,0,0
67200,-33.3333333333333,4,1,0,100,0,1
67450,-58.8235294117647,4,1,0,100,0,0
67700,-33.3333333333333,4,1,0,100,0,1
67950,-58.8235294117647,4,1,0,100,0,0
68200,-41.6666666666667,4,1,0,100,0,0
68300,-58.8235294117647,4,1,0,100,0,0
68450,-41.6666666666667,4,1,0,100,0,0
68550,-58.8235294117647,4,1,0,100,0,0
84033,-62.5,4,1,0,100,0,0
84116,-66.6666666666667,4,1,0,100,0,0
84200,-71.4285714285714,4,1,0,100,0,0
84366,-76.9230769230769,4,1,0,100,0,0
84533,-83.3333333333334,4,1,0,100,0,0
84950,-25,4,1,0,100,0,0
85116,-58.8235294117647,4,1,0,100,0,0
92700,500,4,1,0,100,1,8
92700,-58.8235294117647,4,1,0,100,0,1
92950,-100,4,1,0,100,0,0
93200,-100,4,1,0,100,0,0
94700,-100,4,1,0,100,0,1
94950,-100,4,1,0,100,0,0
96700,-100,4,1,0,100,0,1
96950,-100,4,1,0,100,0,0
98700,-100,4,1,0,100,0,1
98950,-100,4,1,0,100,0,0
100700,461.538461538462,4,1,0,100,1,0
100700,-103.092783505155,4,1,0,100,0,1
100930,-103.092783505155,4,1,0,100,0,0
102546,428.571428571429,4,1,0,100,1,0
102546,-104.477611940298,4,1,0,100,0,1
102760,-104.477611940298,4,1,0,100,0,0
104260,375,4,1,0,100,1,0
104260,-111.111111111111,4,1,0,100,0,1
104447,-111.111111111111,4,1,0,100,0,0
105760,333.333333333333,4,1,0,100,1,0
105760,-115.384615384615,4,1,0,100,0,1
105926,-115.384615384615,4,1,0,100,0,0
107093,300,4,1,0,100,1,0
107093,-117.647058823529,4,1,0,100,0,1
107243,-117.647058823529,4,1,0,100,0,0
107693,-117.647058823529,4,1,0,100,0,1
107843,-117.647058823529,4,1,0,100,0,0
108293,272.727272727273,4,1,0,100,1,0
108293,-118.279569892473,4,1,0,100,0,1
108429,-118.279569892473,4,1,0,100,0,0
108838,-118.279569892473,4,1,0,100,0,1
108974,-118.279569892473,4,1,0,100,0,0
109383,250,4,1,0,100,1,0
109383,-117.647058823529,4,1,0,100,0,1
109508,-117.647058823529,4,1,0,100,0,0
109883,-117.647058823529,4,1,0,100,0,1
110008,-117.647058823529,4,1,0,100,0,0
110383,218.181818181818,4,1,0,100,1,0
110383,-119.565217391304,4,1,0,100,0,1
110492,-119.565217391304,4,1,0,100,0,0
110819,-119.565217391304,4,1,0,100,0,1
110928,-119.565217391304,4,1,0,100,0,0
111255,196.72131147541,4,1,0,100,1,0
111255,-119.047619047619,4,1,0,100,0,0
112041,187.5,4,1,0,100,1,0
112041,-114.285714285714,4,1,0,100,0,0
112791,176.470588235294,4,1,0,100,1,0
112791,-111.111111111111,4,1,0,100,0,0
113495,166.666666666667,4,1,0,100,1,0
113495,-107.142857142857,4,1,0,100,0,0
114161,160,4,1,0,100,1,0
114161,-103.092783505155,4,1,0,100,0,0
114801,153.846153846154,4,1,0,100,1,0
114801,-99.236641221374,4,1,0,100,0,0
115416,151.898734177215,4,1,0,100,1,0
115416,-95.2380952380952,4,1,0,100,0,0
116023,150,4,1,0,100,1,0
116023,-90.9090909090909,4,1,0,100,0,0
116623,300,3,1,0,100,1,0
116623,-98.0392156862745,3,1,0,100,0,1
133423,-96.1538461538461,3,1,0,100,0,1
133573,-94.3396226415094,3,1,0,100,0,1
133723,-92.5925925925926,3,1,0,100,0,1
133873,-90.9090909090909,3,1,0,100,0,1
134023,-89.2857142857143,3,1,0,100,0,1
134173,-87.719298245614,3,1,0,100,0,1
134323,-86.2068965517241,3,1,0,100,0,1
134473,-84.7457627118644,3,1,0,100,0,1
134623,-83.3333333333333,3,1,0,100,0,1
134698,-81.9672131147541,3,1,0,100,0,1
134773,-80.6451612903226,3,1,0,100,0,1
134848,-79.3650793650794,3,1,0,100,0,1
134923,-78.125,3,1,0,100,0,1
134998,-76.9230769230769,3,1,0,100,0,1
135073,-75.7575757575758,3,1,0,100,0,1
135148,-74.6268656716418,3,1,0,100,0,1
135223,-73.5294117647059,3,1,0,100,0,1
135298,-72.463768115942,3,1,0,100,0,1
135373,-71.4285714285714,3,1,0,100,0,1
135448,-70.4225352112676,3,1,0,100,0,1
135523,-69.4444444444444,3,1,0,100,0,1
135598,-68.4931506849315,3,1,0,100,0,1
135673,-67.5675675675676,3,1,0,100,0,1
135748,-66.6666666666667,3,1,0,100,0,1
135823,-65.7894736842105,3,1,0,100,0,1
145423,571.428571428571,4,1,0,100,1,8
145423,-38.4615384615385,4,1,0,100,0,9
145523,-38.4615384615385,4,1,0,100,0,8
145994,-87.5000000000001,4,1,0,100,0,8
147708,480,4,1,0,100,1,0
147708,-99.009900990099,4,1,0,100,0,1
147868,-99.009900990099,4,1,0,100,0,0
149628,413.793103448276,4,1,0,100,1,0
149628,-107.806691449814,4,1,0,100,0,1
149834,-107.806691449814,4,1,0,100,0,0
151283,363.636363636364,4,1,0,100,1,0
151283,-113.636363636364,4,1,0,100,0,1
151464,-113.636363636364,4,1,0,100,0,0
152737,324.324324324324,4,1,0,100,1,0
152737,-117.834394904459,4,1,0,100,0,1
152899,-117.834394904459,4,1,0,100,0,0
154036,292.682926829268,4,1,0,100,1,8
154036,-119.047619047619,4,1,0,100,0,1
154182,-119.047619047619,4,1,0,100,0,0
155206,266.666666666667,4,1,0,100,1,0
155206,-120,4,1,0,100,0,1
155339,-120,4,1,0,100,0,0
156272,250,4,1,0,100,1,0
156272,-117.647058823529,4,1,0,100,0,1
156397,-117.647058823529,4,1,0,100,0,0
157272,226.415094339623,4,1,0,100,1,0
157272,-117.256637168141,4,1,0,100,0,1
157385,-117.256637168141,4,1,0,100,0,0
158177,210.526315789474,4,1,0,100,1,0
158177,-114.942528735632,4,1,0,100,0,1
158282,-114.942528735632,4,1,0,100,0,0
159019,200,3,1,0,100,1,0
159019,-111.111111111111,3,1,0,100,0,1
159119,-111.111111111111,3,1,0,100,0,0
159819,-111.111111111111,3,1,0,100,0,1
159919,-111.111111111111,3,1,0,100,0,0
160619,-108.695652173913,3,1,0,100,0,1
160719,-108.695652173913,3,1,0,100,0,0
161019,-106.382978723404,3,1,0,100,0,1
161119,-106.382978723404,3,1,0,100,0,0
161419,-104.166666666667,3,1,0,100,0,1
161519,-104.166666666667,3,1,0,100,0,0
161819,-102.040816326531,3,1,0,100,0,1
161919,-102.040816326531,3,1,0,100,0,0
162219,-99.9999999999999,3,1,0,100,0,1
162319,-99.9999999999999,3,1,0,100,0,0
162619,-98.0392156862745,3,1,0,100,0,1
162719,-98.0392156862745,3,1,0,100,0,0
163019,-96.1538461538461,3,1,0,100,0,1
163119,-96.1538461538461,3,1,0,100,0,0
163419,-94.3396226415094,3,1,0,100,0,1
163519,-94.3396226415094,3,1,0,100,0,0
163819,-92.5925925925926,3,1,0,100,0,1
163852,-92.5925925925926,3,1,0,100,0,0
164019,-90.9090909090908,3,1,0,100,0,1
164052,-90.9090909090908,3,1,0,100,0,0
164219,-89.2857142857143,3,1,0,100,0,1
164252,-89.2857142857143,3,1,0,100,0,0
164419,-87.719298245614,3,1,0,100,0,1
164452,-87.719298245614,3,1,0,100,0,0
164619,-86.2068965517241,3,1,0,100,0,1
164652,-86.2068965517241,3,1,0,100,0,0
164819,-84.7457627118644,3,1,0,100,0,1
164852,-84.7457627118644,3,1,0,100,0,0
165019,-83.3333333333333,3,1,0,100,0,1
165052,-83.3333333333333,3,1,0,100,0,0
165219,-81.9672131147541,3,1,0,100,0,1
165252,-81.9672131147541,3,1,0,100,0,0
165419,-80.6451612903226,3,1,0,100,0,1
165452,-80.6451612903226,3,1,0,100,0,0
166019,-69.4444444444444,3,1,0,100,0,0
166619,-74.6268656716418,3,1,0,100,0,0
166819,400,4,1,0,100,1,8
167019,400,4,1,0,100,1,0
167019,-68.4931506849315,4,1,0,100,0,1
169319,-49.7512437810945,4,1,0,100,0,1
169419,-44.2477876106195,4,1,0,100,0,1
169719,-39.8406374501992,4,1,0,100,0,1
170019,-34.965034965035,4,1,0,100,0,1
170219,-68.4931506849315,4,1,0,100,0,1
172519,-49.7512437810945,4,1,0,100,0,1
172619,-44.2477876106195,4,1,0,100,0,1
172919,-39.8406374501992,4,1,0,100,0,1
173019,-36.231884057971,4,1,0,100,0,1
173419,-68.4931506849315,4,1,0,100,0,1
175719,-49.7512437810945,4,1,0,100,0,1
175819,-44.2477876106195,4,1,0,100,0,1
176019,-39.8406374501992,4,1,0,100,0,1
176119,-36.231884057971,4,1,0,100,0,1
176319,-33.2225913621262,4,1,0,100,0,1
176419,-30.6748466257669,4,1,0,100,0,1
176619,-68.4931506849315,4,1,0,100,0,1
182219,-49.7512437810945,4,1,0,100,0,1
182419,-44.2477876106195,4,1,0,100,0,1
182519,-39.8406374501992,4,1,0,100,0,1
182719,-36.231884057971,4,1,0,100,0,1
182819,-33.2225913621262,4,1,0,100,0,1
183019,-68.4931506849315,4,1,0,100,0,1
185419,-73.5294117647059,4,1,0,100,0,1
185519,-79.3650793650794,4,1,0,100,0,1
185619,-86.2068965517242,4,1,0,100,0,1
185719,-94.3396226415096,4,1,0,100,0,1
185819,-104.166666666667,4,1,0,100,0,1
185919,-116.279069767442,4,1,0,100,0,1
186019,-131.578947368421,4,1,0,100,0,1
186219,-151.515151515152,4,1,0,100,0,1
186619,-25,4,1,0,100,0,1
186819,-68.4931506849315,4,1,0,100,0,1
188619,-62.111801242236,4,1,0,100,0,1
188819,-60.2409638554217,4,1,0,100,0,1
188919,-58.4795321637427,4,1,0,100,0,1
189119,-56.8181818181818,4,1,0,100,0,1
189219,-55.2486187845304,4,1,0,100,0,1
189419,-68.4931506849315,4,1,0,100,0,1
190819,-67.5675675675676,4,1,0,100,0,1
190869,-66.6666666666667,4,1,0,100,0,1
190919,-65.7894736842105,4,1,0,100,0,1
190969,-64.9350649350649,4,1,0,100,0,1
191019,-64.1025641025641,4,1,0,100,0,1
191119,-63.2911392405063,4,1,0,100,0,1
191319,-62.5,4,1,0,100,0,1
203520,0.99999999,4,1,0,100,1,0
203521,400,4,1,0,100,1,8
203521,-62.5,4,1,0,100,0,8
203820,0.99999999,4,1,0,100,1,0
203821,400,4,1,0,100,1,8
203821,-47.6190476190476,4,1,0,100,0,8
204220,0.99999999,4,1,0,100,1,0
204221,400,4,1,0,100,1,8
204221,-38.4615384615385,4,1,0,100,0,8
204620,0.99999999,4,1,0,100,1,0
204621,400,4,1,0,100,1,8
204621,-32.258064516129,4,1,0,100,0,8
204646,0.019999999,4,1,0,100,1,0
204646,-1E+20,4,1,0,100,0,0
204677,0.0399999999,4,1,0,100,1,0
204677,-1E+20,4,1,0,100,0,0
204708,0.0299999999,4,1,0,100,1,0
204708,-1E+20,4,1,0,100,0,0
204739,0.0699999999,4,1,0,100,1,0
204739,-1E+20,4,1,0,100,0,0
204770,0.0599999999,4,1,0,100,1,0
204770,-1E+20,4,1,0,100,0,0
204801,0.0799999999,4,1,0,100,1,0
204801,-1E+20,4,1,0,100,0,0
204832,0.0999999999,4,1,0,100,1,0
204832,-1E+20,4,1,0,100,0,0
204863,0.0199999999,4,1,0,100,1,0
204863,-1E+20,4,1,0,100,0,0
204894,0.0399999999,4,1,0,100,1,0
204894,-1E+20,4,1,0,100,0,0
204925,0.0299999999,4,1,0,100,1,0
204925,-1E+20,4,1,0,100,0,0
204956,0.0699999999,4,1,0,100,1,0
204956,-1E+20,4,1,0,100,0,0
204987,0.0599999999,4,1,0,100,1,0
204987,-1E+20,4,1,0,100,0,0
205018,0.0799999999,4,1,0,100,1,0
205018,-1E+20,4,1,0,100,0,0
205019,-27.7777777777778,4,1,0,100,0,1
205020,0.99999999,4,1,0,100,1,0
205021,400,4,1,0,100,1,8
205021,-27.7777777777778,4,1,0,100,0,1
205220,0.99999999,4,1,0,100,1,0
205221,400,4,1,0,100,1,8
205221,-27.7777777777778,4,1,0,100,0,1
205419,-62.5,4,1,0,100,0,1
211220,0.99999999,4,1,0,100,1,0
211221,400,4,1,0,100,1,8
211221,-50,4,1,0,100,0,8
211520,0.99999999,4,1,0,100,1,0
211521,400,4,1,0,100,1,8
211521,-40,4,1,0,100,0,8
211820,0.99999999,4,1,0,100,1,0
211821,400,4,1,0,100,1,8
211821,-50,4,1,0,100,0,9
211822,-62.5,4,1,0,100,0,9
214620,0.99999999,4,1,0,100,1,0
214621,400,4,1,0,100,1,9
214621,-62.5,4,1,0,100,0,9
218219,500,4,1,0,100,1,8
218219,-58.8235294117647,4,1,0,100,0,0
224219,-100,4,1,0,100,0,0
226219,-25,4,1,0,100,0,1
226469,-100,4,1,0,100,0,0
228219,-25,4,1,0,100,0,1
228469,-100,4,1,0,100,0,0
230219,-25,4,1,0,100,0,1
230469,-100,4,1,0,100,0,0
232219,-25,4,1,0,100,0,1
232469,-100,4,1,0,100,0,0
234219,-25,4,1,0,100,0,1
234469,-100,4,1,0,100,0,0
234719,-98.0392156862745,4,1,0,100,0,0
234885,-96.1538461538461,4,1,0,100,0,0
235052,-94.3396226415094,4,1,0,100,0,0
235219,-92.5925925925926,4,1,0,100,0,0
235385,-90.9090909090909,4,1,0,100,0,0
235552,-89.2857142857143,4,1,0,100,0,0
235719,-87.719298245614,4,1,0,100,0,0
235885,-86.2068965517241,4,1,0,100,0,0
236052,-84.7457627118644,4,1,0,100,0,0
236219,-83.3333333333333,4,1,0,100,0,0
236385,-81.9672131147541,4,1,0,100,0,0
236552,-80.6451612903226,4,1,0,100,0,0
236719,-79.3650793650794,4,1,0,100,0,0
236885,-78.125,4,1,0,100,0,0
237052,-76.9230769230769,4,1,0,100,0,0
237219,-75.7575757575758,4,1,0,100,0,0
237469,-74.6268656716418,4,1,0,100,0,0
237719,-73.5294117647059,4,1,0,100,0,0
237969,-72.463768115942,4,1,0,100,0,0
238219,-71.4285714285714,4,1,0,100,0,0
238385,-68.9655172413793,4,1,0,100,0,0
238469,-66.6666666666667,4,1,0,100,0,0
238635,-64.5161290322581,4,1,0,100,0,0
238719,-62.5,4,1,0,100,0,0
238885,-60.6060606060606,4,1,0,100,0,0
238969,-58.8235294117647,4,1,0,100,0,0
239135,-57.1428571428571,4,1,0,100,0,0
239219,-55.5555555555556,4,1,0,100,0,0
239385,-54.054054054054,4,1,0,100,0,0
239469,-52.6315789473684,4,1,0,100,0,0
239635,-51.2820512820513,4,1,0,100,0,0
239719,-50,4,1,0,100,0,0
239885,-48.780487804878,4,1,0,100,0,0
239969,-47.6190476190476,4,1,0,100,0,0
240135,-46.5116279069767,4,1,0,100,0,0
240219,-45.4545454545455,4,1,0,100,0,0
240302,-44.4444444444445,4,1,0,100,0,0
240385,-43.4782608695652,4,1,0,100,0,0
240469,-42.5531914893617,4,1,0,100,0,0
240552,-41.6666666666667,4,1,0,100,0,0
240635,-40.8163265306122,4,1,0,100,0,0
240719,-40,4,1,0,100,0,0
240802,-39.2156862745098,4,1,0,100,0,0
240885,-38.4615384615385,4,1,0,100,0,0
240969,-37.7358490566038,4,1,0,100,0,0
241052,-37.037037037037,4,1,0,100,0,0
241135,-36.3636363636364,4,1,0,100,0,0
241219,-39.2156862745098,4,1,0,100,0,0
241344,-40.8163265306122,4,1,0,100,0,0
241469,-42.5531914893617,4,1,0,100,0,0
241594,-46.5116279069767,4,1,0,100,0,0
241719,-51.2820512820513,4,1,0,100,0,0
241844,-57.1428571428571,4,1,0,100,0,0
241969,-58.8235294117647,4,1,0,100,0,0
242094,-60.6060606060606,4,1,0,100,0,0
242219,480,4,1,0,100,1,0
242219,-59.5238095238095,4,1,0,100,0,0
242220,-6.66660000066666E-06,4,1,0,100,0,0
242699,-59.5238095238095,4,1,0,100,0,0
244139,461.538461538462,4,1,0,100,1,0
244139,-59.9078341013825,4,1,0,100,0,0
244140,-6.66660000066666E-06,4,1,0,100,0,0
244523,-59.9078341013825,4,1,0,100,0,0
245985,428.571428571429,4,1,0,100,1,0
245985,-62.111801242236,4,1,0,100,0,0
245986,-6.66660000066666E-06,4,1,0,100,0,0
246413,-62.111801242236,4,1,0,100,0,0
247699,413.793103448276,4,1,0,100,1,0
247699,-62.2317596566523,4,1,0,100,0,0
248043,-62.2317596566523,4,1,0,100,0,1
248181,-62.2317596566523,4,1,0,100,0,0
248664,-62.2317596566523,4,1,0,100,0,1
248871,-62.2317596566523,4,1,0,100,0,0
249354,387.096774193548,4,1,0,100,1,0
249354,-63.6942675159236,4,1,0,100,0,0
250902,380.952380952381,4,1,0,100,1,0
250902,-62.6865671641793,4,1,0,100,0,0
252425,363.636363636364,4,1,0,100,1,0
252425,-62.8930817610063,4,1,0,100,0,0
253879,347.826086956522,4,1,0,100,1,0
253879,-63.1868131868133,4,1,0,100,0,0
255270,338.028169014084,4,1,0,100,1,0
255270,-62.5,4,1,0,100,0,0
256623,324.324324324324,4,1,0,100,1,8
256623,-64.5161290322581,4,1,0,100,0,0
257920,315.789473684211,4,1,0,100,1,0
257920,-65.7894736842105,4,1,0,100,0,0
259183,300,4,1,0,100,1,0
259183,-61.7283950617284,4,1,0,100,0,0
260383,292.682926829268,4,1,0,100,1,0
260383,-60.6060606060606,4,1,0,100,0,0
261553,272.727272727273,4,1,0,100,1,0
261553,-65.359477124183,4,1,0,100,0,0
262643,260.869565217391,4,1,0,100,1,0
262643,-80.6451612903226,4,1,0,100,0,0
263944,333.333333333333,4,1,0,100,1,8
263944,-61.3496932515337,4,1,0,100,0,0
264277,428.571428571429,4,1,0,100,1,8
264277,-52.3560209424084,4,1,0,100,0,0
264705,631.578947368421,4,1,0,100,1,8
264705,-40.8602150537635,4,1,0,100,0,0
265020,666.666666666667,4,1,0,100,1,8
265020,-42.3728813559322,4,1,0,100,0,0
265353,300,4,1,0,100,1,8
265353,-98.0392156862745,4,1,0,100,0,1
265503,-98.0392156862745,4,1,0,100,0,0
266553,315.789473684211,4,1,0,100,1,8
266553,-93.1372549019607,4,1,0,100,0,1
266710,-93.1372549019607,4,1,0,100,0,0
267806,352.941176470588,4,1,0,100,1,8
267806,-83.3333333333334,4,1,0,100,0,1
267982,-83.3333333333334,4,1,0,100,0,0
269217,352.941176470588,4,1,0,100,1,8
269260,413.793103448276,4,1,0,100,1,8
269260,-71.078431372549,4,1,0,100,0,1
269466,-71.078431372549,4,1,0,100,0,0
270087,521.739130434783,4,1,0,100,1,8
270087,-56.3725490196078,4,1,0,100,0,0
270608,500,4,1,0,100,1,8
270608,-58.8235294117647,4,1,0,100,0,1
271233,-58.8235294117647,4,1,0,100,0,0

[HitObjects]
224,192,700,5,0,0:0:0:0:
224,192,1200,1,8,0:0:0:0:
224,192,1366,1,0,0:0:0:0:
224,192,1533,1,8,0:0:0:0:
224,192,1700,1,0,0:0:0:0:
192,192,1866,1,0,0:0:0:0:
192,192,2033,1,8,0:0:0:0:
192,192,2200,1,0,0:0:0:0:
192,192,2700,1,8,0:0:0:0:
192,192,3200,1,8,0:0:0:0:
192,192,3366,1,0,0:0:0:0:
192,192,3533,1,8,0:0:0:0:
192,192,3700,1,8,0:0:0:0:
192,192,3866,1,0,0:0:0:0:
192,192,4033,1,0,0:0:0:0:
192,192,4200,1,8,0:0:0:0:
224,192,4700,1,0,0:0:0:0:
224,192,5200,1,8,0:0:0:0:
224,192,5366,1,0,0:0:0:0:
224,192,5533,1,8,0:0:0:0:
224,192,5700,1,0,0:0:0:0:
192,192,5866,1,0,0:0:0:0:
192,192,6033,1,8,0:0:0:0:
192,192,6200,1,0,0:0:0:0:
192,192,6700,1,8,0:0:0:0:
192,192,7200,1,8,0:0:0:0:
192,192,7366,1,0,0:0:0:0:
192,192,7533,1,8,0:0:0:0:
192,192,7700,1,8,0:0:0:0:
192,192,7866,1,0,0:0:0:0:
192,192,8033,1,0,0:0:0:0:
192,192,8200,1,8,0:0:0:0:
224,192,8700,1,0,0:0:0:0:
224,192,9200,1,8,0:0:0:0:
224,192,9366,1,0,0:0:0:0:
224,192,9533,1,8,0:0:0:0:
224,192,9700,1,0,0:0:0:0:
192,192,9866,1,0,0:0:0:0:
192,192,10033,1,8,0:0:0:0:
192,192,10200,1,0,0:0:0:0:
192,192,10700,1,8,0:0:0:0:
192,192,11200,1,8,0:0:0:0:
192,192,11366,1,0,0:0:0:0:
192,192,11533,1,8,0:0:0:0:
192,192,11700,1,8,0:0:0:0:
192,192,11866,1,0,0:0:0:0:
192,192,12033,1,0,0:0:0:0:
192,192,12200,1,8,0:0:0:0:
224,192,12700,1,0,0:0:0:0:
224,192,13200,1,8,0:0:0:0:
224,192,13366,1,0,0:0:0:0:
224,192,13533,1,8,0:0:0:0:
224,192,13700,1,0,0:0:0:0:
192,192,13866,1,0,0:0:0:0:
192,192,14033,1,8,0:0:0:0:
192,192,14200,1,0,0:0:0:0:
192,192,14700,1,8,0:0:0:0:
192,192,15200,1,8,0:0:0:0:
192,192,15366,1,0,0:0:0:0:
192,192,15533,1,8,0:0:0:0:
192,192,15700,1,0,0:0:0:0:
192,192,15825,1,8,0:0:0:0:
192,192,15950,1,0,0:0:0:0:
192,192,16075,1,0,0:0:0:0:
192,192,16200,1,8,0:0:0:0:
192,192,16325,1,0,0:0:0:0:
192,192,16450,1,8,0:0:0:0:
192,192,16700,1,4,0:0:0:0:
224,192,17200,1,8,0:0:0:0:
256,192,17201,6,0,L,1,0.01
256,192,17202,6,0,L,1,0.01
256,192,17203,6,0,L,1,0.01
256,192,17204,6,0,L,1,0.01
224,192,17366,1,0,0:0:0:0:
256,192,17367,6,0,L,1,0.01
256,192,17368,6,0,L,1,0.01
256,192,17369,6,0,L,1,0.01
256,192,17370,6,0,L,1,0.01
224,192,17533,1,8,0:0:0:0:
256,192,17534,6,0,L,1,0.01
256,192,17535,6,0,L,1,0.01
256,192,17536,6,0,L,1,0.01
256,192,17537,6,0,L,1,0.01
224,192,17700,1,0,0:0:0:0:
256,192,17701,6,0,L,1,0.01
256,192,17702,6,0,L,1,0.01
256,192,17703,6,0,L,1,0.01
256,192,17704,6,0,L,1,0.01
192,192,17866,1,0,0:0:0:0:
256,192,17867,6,0,L,1,0.01
256,192,17868,6,0,L,1,0.01
256,192,17869,6,0,L,1,0.01
256,192,17870,6,0,L,1,0.01
192,192,18033,1,8,0:0:0:0:
256,192,18034,6,0,L,1,0.01
256,192,18035,6,0,L,1,0.01
256,192,18036,6,0,L,1,0.01
256,192,18037,6,0,L,1,0.01
192,192,18200,1,0,0:0:0:0:
256,192,18201,6,0,L,1,0.01
256,192,18202,6,0,L,1,0.01
256,192,18203,6,0,L,1,0.01
256,192,18204,6,0,L,1,0.01
192,192,18700,1,12,0:0:0:0:
192,192,19200,1,8,0:0:0:0:
256,192,19201,6,0,L,1,0.01
256,192,19202,6,0,L,1,0.01
256,192,19203,6,0,L,1,0.01
256,192,19204,6,0,L,1,0.01
192,192,19366,1,0,0:0:0:0:
256,192,19367,6,0,L,1,0.01
256,192,19368,6,0,L,1,0.01
256,192,19369,6,0,L,1,0.01
256,192,19370,6,0,L,1,0.01
192,192,19533,1,8,0:0:0:0:
256,192,19534,6,0,L,1,0.01
256,192,19535,6,0,L,1,0.01
256,192,19536,6,0,L,1,0.01
256,192,19537,6,0,L,1,0.01
192,192,19700,1,8,0:0:0:0:
256,192,19701,6,0,L,1,0.01
256,192,19702,6,0,L,1,0.01
256,192,19703,6,0,L,1,0.01
256,192,19704,6,0,L,1,0.01
192,192,19866,1,0,0:0:0:0:
256,192,19867,6,0,L,1,0.01
256,192,19868,6,0,L,1,0.01
256,192,19869,6,0,L,1,0.01
256,192,19870,6,0,L,1,0.01
192,192,20033,1,0,0:0:0:0:
256,192,20034,6,0,L,1,0.01
256,192,20035,6,0,L,1,0.01
256,192,20036,6,0,L,1,0.01
256,192,20037,6,0,L,1,0.01
192,192,20200,1,8,0:0:0:0:
256,192,20201,6,0,L,1,0.01
256,192,20202,6,0,L,1,0.01
256,192,20203,6,0,L,1,0.01
256,192,20204,6,0,L,1,0.01
224,192,20700,1,4,0:0:0:0:
224,192,21200,1,8,0:0:0:0:
256,192,21201,6,0,L,1,0.01
256,192,21202,6,0,L,1,0.01
256,192,21203,6,0,L,1,0.01
256,192,21204,6,0,L,1,0.01
224,192,21366,1,0,0:0:0:0:
256,192,21367,6,0,L,1,0.01
256,192,21368,6,0,L,1,0.01
256,192,21369,6,0,L,1,0.01
256,192,21370,6,0,L,1,0.01
224,192,21533,1,8,0:0:0:0:
256,192,21534,6,0,L,1,0.01
256,192,21535,6,0,L,1,0.01
256,192,21536,6,0,L,1,0.01
256,192,21537,6,0,L,1,0.01
224,192,21700,1,0,0:0:0:0:
256,192,21701,6,0,L,1,0.01
256,192,21702,6,0,L,1,0.01
256,192,21703,6,0,L,1,0.01
256,192,21704,6,0,L,1,0.01
192,192,21866,1,0,0:0:0:0:
256,192,21867,6,0,L,1,0.01
256,192,21868,6,0,L,1,0.01
256,192,21869,6,0,L,1,0.01
256,192,21870,6,0,L,1,0.01
192,192,22033,1,8,0:0:0:0:
256,192,22034,6,0,L,1,0.01
256,192,22035,6,0,L,1,0.01
256,192,22036,6,0,L,1,0.01
256,192,22037,6,0,L,1,0.01
192,192,22200,1,0,0:0:0:0:
256,192,22201,6,0,L,1,0.01
256,192,22202,6,0,L,1,0.01
256,192,22203,6,0,L,1,0.01
256,192,22204,6,0,L,1,0.01
192,192,22700,1,12,0:0:0:0:
192,192,23200,1,8,0:0:0:0:
256,192,23201,6,0,L,1,0.01
256,192,23202,6,0,L,1,0.01
256,192,23203,6,0,L,1,0.01
256,192,23204,6,0,L,1,0.01
192,192,23366,1,0,0:0:0:0:
256,192,23367,6,0,L,1,0.01
256,192,23368,6,0,L,1,0.01
256,192,23369,6,0,L,1,0.01
256,192,23370,6,0,L,1,0.01
192,192,23533,1,8,0:0:0:0:
256,192,23534,6,0,L,1,0.01
256,192,23535,6,0,L,1,0.01
256,192,23536,6,0,L,1,0.01
256,192,23537,6,0,L,1,0.01
192,192,23700,1,8,0:0:0:0:
256,192,23701,6,0,L,1,0.01
256,192,23702,6,0,L,1,0.01
256,192,23703,6,0,L,1,0.01
256,192,23704,6,0,L,1,0.01
192,192,23866,1,0,0:0:0:0:
256,192,23867,6,0,L,1,0.01
256,192,23868,6,0,L,1,0.01
256,192,23869,6,0,L,1,0.01
256,192,23870,6,0,L,1,0.01
192,192,24033,1,0,0:0:0:0:
256,192,24034,6,0,L,1,0.01
256,192,24035,6,0,L,1,0.01
256,192,24036,6,0,L,1,0.01
256,192,24037,6,0,L,1,0.01
192,192,24200,1,8,0:0:0:0:
256,192,24201,6,0,L,1,0.01
256,192,24202,6,0,L,1,0.01
256,192,24203,6,0,L,1,0.01
256,192,24204,6,0,L,1,0.01
224,192,24700,1,4,0:0:0:0:
224,192,25200,1,8,0:0:0:0:
256,192,25201,6,0,L,1,0.01
256,192,25202,6,0,L,1,0.01
256,192,25203,6,0,L,1,0.01
256,192,25204,6,0,L,1,0.01
224,192,25366,1,0,0:0:0:0:
256,192,25367,6,0,L,1,0.01
256,192,25368,6,0,L,1,0.01
256,192,25369,6,0,L,1,0.01
256,192,25370,6,0,L,1,0.01
224,192,25533,1,8,0:0:0:0:
256,192,25534,6,0,L,1,0.01
256,192,25535,6,0,L,1,0.01
256,192,25536,6,0,L,1,0.01
256,192,25537,6,0,L,1,0.01
224,192,25700,1,8,0:0:0:0:
256,192,25701,6,0,L,1,0.01
256,192,25702,6,0,L,1,0.01
256,192,25703,6,0,L,1,0.01
256,192,25704,6,0,L,1,0.01
192,192,25866,1,0,0:0:0:0:
256,192,25867,6,0,L,1,0.01
256,192,25868,6,0,L,1,0.01
256,192,25869,6,0,L,1,0.01
256,192,25870,6,0,L,1,0.01
192,192,26033,1,8,0:0:0:0:
256,192,26034,6,0,L,1,0.01
256,192,26035,6,0,L,1,0.01
256,192,26036,6,0,L,1,0.01
256,192,26037,6,0,L,1,0.01
192,192,26200,1,0,0:0:0:0:
256,192,26201,6,0,L,1,0.01
256,192,26202,6,0,L,1,0.01
256,192,26203,6,0,L,1,0.01
256,192,26204,6,0,L,1,0.01
192,192,26366,1,8,0:0:0:0:
192,192,26533,1,0,0:0:0:0:
224,128,26700,1,8,0:0:0:0:
160,192,26866,1,8,0:0:0:0:
160,192,27033,1,0,0:0:0:0:
192,192,27200,1,8,0:0:0:0:
192,192,27366,1,0,0:0:0:0:
192,192,27533,1,8,0:0:0:0:
192,192,27700,1,8,0:0:0:0:
192,192,27866,1,0,0:0:0:0:
192,192,28033,1,8,0:0:0:0:
192,192,28200,1,8,0:0:0:0:
192,192,28450,1,0,0:0:0:0:
192,192,28700,1,8,0:0:0:0:
224,224,28866,1,0,0:0:0:0:
192,192,28950,1,0,0:0:0:0:
192,192,29116,1,0,0:0:0:0:
192,192,29200,1,8,0:0:0:0:
224,192,29366,1,0,0:0:0:0:
224,224,29450,1,0,0:0:0:0:
224,224,29616,1,0,0:0:0:0:
192,224,29700,1,8,0:0:0:0:
192,224,29866,1,0,0:0:0:0:
192,224,29950,1,0,0:0:0:0:
224,192,30116,1,0,0:0:0:0:
224,192,30200,1,8,0:0:0:0:
192,192,30366,1,0,0:0:0:0:
224,192,30450,1,0,0:0:0:0:
224,192,30616,1,8,0:0:0:0:
224,192,30700,1,0,0:0:0:0:
224,192,30783,1,0,0:0:0:0:
224,192,30866,1,8,0:0:0:0:
224,192,30950,1,0,0:0:0:0:
224,192,31033,1,0,0:0:0:0:
224,192,31116,1,8,0:0:0:0:
224,192,31200,1,8,0:0:0:0:
224,192,31283,1,0,0:0:0:0:
224,192,31366,1,0,0:0:0:0:
224,192,31450,1,8,0:0:0:0:
224,192,31533,1,8,0:0:0:0:
224,192,31616,1,8,0:0:0:0:
224,192,31700,1,0,0:0:0:0:
256,192,31700,8,0,34950,0:0:0:0:
256,192,35200,5,0,0:0:0:0:
224,320,35450,1,0,0:0:0:0:
256,192,35700,1,0,0:0:0:0:
256,192,35825,1,8,0:0:0:0:
256,192,35950,1,0,0:0:0:0:
256,192,36075,1,0,0:0:0:0:
256,192,36200,1,8,0:0:0:0:
256,192,36325,1,0,0:0:0:0:
256,192,36450,1,8,0:0:0:0:
256,192,36700,1,12,0:0:0:0:
132,89,36701,2,4,L|174:134,20,35,0|0|4|4|4|4|4|4|4|4|4|4|4|4|4|4|4|4|4|4|4,0:0|0:0|0:0|0:0|0:0|0:0|0:0|0:0|0:0|0:0|0:0|0:0|0:0|0:0|0:0|0:0|0:0|0:0|0:0|0:0|0:0,0:0:0:0:
192,192,37200,1,8,0:0:0:0:
256,192,37201,6,0,L,1,0.01
256,192,37202,6,0,L,1,0.01
256,192,37203,6,0,L,1,0.01
256,192,37204,6,0,L,1,0.01
192,192,37283,1,0,0:0:0:0:
256,192,37284,6,0,L,1,0.01
256,192,37285,6,0,L,1,0.01
256,192,37286,6,0,L,1,0.01
256,192,37287,6,0,L,1,0.01
192,192,37366,1,0,0:0:0:0:
256,192,37367,6,0,L,1,0.01
256,192,37368,6,0,L,1,0.01
256,192,37369,6,0,L,1,0.01
256,192,37370,6,0,L,1,0.01
192,192,37450,1,8,0:0:0:0:
256,192,37451,6,0,L,1,0.01
256,192,37452,6,0,L,1,0.01
256,192,37453,6,0,L,1,0.01
256,192,37454,6,0,L,1,0.01
192,192,37533,1,0,0:0:0:0:
256,192,37534,6,0,L,1,0.01
256,192,37535,6,0,L,1,0.01
256,192,37536,6,0,L,1,0.01
256,192,37537,6,0,L,1,0.01
192,192,37616,1,8,0:0:0:0:
256,192,37617,6,0,L,1,0.01
256,192,37618,6,0,L,1,0.01
256,192,37619,6,0,L,1,0.01
256,192,37620,6,0,L,1,0.01
416,224,37866,1,8,0:0:0:0:
256,192,37950,1,0,0:0:0:0:
32,128,38033,1,0,0:0:0:0:
256,256,38116,1,8,0:0:0:0:
256,192,38200,1,8,0:0:0:0:
224,224,38366,1,8,0:0:0:0:
256,192,38450,1,8,0:0:0:0:
224,224,38533,1,0,0:0:0:0:
256,192,38616,1,0,0:0:0:0:
256,192,38700,1,8,0:0:0:0:
132,89,38701,2,4,L|174:134,20,35,0|0|4|4|4|4|4|4|4|4|4|4|4|4|4|4|4|4|4|4|4,0:0|0:0|0:0|0:0|0:0|0:0|0:0|0:0|0:0|0:0|0:0|0:0|0:0|0:0|0:0|0:0|0:0|0:0|0:0|0:0|0:0,0:0:0:0:
320,128,39116,1,8,0:0:0:0:
256,224,39200,1,8,0:0:0:0:
256,192,39283,1,0,0:0:0:0:
320,128,39366,1,8,0:0:0:0:
256,192,39450,1,8,0:0:0:0:
320,128,39616,1,0,0:0:0:0:
320,128,39700,1,0,0:0:0:0:
320,128,39783,1,0,0:0:0:0:
320,128,39866,1,0,0:0:0:0:
224,160,39950,1,8,0:0:0:0:
320,128,40116,1,8,0:0:0:0:
320,128,40200,1,0,0:0:0:0:
224,192,40366,1,0,0:0:0:0:
224,192,40450,1,12,0:0:0:0:
256,192,40700,1,0,0:0:0:0:
132,89,40701,2,4,L|174:134,20,35,0|0|4|4|4|4|4|4|4|4|4|4|4|4|4|4|4|4|4|4|4,0:0|0:0|0:0|0:0|0:0|0:0|0:0|0:0|0:0|0:0|0:0|0:0|0:0|0:0|0:0|0:0|0:0|0:0|0:0|0:0|0:0,0:0:0:0:
224,192,41200,1,8,0:0:0:0:
160,192,41366,1,8,0:0:0:0:
224,192,41450,1,0,0:0:0:0:
224,192,41533,1,0,0:0:0:0:
224,192,41616,1,8,0:0:0:0:
224,192,41700,1,0,0:0:0:0:
224,192,41866,1,8,0:0:0:0:
224,192,41950,1,0,0:0:0:0:
160,192,42033,1,8,0:0:0:0:
160,192,42075,1,8,0:0:0:0:
304,128,42116,1,8,0:0:0:0:
160,192,42200,1,0,0:0:0:0:
256,192,42366,1,0,0:0:0:0:
256,192,42450,1,8,0:0:0:0:
256,192,42700,1,0,0:0:0:0:
256,224,42783,1,8,0:0:0:0:
256,224,42866,1,8,0:0:0:0:
288,96,42950,1,0,0:0:0:0:
288,224,43116,1,12,0:0:0:0:
288,96,43450,1,0,0:0:0:0:
256,192,43451,6,0,L,1,0.01
256,192,43452,6,0,L,1,0.01
256,192,43453,6,0,L,1,0.01
256,192,43454,6,0,L,1,0.01
288,96,43533,1,8,0:0:0:0:
256,192,43534,6,0,L,1,0.01
256,192,43535,6,0,L,1,0.01
256,192,43536,6,0,L,1,0.01
256,192,43537,6,0,L,1,0.01
288,96,43616,1,0,0:0:0:0:
256,192,43617,6,0,L,1,0.01
256,192,43618,6,0,L,1,0.01
256,192,43619,6,0,L,1,0.01
256,192,43620,6,0,L,1,0.01
288,96,43700,1,0,0:0:0:0:
256,192,43701,6,0,L,1,0.01
256,192,43702,6,0,L,1,0.01
256,192,43703,6,0,L,1,0.01
256,192,43704,6,0,L,1,0.01
288,96,43866,1,12,0:0:0:0:
192,192,44200,1,0,0:0:0:0:
256,192,44201,2,0,L,1,0.01
256,192,44202,2,0,L,1,0.01
256,192,44203,2,0,L,1,0.01
256,192,44204,2,0,L,1,0.01
256,128,44262,1,0,0:0:0:0:
256,192,44263,6,0,L,1,0.01
256,192,44264,6,0,L,1,0.01
256,192,44265,6,0,L,1,0.01
256,192,44266,6,0,L,1,0.01
192,192,44325,1,0,0:0:0:0:
256,192,44326,6,0,L,1,0.01
256,192,44327,6,0,L,1,0.01
256,192,44328,6,0,L,1,0.01
256,192,44329,6,0,L,1,0.01
256,128,44387,1,0,0:0:0:0:
256,192,44388,6,0,L,1,0.01
256,192,44389,6,0,L,1,0.01
256,192,44390,6,0,L,1,0.01
256,192,44391,6,0,L,1,0.01
192,192,44450,1,8,0:0:0:0:
256,192,44451,6,8,L,1,0.01
256,192,44452,6,8,L,1,0.01
256,192,44453,6,8,L,1,0.01
256,192,44454,6,8,L,1,0.01
256,192,44700,1,4,0:0:0:0:
132,89,44701,2,4,L|174:134,20,35,0|0|4|4|4|4|4|4|4|4|4|4|4|4|4|4|4|4|4|4|4,0:0|0:0|0:0|0:0|0:0|0:0|0:0|0:0|0:0|0:0|0:0|0:0|0:0|0:0|0:0|0:0|0:0|0:0|0:0|0:0|0:0,0:0:0:0:
288,96,45200,1,8,0:0:0:0:
288,96,45283,1,0,0:0:0:0:
288,96,45366,1,0,0:0:0:0:
288,96,45450,1,8,0:0:0:0:
288,96,45616,1,8,0:0:0:0:
288,96,45700,1,0,0:0:0:0:
288,96,45866,1,8,0:0:0:0:
288,96,45950,1,0,0:0:0:0:
192,176,46033,1,0,0:0:0:0:
112,176,46075,1,0,0:0:0:0:
320,96,46116,1,0,0:0:0:0:
320,96,46200,1,8,0:0:0:0:
320,96,46366,1,0,0:0:0:0:
320,96,46450,1,8,0:0:0:0:
320,128,46533,1,8,0:0:0:0:
320,128,46616,1,8,0:0:0:0:
256,192,46700,1,0,0:0:0:0:
132,89,46701,2,4,L|174:134,20,35,0|0|4|4|4|4|4|4|4|4|4|4|4|4|4|4|4|4|4|4|4,0:0|0:0|0:0|0:0|0:0|0:0|0:0|0:0|0:0|0:0|0:0|0:0|0:0|0:0|0:0|0:0|0:0|0:0|0:0|0:0|0:0,0:0:0:0:
320,128,47200,1,8,0:0:0:0:
288,128,47283,1,0,0:0:0:0:
288,128,47366,1,0,0:0:0:0:
288,128,47450,1,8,0:0:0:0:
288,128,47616,1,0,0:0:0:0:
160,96,47700,1,8,0:0:0:0:
160,96,47783,1,8,0:0:0:0:
160,96,47866,1,0,0:0:0:0:
288,128,47950,1,8,0:0:0:0:
288,128,48116,1,0,0:0:0:0:
288,128,48200,1,8,0:0:0:0:
288,128,48366,1,0,0:0:0:0:
288,128,48450,1,12,0:0:0:0:
256,192,48700,1,0,0:0:0:0:
132,89,48701,2,4,L|174:134,20,35,0|0|4|4|4|4|4|4|4|4|4|4|4|4|4|4|4|4|4|4|4,0:0|0:0|0:0|0:0|0:0|0:0|0:0|0:0|0:0|0:0|0:0|0:0|0:0|0:0|0:0|0:0|0:0|0:0|0:0|0:0|0:0,0:0:0:0:
288,128,49200,1,8,0:0:0:0:
288,128,49366,1,0,0:0:0:0:
288,128,49450,1,8,0:0:0:0:
192,128,49533,1,8,0:0:0:0:
288,96,49616,1,0,0:0:0:0:
288,96,49762,1,0,0:0:0:0:
288,96,49887,1,0,0:0:0:0:
288,96,50075,1,8,0:0:0:0:
256,128,50200,1,8,0:0:0:0:
288,96,50283,1,8,0:0:0:0:
256,128,50366,1,0,0:0:0:0:
256,128,50450,1,8,0:0:0:0:
256,128,50700,1,0,0:0:0:0:
256,128,50783,1,8,0:0:0:0:
256,128,50866,1,8,0:0:0:0:
256,128,50950,1,0,0:0:0:0:
256,128,51116,1,12,0:0:0:0:
256,128,51450,1,0,0:0:0:0:
256,192,51451,6,0,L,1,0.01
256,192,51452,6,0,L,1,0.01
256,192,51453,6,0,L,1,0.01
256,192,51454,6,0,L,1,0.01
256,128,51533,1,8,0:0:0:0:
256,192,51534,6,0,L,1,0.01
256,192,51535,6,0,L,1,0.01
256,192,51536,6,0,L,1,0.01
256,192,51537,6,0,L,1,0.01
256,128,51616,1,0,0:0:0:0:
256,192,51617,6,0,L,1,0.01
256,192,51618,6,0,L,1,0.01
256,192,51619,6,0,L,1,0.01
256,192,51620,6,0,L,1,0.01
256,128,51700,1,0,0:0:0:0:
256,192,51701,6,0,L,1,0.01
256,192,51702,6,0,L,1,0.01
256,192,51703,6,0,L,1,0.01
256,192,51704,6,0,L,1,0.01
256,128,51866,1,12,0:0:0:0:
256,128,52200,1,8,0:0:0:0:
256,192,52201,6,0,L,1,0.01
256,192,52202,6,0,L,1,0.01
256,192,52203,6,0,L,1,0.01
256,192,52204,6,0,L,1,0.01
256,128,52262,1,0,0:0:0:0:
256,192,52263,6,0,L,1,0.01
256,192,52264,6,0,L,1,0.01
256,192,52265,6,0,L,1,0.01
256,192,52266,6,0,L,1,0.01
256,128,52325,1,0,0:0:0:0:
256,192,52326,6,0,L,1,0.01
256,192,52327,6,0,L,1,0.01
256,192,52328,6,0,L,1,0.01
256,192,52329,6,0,L,1,0.01
256,128,52387,1,0,0:0:0:0:
256,192,52388,6,0,L,1,0.01
256,192,52389,6,0,L,1,0.01
256,192,52390,6,0,L,1,0.01
256,192,52391,6,0,L,1,0.01
256,128,52450,1,8,0:0:0:0:
256,192,52451,6,0,L,1,0.01
256,192,52452,6,0,L,1,0.01
256,192,52453,6,0,L,1,0.01
256,192,52454,6,0,L,1,0.01
256,128,52700,1,0,0:0:0:0:
288,96,52950,1,4,0:0:0:0:
256,192,52951,6,4,L,1,0.01
256,192,52952,6,4,L,1,0.01
256,192,52953,6,4,L,1,0.01
256,192,52954,6,4,L,1,0.01
288,96,53200,1,8,0:0:0:0:
256,192,53201,6,8,L,1,0.01
256,192,53202,6,8,L,1,0.01
256,192,53203,6,8,L,1,0.01
256,192,53204,6,8,L,1,0.01
288,96,53450,1,0,0:0:0:0:
256,192,53451,6,0,L,1,0.01
256,192,53452,6,0,L,1,0.01
256,192,53453,6,0,L,1,0.01
256,192,53454,6,0,L,1,0.01
288,96,53533,1,8,0:0:0:0:
256,192,53534,6,8,L,1,0.01
256,192,53535,6,8,L,1,0.01
256,192,53536,6,8,L,1,0.01
256,192,53537,6,8,L,1,0.01
288,96,53616,1,0,0:0:0:0:
256,192,53617,6,0,L,1,0.01
256,192,53618,6,0,L,1,0.01
256,192,53619,6,0,L,1,0.01
256,192,53620,6,0,L,1,0.01
288,96,53700,1,0,0:0:0:0:
256,192,53701,6,0,L,1,0.01
256,192,53702,6,0,L,1,0.01
256,192,53703,6,0,L,1,0.01
256,192,53704,6,0,L,1,0.01
288,96,53783,1,0,0:0:0:0:
256,192,53784,6,0,L,1,0.01
256,192,53785,6,0,L,1,0.01
256,192,53786,6,0,L,1,0.01
256,192,53787,6,0,L,1,0.01
288,96,53866,1,8,0:0:0:0:
256,192,53867,6,8,L,1,0.01
256,192,53868,6,8,L,1,0.01
256,192,53869,6,8,L,1,0.01
256,192,53870,6,8,L,1,0.01
288,96,53950,1,8,0:0:0:0:
256,192,53951,6,8,L,1,0.01
256,192,53952,6,8,L,1,0.01
256,192,53953,6,8,L,1,0.01
256,192,53954,6,8,L,1,0.01
288,96,54033,1,0,0:0:0:0:
256,192,54034,6,0,L,1,0.01
256,192,54035,6,0,L,1,0.01
256,192,54036,6,0,L,1,0.01
256,192,54037,6,0,L,1,0.01
288,96,54116,1,0,0:0:0:0:
256,192,54117,6,0,L,1,0.01
256,192,54118,6,0,L,1,0.01
256,192,54119,6,0,L,1,0.01
256,192,54120,6,0,L,1,0.01
256,128,54200,1,8,0:0:0:0:
256,128,54366,1,8,0:0:0:0:
256,128,54533,1,8,0:0:0:0:
256,128,54700,1,0,0:0:0:0:
256,128,54762,1,0,0:0:0:0:
256,128,54825,1,0,0:0:0:0:
256,128,54887,1,0,0:0:0:0:
256,128,54950,1,8,0:0:0:0:
256,128,55033,1,8,0:0:0:0:
256,128,55116,1,0,0:0:0:0:
256,128,55200,1,8,0:0:0:0:
256,128,55283,1,0,0:0:0:0:
256,128,55366,1,0,0:0:0:0:
256,128,55450,1,8,0:0:0:0:
272,128,55616,1,8,0:0:0:0:
224,128,55700,1,0,0:0:0:0:
256,128,55783,1,0,0:0:0:0:
256,128,55866,1,0,0:0:0:0:
256,128,55950,1,8,0:0:0:0:
256,128,56116,1,8,0:0:0:0:
256,128,56200,1,0,0:0:0:0:
256,128,56366,1,0,0:0:0:0:
256,128,56450,1,12,0:0:0:0:
256,128,56700,1,0,0:0:0:0:
256,128,56762,1,0,0:0:0:0:
256,128,56825,1,0,0:0:0:0:
224,128,56887,1,0,0:0:0:0:
256,128,56950,1,8,0:0:0:0:
256,128,57033,1,0,0:0:0:0:
256,128,57116,1,0,0:0:0:0:
256,128,57200,1,8,0:0:0:0:
256,128,57366,1,0,0:0:0:0:
256,128,57450,1,8,0:0:0:0:
256,128,57616,1,8,0:0:0:0:
256,128,57700,1,0,0:0:0:0:
288,128,57783,1,0,0:0:0:0:
288,128,57866,1,8,0:0:0:0:
288,128,57950,1,8,0:0:0:0:
288,128,58033,1,0,0:0:0:0:
288,128,58200,1,8,0:0:0:0:
288,128,58366,1,8,0:0:0:0:
288,128,58533,1,8,0:0:0:0:
256,128,58700,1,0,0:0:0:0:
256,128,58783,1,8,0:0:0:0:
256,128,58866,1,8,0:0:0:0:
256,128,58950,1,0,0:0:0:0:
256,128,59116,1,12,0:0:0:0:
256,128,59450,1,0,0:0:0:0:
256,192,59451,6,0,L,1,0.01
256,192,59452,6,0,L,1,0.01
256,192,59453,6,0,L,1,0.01
256,192,59454,6,0,L,1,0.01
256,128,59533,1,8,0:0:0:0:
256,192,59534,6,0,L,1,0.01
256,192,59535,6,0,L,1,0.01
256,192,59536,6,0,L,1,0.01
256,192,59537,6,0,L,1,0.01
256,128,59616,1,0,0:0:0:0:
256,192,59617,6,0,L,1,0.01
256,192,59618,6,0,L,1,0.01
256,192,59619,6,0,L,1,0.01
256,192,59620,6,0,L,1,0.01
256,128,59700,1,0,0:0:0:0:
256,192,59701,6,0,L,1,0.01
256,192,59702,6,0,L,1,0.01
256,192,59703,6,0,L,1,0.01
256,192,59704,6,0,L,1,0.01
256,128,59866,1,12,0:0:0:0:
256,128,60200,1,8,0:0:0:0:
256,192,60201,6,0,L,1,0.01
256,192,60202,6,0,L,1,0.01
256,192,60203,6,0,L,1,0.01
256,192,60204,6,0,L,1,0.01
256,128,60262,1,0,0:0:0:0:
256,192,60263,6,0,L,1,0.01
256,192,60264,6,0,L,1,0.01
256,192,60265,6,0,L,1,0.01
256,192,60266,6,0,L,1,0.01
256,128,60325,1,0,0:0:0:0:
256,192,60326,6,0,L,1,0.01
256,192,60327,6,0,L,1,0.01
256,192,60328,6,0,L,1,0.01
256,192,60329,6,0,L,1,0.01
256,128,60387,1,0,0:0:0:0:
256,192,60388,6,0,L,1,0.01
256,192,60389,6,0,L,1,0.01
256,192,60390,6,0,L,1,0.01
256,192,60391,6,0,L,1,0.01
256,128,60450,1,8,0:0:0:0:
256,192,60451,6,0,L,1,0.01
256,192,60452,6,0,L,1,0.01
256,192,60453,6,0,L,1,0.01
256,192,60454,6,0,L,1,0.01
192,288,60700,1,0,0:0:0:0:
224,128,60950,1,8,0:0:0:0:
256,128,61200,1,8,0:0:0:0:
224,128,61450,1,4,0:0:0:0:
288,96,61700,1,8,0:0:0:0:
256,192,61701,6,8,L,1,0.01
256,192,61702,6,8,L,1,0.01
256,192,61703,6,8,L,1,0.01
256,192,61704,6,8,L,1,0.01
288,96,61866,1,0,0:0:0:0:
256,192,61867,6,0,L,1,0.01
256,192,61868,6,0,L,1,0.01
256,192,61869,6,0,L,1,0.01
256,192,61870,6,0,L,1,0.01
288,96,61950,1,8,0:0:0:0:
256,192,61951,6,8,L,1,0.01
256,192,61952,6,8,L,1,0.01
256,192,61953,6,8,L,1,0.01
256,192,61954,6,8,L,1,0.01
288,96,62033,1,0,0:0:0:0:
256,192,62034,6,0,L,1,0.01
256,192,62035,6,0,L,1,0.01
256,192,62036,6,0,L,1,0.01
256,192,62037,6,0,L,1,0.01
288,96,62116,1,0,0:0:0:0:
256,192,62117,6,0,L,1,0.01
256,192,62118,6,0,L,1,0.01
256,192,62119,6,0,L,1,0.01
256,192,62120,6,0,L,1,0.01
288,96,62200,1,8,0:0:0:0:
256,192,62201,6,8,L,1,0.01
256,192,62202,6,8,L,1,0.01
256,192,62203,6,8,L,1,0.01
256,192,62204,6,8,L,1,0.01
288,96,62283,1,0,0:0:0:0:
256,192,62284,6,0,L,1,0.01
256,192,62285,6,0,L,1,0.01
256,192,62286,6,0,L,1,0.01
256,192,62287,6,0,L,1,0.01
288,96,62366,1,0,0:0:0:0:
256,192,62367,6,0,L,1,0.01
256,192,62368,6,0,L,1,0.01
256,192,62369,6,0,L,1,0.01
256,192,62370,6,0,L,1,0.01
288,96,62450,1,8,0:0:0:0:
256,192,62451,6,8,L,1,0.01
256,192,62452,6,8,L,1,0.01
256,192,62453,6,8,L,1,0.01
256,192,62454,6,8,L,1,0.01
224,128,62700,1,0,0:0:0:0:
256,96,62762,1,0,0:0:0:0:
256,96,62825,1,0,0:0:0:0:
352,64,62887,1,0,0:0:0:0:
256,96,62950,1,8,0:0:0:0:
256,96,63033,1,0,0:0:0:0:
256,96,63116,1,0,0:0:0:0:
320,160,63200,1,8,0:0:0:0:
192,176,63283,1,0,0:0:0:0:
192,176,63366,1,0,0:0:0:0:
256,96,63450,1,8,0:0:0:0:
256,96,63616,1,8,0:0:0:0:
256,96,63700,1,0,0:0:0:0:
256,96,63783,1,0,0:0:0:0:
256,96,63866,1,8,0:0:0:0:
256,96,63949,1,8,0:0:0:0:
224,128,64116,1,8,0:0:0:0:
224,128,64199,1,0,0:0:0:0:
224,128,64366,1,0,0:0:0:0:
224,128,64450,1,12,0:0:0:0:
224,128,64700,1,0,0:0:0:0:
192,112,64762,1,0,0:0:0:0:
160,112,64825,1,0,0:0:0:0:
224,128,64887,1,0,0:0:0:0:
224,128,64950,1,8,0:0:0:0:
224,128,65033,1,0,0:0:0:0:
224,128,65116,1,0,0:0:0:0:
224,128,65200,1,8,0:0:0:0:
224,128,65366,1,8,0:0:0:0:
224,128,65450,1,0,0:0:0:0:
224,128,65533,1,8,0:0:0:0:
224,128,65616,1,0,0:0:0:0:
224,128,65700,1,0,0:0:0:0:
224,128,65783,1,8,0:0:0:0:
224,128,65866,1,8,0:0:0:0:
256,128,65950,1,0,0:0:0:0:
208,80,66033,1,8,0:0:0:0:
256,128,66116,1,8,0:0:0:0:
224,128,66200,1,0,0:0:0:0:
224,128,66283,1,0,0:0:0:0:
224,128,66366,1,0,0:0:0:0:
256,128,66450,1,8,0:0:0:0:
256,128,66700,1,12,0:0:0:0:
288,96,66950,1,0,0:0:0:0:
256,192,66951,6,0,L,1,0.01
256,192,66952,6,0,L,1,0.01
256,192,66953,6,0,L,1,0.01
256,192,66954,6,0,L,1,0.01
288,96,67200,1,4,0:0:0:0:
256,192,67201,6,4,L,1,0.01
256,192,67202,6,4,L,1,0.01
256,192,67203,6,4,L,1,0.01
256,192,67204,6,4,L,1,0.01
288,96,67450,1,8,0:0:0:0:
256,192,67451,6,8,L,1,0.01
256,192,67452,6,8,L,1,0.01
256,192,67453,6,8,L,1,0.01
256,192,67454,6,8,L,1,0.01
224,160,67700,1,12,0:0:0:0:
256,192,67701,6,12,L,1,0.01
256,192,67702,6,12,L,1,0.01
256,192,67703,6,12,L,1,0.01
256,192,67704,6,12,L,1,0.01
288,96,67950,1,0,0:0:0:0:
256,192,67951,6,0,L,1,0.01
256,192,67952,6,0,L,1,0.01
256,192,67953,6,0,L,1,0.01
256,192,67954,6,0,L,1,0.01
288,96,68200,1,4,0:0:0:0:
256,192,68201,6,4,L,1,0.01
256,192,68202,6,4,L,1,0.01
256,192,68203,6,4,L,1,0.01
256,192,68204,6,4,L,1,0.01
288,96,68450,1,4,0:0:0:0:
256,192,68451,6,4,L,1,0.01
256,192,68452,6,4,L,1,0.01
256,192,68453,6,4,L,1,0.01
256,192,68454,6,4,L,1,0.01
224,160,68700,1,8,0:0:0:0:
224,160,68950,1,0,0:0:0:0:
224,160,69116,1,0,0:0:0:0:
224,160,69200,1,8,0:0:0:0:
224,160,69450,1,0,0:0:0:0:
224,160,69616,1,8,0:0:0:0:
224,160,69700,1,0,0:0:0:0:
224,160,69950,1,8,0:0:0:0:
224,160,70200,1,0,0:0:0:0:
224,160,70450,1,0,0:0:0:0:
224,160,70700,1,0,0:0:0:0:
224,160,70950,1,0,0:0:0:0:
224,160,71116,1,0,0:0:0:0:
224,160,71200,1,8,0:0:0:0:
224,160,71366,1,8,0:0:0:0:
224,160,71450,1,0,0:0:0:0:
224,160,71616,1,0,0:0:0:0:
224,160,71700,1,8,0:0:0:0:
224,160,71950,1,8,0:0:0:0:
224,160,72116,1,8,0:0:0:0:
224,160,72200,1,8,0:0:0:0:
240,160,72283,1,0,0:0:0:0:
224,160,72366,1,0,0:0:0:0:
224,160,72450,1,8,0:0:0:0:
224,160,72616,1,8,0:0:0:0:
224,160,72700,1,0,0:0:0:0:
224,160,72866,1,0,0:0:0:0:
224,160,72950,1,0,0:0:0:0:
208,176,73116,1,8,0:0:0:0:
224,160,73200,1,8,0:0:0:0:
208,176,73283,1,0,0:0:0:0:
192,192,73366,1,0,0:0:0:0:
224,192,73450,1,8,0:0:0:0:
224,192,73533,1,0,0:0:0:0:
224,192,73616,1,0,0:0:0:0:
224,192,73700,1,8,0:0:0:0:
208,160,73866,1,0,0:0:0:0:
224,192,73950,1,0,0:0:0:0:
256,192,74116,1,8,0:0:0:0:
256,192,74200,1,0,0:0:0:0:
256,192,74283,1,0,0:0:0:0:
256,192,74366,1,0,0:0:0:0:
256,192,74450,1,8,0:0:0:0:
112,80,74533,1,0,0:0:0:0:
256,192,74616,1,0,0:0:0:0:
256,192,74700,1,8,0:0:0:0:
160,224,74783,1,0,0:0:0:0:
160,224,74866,1,0,0:0:0:0:
160,224,74950,1,8,0:0:0:0:
128,192,75033,1,8,0:0:0:0:
160,224,75116,1,8,0:0:0:0:
160,224,75200,1,0,0:0:0:0:
160,224,75283,1,0,0:0:0:0:
160,224,75366,1,0,0:0:0:0:
160,224,75450,1,8,0:0:0:0:
160,224,75533,1,0,0:0:0:0:
160,224,75616,1,0,0:0:0:0:
160,224,75700,1,8,0:0:0:0:
160,224,75950,1,0,0:0:0:0:
160,224,76116,1,8,0:0:0:0:
128,224,76200,1,8,0:0:0:0:
128,224,76283,1,0,0:0:0:0:
128,224,76366,1,8,0:0:0:0:
128,224,76450,1,0,0:0:0:0:
128,96,76533,1,8,0:0:0:0:
128,96,76616,1,8,0:0:0:0:
128,224,76700,1,0,0:0:0:0:
160,224,76866,1,8,0:0:0:0:
128,224,76950,1,0,0:0:0:0:
160,224,77116,1,8,0:0:0:0:
160,224,77200,1,8,0:0:0:0:
160,224,77283,1,0,0:0:0:0:
160,192,77366,1,0,0:0:0:0:
160,224,77450,1,8,0:0:0:0:
128,96,77533,1,0,0:0:0:0:
160,192,77616,1,0,0:0:0:0:
160,192,77700,1,8,0:0:0:0:
160,192,77866,1,8,0:0:0:0:
160,192,77950,1,0,0:0:0:0:
160,192,78116,1,8,0:0:0:0:
160,192,78200,1,8,0:0:0:0:
160,192,78283,1,0,0:0:0:0:
160,192,78366,1,0,0:0:0:0:
160,192,78450,1,8,0:0:0:0:
128,96,78533,1,0,0:0:0:0:
160,160,78616,1,0,0:0:0:0:
160,160,78700,1,8,0:0:0:0:
160,160,78866,1,8,0:0:0:0:
160,256,78950,1,0,0:0:0:0:
160,256,79116,1,8,0:0:0:0:
160,256,79200,1,8,0:0:0:0:
160,256,79283,1,0,0:0:0:0:
160,256,79366,1,0,0:0:0:0:
160,256,79450,1,8,0:0:0:0:
128,96,79533,1,0,0:0:0:0:
224,224,79616,1,0,0:0:0:0:
224,224,79700,1,8,0:0:0:0:
224,224,79866,1,0,0:0:0:0:
224,224,79950,1,0,0:0:0:0:
224,224,80116,1,8,0:0:0:0:
224,224,80200,1,8,0:0:0:0:
224,224,80283,1,0,0:0:0:0:
224,224,80366,1,0,0:0:0:0:
224,224,80450,1,8,0:0:0:0:
224,224,80533,1,0,0:0:0:0:
224,224,80616,1,0,0:0:0:0:
224,224,80700,1,8,0:0:0:0:
224,224,80866,1,0,0:0:0:0:
224,224,80950,1,8,0:0:0:0:
224,224,81116,1,8,0:0:0:0:
224,224,81200,1,8,0:0:0:0:
224,224,81283,1,0,0:0:0:0:
224,224,81366,1,0,0:0:0:0:
224,224,81450,1,8,0:0:0:0:
128,96,81533,1,0,0:0:0:0:
224,224,81616,1,0,0:0:0:0:
224,224,81700,1,8,0:0:0:0:
224,224,81866,1,8,0:0:0:0:
224,224,81950,1,0,0:0:0:0:
224,224,82116,1,8,0:0:0:0:
224,224,82200,1,8,0:0:0:0:
224,224,82283,1,0,0:0:0:0:
224,224,82366,1,0,0:0:0:0:
224,224,82450,1,8,0:0:0:0:
128,96,82533,1,0,0:0:0:0:
224,224,82616,1,8,0:0:0:0:
224,224,82700,1,0,0:0:0:0:
256,192,82866,1,0,0:0:0:0:
256,192,82950,1,0,0:0:0:0:
256,192,83116,1,8,0:0:0:0:
256,192,83200,1,8,0:0:0:0:
256,192,83283,1,0,0:0:0:0:
192,224,83366,1,0,0:0:0:0:
192,224,83450,1,8,0:0:0:0:
128,96,83533,1,0,0:0:0:0:
192,224,83616,1,0,0:0:0:0:
192,224,83700,1,8,0:0:0:0:
160,192,83866,1,0,0:0:0:0:
160,192,83950,1,8,0:0:0:0:
160,96,84033,1,0,0:0:0:0:
160,96,84116,1,0,0:0:0:0:
160,96,84200,1,8,0:0:0:0:
160,96,84366,1,8,0:0:0:0:
224,192,84533,1,0,0:0:0:0:
224,192,84950,1,12,0:0:0:0:
128,96,85116,1,8,0:0:0:0:
224,192,85200,1,8,0:0:0:0:
224,192,85283,1,0,0:0:0:0:
224,192,85366,1,0,0:0:0:0:
224,192,85450,1,8,0:0:0:0:
224,192,85533,1,0,0:0:0:0:
224,192,85616,1,0,0:0:0:0:
224,192,85700,1,8,0:0:0:0:
224,192,85866,1,8,0:0:0:0:
224,192,85950,1,0,0:0:0:0:
224,192,86116,1,8,0:0:0:0:
224,192,86200,1,8,0:0:0:0:
224,192,86283,1,0,0:0:0:0:
224,192,86366,1,0,0:0:0:0:
224,192,86450,1,8,0:0:0:0:
134,97,86533,1,0,0:0:0:0:
224,192,86616,1,0,0:0:0:0:
224,192,86700,1,8,0:0:0:0:
224,192,86866,1,0,0:0:0:0:
224,192,86950,1,8,0:0:0:0:
224,160,87116,1,8,0:0:0:0:
224,160,87200,1,8,0:0:0:0:
224,160,87283,1,0,0:0:0:0:
224,160,87366,1,0,0:0:0:0:
224,160,87450,1,8,0:0:0:0:
134,97,87533,1,0,0:0:0:0:
192,192,87616,1,0,0:0:0:0:
192,192,87700,1,8,0:0:0:0:
192,192,87866,1,0,0:0:0:0:
192,192,87950,1,0,0:0:0:0:
192,192,88116,1,8,0:0:0:0:
192,192,88200,1,8,0:0:0:0:
192,192,88283,1,0,0:0:0:0:
192,192,88366,1,0,0:0:0:0:
192,192,88450,1,8,0:0:0:0:
134,97,88533,1,0,0:0:0:0:
134,97,88616,1,0,0:0:0:0:
134,97,88700,1,8,0:0:0:0:
128,160,88866,1,0,0:0:0:0:
128,160,88950,1,8,0:0:0:0:
128,160,89116,1,8,0:0:0:0:
128,160,89200,1,8,0:0:0:0:
128,160,89283,1,0,0:0:0:0:
128,160,89366,1,0,0:0:0:0:
128,160,89450,1,8,0:0:0:0:
134,97,89533,1,0,0:0:0:0:
128,160,89616,1,0,0:0:0:0:
128,160,89700,1,8,0:0:0:0:
128,160,89866,1,8,0:0:0:0:
128,160,89950,1,0,0:0:0:0:
128,160,90116,1,8,0:0:0:0:
128,160,90200,1,8,0:0:0:0:
128,160,90283,1,0,0:0:0:0:
128,160,90366,1,0,0:0:0:0:
128,160,90450,1,8,0:0:0:0:
128,192,90700,1,0,0:0:0:0:
320,128,90866,1,0,0:0:0:0:
128,192,90950,1,0,0:0:0:0:
128,192,91116,1,8,0:0:0:0:
128,192,91200,1,8,0:0:0:0:
128,192,91283,1,0,0:0:0:0:
128,192,91366,1,0,0:0:0:0:
128,192,91450,1,8,0:0:0:0:
160,32,91533,1,0,0:0:0:0:
160,32,91616,1,0,0:0:0:0:
128,192,91700,1,8,0:0:0:0:
128,192,91866,1,8,0:0:0:0:
160,32,92033,1,0,0:0:0:0:
160,32,92116,1,8,0:0:0:0:
160,64,92200,1,8,0:0:0:0:
160,64,92366,1,0,0:0:0:0:
128,64,92533,1,8,0:0:0:0:
224,192,92700,1,4,0:0:0:0:
224,192,93200,1,8,0:0:0:0:
224,192,93366,1,0,0:0:0:0:
224,192,93533,1,8,0:0:0:0:
224,192,93700,1,0,0:0:0:0:
192,192,93866,1,0,0:0:0:0:
192,192,94033,1,8,0:0:0:0:
192,192,94200,1,0,0:0:0:0:
192,192,94700,1,8,0:0:0:0:
192,192,95200,1,8,0:0:0:0:
192,192,95366,1,0,0:0:0:0:
192,192,95533,1,8,0:0:0:0:
192,192,95700,1,8,0:0:0:0:
192,192,95866,1,0,0:0:0:0:
192,192,96033,1,0,0:0:0:0:
192,192,96200,1,8,0:0:0:0:
224,192,96700,1,0,0:0:0:0:
224,192,97200,1,8,0:0:0:0:
224,192,97366,1,0,0:0:0:0:
224,192,97533,1,8,0:0:0:0:
224,192,97700,1,0,0:0:0:0:
192,192,97866,1,0,0:0:0:0:
192,192,98033,1,8,0:0:0:0:
192,192,98200,1,0,0:0:0:0:
192,192,98700,1,8,0:0:0:0:
192,192,99200,1,8,0:0:0:0:
192,192,99366,1,0,0:0:0:0:
192,192,99533,1,8,0:0:0:0:
192,192,99700,1,8,0:0:0:0:
192,192,99866,1,0,0:0:0:0:
192,192,100033,1,0,0:0:0:0:
192,192,100200,1,8,0:0:0:0:
192,192,100700,1,4,0:0:0:0:
256,192,100701,6,4,L,1,0.01
256,192,100702,6,4,L,1,0.01
256,192,100703,6,4,L,1,0.01
256,192,100704,6,4,L,1,0.01
192,192,101161,1,8,0:0:0:0:
256,192,101162,6,0,L,1,0.01
256,192,101163,6,0,L,1,0.01
256,192,101164,6,0,L,1,0.01
256,192,101165,6,0,L,1,0.01
192,192,101315,1,0,0:0:0:0:
256,192,101316,6,0,L,1,0.01
256,192,101317,6,0,L,1,0.01
256,192,101318,6,0,L,1,0.01
256,192,101319,6,0,L,1,0.01
192,192,101469,1,8,0:0:0:0:
256,192,101470,6,0,L,1,0.01
256,192,101471,6,0,L,1,0.01
256,192,101472,6,0,L,1,0.01
256,192,101473,6,0,L,1,0.01
192,192,101623,1,0,0:0:0:0:
256,192,101624,6,0,L,1,0.01
256,192,101625,6,0,L,1,0.01
256,192,101626,6,0,L,1,0.01
256,192,101627,6,0,L,1,0.01
192,192,101776,1,0,0:0:0:0:
256,192,101777,6,0,L,1,0.01
256,192,101778,6,0,L,1,0.01
256,192,101779,6,0,L,1,0.01
256,192,101780,6,0,L,1,0.01
192,192,101930,1,8,0:0:0:0:
256,192,101931,6,0,L,1,0.01
256,192,101932,6,0,L,1,0.01
256,192,101933,6,0,L,1,0.01
256,192,101934,6,0,L,1,0.01
192,192,102084,1,0,0:0:0:0:
256,192,102085,6,0,L,1,0.01
256,192,102086,6,0,L,1,0.01
256,192,102087,6,0,L,1,0.01
256,192,102088,6,0,L,1,0.01
192,192,102546,1,12,0:0:0:0:
256,192,102547,6,12,L,1,0.01
256,192,102548,6,12,L,1,0.01
256,192,102549,6,12,L,1,0.01
256,192,102550,6,12,L,1,0.01
192,192,102974,1,8,0:0:0:0:
256,192,102975,6,0,L,1,0.01
256,192,102976,6,0,L,1,0.01
256,192,102977,6,0,L,1,0.01
256,192,102978,6,0,L,1,0.01
192,192,103117,1,0,0:0:0:0:
256,192,103118,6,0,L,1,0.01
256,192,103119,6,0,L,1,0.01
256,192,103120,6,0,L,1,0.01
256,192,103121,6,0,L,1,0.01
192,192,103260,1,8,0:0:0:0:
256,192,103261,6,0,L,1,0.01
256,192,103262,6,0,L,1,0.01
256,192,103263,6,0,L,1,0.01
256,192,103264,6,0,L,1,0.01
192,192,103403,1,8,0:0:0:0:
256,192,103404,6,0,L,1,0.01
256,192,103405,6,0,L,1,0.01
256,192,103406,6,0,L,1,0.01
256,192,103407,6,0,L,1,0.01
192,192,103546,1,0,0:0:0:0:
256,192,103547,6,0,L,1,0.01
256,192,103548,6,0,L,1,0.01
256,192,103549,6,0,L,1,0.01
256,192,103550,6,0,L,1,0.01
192,192,103688,1,0,0:0:0:0:
256,192,103689,6,0,L,1,0.01
256,192,103690,6,0,L,1,0.01
256,192,103691,6,0,L,1,0.01
256,192,103692,6,0,L,1,0.01
192,192,103831,1,8,0:0:0:0:
256,192,103832,6,0,L,1,0.01
256,192,103833,6,0,L,1,0.01
256,192,103834,6,0,L,1,0.01
256,192,103835,6,0,L,1,0.01
192,192,104260,1,4,0:0:0:0:
256,192,104261,6,4,L,1,0.01
256,192,104262,6,4,L,1,0.01
256,192,104263,6,4,L,1,0.01
256,192,104264,6,4,L,1,0.01
192,192,104635,1,8,0:0:0:0:
256,192,104636,6,0,L,1,0.01
256,192,104637,6,0,L,1,0.01
256,192,104638,6,0,L,1,0.01
256,192,104639,6,0,L,1,0.01
192,192,104760,1,0,0:0:0:0:
256,192,104761,6,0,L,1,0.01
256,192,104762,6,0,L,1,0.01
256,192,104763,6,0,L,1,0.01
256,192,104764,6,0,L,1,0.01
192,192,104885,1,8,0:0:0:0:
256,192,104886,6,0,L,1,0.01
256,192,104887,6,0,L,1,0.01
256,192,104888,6,0,L,1,0.01
256,192,104889,6,0,L,1,0.01
192,192,105010,1,0,0:0:0:0:
256,192,105011,6,0,L,1,0.01
256,192,105012,6,0,L,1,0.01
256,192,105013,6,0,L,1,0.01
256,192,105014,6,0,L,1,0.01
192,192,105135,1,0,0:0:0:0:
256,192,105136,6,0,L,1,0.01
256,192,105137,6,0,L,1,0.01
256,192,105138,6,0,L,1,0.01
256,192,105139,6,0,L,1,0.01
192,192,105260,1,8,0:0:0:0:
256,192,105261,6,0,L,1,0.01
256,192,105262,6,0,L,1,0.01
256,192,105263,6,0,L,1,0.01
256,192,105264,6,0,L,1,0.01
192,192,105385,1,0,0:0:0:0:
256,192,105386,6,0,L,1,0.01
256,192,105387,6,0,L,1,0.01
256,192,105388,6,0,L,1,0.01
256,192,105389,6,0,L,1,0.01
192,192,105760,1,12,0:0:0:0:
256,192,105761,6,4,L,1,0.01
256,192,105762,6,4,L,1,0.01
256,192,105763,6,4,L,1,0.01
256,192,105764,6,4,L,1,0.01
192,192,106093,1,8,0:0:0:0:
256,192,106094,6,0,L,1,0.01
256,192,106095,6,0,L,1,0.01
256,192,106096,6,0,L,1,0.01
256,192,106097,6,0,L,1,0.01
192,192,106204,1,0,0:0:0:0:
256,192,106205,6,0,L,1,0.01
256,192,106206,6,0,L,1,0.01
256,192,106207,6,0,L,1,0.01
256,192,106208,6,0,L,1,0.01
192,192,106315,1,8,0:0:0:0:
256,192,106316,6,0,L,1,0.01
256,192,106317,6,0,L,1,0.01
256,192,106318,6,0,L,1,0.01
256,192,106319,6,0,L,1,0.01
192,192,106426,1,8,0:0:0:0:
256,192,106427,6,0,L,1,0.01
256,192,106428,6,0,L,1,0.01
256,192,106429,6,0,L,1,0.01
256,192,106430,6,0,L,1,0.01
192,192,106537,1,0,0:0:0:0:
256,192,106538,6,0,L,1,0.01
256,192,106539,6,0,L,1,0.01
256,192,106540,6,0,L,1,0.01
256,192,106541,6,0,L,1,0.01
192,192,106648,1,0,0:0:0:0:
256,192,106649,6,0,L,1,0.01
256,192,106650,6,0,L,1,0.01
256,192,106651,6,0,L,1,0.01
256,192,106652,6,0,L,1,0.01
192,192,106760,1,8,0:0:0:0:
256,192,106761,6,0,L,1,0.01
256,192,106762,6,0,L,1,0.01
256,192,106763,6,0,L,1,0.01
256,192,106764,6,0,L,1,0.01
192,192,107093,1,4,0:0:0:0:
256,192,107094,6,4,L,1,0.01
256,192,107095,6,4,L,1,0.01
256,192,107096,6,4,L,1,0.01
256,192,107097,6,4,L,1,0.01
192,192,107393,1,8,0:0:0:0:
256,192,107394,6,8,L,1,0.01
256,192,107395,6,8,L,1,0.01
256,192,107396,6,8,L,1,0.01
256,192,107397,6,8,L,1,0.01
192,192,107693,1,4,0:0:0:0:
256,192,107694,6,4,L,1,0.01
256,192,107695,6,4,L,1,0.01
256,192,107696,6,4,L,1,0.01
256,192,107697,6,4,L,1,0.01
192,192,107993,1,8,0:0:0:0:
256,192,107994,6,0,L,1,0.01
256,192,107995,6,0,L,1,0.01
256,192,107996,6,0,L,1,0.01
256,192,107997,6,0,L,1,0.01
192,192,108293,1,12,0:0:0:0:
256,192,108294,6,12,L,1,0.01
256,192,108295,6,12,L,1,0.01
256,192,108296,6,12,L,1,0.01
256,192,108297,6,12,L,1,0.01
192,192,108565,1,8,0:0:0:0:
256,192,108566,6,0,L,1,0.01
256,192,108567,6,0,L,1,0.01
256,192,108568,6,0,L,1,0.01
256,192,108569,6,0,L,1,0.01
192,192,108838,1,12,0:0:0:0:
256,192,108839,6,4,L,1,0.01
256,192,108840,6,4,L,1,0.01
256,192,108841,6,4,L,1,0.01
256,192,108842,6,4,L,1,0.01
192,192,109111,1,8,0:0:0:0:
256,192,109112,6,0,L,1,0.01
256,192,109113,6,0,L,1,0.01
256,192,109114,6,0,L,1,0.01
256,192,109115,6,0,L,1,0.01
192,192,109383,1,4,0:0:0:0:
256,192,109384,6,4,L,1,0.01
256,192,109385,6,4,L,1,0.01
256,192,109386,6,4,L,1,0.01
256,192,109387,6,4,L,1,0.01
192,192,109633,1,8,0:0:0:0:
256,192,109634,6,0,L,1,0.01
256,192,109635,6,0,L,1,0.01
256,192,109636,6,0,L,1,0.01
256,192,109637,6,0,L,1,0.01
192,192,109716,1,8,0:0:0:0:
256,192,109717,6,0,L,1,0.01
256,192,109718,6,0,L,1,0.01
256,192,109719,6,0,L,1,0.01
256,192,109720,6,0,L,1,0.01
192,192,109799,1,8,0:0:0:0:
256,192,109800,6,0,L,1,0.01
256,192,109801,6,0,L,1,0.01
256,192,109802,6,0,L,1,0.01
256,192,109803,6,0,L,1,0.01
192,192,109883,1,4,0:0:0:0:
256,192,109884,6,4,L,1,0.01
256,192,109885,6,4,L,1,0.01
256,192,109886,6,4,L,1,0.01
256,192,109887,6,4,L,1,0.01
192,192,110133,1,0,0:0:0:0:
256,192,110134,6,0,L,1,0.01
256,192,110135,6,0,L,1,0.01
256,192,110136,6,0,L,1,0.01
256,192,110137,6,0,L,1,0.01
192,192,110383,1,12,0:0:0:0:
256,192,110384,6,12,L,1,0.01
256,192,110385,6,12,L,1,0.01
256,192,110386,6,12,L,1,0.01
256,192,110387,6,12,L,1,0.01
192,192,110601,1,8,0:0:0:0:
256,192,110602,6,0,L,1,0.01
256,192,110603,6,0,L,1,0.01
256,192,110604,6,0,L,1,0.01
256,192,110605,6,0,L,1,0.01
192,192,110673,1,0,0:0:0:0:
256,192,110674,6,0,L,1,0.01
256,192,110675,6,0,L,1,0.01
256,192,110676,6,0,L,1,0.01
256,192,110677,6,0,L,1,0.01
192,192,110746,1,0,0:0:0:0:
256,192,110747,6,0,L,1,0.01
256,192,110748,6,0,L,1,0.01
256,192,110749,6,0,L,1,0.01
256,192,110750,6,0,L,1,0.01
192,192,110819,1,12,0:0:0:0:
256,192,110820,6,4,L,1,0.01
256,192,110821,6,4,L,1,0.01
256,192,110822,6,4,L,1,0.01
256,192,110823,6,4,L,1,0.01
192,192,111037,1,8,0:0:0:0:
256,192,111038,6,0,L,1,0.01
256,192,111039,6,0,L,1,0.01
256,192,111040,6,0,L,1,0.01
256,192,111041,6,0,L,1,0.01
192,192,111255,1,8,0:0:0:0:
256,192,111256,6,0,L,1,0.01
256,192,111257,6,0,L,1,0.01
256,192,111258,6,0,L,1,0.01
256,192,111259,6,0,L,1,0.01
192,192,111451,1,0,0:0:0:0:
256,192,111452,6,0,L,1,0.01
256,192,111453,6,0,L,1,0.01
256,192,111454,6,0,L,1,0.01
256,192,111455,6,0,L,1,0.01
192,192,111648,1,0,0:0:0:0:
256,192,111649,6,0,L,1,0.01
256,192,111650,6,0,L,1,0.01
256,192,111651,6,0,L,1,0.01
256,192,111652,6,0,L,1,0.01
192,192,111845,1,0,0:0:0:0:
256,192,111846,6,0,L,1,0.01
256,192,111847,6,0,L,1,0.01
256,192,111848,6,0,L,1,0.01
256,192,111849,6,0,L,1,0.01
192,192,112041,1,8,0:0:0:0:
256,192,112042,6,0,L,1,0.01
256,192,112043,6,0,L,1,0.01
256,192,112044,6,0,L,1,0.01
256,192,112045,6,0,L,1,0.01
192,192,112228,1,0,0:0:0:0:
256,192,112229,6,0,L,1,0.01
256,192,112230,6,0,L,1,0.01
256,192,112231,6,0,L,1,0.01
256,192,112232,6,0,L,1,0.01
192,192,112416,1,0,0:0:0:0:
256,192,112417,6,0,L,1,0.01
256,192,112418,6,0,L,1,0.01
256,192,112419,6,0,L,1,0.01
256,192,112420,6,0,L,1,0.01
192,192,112603,1,0,0:0:0:0:
256,192,112604,6,0,L,1,0.01
256,192,112605,6,0,L,1,0.01
256,192,112606,6,0,L,1,0.01
256,192,112607,6,0,L,1,0.01
192,192,112791,1,8,0:0:0:0:
224,192,112967,1,0,0:0:0:0:
224,192,113143,1,0,0:0:0:0:
224,192,113320,1,0,0:0:0:0:
224,192,113495,1,8,0:0:0:0:
224,192,113661,1,0,0:0:0:0:
224,192,113828,1,0,0:0:0:0:
224,192,113995,1,0,0:0:0:0:
224,192,114161,1,8,0:0:0:0:
224,192,114241,1,8,0:0:0:0:
224,192,114321,1,0,0:0:0:0:
224,192,114401,1,0,0:0:0:0:
224,192,114481,1,8,0:0:0:0:
224,192,114561,1,8,0:0:0:0:
224,192,114641,1,0,0:0:0:0:
224,192,114721,1,0,0:0:0:0:
224,192,114801,1,8,0:0:0:0:
224,192,114877,1,8,0:0:0:0:
224,192,114954,1,0,0:0:0:0:
224,192,115031,1,0,0:0:0:0:
224,192,115108,1,8,0:0:0:0:
224,192,115185,1,8,0:0:0:0:
224,192,115262,1,0,0:0:0:0:
224,192,115339,1,0,0:0:0:0:
224,192,115416,1,8,0:0:0:0:
224,192,115491,1,8,0:0:0:0:
224,192,115567,1,8,0:0:0:0:
224,192,115643,1,8,0:0:0:0:
224,192,115719,1,0,0:0:0:0:
224,192,115795,1,0,0:0:0:0:
224,192,115871,1,0,0:0:0:0:
224,192,115947,1,0,0:0:0:0:
224,192,116023,1,12,0:0:0:0:
256,224,116173,1,4,0:0:0:0:
256,224,116323,1,12,0:0:0:0:
192,160,116623,1,4,0:0:0:0:
192,160,117223,1,8,0:0:0:0:
288,256,117373,1,8,0:0:0:0:
288,288,117448,1,0,0:0:0:0:
224,160,117523,1,0,0:0:0:0:
64,96,117598,1,0,0:0:0:0:
224,160,117673,1,8,0:0:0:0:
336,128,117748,1,8,0:0:0:0:
224,192,117823,1,0,0:0:0:0:
224,160,117873,1,0,0:0:0:0:
224,160,117923,1,0,0:0:0:0:
224,160,117973,1,8,0:0:0:0:
224,160,118123,1,8,0:0:0:0:
224,160,118273,1,0,0:0:0:0:
224,160,118423,1,8,0:0:0:0:
256,128,118723,1,8,0:0:0:0:
192,160,118873,1,8,0:0:0:0:
192,160,119023,1,4,0:0:0:0:
224,160,119623,1,8,0:0:0:0:
160,288,119698,1,0,0:0:0:0:
96,160,119773,1,0,0:0:0:0:
96,160,119848,1,8,0:0:0:0:
96,160,119923,1,0,0:0:0:0:
224,192,119998,1,0,0:0:0:0:
224,192,120073,1,8,0:0:0:0:
224,96,120148,1,0,0:0:0:0:
64,192,120223,1,8,0:0:0:0:
224,192,120273,1,8,0:0:0:0:
224,224,120323,1,8,0:0:0:0:
224,224,120373,1,0,0:0:0:0:
224,224,120423,1,0,0:0:0:0:
320,128,120473,1,0,0:0:0:0:
320,128,120523,1,8,0:0:0:0:
229,212,120673,1,8,0:0:0:0:
211,229,120748,1,0,0:0:0:0:
211,229,120823,1,8,0:0:0:0:
209,233,120898,1,8,0:0:0:0:
209,233,120973,1,0,0:0:0:0:
128,96,121048,1,8,0:0:0:0:
160,192,121123,1,0,0:0:0:0:
160,192,121173,1,0,0:0:0:0:
160,192,121223,1,0,0:0:0:0:
160,192,121273,1,8,0:0:0:0:
160,192,121423,1,12,0:0:0:0:
160,192,122023,1,8,0:0:0:0:
64,160,122098,1,0,0:0:0:0:
160,96,122173,1,0,0:0:0:0:
160,96,122248,1,0,0:0:0:0:
160,96,122323,1,8,0:0:0:0:
216,116,122398,1,0,0:0:0:0:
256,160,122473,1,0,0:0:0:0:
256,192,122548,1,8,0:0:0:0:
288,256,122623,1,0,0:0:0:0:
256,208,122723,1,0,0:0:0:0:
240,160,122823,1,0,0:0:0:0:
96,288,122923,1,8,0:0:0:0:
96,288,123073,1,0,0:0:0:0:
96,288,123223,1,12,0:0:0:0:
160,256,123523,1,0,0:0:0:0:
152,268,123673,1,8,0:0:0:0:
256,192,123823,1,0,0:0:0:0:
256,192,123973,1,8,0:0:0:0:
256,192,124048,1,0,0:0:0:0:
192,128,124198,1,0,0:0:0:0:
192,96,124273,1,8,0:0:0:0:
128,192,124423,1,12,0:0:0:0:
128,160,124573,1,0,0:0:0:0:
128,224,124723,1,12,0:0:0:0:
128,224,124873,1,0,0:0:0:0:
71,151,125023,1,0,0:0:0:0:
71,151,125173,1,8,0:0:0:0:
256,160,125248,1,0,0:0:0:0:
256,192,125398,1,0,0:0:0:0:
256,192,125473,1,8,0:0:0:0:
256,192,125623,1,8,0:0:0:0:
256,192,125773,1,8,0:0:0:0:
256,192,125848,1,0,0:0:0:0:
256,192,125923,1,8,0:0:0:0:
128,256,126073,1,0,0:0:0:0:
128,256,126223,1,12,0:0:0:0:
192,192,126823,1,8,0:0:0:0:
160,96,126898,1,0,0:0:0:0:
128,128,126973,1,0,0:0:0:0:
128,128,127048,1,8,0:0:0:0:
128,128,127123,1,0,0:0:0:0:
128,128,127198,1,0,0:0:0:0:
128,128,127273,1,8,0:0:0:0:
191,90,127348,1,8,0:0:0:0:
128,128,127423,1,0,0:0:0:0:
128,160,127473,1,0,0:0:0:0:
112,192,127523,1,0,0:0:0:0:
128,192,127573,1,8,0:0:0:0:
128,192,127723,1,0,0:0:0:0:
128,192,127873,1,0,0:0:0:0:
128,192,128023,1,8,0:0:0:0:
128,192,128323,1,8,0:0:0:0:
128,192,128473,1,8,0:0:0:0:
128,192,128623,1,4,0:0:0:0:
128,192,129223,1,8,0:0:0:0:
256,160,129298,1,0,0:0:0:0:
256,160,129373,1,8,0:0:0:0:
256,160,129448,1,8,0:0:0:0:
256,160,129523,1,0,0:0:0:0:
256,160,129598,1,0,0:0:0:0:
256,160,129673,1,8,0:0:0:0:
191,90,129748,1,0,0:0:0:0:
256,160,129823,1,8,0:0:0:0:
32,192,129873,1,8,0:0:0:0:
96,192,129923,1,8,0:0:0:0:
160,224,129973,1,0,0:0:0:0:
160,224,130023,1,0,0:0:0:0:
256,288,130073,1,0,0:0:0:0:
256,288,130123,1,8,0:0:0:0:
384,160,130198,1,0,0:0:0:0:
128,160,130273,1,8,0:0:0:0:
224,128,130423,1,8,0:0:0:0:
224,128,130573,1,0,0:0:0:0:
192,160,130723,1,0,0:0:0:0:
160,224,130873,1,0,0:0:0:0:
160,224,131023,1,12,0:0:0:0:
224,160,131623,1,8,0:0:0:0:
160,160,131698,1,8,0:0:0:0:
128,192,131773,1,0,0:0:0:0:
128,160,131848,1,0,0:0:0:0:
160,160,131923,1,8,0:0:0:0:
128,160,131998,1,0,0:0:0:0:
128,160,132073,1,0,0:0:0:0:
176,80,132148,1,8,0:0:0:0:
128,160,132223,1,0,0:0:0:0:
256,192,132323,1,0,0:0:0:0:
256,192,132423,1,0,0:0:0:0:
256,192,132523,1,8,0:0:0:0:
256,160,132673,1,0,0:0:0:0:
128,160,132823,1,8,0:0:0:0:
128,96,133123,1,8,0:0:0:0:
128,96,133273,1,8,0:0:0:0:
128,96,133423,1,12,0:0:0:0:
64,160,133573,1,0,0:0:0:0:
64,160,133723,1,0,0:0:0:0:
64,160,133873,1,8,0:0:0:0:
32,160,134023,1,12,0:0:0:0:
32,160,134173,1,0,0:0:0:0:
32,160,134323,1,0,0:0:0:0:
32,160,134473,1,8,0:0:0:0:
32,160,134623,1,8,0:0:0:0:
256,256,134698,1,0,0:0:0:0:
256,256,134773,1,0,0:0:0:0:
256,256,134848,1,0,0:0:0:0:
256,256,134923,1,8,0:0:0:0:
256,256,134998,1,0,0:0:0:0:
256,256,135073,1,8,0:0:0:0:
256,256,135148,1,8,0:0:0:0:
256,256,135223,1,0,0:0:0:0:
256,256,135298,1,0,0:0:0:0:
256,256,135373,1,8,0:0:0:0:
256,256,135448,1,0,0:0:0:0:
256,256,135523,1,8,0:0:0:0:
256,256,135598,1,0,0:0:0:0:
256,256,135673,1,0,0:0:0:0:
256,256,135748,1,0,0:0:0:0:
256,256,135823,1,12,0:0:0:0:
96,160,136123,1,8,0:0:0:0:
96,160,136273,1,0,0:0:0:0:
96,160,136423,1,0,0:0:0:0:
96,160,136498,1,8,0:0:0:0:
96,160,136573,1,0,0:0:0:0:
96,160,136648,1,0,0:0:0:0:
96,160,136723,1,8,0:0:0:0:
60,143,136798,1,0,0:0:0:0:
60,143,136873,1,0,0:0:0:0:
60,143,136948,1,8,0:0:0:0:
96,160,137023,1,8,0:0:0:0:
96,160,137173,1,0,0:0:0:0:
96,160,137323,1,8,0:0:0:0:
96,160,137473,1,0,0:0:0:0:
160,224,137623,1,12,0:0:0:0:
160,224,137923,1,8,0:0:0:0:
160,224,138073,1,8,0:0:0:0:
160,224,138223,1,4,0:0:0:0:
160,224,138523,1,12,0:0:0:0:
160,224,138823,1,0,0:0:0:0:
96,224,138898,1,0,0:0:0:0:
96,224,138973,1,8,0:0:0:0:
96,224,139048,1,0,0:0:0:0:
96,224,139123,1,8,0:0:0:0:
224,192,139198,1,0,0:0:0:0:
224,192,139273,1,0,0:0:0:0:
224,192,139348,1,0,0:0:0:0:
256,160,139423,1,8,0:0:0:0:
160,192,139473,1,8,0:0:0:0:
160,192,139523,1,8,0:0:0:0:
160,192,139573,1,0,0:0:0:0:
160,192,139623,1,0,0:0:0:0:
160,192,139673,1,0,0:0:0:0:
160,192,139723,1,8,0:0:0:0:
224,128,139873,1,8,0:0:0:0:
224,128,139948,1,0,0:0:0:0:
224,128,140023,1,8,0:0:0:0:
224,128,140098,1,8,0:0:0:0:
224,128,140173,1,0,0:0:0:0:
288,96,140248,1,0,0:0:0:0:
224,128,140323,1,8,0:0:0:0:
224,128,140473,1,0,0:0:0:0:
224,128,140623,1,12,0:0:0:0:
96,128,140923,1,8,0:0:0:0:
96,128,141073,1,0,0:0:0:0:
96,128,141223,1,0,0:0:0:0:
64,128,141298,1,0,0:0:0:0:
64,128,141373,1,8,0:0:0:0:
78,147,141448,1,0,0:0:0:0:
78,147,141523,1,8,0:0:0:0:
60,143,141598,1,0,0:0:0:0:
60,143,141673,1,0,0:0:0:0:
224,144,141748,1,8,0:0:0:0:
128,192,141823,1,0,0:0:0:0:
288,192,141923,1,0,0:0:0:0:
288,192,142023,1,0,0:0:0:0:
128,192,142123,1,8,0:0:0:0:
128,192,142273,1,0,0:0:0:0:
128,192,142423,1,8,0:0:0:0:
192,192,142573,1,0,0:0:0:0:
192,192,142723,1,8,0:0:0:0:
192,192,142798,1,0,0:0:0:0:
192,192,142873,1,8,0:0:0:0:
192,192,143023,1,8,0:0:0:0:
160,128,143173,1,0,0:0:0:0:
160,128,143323,1,8,0:0:0:0:
160,128,143473,1,8,0:0:0:0:
160,128,143623,1,0,0:0:0:0:
160,128,143773,1,8,0:0:0:0:
160,128,143848,1,0,0:0:0:0:
160,128,143923,1,8,0:0:0:0:
160,128,144073,1,0,0:0:0:0:
160,128,144223,1,8,0:0:0:0:
192,160,144298,1,0,0:0:0:0:
192,160,144373,1,0,0:0:0:0:
192,160,144448,1,0,0:0:0:0:
160,160,144523,1,8,0:0:0:0:
192,224,144598,1,0,0:0:0:0:
192,224,144673,1,8,0:0:0:0:
192,224,144748,1,0,0:0:0:0:
192,224,144823,1,8,0:0:0:0:
192,224,144898,1,8,0:0:0:0:
192,224,144973,1,8,0:0:0:0:
192,224,145048,1,0,0:0:0:0:
192,224,145123,1,8,0:0:0:0:
192,224,145198,1,0,0:0:0:0:
192,224,145273,1,8,0:0:0:0:
192,224,145348,1,8,0:0:0:0:
224,192,145423,1,0,0:0:0:0:
256,192,145424,6,0,L,1,0.01
256,192,145425,6,0,L,1,0.01
256,192,145426,6,0,L,1,0.01
256,192,145427,6,0,L,1,0.01
224,192,145994,1,8,0:0:0:0:
256,192,145995,6,0,L,1,0.01
256,192,145996,6,0,L,1,0.01
256,192,145997,6,0,L,1,0.01
256,192,145998,6,0,L,1,0.01
224,192,146184,1,0,0:0:0:0:
256,192,146185,6,0,L,1,0.01
256,192,146186,6,0,L,1,0.01
256,192,146187,6,0,L,1,0.01
256,192,146188,6,0,L,1,0.01
224,192,146375,1,8,0:0:0:0:
256,192,146376,6,0,L,1,0.01
256,192,146377,6,0,L,1,0.01
256,192,146378,6,0,L,1,0.01
256,192,146379,6,0,L,1,0.01
224,192,146565,1,0,0:0:0:0:
256,192,146566,6,0,L,1,0.01
256,192,146567,6,0,L,1,0.01
256,192,146568,6,0,L,1,0.01
256,192,146569,6,0,L,1,0.01
224,192,146756,1,0,0:0:0:0:
256,192,146757,6,0,L,1,0.01
256,192,146758,6,0,L,1,0.01
256,192,146759,6,0,L,1,0.01
256,192,146760,6,0,L,1,0.01
224,192,146946,1,8,0:0:0:0:
256,192,146947,6,0,L,1,0.01
256,192,146948,6,0,L,1,0.01
256,192,146949,6,0,L,1,0.01
256,192,146950,6,0,L,1,0.01
224,192,147137,1,0,0:0:0:0:
256,192,147138,6,0,L,1,0.01
256,192,147139,6,0,L,1,0.01
256,192,147140,6,0,L,1,0.01
256,192,147141,6,0,L,1,0.01
224,192,147708,1,12,0:0:0:0:
256,192,147709,6,4,L,1,0.01
256,192,147710,6,4,L,1,0.01
256,192,147711,6,4,L,1,0.01
256,192,147712,6,4,L,1,0.01
224,192,148188,1,8,0:0:0:0:
256,192,148189,6,0,L,1,0.01
256,192,148190,6,0,L,1,0.01
256,192,148191,6,0,L,1,0.01
256,192,148192,6,0,L,1,0.01
224,192,148348,1,0,0:0:0:0:
256,192,148349,6,0,L,1,0.01
256,192,148350,6,0,L,1,0.01
256,192,148351,6,0,L,1,0.01
256,192,148352,6,0,L,1,0.01
224,192,148508,1,8,0:0:0:0:
256,192,148509,6,0,L,1,0.01
256,192,148510,6,0,L,1,0.01
256,192,148511,6,0,L,1,0.01
256,192,148512,6,0,L,1,0.01
224,192,148668,1,8,0:0:0:0:
256,192,148669,6,0,L,1,0.01
256,192,148670,6,0,L,1,0.01
256,192,148671,6,0,L,1,0.01
256,192,148672,6,0,L,1,0.01
224,192,148828,1,0,0:0:0:0:
256,192,148829,6,0,L,1,0.01
256,192,148830,6,0,L,1,0.01
256,192,148831,6,0,L,1,0.01
256,192,148832,6,0,L,1,0.01
224,192,148988,1,0,0:0:0:0:
256,192,148989,6,0,L,1,0.01
256,192,148990,6,0,L,1,0.01
256,192,148991,6,0,L,1,0.01
256,192,148992,6,0,L,1,0.01
224,192,149148,1,8,0:0:0:0:
256,192,149149,6,0,L,1,0.01
256,192,149150,6,0,L,1,0.01
256,192,149151,6,0,L,1,0.01
256,192,149152,6,0,L,1,0.01
224,192,149628,1,4,0:0:0:0:
256,192,149629,6,4,L,1,0.01
256,192,149630,6,4,L,1,0.01
256,192,149631,6,4,L,1,0.01
256,192,149632,6,4,L,1,0.01
224,192,150041,1,8,0:0:0:0:
256,192,150042,6,0,L,1,0.01
256,192,150043,6,0,L,1,0.01
256,192,150044,6,0,L,1,0.01
256,192,150045,6,0,L,1,0.01
224,192,150455,1,8,0:0:0:0:
256,192,150456,6,0,L,1,0.01
256,192,150457,6,0,L,1,0.01
256,192,150458,6,0,L,1,0.01
256,192,150459,6,0,L,1,0.01
224,192,150869,1,8,0:0:0:0:
256,192,150870,6,0,L,1,0.01
256,192,150871,6,0,L,1,0.01
256,192,150872,6,0,L,1,0.01
256,192,150873,6,0,L,1,0.01
224,192,151283,1,4,0:0:0:0:
256,192,151284,6,4,L,1,0.01
256,192,151285,6,4,L,1,0.01
256,192,151286,6,4,L,1,0.01
256,192,151287,6,4,L,1,0.01
224,192,151646,1,8,0:0:0:0:
256,192,151647,6,0,L,1,0.01
256,192,151648,6,0,L,1,0.01
256,192,151649,6,0,L,1,0.01
256,192,151650,6,0,L,1,0.01
224,192,152010,1,8,0:0:0:0:
256,192,152011,6,0,L,1,0.01
256,192,152012,6,0,L,1,0.01
256,192,152013,6,0,L,1,0.01
256,192,152014,6,0,L,1,0.01
224,192,152373,1,8,0:0:0:0:
256,192,152374,6,0,L,1,0.01
256,192,152375,6,0,L,1,0.01
256,192,152376,6,0,L,1,0.01
256,192,152377,6,0,L,1,0.01
224,192,152737,1,8,0:0:0:0:
256,192,152738,6,8,L,1,0.01
256,192,152739,6,8,L,1,0.01
256,192,152740,6,8,L,1,0.01
256,192,152741,6,8,L,1,0.01
224,192,152899,1,0,0:0:0:0:
256,192,152900,6,0,L,1,0.01
256,192,152901,6,0,L,1,0.01
256,192,152902,6,0,L,1,0.01
256,192,152903,6,0,L,1,0.01
224,192,153061,1,0,0:0:0:0:
256,192,153062,6,0,L,1,0.01
256,192,153063,6,0,L,1,0.01
256,192,153064,6,0,L,1,0.01
256,192,153065,6,0,L,1,0.01
224,192,153223,1,0,0:0:0:0:
256,192,153224,6,0,L,1,0.01
256,192,153225,6,0,L,1,0.01
256,192,153226,6,0,L,1,0.01
256,192,153227,6,0,L,1,0.01
224,192,153385,1,0,0:0:0:0:
256,192,153386,6,0,L,1,0.01
256,192,153387,6,0,L,1,0.01
256,192,153388,6,0,L,1,0.01
256,192,153389,6,0,L,1,0.01
224,192,153547,1,0,0:0:0:0:
256,192,153548,6,0,L,1,0.01
256,192,153549,6,0,L,1,0.01
256,192,153550,6,0,L,1,0.01
256,192,153551,6,0,L,1,0.01
224,192,153709,1,0,0:0:0:0:
256,192,153710,6,0,L,1,0.01
256,192,153711,6,0,L,1,0.01
256,192,153712,6,0,L,1,0.01
256,192,153713,6,0,L,1,0.01
224,192,153872,1,0,0:0:0:0:
256,192,153873,6,0,L,1,0.01
256,192,153874,6,0,L,1,0.01
256,192,153875,6,0,L,1,0.01
256,192,153876,6,0,L,1,0.01
224,192,154036,1,8,0:0:0:0:
256,192,154037,6,8,L,1,0.01
256,192,154038,6,8,L,1,0.01
256,192,154039,6,8,L,1,0.01
256,192,154040,6,8,L,1,0.01
224,192,154182,1,0,0:0:0:0:
256,192,154183,6,0,L,1,0.01
256,192,154184,6,0,L,1,0.01
256,192,154185,6,0,L,1,0.01
256,192,154186,6,0,L,1,0.01
224,192,154328,1,0,0:0:0:0:
256,192,154329,6,0,L,1,0.01
256,192,154330,6,0,L,1,0.01
256,192,154331,6,0,L,1,0.01
256,192,154332,6,0,L,1,0.01
224,192,154475,1,0,0:0:0:0:
256,192,154476,6,0,L,1,0.01
256,192,154477,6,0,L,1,0.01
256,192,154478,6,0,L,1,0.01
256,192,154479,6,0,L,1,0.01
224,192,154621,1,0,0:0:0:0:
256,192,154622,6,0,L,1,0.01
256,192,154623,6,0,L,1,0.01
256,192,154624,6,0,L,1,0.01
256,192,154625,6,0,L,1,0.01
224,192,154767,1,0,0:0:0:0:
256,192,154768,6,0,L,1,0.01
256,192,154769,6,0,L,1,0.01
256,192,154770,6,0,L,1,0.01
256,192,154771,6,0,L,1,0.01
224,192,154914,1,0,0:0:0:0:
256,192,154915,6,0,L,1,0.01
256,192,154916,6,0,L,1,0.01
256,192,154917,6,0,L,1,0.01
256,192,154918,6,0,L,1,0.01
224,192,155060,1,0,0:0:0:0:
256,192,155061,6,0,L,1,0.01
256,192,155062,6,0,L,1,0.01
256,192,155063,6,0,L,1,0.01
256,192,155064,6,0,L,1,0.01
224,192,155206,1,8,0:0:0:0:
256,192,155207,6,8,L,1,0.01
256,192,155208,6,8,L,1,0.01
256,192,155209,6,8,L,1,0.01
256,192,155210,6,8,L,1,0.01
224,192,155339,1,0,0:0:0:0:
256,192,155340,6,0,L,1,0.01
256,192,155341,6,0,L,1,0.01
256,192,155342,6,0,L,1,0.01
256,192,155343,6,0,L,1,0.01
224,192,155472,1,0,0:0:0:0:
256,192,155473,6,0,L,1,0.01
256,192,155474,6,0,L,1,0.01
256,192,155475,6,0,L,1,0.01
256,192,155476,6,0,L,1,0.01
224,192,155606,1,0,0:0:0:0:
256,192,155607,6,0,L,1,0.01
256,192,155608,6,0,L,1,0.01
256,192,155609,6,0,L,1,0.01
256,192,155610,6,0,L,1,0.01
224,192,155739,1,0,0:0:0:0:
256,192,155740,6,0,L,1,0.01
256,192,155741,6,0,L,1,0.01
256,192,155742,6,0,L,1,0.01
256,192,155743,6,0,L,1,0.01
224,192,155872,1,0,0:0:0:0:
256,192,155873,6,0,L,1,0.01
256,192,155874,6,0,L,1,0.01
256,192,155875,6,0,L,1,0.01
256,192,155876,6,0,L,1,0.01
224,192,156006,1,0,0:0:0:0:
256,192,156007,6,0,L,1,0.01
256,192,156008,6,0,L,1,0.01
256,192,156009,6,0,L,1,0.01
256,192,156010,6,0,L,1,0.01
224,192,156139,1,0,0:0:0:0:
256,192,156140,6,0,L,1,0.01
256,192,156141,6,0,L,1,0.01
256,192,156142,6,0,L,1,0.01
256,192,156143,6,0,L,1,0.01
224,192,156272,1,8,0:0:0:0:
256,192,156273,6,8,L,1,0.01
256,192,156274,6,8,L,1,0.01
256,192,156275,6,8,L,1,0.01
256,192,156276,6,8,L,1,0.01
224,192,156397,1,0,0:0:0:0:
256,192,156398,6,0,L,1,0.01
256,192,156399,6,0,L,1,0.01
256,192,156400,6,0,L,1,0.01
256,192,156401,6,0,L,1,0.01
224,192,156522,1,0,0:0:0:0:
256,192,156523,6,0,L,1,0.01
256,192,156524,6,0,L,1,0.01
256,192,156525,6,0,L,1,0.01
256,192,156526,6,0,L,1,0.01
224,192,156647,1,0,0:0:0:0:
256,192,156648,6,0,L,1,0.01
256,192,156649,6,0,L,1,0.01
256,192,156650,6,0,L,1,0.01
256,192,156651,6,0,L,1,0.01
224,192,156772,1,0,0:0:0:0:
256,192,156773,6,0,L,1,0.01
256,192,156774,6,0,L,1,0.01
256,192,156775,6,0,L,1,0.01
256,192,156776,6,0,L,1,0.01
224,192,156897,1,0,0:0:0:0:
256,192,156898,6,0,L,1,0.01
256,192,156899,6,0,L,1,0.01
256,192,156900,6,0,L,1,0.01
256,192,156901,6,0,L,1,0.01
224,192,157022,1,0,0:0:0:0:
256,192,157023,6,0,L,1,0.01
256,192,157024,6,0,L,1,0.01
256,192,157025,6,0,L,1,0.01
256,192,157026,6,0,L,1,0.01
224,192,157147,1,0,0:0:0:0:
256,192,157148,6,0,L,1,0.01
256,192,157149,6,0,L,1,0.01
256,192,157150,6,0,L,1,0.01
256,192,157151,6,0,L,1,0.01
224,192,157272,1,8,0:0:0:0:
256,192,157273,6,8,L,1,0.01
256,192,157274,6,8,L,1,0.01
256,192,157275,6,8,L,1,0.01
256,192,157276,6,8,L,1,0.01
224,192,157385,1,0,0:0:0:0:
256,192,157386,6,0,L,1,0.01
256,192,157387,6,0,L,1,0.01
256,192,157388,6,0,L,1,0.01
256,192,157389,6,0,L,1,0.01
224,192,157498,1,0,0:0:0:0:
256,192,157499,6,0,L,1,0.01
256,192,157500,6,0,L,1,0.01
256,192,157501,6,0,L,1,0.01
256,192,157502,6,0,L,1,0.01
224,192,157611,1,0,0:0:0:0:
256,192,157612,6,0,L,1,0.01
256,192,157613,6,0,L,1,0.01
256,192,157614,6,0,L,1,0.01
256,192,157615,6,0,L,1,0.01
224,192,157724,1,0,0:0:0:0:
256,192,157725,6,0,L,1,0.01
256,192,157726,6,0,L,1,0.01
256,192,157727,6,0,L,1,0.01
256,192,157728,6,0,L,1,0.01
224,192,157838,1,0,0:0:0:0:
256,192,157839,6,0,L,1,0.01
256,192,157840,6,0,L,1,0.01
256,192,157841,6,0,L,1,0.01
256,192,157842,6,0,L,1,0.01
224,192,157951,1,0,0:0:0:0:
256,192,157952,6,0,L,1,0.01
256,192,157953,6,0,L,1,0.01
256,192,157954,6,0,L,1,0.01
256,192,157955,6,0,L,1,0.01
224,192,158064,1,0,0:0:0:0:
256,192,158065,6,0,L,1,0.01
256,192,158066,6,0,L,1,0.01
256,192,158067,6,0,L,1,0.01
256,192,158068,6,0,L,1,0.01
224,192,158177,1,8,0:0:0:0:
256,192,158178,6,8,L,1,0.01
256,192,158179,6,8,L,1,0.01
256,192,158180,6,8,L,1,0.01
256,192,158181,6,8,L,1,0.01
224,192,158282,1,0,0:0:0:0:
256,192,158283,6,0,L,1,0.01
256,192,158284,6,0,L,1,0.01
256,192,158285,6,0,L,1,0.01
256,192,158286,6,0,L,1,0.01
224,192,158387,1,0,0:0:0:0:
256,192,158388,6,0,L,1,0.01
256,192,158389,6,0,L,1,0.01
256,192,158390,6,0,L,1,0.01
256,192,158391,6,0,L,1,0.01
224,192,158492,1,0,0:0:0:0:
256,192,158493,6,0,L,1,0.01
256,192,158494,6,0,L,1,0.01
256,192,158495,6,0,L,1,0.01
256,192,158496,6,0,L,1,0.01
224,192,158598,1,0,0:0:0:0:
256,192,158599,6,0,L,1,0.01
256,192,158600,6,0,L,1,0.01
256,192,158601,6,0,L,1,0.01
256,192,158602,6,0,L,1,0.01
224,192,158703,1,0,0:0:0:0:
256,192,158704,6,0,L,1,0.01
256,192,158705,6,0,L,1,0.01
256,192,158706,6,0,L,1,0.01
256,192,158707,6,0,L,1,0.01
224,192,158808,1,0,0:0:0:0:
256,192,158809,6,0,L,1,0.01
256,192,158810,6,0,L,1,0.01
256,192,158811,6,0,L,1,0.01
256,192,158812,6,0,L,1,0.01
224,192,158913,1,0,0:0:0:0:
256,192,158914,6,0,L,1,0.01
256,192,158915,6,0,L,1,0.01
256,192,158916,6,0,L,1,0.01
256,192,158917,6,0,L,1,0.01
224,192,159019,1,8,0:0:0:0:
256,192,159020,6,8,L,1,0.01
256,192,159021,6,8,L,1,0.01
256,192,159022,6,8,L,1,0.01
256,192,159023,6,8,L,1,0.01
224,192,159119,1,0,0:0:0:0:
256,192,159120,6,0,L,1,0.01
256,192,159121,6,0,L,1,0.01
256,192,159122,6,0,L,1,0.01
256,192,159123,6,0,L,1,0.01
224,192,159219,1,0,0:0:0:0:
256,192,159220,6,0,L,1,0.01
256,192,159221,6,0,L,1,0.01
256,192,159222,6,0,L,1,0.01
256,192,159223,6,0,L,1,0.01
224,192,159319,1,0,0:0:0:0:
256,192,159320,6,0,L,1,0.01
256,192,159321,6,0,L,1,0.01
256,192,159322,6,0,L,1,0.01
256,192,159323,6,0,L,1,0.01
224,192,159419,1,0,0:0:0:0:
256,192,159420,6,0,L,1,0.01
256,192,159421,6,0,L,1,0.01
256,192,159422,6,0,L,1,0.01
256,192,159423,6,0,L,1,0.01
224,192,159519,1,0,0:0:0:0:
256,192,159520,6,0,L,1,0.01
256,192,159521,6,0,L,1,0.01
256,192,159522,6,0,L,1,0.01
256,192,159523,6,0,L,1,0.01
224,192,159619,1,0,0:0:0:0:
256,192,159620,6,0,L,1,0.01
256,192,159621,6,0,L,1,0.01
256,192,159622,6,0,L,1,0.01
256,192,159623,6,0,L,1,0.01
224,192,159719,1,0,0:0:0:0:
256,192,159720,6,0,L,1,0.01
256,192,159721,6,0,L,1,0.01
256,192,159722,6,0,L,1,0.01
256,192,159723,6,0,L,1,0.01
224,192,159819,1,8,0:0:0:0:
256,192,159820,6,8,L,1,0.01
256,192,159821,6,8,L,1,0.01
256,192,159822,6,8,L,1,0.01
256,192,159823,6,8,L,1,0.01
224,192,159919,1,0,0:0:0:0:
256,192,159920,6,0,L,1,0.01
256,192,159921,6,0,L,1,0.01
256,192,159922,6,0,L,1,0.01
256,192,159923,6,0,L,1,0.01
224,192,160019,1,0,0:0:0:0:
256,192,160020,6,0,L,1,0.01
256,192,160021,6,0,L,1,0.01
256,192,160022,6,0,L,1,0.01
256,192,160023,6,0,L,1,0.01
224,192,160119,1,0,0:0:0:0:
256,192,160120,6,0,L,1,0.01
256,192,160121,6,0,L,1,0.01
256,192,160122,6,0,L,1,0.01
256,192,160123,6,0,L,1,0.01
224,192,160219,1,0,0:0:0:0:
256,192,160220,6,0,L,1,0.01
256,192,160221,6,0,L,1,0.01
256,192,160222,6,0,L,1,0.01
256,192,160223,6,0,L,1,0.01
224,192,160319,1,0,0:0:0:0:
256,192,160320,6,0,L,1,0.01
256,192,160321,6,0,L,1,0.01
256,192,160322,6,0,L,1,0.01
256,192,160323,6,0,L,1,0.01
224,192,160419,1,0,0:0:0:0:
256,192,160420,6,0,L,1,0.01
256,192,160421,6,0,L,1,0.01
256,192,160422,6,0,L,1,0.01
256,192,160423,6,0,L,1,0.01
224,192,160519,1,0,0:0:0:0:
256,192,160520,6,0,L,1,0.01
256,192,160521,6,0,L,1,0.01
256,192,160522,6,0,L,1,0.01
256,192,160523,6,0,L,1,0.01
224,192,160619,1,8,0:0:0:0:
256,192,160620,6,8,L,1,0.01
256,192,160621,6,8,L,1,0.01
256,192,160622,6,8,L,1,0.01
256,192,160623,6,8,L,1,0.01
224,192,160719,1,0,0:0:0:0:
256,192,160720,6,0,L,1,0.01
256,192,160721,6,0,L,1,0.01
256,192,160722,6,0,L,1,0.01
256,192,160723,6,0,L,1,0.01
224,192,160819,1,0,0:0:0:0:
256,192,160820,6,0,L,1,0.01
256,192,160821,6,0,L,1,0.01
256,192,160822,6,0,L,1,0.01
256,192,160823,6,0,L,1,0.01
224,192,160919,1,0,0:0:0:0:
256,192,160920,6,0,L,1,0.01
256,192,160921,6,0,L,1,0.01
256,192,160922,6,0,L,1,0.01
256,192,160923,6,0,L,1,0.01
224,192,161019,1,8,0:0:0:0:
256,192,161020,6,8,L,1,0.01
256,192,161021,6,8,L,1,0.01
256,192,161022,6,8,L,1,0.01
256,192,161023,6,8,L,1,0.01
224,192,161119,1,0,0:0:0:0:
256,192,161120,6,0,L,1,0.01
256,192,161121,6,0,L,1,0.01
256,192,161122,6,0,L,1,0.01
256,192,161123,6,0,L,1,0.01
224,192,161219,1,0,0:0:0:0:
256,192,161220,6,0,L,1,0.01
256,192,161221,6,0,L,1,0.01
256,192,161222,6,0,L,1,0.01
256,192,161223,6,0,L,1,0.01
224,192,161319,1,0,0:0:0:0:
256,192,161320,6,0,L,1,0.01
256,192,161321,6,0,L,1,0.01
256,192,161322,6,0,L,1,0.01
256,192,161323,6,0,L,1,0.01
224,192,161419,1,8,0:0:0:0:
256,192,161420,6,8,L,1,0.01
256,192,161421,6,8,L,1,0.01
256,192,161422,6,8,L,1,0.01
256,192,161423,6,8,L,1,0.01
224,192,161519,1,0,0:0:0:0:
256,192,161520,6,0,L,1,0.01
256,192,161521,6,0,L,1,0.01
256,192,161522,6,0,L,1,0.01
256,192,161523,6,0,L,1,0.01
224,192,161619,1,0,0:0:0:0:
256,192,161620,6,0,L,1,0.01
256,192,161621,6,0,L,1,0.01
256,192,161622,6,0,L,1,0.01
256,192,161623,6,0,L,1,0.01
224,192,161719,1,0,0:0:0:0:
256,192,161720,6,0,L,1,0.01
256,192,161721,6,0,L,1,0.01
256,192,161722,6,0,L,1,0.01
256,192,161723,6,0,L,1,0.01
224,192,161819,1,8,0:0:0:0:
256,192,161820,6,8,L,1,0.01
256,192,161821,6,8,L,1,0.01
256,192,161822,6,8,L,1,0.01
256,192,161823,6,8,L,1,0.01
224,192,161919,1,0,0:0:0:0:
256,192,161920,6,0,L,1,0.01
256,192,161921,6,0,L,1,0.01
256,192,161922,6,0,L,1,0.01
256,192,161923,6,0,L,1,0.01
224,192,162019,1,0,0:0:0:0:
256,192,162020,6,0,L,1,0.01
256,192,162021,6,0,L,1,0.01
256,192,162022,6,0,L,1,0.01
256,192,162023,6,0,L,1,0.01
224,192,162119,1,0,0:0:0:0:
256,192,162120,6,0,L,1,0.01
256,192,162121,6,0,L,1,0.01
256,192,162122,6,0,L,1,0.01
256,192,162123,6,0,L,1,0.01
224,192,162219,1,8,0:0:0:0:
256,192,162220,6,8,L,1,0.01
256,192,162221,6,8,L,1,0.01
256,192,162222,6,8,L,1,0.01
256,192,162223,6,8,L,1,0.01
224,192,162319,1,0,0:0:0:0:
256,192,162320,6,0,L,1,0.01
256,192,162321,6,0,L,1,0.01
256,192,162322,6,0,L,1,0.01
256,192,162323,6,0,L,1,0.01
224,192,162419,1,0,0:0:0:0:
256,192,162420,6,0,L,1,0.01
256,192,162421,6,0,L,1,0.01
256,192,162422,6,0,L,1,0.01
256,192,162423,6,0,L,1,0.01
224,192,162519,1,0,0:0:0:0:
256,192,162520,6,0,L,1,0.01
256,192,162521,6,0,L,1,0.01
256,192,162522,6,0,L,1,0.01
256,192,162523,6,0,L,1,0.01
224,192,162619,1,8,0:0:0:0:
256,192,162620,6,8,L,1,0.01
256,192,162621,6,8,L,1,0.01
256,192,162622,6,8,L,1,0.01
256,192,162623,6,8,L,1,0.01
224,192,162719,1,0,0:0:0:0:
256,192,162720,6,0,L,1,0.01
256,192,162721,6,0,L,1,0.01
256,192,162722,6,0,L,1,0.01
256,192,162723,6,0,L,1,0.01
224,192,162819,1,0,0:0:0:0:
256,192,162820,6,0,L,1,0.01
256,192,162821,6,0,L,1,0.01
256,192,162822,6,0,L,1,0.01
256,192,162823,6,0,L,1,0.01
224,192,162919,1,0,0:0:0:0:
256,192,162920,6,0,L,1,0.01
256,192,162921,6,0,L,1,0.01
256,192,162922,6,0,L,1,0.01
256,192,162923,6,0,L,1,0.01
224,192,163019,1,8,0:0:0:0:
256,192,163020,6,8,L,1,0.01
256,192,163021,6,8,L,1,0.01
256,192,163022,6,8,L,1,0.01
256,192,163023,6,8,L,1,0.01
224,192,163119,1,0,0:0:0:0:
256,192,163120,6,0,L,1,0.01
256,192,163121,6,0,L,1,0.01
256,192,163122,6,0,L,1,0.01
256,192,163123,6,0,L,1,0.01
224,192,163219,1,0,0:0:0:0:
256,192,163220,6,0,L,1,0.01
256,192,163221,6,0,L,1,0.01
256,192,163222,6,0,L,1,0.01
256,192,163223,6,0,L,1,0.01
224,192,163319,1,0,0:0:0:0:
256,192,163320,6,0,L,1,0.01
256,192,163321,6,0,L,1,0.01
256,192,163322,6,0,L,1,0.01
256,192,163323,6,0,L,1,0.01
224,192,163419,1,8,0:0:0:0:
256,192,163420,6,8,L,1,0.01
256,192,163421,6,8,L,1,0.01
256,192,163422,6,8,L,1,0.01
256,192,163423,6,8,L,1,0.01
224,192,163519,1,0,0:0:0:0:
256,192,163520,6,0,L,1,0.01
256,192,163521,6,0,L,1,0.01
256,192,163522,6,0,L,1,0.01
256,192,163523,6,0,L,1,0.01
224,192,163619,1,0,0:0:0:0:
256,192,163620,6,0,L,1,0.01
256,192,163621,6,0,L,1,0.01
256,192,163622,6,0,L,1,0.01
256,192,163623,6,0,L,1,0.01
224,192,163719,1,0,0:0:0:0:
256,192,163720,6,0,L,1,0.01
256,192,163721,6,0,L,1,0.01
256,192,163722,6,0,L,1,0.01
256,192,163723,6,0,L,1,0.01
224,192,163819,1,8,0:0:0:0:
256,192,163820,6,8,L,1,0.01
256,192,163821,6,8,L,1,0.01
256,192,163822,6,8,L,1,0.01
256,192,163823,6,8,L,1,0.01
224,192,163885,1,0,0:0:0:0:
256,192,163886,6,0,L,1,0.01
256,192,163887,6,0,L,1,0.01
256,192,163888,6,0,L,1,0.01
256,192,163889,6,0,L,1,0.01
224,192,163952,1,0,0:0:0:0:
256,192,163953,6,0,L,1,0.01
256,192,163954,6,0,L,1,0.01
256,192,163955,6,0,L,1,0.01
256,192,163956,6,0,L,1,0.01
224,192,164019,1,8,0:0:0:0:
256,192,164020,6,8,L,1,0.01
256,192,164021,6,8,L,1,0.01
256,192,164022,6,8,L,1,0.01
256,192,164023,6,8,L,1,0.01
224,192,164085,1,0,0:0:0:0:
256,192,164086,6,0,L,1,0.01
256,192,164087,6,0,L,1,0.01
256,192,164088,6,0,L,1,0.01
256,192,164089,6,0,L,1,0.01
224,192,164152,1,0,0:0:0:0:
256,192,164153,6,0,L,1,0.01
256,192,164154,6,0,L,1,0.01
256,192,164155,6,0,L,1,0.01
256,192,164156,6,0,L,1,0.01
224,192,164219,1,8,0:0:0:0:
256,192,164220,6,8,L,1,0.01
256,192,164221,6,8,L,1,0.01
256,192,164222,6,8,L,1,0.01
256,192,164223,6,8,L,1,0.01
224,192,164285,1,0,0:0:0:0:
256,192,164286,6,0,L,1,0.01
256,192,164287,6,0,L,1,0.01
256,192,164288,6,0,L,1,0.01
256,192,164289,6,0,L,1,0.01
224,192,164352,1,0,0:0:0:0:
256,192,164353,6,0,L,1,0.01
256,192,164354,6,0,L,1,0.01
256,192,164355,6,0,L,1,0.01
256,192,164356,6,0,L,1,0.01
224,192,164419,1,8,0:0:0:0:
256,192,164420,6,8,L,1,0.01
256,192,164421,6,8,L,1,0.01
256,192,164422,6,8,L,1,0.01
256,192,164423,6,8,L,1,0.01
224,192,164485,1,0,0:0:0:0:
256,192,164486,6,0,L,1,0.01
256,192,164487,6,0,L,1,0.01
256,192,164488,6,0,L,1,0.01
256,192,164489,6,0,L,1,0.01
224,192,164552,1,0,0:0:0:0:
256,192,164553,6,0,L,1,0.01
256,192,164554,6,0,L,1,0.01
256,192,164555,6,0,L,1,0.01
256,192,164556,6,0,L,1,0.01
224,192,164619,1,8,0:0:0:0:
256,192,164620,6,8,L,1,0.01
256,192,164621,6,8,L,1,0.01
256,192,164622,6,8,L,1,0.01
256,192,164623,6,8,L,1,0.01
224,192,164685,1,0,0:0:0:0:
256,192,164686,6,0,L,1,0.01
256,192,164687,6,0,L,1,0.01
256,192,164688,6,0,L,1,0.01
256,192,164689,6,0,L,1,0.01
224,192,164752,1,0,0:0:0:0:
256,192,164753,6,0,L,1,0.01
256,192,164754,6,0,L,1,0.01
256,192,164755,6,0,L,1,0.01
256,192,164756,6,0,L,1,0.01
224,192,164819,1,8,0:0:0:0:
256,192,164820,6,8,L,1,0.01
256,192,164821,6,8,L,1,0.01
256,192,164822,6,8,L,1,0.01
256,192,164823,6,8,L,1,0.01
224,192,164885,1,0,0:0:0:0:
256,192,164886,6,0,L,1,0.01
256,192,164887,6,0,L,1,0.01
256,192,164888,6,0,L,1,0.01
256,192,164889,6,0,L,1,0.01
224,192,164952,1,0,0:0:0:0:
256,192,164953,6,0,L,1,0.01
256,192,164954,6,0,L,1,0.01
256,192,164955,6,0,L,1,0.01
256,192,164956,6,0,L,1,0.01
224,192,165019,1,8,0:0:0:0:
256,192,165020,6,8,L,1,0.01
256,192,165021,6,8,L,1,0.01
256,192,165022,6,8,L,1,0.01
256,192,165023,6,8,L,1,0.01
224,192,165085,1,0,0:0:0:0:
256,192,165086,6,0,L,1,0.01
256,192,165087,6,0,L,1,0.01
256,192,165088,6,0,L,1,0.01
256,192,165089,6,0,L,1,0.01
224,192,165152,1,0,0:0:0:0:
256,192,165153,6,0,L,1,0.01
256,192,165154,6,0,L,1,0.01
256,192,165155,6,0,L,1,0.01
256,192,165156,6,0,L,1,0.01
224,192,165219,1,8,0:0:0:0:
256,192,165220,6,8,L,1,0.01
256,192,165221,6,8,L,1,0.01
256,192,165222,6,8,L,1,0.01
256,192,165223,6,8,L,1,0.01
224,192,165285,1,0,0:0:0:0:
256,192,165286,6,0,L,1,0.01
256,192,165287,6,0,L,1,0.01
256,192,165288,6,0,L,1,0.01
256,192,165289,6,0,L,1,0.01
224,192,165352,1,0,0:0:0:0:
256,192,165353,6,0,L,1,0.01
256,192,165354,6,0,L,1,0.01
256,192,165355,6,0,L,1,0.01
256,192,165356,6,0,L,1,0.01
224,192,165419,1,8,0:0:0:0:
256,192,165420,6,8,L,1,0.01
256,192,165421,6,8,L,1,0.01
256,192,165422,6,8,L,1,0.01
256,192,165423,6,8,L,1,0.01
160,160,166019,1,4,0:0:0:0:
160,160,166119,1,4,0:0:0:0:
160,160,166619,1,12,0:0:0:0:
160,160,167019,1,4,0:0:0:0:
160,160,167419,1,8,0:0:0:0:
96,192,167519,1,0,0:0:0:0:
96,192,167619,1,8,0:0:0:0:
150,125,167719,1,0,0:0:0:0:
96,192,167819,1,0,0:0:0:0:
192,224,167919,1,8,0:0:0:0:
234,110,168019,1,8,0:0:0:0:
131,104,168119,1,0,0:0:0:0:
131,104,168219,1,8,0:0:0:0:
131,104,168419,1,12,0:0:0:0:
131,104,168619,1,4,0:0:0:0:
131,104,168819,1,0,0:0:0:0:
131,104,168919,1,0,0:0:0:0:
131,104,169019,1,8,0:0:0:0:
131,104,169319,1,0,0:0:0:0:
131,104,169419,1,12,0:0:0:0:
131,104,169719,1,12,0:0:0:0:
131,104,170019,1,12,0:0:0:0:
131,104,170219,1,4,0:0:0:0:
131,104,170419,1,8,0:0:0:0:
131,104,170619,1,8,0:0:0:0:
131,104,170719,1,0,0:0:0:0:
131,104,170819,1,8,0:0:0:0:
192,224,170919,1,0,0:0:0:0:
131,104,171019,1,0,0:0:0:0:
192,224,171119,1,8,0:0:0:0:
131,104,171219,1,8,0:0:0:0:
256,96,171319,1,0,0:0:0:0:
131,104,171419,1,8,0:0:0:0:
131,104,171819,1,0,0:0:0:0:
256,96,171919,1,8,0:0:0:0:
256,96,172019,1,0,0:0:0:0:
256,96,172119,1,0,0:0:0:0:
256,96,172219,1,8,0:0:0:0:
448,160,172519,1,0,0:0:0:0:
256,96,172619,1,8,0:0:0:0:
256,96,172919,1,8,0:0:0:0:
256,96,173019,1,4,0:0:0:0:
256,96,173419,1,12,0:0:0:0:
256,96,173819,1,8,0:0:0:0:
192,224,173919,1,0,0:0:0:0:
192,224,174019,1,8,0:0:0:0:
192,224,174119,1,0,0:0:0:0:
192,224,174219,1,0,0:0:0:0:
192,224,174319,1,8,0:0:0:0:
192,224,174419,1,8,0:0:0:0:
192,224,174519,1,0,0:0:0:0:
192,224,174619,1,8,0:0:0:0:
192,96,174819,1,12,0:0:0:0:
192,96,175019,1,0,0:0:0:0:
192,96,175119,1,8,0:0:0:0:
192,96,175219,1,0,0:0:0:0:
192,96,175319,1,0,0:0:0:0:
192,96,175419,1,8,0:0:0:0:
352,192,175719,1,8,0:0:0:0:
192,96,175819,1,4,0:0:0:0:
192,96,176119,1,4,0:0:0:0:
192,96,176419,1,4,0:0:0:0:
192,96,176619,1,8,0:0:0:0:
192,96,176819,1,0,0:0:0:0:
192,96,177019,1,8,0:0:0:0:
192,96,177119,1,0,0:0:0:0:
192,96,177219,1,8,0:0:0:0:
192,96,177319,1,0,0:0:0:0:
192,96,177419,1,0,0:0:0:0:
192,96,177519,1,8,0:0:0:0:
192,96,177619,1,8,0:0:0:0:
192,96,177719,1,0,0:0:0:0:
192,96,177819,1,8,0:0:0:0:
192,96,178019,1,8,0:0:0:0:
192,96,178119,1,8,0:0:0:0:
192,96,178219,1,0,0:0:0:0:
192,96,178419,1,0,0:0:0:0:
192,96,178519,1,8,0:0:0:0:
192,96,178719,1,8,0:0:0:0:
192,96,178819,1,8,0:0:0:0:
192,96,179019,1,8,0:0:0:0:
192,96,179119,1,0,0:0:0:0:
192,96,179219,1,0,0:0:0:0:
192,96,179319,1,8,0:0:0:0:
192,96,179419,1,8,0:0:0:0:
192,48,179519,1,0,0:0:0:0:
192,96,179619,1,8,0:0:0:0:
192,96,179819,1,12,0:0:0:0:
192,96,180019,1,0,0:0:0:0:
192,96,180219,1,8,0:0:0:0:
192,96,180319,1,0,0:0:0:0:
192,96,180419,1,8,0:0:0:0:
192,96,180519,1,8,0:0:0:0:
192,96,180619,1,0,0:0:0:0:
192,96,180719,1,0,0:0:0:0:
192,96,180819,1,8,0:0:0:0:
192,96,180919,1,0,0:0:0:0:
192,96,181019,1,8,0:0:0:0:
32,160,181119,1,0,0:0:0:0:
192,96,181219,1,8,0:0:0:0:
256,64,181419,1,4,0:0:0:0:
256,64,181619,1,0,0:0:0:0:
256,64,181719,1,8,0:0:0:0:
256,64,181819,1,0,0:0:0:0:
256,64,182019,1,8,0:0:0:0:
256,64,182119,1,8,0:0:0:0:
256,64,182219,1,4,0:0:0:0:
256,64,182519,1,4,0:0:0:0:
256,64,182819,1,4,0:0:0:0:
256,64,183019,1,8,0:0:0:0:
192,160,183119,1,8,0:0:0:0:
256,64,183219,1,0,0:0:0:0:
192,160,183319,1,0,0:0:0:0:
256,64,183419,1,8,0:0:0:0:
224,128,183519,1,0,0:0:0:0:
192,160,183619,1,8,0:0:0:0:
192,160,183719,1,8,0:0:0:0:
192,160,183819,1,0,0:0:0:0:
192,160,183919,1,0,0:0:0:0:
192,160,184019,1,8,0:0:0:0:
192,160,184119,1,0,0:0:0:0:
192,160,184219,1,8,0:0:0:0:
192,160,184419,1,0,0:0:0:0:
192,160,184619,1,8,0:0:0:0:
192,160,184719,1,0,0:0:0:0:
192,160,184819,1,0,0:0:0:0:
192,160,184919,1,0,0:0:0:0:
192,160,185019,1,8,0:0:0:0:
256,128,185119,1,0,0:0:0:0:
192,160,185219,1,8,0:0:0:0:
352,128,185319,1,8,0:0:0:0:
192,160,185419,1,0,0:0:0:0:
192,160,185519,1,8,0:0:0:0:
192,160,185619,1,8,0:0:0:0:
192,160,185719,1,0,0:0:0:0:
192,160,185819,1,8,0:0:0:0:
192,160,185919,1,8,0:0:0:0:
192,160,186019,1,0,0:0:0:0:
224,192,186219,1,0,0:0:0:0:
224,192,186619,1,12,0:0:0:0:
96,160,186819,1,8,0:0:0:0:
96,160,186919,1,8,0:0:0:0:
96,160,187019,1,0,0:0:0:0:
96,160,187119,1,0,0:0:0:0:
96,160,187219,1,8,0:0:0:0:
96,160,187319,1,0,0:0:0:0:
96,160,187419,1,12,0:0:0:0:
224,128,187519,1,0,0:0:0:0:
224,128,187619,1,12,0:0:0:0:
288,128,187819,1,0,0:0:0:0:
224,128,187919,1,0,0:0:0:0:
224,128,188019,1,8,0:0:0:0:
224,128,188119,1,0,0:0:0:0:
224,128,188219,1,8,0:0:0:0:
80,192,188319,1,8,0:0:0:0:
224,128,188419,1,0,0:0:0:0:
224,128,188519,1,0,0:0:0:0:
224,128,188619,1,12,0:0:0:0:
288,0,188819,1,0,0:0:0:0:
224,128,188919,1,12,0:0:0:0:
256,0,189119,1,0,0:0:0:0:
224,128,189219,1,12,0:0:0:0:
224,128,189419,1,8,0:0:0:0:
224,128,189519,1,8,0:0:0:0:
224,128,189619,1,0,0:0:0:0:
160,384,189719,1,0,0:0:0:0:
160,384,189819,1,8,0:0:0:0:
160,384,190019,1,8,0:0:0:0:
160,384,190119,1,0,0:0:0:0:
160,384,190219,1,12,0:0:0:0:
160,384,190419,1,0,0:0:0:0:
160,384,190619,1,12,0:0:0:0:
256,160,190819,1,0,0:0:0:0:
256,160,190869,1,0,0:0:0:0:
256,160,190919,1,0,0:0:0:0:
256,160,190969,1,0,0:0:0:0:
256,160,191019,1,8,0:0:0:0:
192,160,191119,1,0,0:0:0:0:
192,160,191319,1,0,0:0:0:0:
192,160,191419,1,8,0:0:0:0:
192,160,191519,1,0,0:0:0:0:
192,160,191619,1,8,0:0:0:0:
192,160,191819,1,4,0:0:0:0:
192,160,192019,1,8,0:0:0:0:
192,160,192119,1,0,0:0:0:0:
192,160,192419,1,0,0:0:0:0:
192,160,192619,1,12,0:0:0:0:
192,160,192819,1,0,0:0:0:0:
192,160,192919,1,0,0:0:0:0:
192,160,193019,1,8,0:0:0:0:
192,160,193219,1,8,0:0:0:0:
192,160,193319,1,8,0:0:0:0:
192,160,193419,1,0,0:0:0:0:
192,160,193519,1,0,0:0:0:0:
144,160,193619,1,8,0:0:0:0:
192,160,193719,1,0,0:0:0:0:
192,160,193819,1,8,0:0:0:0:
150,125,193919,1,0,0:0:0:0:
192,160,194019,1,0,0:0:0:0:
192,160,194119,1,8,0:0:0:0:
192,160,194219,1,0,0:0:0:0:
192,160,194319,1,8,0:0:0:0:
192,160,194419,1,0,0:0:0:0:
192,160,194519,1,0,0:0:0:0:
192,160,194619,1,8,0:0:0:0:
150,125,194719,1,8,0:0:0:0:
150,125,194819,1,0,0:0:0:0:
192,160,194919,1,0,0:0:0:0:
192,160,195019,1,8,0:0:0:0:
150,125,195119,1,0,0:0:0:0:
150,125,195219,1,0,0:0:0:0:
150,125,195319,1,8,0:0:0:0:
150,125,195419,1,0,0:0:0:0:
150,125,195519,1,8,0:0:0:0:
192,160,195619,1,8,0:0:0:0:
192,160,195719,1,0,0:0:0:0:
192,160,195819,1,8,0:0:0:0:
144,160,195885,1,8,0:0:0:0:
112,176,195952,1,8,0:0:0:0:
192,160,196019,1,0,0:0:0:0:
192,160,196119,1,0,0:0:0:0:
192,160,196219,1,8,0:0:0:0:
192,160,196419,1,8,0:0:0:0:
192,160,196519,1,0,0:0:0:0:
192,160,196619,1,8,0:0:0:0:
192,160,196719,1,8,0:0:0:0:
192,160,196819,1,0,0:0:0:0:
128,176,196919,1,0,0:0:0:0:
192,160,197019,1,8,0:0:0:0:
192,160,197119,1,0,0:0:0:0:
192,160,197219,1,0,0:0:0:0:
192,160,197319,1,8,0:0:0:0:
192,160,197419,1,0,0:0:0:0:
192,160,197519,1,8,0:0:0:0:
192,160,197619,1,0,0:0:0:0:
192,160,197719,1,0,0:0:0:0:
192,160,197819,1,8,0:0:0:0:
144,128,197919,1,0,0:0:0:0:
192,160,198019,1,8,0:0:0:0:
192,160,198119,1,8,0:0:0:0:
192,160,198219,1,0,0:0:0:0:
192,160,198319,1,8,0:0:0:0:
192,160,198419,1,0,0:0:0:0:
192,160,198519,1,0,0:0:0:0:
192,160,198619,1,8,0:0:0:0:
144,128,198719,1,8,0:0:0:0:
144,128,198819,1,0,0:0:0:0:
192,160,198919,1,0,0:0:0:0:
192,160,199019,1,12,0:0:0:0:
192,160,199219,1,0,0:0:0:0:
192,160,199319,1,0,0:0:0:0:
192,160,199419,1,8,0:0:0:0:
192,160,199619,1,8,0:0:0:0:
192,160,199719,1,0,0:0:0:0:
144,128,199819,1,8,0:0:0:0:
192,160,199919,1,8,0:0:0:0:
192,160,200019,1,0,0:0:0:0:
192,160,200119,1,0,0:0:0:0:
192,160,200219,1,8,0:0:0:0:
144,128,200319,1,0,0:0:0:0:
144,128,200419,1,0,0:0:0:0:
192,160,200519,1,8,0:0:0:0:
192,160,200619,1,0,0:0:0:0:
192,160,200719,1,8,0:0:0:0:
192,160,200819,1,0,0:0:0:0:
192,160,200919,1,0,0:0:0:0:
192,160,201019,1,8,0:0:0:0:
192,160,201219,1,0,0:0:0:0:
192,160,201319,1,0,0:0:0:0:
192,160,201419,1,8,0:0:0:0:
192,160,201519,1,8,0:0:0:0:
192,160,201619,1,0,0:0:0:0:
192,160,201719,1,0,0:0:0:0:
192,160,201819,1,8,0:0:0:0:
144,128,201919,1,0,0:0:0:0:
144,128,202019,1,8,0:0:0:0:
192,160,202119,1,0,0:0:0:0:
192,160,202219,1,8,0:0:0:0:
144,160,202285,1,8,0:0:0:0:
96,176,202352,1,8,0:0:0:0:
48,176,202419,1,0,0:0:0:0:
192,160,202519,1,0,0:0:0:0:
192,160,202619,1,8,0:0:0:0:
192,192,202819,1,8,0:0:0:0:
192,192,202919,1,8,0:0:0:0:
192,192,203019,1,0,0:0:0:0:
192,192,203119,1,0,0:0:0:0:
192,192,203219,1,8,0:0:0:0:
192,192,203319,1,0,0:0:0:0:
192,192,203419,1,8,0:0:0:0:
160,160,203519,1,4,0:0:0:0:
256,192,203520,6,0,L,1,-300
256,192,203520,6,0,L,1,-250
256,192,203520,6,0,L,1,-200
160,160,203819,1,4,0:0:0:0:
256,192,203820,6,0,L,1,-200
256,192,203820,6,0,L,1,-250
256,192,203820,6,0,L,1,-300
160,160,204219,1,4,0:0:0:0:
256,192,204220,6,0,L,1,-350
256,192,204220,6,0,L,1,-400
256,192,204220,6,0,L,1,-450
160,160,204619,1,4,0:0:0:0:
256,192,204620,6,0,L,1,-500
256,192,204620,6,0,L,1,-550
256,192,204620,6,0,L,1,-600
128,320,205019,1,12,0:0:0:0:
256,192,205020,6,4,L,1,-300
256,192,205020,6,4,L,1,-250
256,192,205020,6,4,L,1,-200
128,320,205219,1,12,0:0:0:0:
256,192,205220,6,4,L,1,-500
256,192,205220,6,4,L,1,-550
256,192,205220,6,4,L,1,-600
128,320,205419,1,0,0:0:0:0:
128,128,205619,1,8,0:0:0:0:
128,128,205719,1,8,0:0:0:0:
128,128,205819,1,8,0:0:0:0:
160,32,206019,1,8,0:0:0:0:
256,192,206019,2,8,L,1,0.01
144,112,206119,1,8,0:0:0:0:
256,192,206119,2,8,L,1,0.01
128,128,206219,1,8,0:0:0:0:
256,192,206219,2,8,L,1,0.01
128,128,206419,1,8,0:0:0:0:
128,128,206519,1,0,0:0:0:0:
128,128,206619,1,8,0:0:0:0:
208,96,206819,1,8,0:0:0:0:
256,192,206819,2,8,L,1,0.01
192,80,206919,1,0,0:0:0:0:
256,192,206919,2,0,L,1,0.01
160,64,207019,1,8,0:0:0:0:
256,192,207019,2,8,L,1,0.01
128,128,207219,1,0,0:0:0:0:
128,128,207319,1,8,0:0:0:0:
160,160,207419,1,8,0:0:0:0:
80,128,207619,1,0,0:0:0:0:
256,192,207619,2,0,L,1,0.01
112,128,207719,1,8,0:0:0:0:
256,192,207719,2,8,L,1,0.01
208,80,207819,1,8,0:0:0:0:
256,192,207819,2,8,L,1,0.01
128,128,208019,1,0,0:0:0:0:
128,128,208119,1,8,0:0:0:0:
128,128,208219,1,0,0:0:0:0:
128,128,208419,1,8,0:0:0:0:
128,128,208519,1,0,0:0:0:0:
320,96,208619,1,0,0:0:0:0:
320,96,208685,1,0,0:0:0:0:
320,96,208752,1,0,0:0:0:0:
320,96,208819,1,8,0:0:0:0:
256,128,208919,1,0,0:0:0:0:
256,128,209019,1,8,0:0:0:0:
176,80,209219,1,8,0:0:0:0:
176,80,209319,1,8,0:0:0:0:
176,80,209419,1,0,0:0:0:0:
208,80,209619,1,8,0:0:0:0:
256,192,209619,2,8,L,1,0.01
48,160,209719,1,8,0:0:0:0:
256,192,209719,2,8,L,1,0.01
80,128,209819,1,0,0:0:0:0:
256,192,209819,2,0,L,1,0.01
96,64,210019,1,8,0:0:0:0:
96,64,210119,1,8,0:0:0:0:
96,64,210219,1,0,0:0:0:0:
208,64,210319,1,8,0:0:0:0:
160,160,210419,1,0,0:0:0:0:
208,64,210519,1,0,0:0:0:0:
160,160,210619,1,8,0:0:0:0:
160,160,210819,1,8,0:0:0:0:
160,160,210919,1,0,0:0:0:0:
160,160,211019,1,8,0:0:0:0:
224,160,211119,1,0,0:0:0:0:
160,160,211219,1,12,0:0:0:0:
256,192,211220,6,12,L,1,-250
256,192,211220,6,12,L,1,-200
256,192,211220,6,12,L,1,-300
160,160,211519,1,12,0:0:0:0:
256,192,211520,6,12,L,1,-350
256,192,211520,6,12,L,1,-400
256,192,211520,6,12,L,1,-450
160,160,211819,1,4,0:0:0:0:
256,192,211820,6,0,L,1,-250
256,192,211820,6,0,L,1,-300
256,192,211820,6,0,L,1,-350
256,192,211820,6,0,L,1,-400
256,192,211820,6,0,L,1,-450
256,192,211820,6,0,L,1,-500
256,192,211820,6,0,L,1,-550
256,192,211820,6,0,L,1,-600
256,192,211820,6,0,L,1,-650
256,192,211820,6,0,L,1,-700
160,160,212219,1,12,0:0:0:0:
320,288,212419,1,8,0:0:0:0:
320,288,212519,1,0,0:0:0:0:
320,288,212619,1,0,0:0:0:0:
144,144,212719,1,8,0:0:0:0:
320,288,212819,1,8,0:0:0:0:
320,288,212919,1,0,0:0:0:0:
320,288,213019,1,8,0:0:0:0:
208,64,213219,1,0,0:0:0:0:
208,64,213319,1,8,0:0:0:0:
208,64,213419,1,0,0:0:0:0:
144,144,213519,1,0,0:0:0:0:
320,288,213619,1,8,0:0:0:0:
320,288,213719,1,0,0:0:0:0:
320,288,213819,1,8,0:0:0:0:
320,288,214019,1,8,0:0:0:0:
320,288,214119,1,0,0:0:0:0:
320,288,214219,1,0,0:0:0:0:
320,288,214419,1,0,0:0:0:0:
320,288,214519,1,0,0:0:0:0:
320,288,214619,1,12,0:0:0:0:
256,192,214620,6,4,L,1,-250
256,192,214620,6,4,L,1,-300
256,192,214620,6,4,L,1,-350
256,192,214620,6,4,L,1,-400
256,192,214620,6,4,L,1,-450
256,192,214620,6,4,L,1,-500
256,192,214620,6,4,L,1,-550
256,192,214620,6,4,L,1,-600
256,192,214620,6,4,L,1,-650
256,192,214620,6,4,L,1,-700
160,160,214620,1,4,0:0:0:0:
256,160,214819,1,0,0:0:0:0:
256,160,215019,1,8,0:0:0:0:
256,160,215119,1,8,0:0:0:0:
256,160,215219,1,0,0:0:0:0:
256,160,215319,1,0,0:0:0:0:
256,160,215419,1,8,0:0:0:0:
128,160,215619,1,0,0:0:0:0:
128,160,215719,1,8,0:0:0:0:
128,160,215819,1,0,0:0:0:0:
128,160,215919,1,0,0:0:0:0:
128,160,216019,1,8,0:0:0:0:
128,160,216119,1,0,0:0:0:0:
128,160,216219,1,8,0:0:0:0:
128,160,216419,1,0,0:0:0:0:
128,160,216519,1,8,0:0:0:0:
128,160,216619,1,0,0:0:0:0:
64,320,216719,1,0,0:0:0:0:
64,320,216819,1,8,0:0:0:0:
64,320,216919,1,0,0:0:0:0:
64,320,217019,1,8,0:0:0:0:
64,256,217119,1,8,0:0:0:0:
64,320,217219,1,0,0:0:0:0:
64,320,217319,1,0,0:0:0:0:
64,320,217419,1,8,0:0:0:0:
64,320,217519,1,0,0:0:0:0:
64,320,217619,1,8,0:0:0:0:
64,320,217719,1,0,0:0:0:0:
64,320,217819,1,8,0:0:0:0:
64,320,217919,1,0,0:0:0:0:
64,320,218019,1,8,0:0:0:0:
64,320,218119,1,8,0:0:0:0:
64,320,218219,1,0,0:0:0:0:
256,192,218219,8,8,223719,0:0:0:0:
192,192,224219,5,8,0:0:0:0:
192,192,224719,1,8,0:0:0:0:
192,192,224885,1,0,0:0:0:0:
192,192,225052,1,8,0:0:0:0:
192,192,225219,1,8,0:0:0:0:
192,192,225385,1,0,0:0:0:0:
192,192,225552,1,0,0:0:0:0:
192,192,225719,1,8,0:0:0:0:
224,192,226219,1,4,0:0:0:0:
256,192,226220,6,4,L,1,0.01
256,192,226221,6,4,L,1,0.01
256,192,226222,6,4,L,1,0.01
256,192,226223,6,4,L,1,0.01
224,192,226719,1,8,0:0:0:0:
256,192,226720,6,0,L,1,0.01
256,192,226721,6,0,L,1,0.01
256,192,226722,6,0,L,1,0.01
256,192,226723,6,0,L,1,0.01
224,192,226885,1,0,0:0:0:0:
256,192,226886,6,0,L,1,0.01
256,192,226887,6,0,L,1,0.01
256,192,226888,6,0,L,1,0.01
256,192,226889,6,0,L,1,0.01
224,192,227052,1,8,0:0:0:0:
256,192,227053,6,0,L,1,0.01
256,192,227054,6,0,L,1,0.01
256,192,227055,6,0,L,1,0.01
256,192,227056,6,0,L,1,0.01
224,192,227219,1,0,0:0:0:0:
256,192,227220,6,0,L,1,0.01
256,192,227221,6,0,L,1,0.01
256,192,227222,6,0,L,1,0.01
256,192,227223,6,0,L,1,0.01
224,192,227385,1,0,0:0:0:0:
256,192,227386,6,0,L,1,0.01
256,192,227387,6,0,L,1,0.01
256,192,227388,6,0,L,1,0.01
256,192,227389,6,0,L,1,0.01
224,192,227552,1,8,0:0:0:0:
256,192,227553,6,0,L,1,0.01
256,192,227554,6,0,L,1,0.01
256,192,227555,6,0,L,1,0.01
256,192,227556,6,0,L,1,0.01
224,192,227719,1,0,0:0:0:0:
256,192,227720,6,0,L,1,0.01
256,192,227721,6,0,L,1,0.01
256,192,227722,6,0,L,1,0.01
256,192,227723,6,0,L,1,0.01
224,192,228219,1,12,0:0:0:0:
256,192,228220,6,4,L,1,0.01
256,192,228221,6,4,L,1,0.01
256,192,228222,6,4,L,1,0.01
256,192,228223,6,4,L,1,0.01
224,192,228719,1,8,0:0:0:0:
256,192,228720,6,0,L,1,0.01
256,192,228721,6,0,L,1,0.01
256,192,228722,6,0,L,1,0.01
256,192,228723,6,0,L,1,0.01
224,192,228885,1,0,0:0:0:0:
256,192,228886,6,0,L,1,0.01
256,192,228887,6,0,L,1,0.01
256,192,228888,6,0,L,1,0.01
256,192,228889,6,0,L,1,0.01
224,192,229052,1,8,0:0:0:0:
256,192,229053,6,0,L,1,0.01
256,192,229054,6,0,L,1,0.01
256,192,229055,6,0,L,1,0.01
256,192,229056,6,0,L,1,0.01
224,192,229219,1,8,0:0:0:0:
256,192,229220,6,0,L,1,0.01
256,192,229221,6,0,L,1,0.01
256,192,229222,6,0,L,1,0.01
256,192,229223,6,0,L,1,0.01
224,192,229385,1,0,0:0:0:0:
256,192,229386,6,0,L,1,0.01
256,192,229387,6,0,L,1,0.01
256,192,229388,6,0,L,1,0.01
256,192,229389,6,0,L,1,0.01
224,192,229552,1,0,0:0:0:0:
256,192,229553,6,0,L,1,0.01
256,192,229554,6,0,L,1,0.01
256,192,229555,6,0,L,1,0.01
256,192,229556,6,0,L,1,0.01
224,192,229719,1,8,0:0:0:0:
256,192,229720,6,0,L,1,0.01
256,192,229721,6,0,L,1,0.01
256,192,229722,6,0,L,1,0.01
256,192,229723,6,0,L,1,0.01
224,192,230219,1,4,0:0:0:0:
256,192,230220,6,4,L,1,0.01
256,192,230221,6,4,L,1,0.01
256,192,230222,6,4,L,1,0.01
256,192,230223,6,4,L,1,0.01
224,192,230719,1,8,0:0:0:0:
256,192,230720,6,0,L,1,0.01
256,192,230721,6,0,L,1,0.01
256,192,230722,6,0,L,1,0.01
256,192,230723,6,0,L,1,0.01
224,192,230885,1,0,0:0:0:0:
256,192,230886,6,0,L,1,0.01
256,192,230887,6,0,L,1,0.01
256,192,230888,6,0,L,1,0.01
256,192,230889,6,0,L,1,0.01
224,192,231052,1,8,0:0:0:0:
256,192,231053,6,0,L,1,0.01
256,192,231054,6,0,L,1,0.01
256,192,231055,6,0,L,1,0.01
256,192,231056,6,0,L,1,0.01
224,192,231219,1,0,0:0:0:0:
256,192,231220,6,0,L,1,0.01
256,192,231221,6,0,L,1,0.01
256,192,231222,6,0,L,1,0.01
256,192,231223,6,0,L,1,0.01
224,192,231385,1,0,0:0:0:0:
256,192,231386,6,0,L,1,0.01
256,192,231387,6,0,L,1,0.01
256,192,231388,6,0,L,1,0.01
256,192,231389,6,0,L,1,0.01
224,192,231552,1,8,0:0:0:0:
256,192,231553,6,0,L,1,0.01
256,192,231554,6,0,L,1,0.01
256,192,231555,6,0,L,1,0.01
256,192,231556,6,0,L,1,0.01
224,192,231719,1,0,0:0:0:0:
256,192,231720,6,0,L,1,0.01
256,192,231721,6,0,L,1,0.01
256,192,231722,6,0,L,1,0.01
256,192,231723,6,0,L,1,0.01
224,192,232219,1,12,0:0:0:0:
256,192,232220,6,12,L,1,0.01
256,192,232221,6,12,L,1,0.01
256,192,232222,6,12,L,1,0.01
256,192,232223,6,12,L,1,0.01
224,192,232719,1,8,0:0:0:0:
256,192,232720,6,0,L,1,0.01
256,192,232721,6,0,L,1,0.01
256,192,232722,6,0,L,1,0.01
256,192,232723,6,0,L,1,0.01
224,192,232885,1,0,0:0:0:0:
256,192,232886,6,0,L,1,0.01
256,192,232887,6,0,L,1,0.01
256,192,232888,6,0,L,1,0.01
256,192,232889,6,0,L,1,0.01
224,192,233052,1,8,0:0:0:0:
256,192,233053,6,0,L,1,0.01
256,192,233054,6,0,L,1,0.01
256,192,233055,6,0,L,1,0.01
256,192,233056,6,0,L,1,0.01
224,192,233219,1,8,0:0:0:0:
256,192,233220,6,0,L,1,0.01
256,192,233221,6,0,L,1,0.01
256,192,233222,6,0,L,1,0.01
256,192,233223,6,0,L,1,0.01
224,192,233385,1,0,0:0:0:0:
256,192,233386,6,0,L,1,0.01
256,192,233387,6,0,L,1,0.01
256,192,233388,6,0,L,1,0.01
256,192,233389,6,0,L,1,0.01
224,192,233552,1,0,0:0:0:0:
256,192,233553,6,0,L,1,0.01
256,192,233554,6,0,L,1,0.01
256,192,233555,6,0,L,1,0.01
256,192,233556,6,0,L,1,0.01
224,192,233719,1,8,0:0:0:0:
256,192,233720,6,0,L,1,0.01
256,192,233721,6,0,L,1,0.01
256,192,233722,6,0,L,1,0.01
256,192,233723,6,0,L,1,0.01
224,192,234219,1,4,0:0:0:0:
256,192,234220,6,4,L,1,0.01
256,192,234221,6,4,L,1,0.01
256,192,234222,6,4,L,1,0.01
256,192,234223,6,4,L,1,0.01
224,192,234719,1,8,0:0:0:0:
256,192,234720,6,8,L,1,0.01
256,192,234721,6,8,L,1,0.01
256,192,234722,6,8,L,1,0.01
256,192,234723,6,8,L,1,0.01
224,192,234885,1,0,0:0:0:0:
256,192,234886,6,0,L,1,0.01
256,192,234887,6,0,L,1,0.01
256,192,234888,6,0,L,1,0.01
256,192,234889,6,0,L,1,0.01
224,192,235052,1,0,0:0:0:0:
256,192,235053,6,0,L,1,0.01
256,192,235054,6,0,L,1,0.01
256,192,235055,6,0,L,1,0.01
256,192,235056,6,0,L,1,0.01
224,192,235219,1,8,0:0:0:0:
256,192,235220,6,0,L,1,0.01
256,192,235221,6,0,L,1,0.01
256,192,235222,6,0,L,1,0.01
256,192,235223,6,0,L,1,0.01
224,192,235385,1,8,0:0:0:0:
256,192,235386,6,0,L,1,0.01
256,192,235387,6,0,L,1,0.01
256,192,235388,6,0,L,1,0.01
256,192,235389,6,0,L,1,0.01
224,192,235552,1,0,0:0:0:0:
256,192,235553,6,0,L,1,0.01
256,192,235554,6,0,L,1,0.01
256,192,235555,6,0,L,1,0.01
256,192,235556,6,0,L,1,0.01
224,192,235719,1,8,0:0:0:0:
256,192,235720,6,0,L,1,0.01
256,192,235721,6,0,L,1,0.01
256,192,235722,6,0,L,1,0.01
256,192,235723,6,0,L,1,0.01
224,192,235885,1,0,0:0:0:0:
256,192,235886,6,0,L,1,0.01
256,192,235887,6,0,L,1,0.01
256,192,235888,6,0,L,1,0.01
256,192,235889,6,0,L,1,0.01
224,192,236052,1,8,0:0:0:0:
256,192,236053,6,0,L,1,0.01
256,192,236054,6,0,L,1,0.01
256,192,236055,6,0,L,1,0.01
256,192,236056,6,0,L,1,0.01
64,128,236219,1,0,0:0:0:0:
64,128,236385,1,8,0:0:0:0:
192,96,236552,1,0,0:0:0:0:
192,96,236719,1,8,0:0:0:0:
160,96,236885,1,8,0:0:0:0:
160,96,237052,1,0,0:0:0:0:
192,96,237219,1,0,0:0:0:0:
192,96,237469,1,0,0:0:0:0:
192,96,237719,1,0,0:0:0:0:
192,96,237969,1,0,0:0:0:0:
192,96,238219,1,0,0:0:0:0:
192,96,238385,1,8,0:0:0:0:
192,96,238469,1,0,0:0:0:0:
192,96,238635,1,8,0:0:0:0:
192,96,238719,1,0,0:0:0:0:
192,96,238885,1,8,0:0:0:0:
192,96,238969,1,0,0:0:0:0:
192,96,239135,1,8,0:0:0:0:
192,96,239219,1,0,0:0:0:0:
192,96,239385,1,8,0:0:0:0:
192,96,239469,1,0,0:0:0:0:
192,96,239635,1,8,0:0:0:0:
192,96,239719,1,0,0:0:0:0:
192,96,239885,1,8,0:0:0:0:
192,96,239969,1,0,0:0:0:0:
192,96,240135,1,8,0:0:0:0:
192,96,240219,1,8,0:0:0:0:
192,96,240302,1,8,0:0:0:0:
192,96,240385,1,0,0:0:0:0:
192,96,240469,1,0,0:0:0:0:
192,96,240552,1,8,0:0:0:0:
192,96,240635,1,0,0:0:0:0:
192,96,240719,1,0,0:0:0:0:
192,96,240802,1,8,0:0:0:0:
192,96,240885,1,0,0:0:0:0:
192,96,240969,1,0,0:0:0:0:
192,96,241052,1,8,0:0:0:0:
192,96,241135,1,8,0:0:0:0:
192,96,241219,1,0,0:0:0:0:
192,96,241344,1,8,0:0:0:0:
192,96,241469,1,0,0:0:0:0:
192,96,241594,1,0,0:0:0:0:
192,96,241719,1,8,0:0:0:0:
192,96,241844,1,0,0:0:0:0:
192,96,241969,1,8,0:0:0:0:
256,192,242094,1,0,0:0:0:0:
256,192,242219,1,12,0:0:0:0:
132,89,242220,2,4,L|174:134,20,35,0|0|4|4|4|4|4|4|4|4|4|4|4|4|4|4|4|4|4|4|4,0:0|0:0|0:0|0:0|0:0|0:0|0:0|0:0|0:0|0:0|0:0|0:0|0:0|0:0|0:0|0:0|0:0|0:0|0:0|0:0|0:0,0:0:0:0:
256,192,242699,1,8,0:0:0:0:
256,192,242779,1,0,0:0:0:0:
256,192,242859,1,0,0:0:0:0:
256,192,242939,1,8,0:0:0:0:
256,192,243099,1,0,0:0:0:0:
256,192,243339,1,0,0:0:0:0:
256,192,243419,1,0,0:0:0:0:
256,192,243499,1,8,0:0:0:0:
256,192,243579,1,8,0:0:0:0:
256,192,243659,1,0,0:0:0:0:
256,192,243819,1,0,0:0:0:0:
256,192,243899,1,8,0:0:0:0:
192,48,243979,1,8,0:0:0:0:
192,48,244059,1,0,0:0:0:0:
256,192,244139,1,0,0:0:0:0:
132,89,244140,2,4,L|174:134,20,35,0|0|4|4|4|4|4|4|4|4|4|4|4|4|4|4|4|4|4|4|4,0:0|0:0|0:0|0:0|0:0|0:0|0:0|0:0|0:0|0:0|0:0|0:0|0:0|0:0|0:0|0:0|0:0|0:0|0:0|0:0|0:0,0:0:0:0:
96,128,244523,1,0,0:0:0:0:
256,192,244600,1,8,0:0:0:0:
256,224,244677,1,0,0:0:0:0:
256,192,244754,1,0,0:0:0:0:
256,192,244831,1,8,0:0:0:0:
256,192,244985,1,8,0:0:0:0:
256,192,245062,1,0,0:0:0:0:
256,192,245139,1,0,0:0:0:0:
160,128,245215,1,8,0:0:0:0:
224,128,245292,1,8,0:0:0:0:
256,64,245446,1,8,0:0:0:0:
256,64,245523,1,0,0:0:0:0:
64,160,245677,1,0,0:0:0:0:
64,160,245754,1,8,0:0:0:0:
256,192,245985,1,4,0:0:0:0:
132,89,245986,2,4,L|174:134,20,35,0|0|4|4|4|4|4|4|4|4|4|4|4|4|4|4|4|4|4|4|4,0:0|0:0|0:0|0:0|0:0|0:0|0:0|0:0|0:0|0:0|0:0|0:0|0:0|0:0|0:0|0:0|0:0|0:0|0:0|0:0|0:0,0:0:0:0:
256,128,246413,1,8,0:0:0:0:
256,128,246485,1,8,0:0:0:0:
256,128,246556,1,0,0:0:0:0:
256,128,246627,1,0,0:0:0:0:
256,128,246699,1,8,0:0:0:0:
256,128,246770,1,0,0:0:0:0:
256,128,246842,1,0,0:0:0:0:
256,128,246985,1,8,0:0:0:0:
256,128,247056,1,0,0:0:0:0:
160,160,247127,1,8,0:0:0:0:
160,160,247163,1,8,0:0:0:0:
256,144,247199,1,8,0:0:0:0:
160,160,247270,1,0,0:0:0:0:
160,160,247413,1,0,0:0:0:0:
160,160,247485,1,8,0:0:0:0:
96,128,247699,1,0,0:0:0:0:
96,128,247767,1,8,0:0:0:0:
96,128,247836,1,8,0:0:0:0:
96,128,247905,1,0,0:0:0:0:
96,128,248043,1,12,0:0:0:0:
288,96,248354,1,0,0:0:0:0:
256,192,248355,6,0,L,1,0.01
256,192,248356,6,0,L,1,0.01
256,192,248357,6,0,L,1,0.01
256,192,248358,6,0,L,1,0.01
288,96,248423,1,8,0:0:0:0:
256,192,248424,6,8,L,1,0.01
256,192,248425,6,8,L,1,0.01
256,192,248426,6,8,L,1,0.01
256,192,248427,6,8,L,1,0.01
288,96,248492,1,0,0:0:0:0:
256,192,248493,6,0,L,1,0.01
256,192,248494,6,0,L,1,0.01
256,192,248495,6,0,L,1,0.01
256,192,248496,6,0,L,1,0.01
288,96,248561,1,0,0:0:0:0:
256,192,248562,6,0,L,1,0.01
256,192,248563,6,0,L,1,0.01
256,192,248564,6,0,L,1,0.01
256,192,248565,6,0,L,1,0.01
288,96,248664,1,12,0:0:0:0:
224,192,248940,1,0,0:0:0:0:
256,192,248941,6,0,L,1,0.01
256,192,248942,6,0,L,1,0.01
256,192,248943,6,0,L,1,0.01
256,192,248944,6,0,L,1,0.01
224,192,249147,1,0,0:0:0:0:
256,192,249148,6,0,L,1,0.01
256,192,249149,6,0,L,1,0.01
256,192,249150,6,0,L,1,0.01
256,192,249151,6,0,L,1,0.01
224,192,249354,1,12,0:0:0:0:
256,192,249355,6,12,L,1,0.01
256,192,249356,6,12,L,1,0.01
256,192,249357,6,12,L,1,0.01
256,192,249358,6,12,L,1,0.01
192,160,249741,1,8,0:0:0:0:
192,96,249837,1,0,0:0:0:0:
192,96,249934,1,8,0:0:0:0:
192,96,250031,1,8,0:0:0:0:
192,160,250128,1,0,0:0:0:0:
160,160,250224,1,0,0:0:0:0:
192,160,250321,1,8,0:0:0:0:
176,160,250418,1,0,0:0:0:0:
160,160,250515,1,8,0:0:0:0:
160,160,250612,1,0,0:0:0:0:
160,160,250708,1,8,0:0:0:0:
160,160,250902,1,4,0:0:0:0:
160,160,251092,1,8,0:0:0:0:
160,160,251187,1,0,0:0:0:0:
160,160,251282,1,8,0:0:0:0:
160,160,251473,1,8,0:0:0:0:
160,160,251568,1,0,0:0:0:0:
160,160,251663,1,8,0:0:0:0:
160,160,251759,1,0,0:0:0:0:
160,160,251854,1,0,0:0:0:0:
160,160,251949,1,8,0:0:0:0:
160,160,252044,1,0,0:0:0:0:
160,160,252140,1,0,0:0:0:0:
160,160,252235,1,8,0:0:0:0:
160,160,252330,1,8,0:0:0:0:
160,160,252425,1,4,0:0:0:0:
128,160,252606,1,0,0:0:0:0:
128,160,252788,1,8,0:0:0:0:
128,160,252879,1,0,0:0:0:0:
128,160,252970,1,8,0:0:0:0:
128,160,253061,1,8,0:0:0:0:
128,160,253152,1,0,0:0:0:0:
128,160,253243,1,0,0:0:0:0:
128,160,253334,1,8,0:0:0:0:
256,128,253425,1,0,0:0:0:0:
128,160,253515,1,12,0:0:0:0:
128,160,253697,1,0,0:0:0:0:
256,128,253879,1,0,0:0:0:0:
64,160,253965,1,8,0:0:0:0:
64,160,254052,1,8,0:0:0:0:
64,160,254139,1,0,0:0:0:0:
64,160,254226,1,8,0:0:0:0:
128,192,254400,1,8,0:0:0:0:
256,128,254487,1,0,0:0:0:0:
128,192,254574,1,8,0:0:0:0:
128,192,254661,1,0,0:0:0:0:
128,192,254748,1,0,0:0:0:0:
128,192,254835,1,8,0:0:0:0:
128,192,254922,1,8,0:0:0:0:
128,192,255096,1,0,0:0:0:0:
128,192,255270,1,4,0:0:0:0:
128,192,255608,1,8,0:0:0:0:
192,160,255946,1,0,0:0:0:0:
96,128,256030,1,0,0:0:0:0:
96,128,256115,1,8,0:0:0:0:
96,128,256199,1,0,0:0:0:0:
96,128,256284,1,8,0:0:0:0:
96,128,256368,1,8,0:0:0:0:
96,128,256453,1,0,0:0:0:0:
96,128,256537,1,0,0:0:0:0:
96,128,256622,1,8,0:0:0:0:
288,192,256677,1,8,0:0:0:0:
288,192,256731,1,8,0:0:0:0:
288,192,256785,1,0,0:0:0:0:
288,192,256947,1,8,0:0:0:0:
288,192,257109,1,0,0:0:0:0:
192,128,257271,1,8,0:0:0:0:
192,128,257433,1,0,0:0:0:0:
192,128,257595,1,8,0:0:0:0:
192,128,257758,1,8,0:0:0:0:
192,128,257920,1,4,0:0:0:0:
192,128,258235,1,8,0:0:0:0:
160,128,258393,1,0,0:0:0:0:
160,128,258551,1,0,0:0:0:0:
160,128,258630,1,0,0:0:0:0:
160,128,258709,1,8,0:0:0:0:
160,128,258788,1,0,0:0:0:0:
160,128,258867,1,8,0:0:0:0:
320,128,258946,1,8,0:0:0:0:
192,128,259025,1,0,0:0:0:0:
320,96,259104,1,0,0:0:0:0:
192,128,259183,1,8,0:0:0:0:
192,128,259233,1,8,0:0:0:0:
192,128,259283,1,8,0:0:0:0:
192,128,259333,1,0,0:0:0:0:
176,160,259383,1,0,0:0:0:0:
160,192,259433,1,0,0:0:0:0:
144,224,259483,1,8,0:0:0:0:
96,128,259558,1,0,0:0:0:0:
96,128,259633,1,8,0:0:0:0:
96,128,259708,1,0,0:0:0:0:
96,128,259783,1,8,0:0:0:0:
192,192,259858,1,8,0:0:0:0:
192,192,259933,1,0,0:0:0:0:
192,192,260083,1,8,0:0:0:0:
192,192,260233,1,8,0:0:0:0:
192,192,260383,1,4,0:0:0:0:
192,192,260968,1,8,0:0:0:0:
304,128,261041,1,0,0:0:0:0:
288,96,261114,1,8,0:0:0:0:
288,64,261187,1,8,0:0:0:0:
288,64,261261,1,0,0:0:0:0:
288,64,261334,1,0,0:0:0:0:
288,64,261407,1,8,0:0:0:0:
288,64,261480,1,8,0:0:0:0:
96,128,261553,1,0,0:0:0:0:
96,128,261643,1,0,0:0:0:0:
96,128,261734,1,0,0:0:0:0:
96,128,261825,1,8,0:0:0:0:
96,128,261962,1,0,0:0:0:0:
96,128,262098,1,12,0:0:0:0:
96,128,262234,1,0,0:0:0:0:
96,128,262371,1,8,0:0:0:0:
96,128,262507,1,0,0:0:0:0:
96,128,262643,1,12,0:0:0:0:
256,320,262773,1,0,0:0:0:0:
256,320,262903,1,0,0:0:0:0:
256,320,263034,1,8,0:0:0:0:
256,320,263164,1,8,0:0:0:0:
256,320,263295,1,0,0:0:0:0:
256,320,263425,1,0,0:0:0:0:
256,320,263556,1,0,0:0:0:0:
256,320,263686,1,8,0:0:0:0:
192,128,263751,1,0,0:0:0:0:
192,128,263816,1,0,0:0:0:0:
192,128,263882,1,0,0:0:0:0:
192,128,263944,1,8,0:0:0:0:
192,128,264027,1,0,0:0:0:0:
192,128,264110,1,0,0:0:0:0:
192,128,264194,1,0,0:0:0:0:
192,128,264277,1,8,0:0:0:0:
256,192,264384,1,0,0:0:0:0:
256,192,264491,1,0,0:0:0:0:
256,192,264598,1,0,0:0:0:0:
256,192,264705,1,8,0:0:0:0:
256,192,264862,1,0,0:0:0:0:
256,192,265020,1,8,0:0:0:0:
256,192,265186,1,0,0:0:0:0:
224,192,265353,1,4,0:0:0:0:
256,192,265354,6,4,L,1,0.01
256,192,265355,6,4,L,1,0.01
256,192,265356,6,4,L,1,0.01
256,192,265357,6,4,L,1,0.01
224,192,265653,1,8,0:0:0:0:
256,192,265654,6,0,L,1,0.01
256,192,265655,6,0,L,1,0.01
256,192,265656,6,0,L,1,0.01
256,192,265657,6,0,L,1,0.01
224,192,265753,1,0,0:0:0:0:
256,192,265754,6,0,L,1,0.01
256,192,265755,6,0,L,1,0.01
256,192,265756,6,0,L,1,0.01
256,192,265757,6,0,L,1,0.01
224,192,265853,1,8,0:0:0:0:
256,192,265854,6,8,L,1,0.01
256,192,265855,6,8,L,1,0.01
256,192,265856,6,8,L,1,0.01
256,192,265857,6,8,L,1,0.01
224,192,265953,1,0,0:0:0:0:
256,192,265954,6,0,L,1,0.01
256,192,265955,6,0,L,1,0.01
256,192,265956,6,0,L,1,0.01
256,192,265957,6,0,L,1,0.01
224,192,266053,1,0,0:0:0:0:
256,192,266054,6,0,L,1,0.01
256,192,266055,6,0,L,1,0.01
256,192,266056,6,0,L,1,0.01
256,192,266057,6,0,L,1,0.01
224,192,266153,1,8,0:0:0:0:
256,192,266154,6,0,L,1,0.01
256,192,266155,6,0,L,1,0.01
256,192,266156,6,0,L,1,0.01
256,192,266157,6,0,L,1,0.01
224,192,266253,1,0,0:0:0:0:
256,192,266254,6,0,L,1,0.01
256,192,266255,6,0,L,1,0.01
256,192,266256,6,0,L,1,0.01
256,192,266257,6,0,L,1,0.01
224,192,266553,1,12,0:0:0:0:
256,192,266554,6,12,L,1,0.01
256,192,266555,6,12,L,1,0.01
256,192,266556,6,12,L,1,0.01
256,192,266557,6,12,L,1,0.01
224,192,266868,1,8,0:0:0:0:
256,192,266869,6,8,L,1,0.01
256,192,266870,6,8,L,1,0.01
256,192,266871,6,8,L,1,0.01
256,192,266872,6,8,L,1,0.01
224,192,266974,1,0,0:0:0:0:
256,192,266975,6,0,L,1,0.01
256,192,266976,6,0,L,1,0.01
256,192,266977,6,0,L,1,0.01
256,192,266978,6,0,L,1,0.01
224,192,267079,1,8,0:0:0:0:
256,192,267080,6,0,L,1,0.01
256,192,267081,6,0,L,1,0.01
256,192,267082,6,0,L,1,0.01
256,192,267083,6,0,L,1,0.01
224,192,267184,1,8,0:0:0:0:
256,192,267185,6,0,L,1,0.01
256,192,267186,6,0,L,1,0.01
256,192,267187,6,0,L,1,0.01
256,192,267188,6,0,L,1,0.01
224,192,267289,1,0,0:0:0:0:
256,192,267290,6,0,L,1,0.01
256,192,267291,6,0,L,1,0.01
256,192,267292,6,0,L,1,0.01
256,192,267293,6,0,L,1,0.01
224,192,267395,1,0,0:0:0:0:
256,192,267396,6,0,L,1,0.01
256,192,267397,6,0,L,1,0.01
256,192,267398,6,0,L,1,0.01
256,192,267399,6,0,L,1,0.01
224,192,267500,1,8,0:0:0:0:
256,192,267501,6,0,L,1,0.01
256,192,267502,6,0,L,1,0.01
256,192,267503,6,0,L,1,0.01
256,192,267504,6,0,L,1,0.01
224,192,267806,1,4,0:0:0:0:
256,192,267807,6,4,L,1,0.01
256,192,267808,6,4,L,1,0.01
256,192,267809,6,4,L,1,0.01
256,192,267810,6,4,L,1,0.01
224,192,268158,1,8,0:0:0:0:
256,192,268159,6,0,L,1,0.01
256,192,268160,6,0,L,1,0.01
256,192,268161,6,0,L,1,0.01
256,192,268162,6,0,L,1,0.01
224,192,268276,1,0,0:0:0:0:
256,192,268277,6,0,L,1,0.01
256,192,268278,6,0,L,1,0.01
256,192,268279,6,0,L,1,0.01
256,192,268280,6,0,L,1,0.01
224,192,268394,1,8,0:0:0:0:
256,192,268395,6,0,L,1,0.01
256,192,268396,6,0,L,1,0.01
256,192,268397,6,0,L,1,0.01
256,192,268398,6,0,L,1,0.01
224,192,268511,1,0,0:0:0:0:
256,192,268512,6,0,L,1,0.01
256,192,268513,6,0,L,1,0.01
256,192,268514,6,0,L,1,0.01
256,192,268515,6,0,L,1,0.01
224,192,268629,1,0,0:0:0:0:
256,192,268630,6,0,L,1,0.01
256,192,268631,6,0,L,1,0.01
256,192,268632,6,0,L,1,0.01
256,192,268633,6,0,L,1,0.01
224,192,268747,1,8,0:0:0:0:
256,192,268748,6,0,L,1,0.01
256,192,268749,6,0,L,1,0.01
256,192,268750,6,0,L,1,0.01
256,192,268751,6,0,L,1,0.01
224,192,268864,1,0,0:0:0:0:
256,192,268865,6,0,L,1,0.01
256,192,268866,6,0,L,1,0.01
256,192,268867,6,0,L,1,0.01
256,192,268868,6,0,L,1,0.01
224,192,269260,1,12,0:0:0:0:
256,192,269261,6,12,L,1,0.01
256,192,269262,6,12,L,1,0.01
256,192,269263,6,12,L,1,0.01
256,192,269264,6,12,L,1,0.01
224,192,269673,1,0,0:0:0:0:
256,192,269674,6,0,L,1,0.01
256,192,269675,6,0,L,1,0.01
256,192,269676,6,0,L,1,0.01
256,192,269677,6,0,L,1,0.01
224,192,269880,1,0,0:0:0:0:
256,192,269881,6,0,L,1,0.01
256,192,269882,6,0,L,1,0.01
256,192,269883,6,0,L,1,0.01
256,192,269884,6,0,L,1,0.01
224,192,270087,1,8,0:0:0:0:
256,192,270088,6,8,L,1,0.01
256,192,270089,6,8,L,1,0.01
256,192,270090,6,8,L,1,0.01
256,192,270091,6,8,L,1,0.01
224,192,270217,1,8,0:0:0:0:
256,192,270218,6,0,L,1,0.01
256,192,270219,6,0,L,1,0.01
256,192,270220,6,0,L,1,0.01
256,192,270221,6,0,L,1,0.01
224,192,270347,1,0,0:0:0:0:
256,192,270348,6,0,L,1,0.01
256,192,270349,6,0,L,1,0.01
256,192,270350,6,0,L,1,0.01
256,192,270351,6,0,L,1,0.01
224,192,270478,1,0,0:0:0:0:
256,192,270479,6,0,L,1,0.01
256,192,270480,6,0,L,1,0.01
256,192,270481,6,0,L,1,0.01
256,192,270482,6,0,L,1,0.01
224,192,270608,1,8,0:0:0:0:
256,192,270609,6,8,L,1,0.01
256,192,270610,6,8,L,1,0.01
256,192,270611,6,8,L,1,0.01
256,192,270612,6,8,L,1,0.01
224,192,270733,1,0,0:0:0:0:
256,192,270734,6,0,L,1,0.01
256,192,270735,6,0,L,1,0.01
256,192,270736,6,0,L,1,0.01
256,192,270737,6,0,L,1,0.01
224,192,270858,1,8,0:0:0:0:
256,192,270859,6,0,L,1,0.01
256,192,270860,6,0,L,1,0.01
256,192,270861,6,0,L,1,0.01
256,192,270862,6,0,L,1,0.01
208,80,271108,5,4,0:0:0:0:
256,192,271108,6,4,L,1,0.01
256,192,271108,8,4,274608,0:0:0:0:
256,192,271109,6,4,L,1,0.01
256,192,271110,6,4,L,1,0.01
256,192,271111,6,4,L,1,0.01
256,192,271112,6,4,L,1,0.01
