osu file format v14

[General]
AudioFilename: audio.mp3
AudioLeadIn: 0
PreviewTime: 116608
Countdown: 0
SampleSet: Normal
StackLeniency: 0.7
Mode: 1
LetterboxInBreaks: 0
EpilepsyWarning: 1
WidescreenStoryboard: 1

[Editor]
Bookmarks: 198999,219200,257537
DistanceSpacing: 1.2
BeatDivisor: 16
GridSize: 32
TimelineZoom: 3.24

[Metadata]
Title:Lunatic Rough Party!! (Long Ver.)
TitleUnicode:Lunatic Rough Party!! (Long Ver.)
Artist:Camellia
ArtistUnicode:かめりあ
Creator:Fantazy
Version:Katatic Crazy Party
Source:東方紅魔郷 ~ the Embodiment of Scarlet Devil.
Tags:electronic instrumental rhythm video game touhou project 東方project SOUND VOLTEX II -infinite infection- ルーネイトエルフ lunate elf sdvx サウンド ボルテックス -インフィニット インフェクション- cametek kamelcamellia かめるかめりあ katacheh
BeatmapID:1233531
BeatmapSetID:582888

[Difficulty]
HPDrainRate:0
CircleSize:0
OverallDifficulty:0
ApproachRate:10
SliderMultiplier:1.4
SliderTickRate:1

[Events]
//Background and Video events
0,0,"maxresdefault (1).jpg",0,0
//Break Periods
//Storyboard Layer 0 (Background)
//Storyboard Layer 1 (Fail)
//Storyboard Layer 2 (Pass)
//Storyboard Layer 3 (Foreground)
//Storyboard Layer 4 (Overlay)
//Storyboard Sound Samples

[TimingPoints]
0,600,4,1,0,100,1,0
0,-200,4,1,0,100,0,0
680,500,4,1,0,100,1,0
680,-6000,4,1,0,100,0,0
698,500,4,1,0,100,1,0
698,-200,4,1,0,100,0,0
699,500,4,1,0,100,1,0
699,-200,4,1,0,100,0,0
700,500,4,1,0,100,1,0
700,-60000,4,1,0,100,0,0
701,0.153238640495707,4,1,0,100,1,0
701,-99999999999,4,1,0,100,0,0
825,-200,4,1,0,100,0,0
1200,500,4,1,0,100,1,0
1200,-200,4,1,0,100,0,0
2700,500,4,1,0,100,1,0
2700,-333.333333333333,4,1,0,100,0,0
3200,-200,4,1,0,100,0,0
4700,-333.333333333333,4,1,0,100,0,0
5200,-200,4,1,0,100,0,0
6700,-333.333333333333,4,1,0,100,0,0
7200,-200,4,1,0,100,0,0
8700,-400,4,1,0,100,0,0
9200,-181.818181818181,4,1,0,100,0,0
10700,-500,4,1,0,100,0,0
11200,-166.666666666667,4,1,0,100,0,0
12700,-666.666666666667,4,1,0,100,0,0
13200,-153.846153846153,4,1,0,100,0,0
14700,-1000,4,1,0,100,0,0
15200,-142.857142857143,4,1,0,100,0,0
15700,-98.0392156862745,4,1,0,60,0,0
15825,-96.1538461538461,4,1,0,60,0,0
15950,-94.3396226415094,4,1,0,60,0,0
16075,-92.5925925925926,4,1,0,60,0,0
16200,-90.9090909090909,4,1,0,60,0,0
16700,-50,4,1,0,60,0,1
17200,-83.3333333333333,4,1,0,60,0,0
18700,-50,4,1,0,60,0,1
19200,-83.3333333333333,4,1,0,60,0,0
20700,-50,4,1,0,60,0,1
21200,-83.3333333333333,4,1,0,60,0,0
22700,-50,4,1,0,60,0,1
23200,-83.3333333333333,4,1,0,60,0,0
24700,-50,4,1,0,60,0,1
25200,-83.3333333333333,4,1,0,60,0,0
26700,-82.6446280991736,4,1,0,60,0,0
27200,-81.9672131147541,4,1,0,60,0,0
27700,-81.3008130081301,4,1,0,60,0,0
28200,-80.6451612903226,4,1,0,60,0,0
28450,-80,4,1,0,60,0,0
28700,-79.3650793650794,4,1,0,60,0,0
28866,-78.125,4,1,0,60,0,0
29116,-75.7575757575758,4,1,0,60,0,0
29366,-73.5294117647059,4,1,0,60,0,0
29616,-71.4285714285714,4,1,0,60,0,0
29866,-69.4444444444444,4,1,0,60,0,0
30116,-67.5675675675676,4,1,0,60,0,0
30366,-65.7894736842105,4,1,0,60,0,0
30616,-64.1025641025641,4,1,0,60,0,0
31700,-62.5,4,1,0,60,0,0
31783,-1,4,1,0,100,0,1
31825,-1,4,1,0,100,0,0
32158,-1,4,1,0,100,0,1
32199,-1,4,1,0,100,0,0
32324,-1,4,1,0,100,0,1
32365,-1,4,1,0,100,0,0
32408,-1,4,1,0,100,0,1
32449,-1,4,1,0,100,0,0
32491,-1,4,1,0,100,0,1
32700,-1,4,1,0,100,0,1
32741,-1,4,1,0,100,0,0
32825,-1,4,1,0,100,0,1
32866,-1,4,1,0,100,0,0
32950,-1,4,1,0,100,0,1
32991,-1,4,1,0,100,0,0
33283,-1,4,1,0,100,0,1
33324,-1,4,1,0,100,0,0
33450,400,4,1,0,100,1,1
33450,-1,4,1,0,100,0,1
36200,500,4,1,0,60,1,0
36200,-100,4,1,0,60,0,0
36700,500,4,1,0,60,1,0
36700,-55.5555555555556,4,1,0,60,0,0
36741,-10,4,1,0,60,0,0
37200,-62.5,4,1,0,60,0,0
37762,-66.6666666666667,4,1,0,60,0,0
38262,-71.4285714285714,4,1,0,60,0,0
38700,-55.5555555555556,4,1,0,60,0,0
38741,-10,4,1,0,60,0,0
39116,-62.5,4,1,0,60,0,0
39700,-60.6060606060606,4,1,0,60,0,0
39783,-58.8235294117647,4,1,0,60,0,0
39866,-57.1428571428571,4,1,0,60,0,0
39950,-55.5555555555556,4,1,0,60,0,0
40116,-58.8235294117647,4,1,0,60,0,0
40200,-62.5,4,1,0,60,0,0
40366,-66.6666666666667,4,1,0,60,0,0
40450,-33.3333333333333,4,1,0,60,0,0
40700,-55.5555555555556,4,1,0,60,0,0
40741,-10,4,1,0,60,0,0
41200,-62.5,4,1,0,60,0,0
41700,-60.6060606060606,4,1,0,60,0,0
41783,-58.8235294117647,4,1,0,60,0,0
41866,-57.1428571428571,4,1,0,60,0,0
41950,-55.5555555555556,4,1,0,60,0,0
42116,-58.8235294117647,4,1,0,60,0,0
42200,-62.5,4,1,0,60,0,0
42366,-66.6666666666667,4,1,0,60,0,0
42450,-55.5555555555556,4,1,0,60,0,0
42700,-50,4,1,0,60,0,0
42783,-52.6315789473684,4,1,0,60,0,0
42866,-55.5555555555556,4,1,0,60,0,0
42950,-58.8235294117647,4,1,0,60,0,0
43116,-33.3333333333333,4,1,0,60,0,1
43137,-1,4,1,0,100,0,1
43450,-50,4,1,0,60,0,0
43533,-52.6315789473684,4,1,0,60,0,0
43616,-55.5555555555556,4,1,0,60,0,0
43700,-58.8235294117647,4,1,0,60,0,0
43866,-33.3333333333333,4,1,0,60,0,1
43887,-1,4,1,0,100,0,1
44200,-100,4,1,0,60,0,0
44700,-55.5555555555556,4,1,0,60,0,0
44741,-10,4,1,0,60,0,0
45200,-58.8235294117647,4,1,0,60,0,0
45783,-62.5,4,1,0,60,0,0
46283,-66.6666666666667,4,1,0,60,0,0
46700,-55.5555555555556,4,1,0,60,0,0
46731,-10,4,1,0,60,0,0
47116,-62.5,4,1,0,60,0,0
47700,-60.6060606060606,4,1,0,60,0,0
47783,-58.8235294117647,4,1,0,60,0,0
47866,-57.1428571428571,4,1,0,60,0,0
47950,-55.5555555555556,4,1,0,60,0,0
48116,-58.8235294117647,4,1,0,60,0,0
48200,-62.5,4,1,0,60,0,0
48283,-66.6666666666667,4,1,0,60,0,0
48366,-71.4285714285714,4,1,0,60,0,0
48450,-33.3333333333333,4,1,0,60,0,1
48700,-55.5555555555556,4,1,0,60,0,0
48741,-10,4,1,0,60,0,0
49200,-62.5,4,1,0,60,0,0
49700,-50,4,1,0,60,0,0
50200,-60.6060606060606,4,1,0,60,0,0
50283,-58.8235294117647,4,1,0,60,0,0
50366,-57.1428571428571,4,1,0,60,0,0
50450,-55.5555555555556,4,1,0,60,0,0
50533,-55.4016620498615,4,1,0,60,0,0
50700,-50,4,1,0,60,0,0
50783,-52.6315789473684,4,1,0,60,0,0
50866,-55.5555555555556,4,1,0,60,0,0
50950,-58.8235294117647,4,1,0,60,0,0
51116,-33.3333333333333,4,1,0,60,0,1
51137,-1,4,1,0,100,0,1
51450,-50,4,1,0,60,0,0
51533,-52.6315789473684,4,1,0,60,0,0
51616,-55.5555555555556,4,1,0,60,0,0
51700,-58.8235294117647,4,1,0,60,0,0
51866,-33.3333333333333,4,1,0,60,0,1
51887,-1,4,1,0,100,0,1
52200,-100,4,1,0,60,0,0
52950,-55.5555555555556,4,1,0,60,0,0
53200,-62.5,4,1,0,60,0,0
53700,-60.6060606060606,4,1,0,60,0,0
53783,-58.8235294117647,4,1,0,60,0,0
53866,-57.1428571428571,4,1,0,60,0,0
53950,-55.5555555555556,4,1,0,60,0,0
54116,-58.8235294117647,4,1,0,60,0,0
54200,-62.5,4,1,0,60,0,0
54366,-66.6666666666667,4,1,0,60,0,0
54533,-71.4285714285714,4,1,0,60,0,0
54668,-57.1428571428571,4,1,0,60,0,0
54700,-55.5555555555556,4,1,0,60,0,0
54950,-62.5,4,1,0,60,0,0
55116,-60.6060606060606,4,1,0,60,0,0
55283,-58.8235294117647,4,1,0,60,0,0
55616,-60.6060606060606,4,1,0,60,0,0
55700,-60.6060606060606,4,1,0,60,0,0
55783,-58.8235294117647,4,1,0,60,0,0
55866,-57.1428571428571,4,1,0,60,0,0
55950,-55.5555555555556,4,1,0,60,0,0
56116,-58.8235294117647,4,1,0,60,0,0
56200,-62.5,4,1,0,60,0,0
56366,-66.6666666666667,4,1,0,60,0,0
56450,-33.3333333333333,4,1,0,60,0,0
56668,-57.1428571428571,4,1,0,60,0,0
56700,-55.5555555555556,4,1,0,60,0,0
56950,-68.9655172413793,4,1,0,60,0,0
57034,-66.6666666666667,4,1,0,60,0,0
57117,-64.5161290322581,4,1,0,60,0,0
57200,-62.5,4,1,0,60,0,0
57700,-58.8235294117647,4,1,0,60,0,0
57783,-55.5555555555556,4,1,0,60,0,0
57866,-57.1428571428571,4,1,0,60,0,0
57950,-58.8235294117647,4,1,0,60,0,0
58033,-60.6060606060606,4,1,0,60,0,0
58116,-62.5,4,1,0,60,0,0
58200,-58.8235294117647,4,1,0,60,0,0
58366,-55.5555555555556,4,1,0,60,0,0
58533,-52.6315789473684,4,1,0,60,0,0
58700,-50,4,1,0,60,0,0
58783,-52.6315789473684,4,1,0,60,0,0
58866,-55.5555555555556,4,1,0,60,0,0
58950,-58.8235294117647,4,1,0,60,0,0
59116,-33.3333333333333,4,1,0,60,0,1
59137,-1,4,1,0,100,0,1
59450,-50,4,1,0,60,0,0
59533,-52.6315789473684,4,1,0,60,0,0
59616,-55.5555555555556,4,1,0,60,0,0
59700,-58.8235294117647,4,1,0,60,0,0
59866,-33.3333333333333,4,1,0,60,0,1
59887,-1,4,1,0,100,0,1
60200,-100,4,1,0,60,0,0
60450,-105.263157894737,4,1,0,60,0,0
60700,-111.111111111111,4,1,0,60,0,0
60741,-28.5714285714286,4,1,0,60,0,0
60950,-31.25,4,1,0,60,0,0
61200,-35.7142857142857,4,1,0,60,0,0
61450,-55.5555555555556,4,1,0,60,0,0
61616,-62.5,4,1,0,60,0,0
61866,-58.8235294117647,4,1,0,60,0,0
62116,-66.6666666666667,4,1,0,60,0,0
62366,-62.5,4,1,0,60,0,0
62668,-57.1428571428571,4,1,0,60,0,0
62700,-55.5555555555556,4,1,0,60,0,0
62950,-62.5,4,1,0,60,0,0
63116,-55.5555555555556,4,1,0,60,0,0
63283,-55.5555555555556,4,1,0,60,0,0
63616,-55.5555555555556,4,1,0,60,0,0
63700,-60.6060606060606,4,1,0,60,0,0
63783,-58.8235294117647,4,1,0,60,0,0
63866,-57.1428571428571,4,1,0,60,0,0
63950,-55.5555555555556,4,1,0,60,0,0
64116,-58.8235294117647,4,1,0,60,0,0
64200,-62.5,4,1,0,60,0,0
64366,-66.6666666666667,4,1,0,60,0,0
64449,-55.5555555555556,4,1,0,60,0,0
64668,-57.1428571428571,4,1,0,60,0,0
64700,-55.5555555555556,4,1,0,60,0,0
64949,-68.9655172413793,4,1,0,60,0,0
65033,-66.6666666666667,4,1,0,60,0,0
65116,-64.5161290322581,4,1,0,60,0,0
65199,-62.5,4,1,0,60,0,0
65700,-58.8235294117647,4,1,0,60,0,0
65783,-55.5555555555556,4,1,0,60,0,0
65866,-57.1428571428571,4,1,0,60,0,0
65950,-58.8235294117647,4,1,0,60,0,0
66033,-60.6060606060606,4,1,0,60,0,0
66116,-62.5,4,1,0,60,0,0
66200,-58.8235294117647,4,1,0,60,0,0
66366,-55.5555555555556,4,1,0,60,0,0
66450,-52.6315789473684,4,1,0,60,0,0
66700,-52.6315789473684,4,1,0,60,0,0
66741,-25,4,1,0,60,0,0
67200,-50,4,1,0,60,0,0
67700,-55.5555555555556,4,1,0,60,0,0
68200,-100,4,1,0,60,0,0
68700,250,8,1,0,80,1,0
68700,-133.333333333333,8,1,0,80,0,0
69616,-131.578947368421,8,1,0,80,0,0
69700,-129.87012987013,8,1,0,80,0,0
70616,-128.205128205128,8,1,0,80,0,0
70700,-126.582278481013,8,1,0,80,0,0
71616,-125,8,1,0,80,0,0
71700,-123.456790123457,8,1,0,80,0,0
72616,-121.951219512195,8,1,0,80,0,0
72700,-120.481927710843,8,1,0,80,0,0
72866,-125,8,1,0,80,0,0
72950,-121.951219512195,8,1,0,80,0,0
73033,-119.047619047619,8,1,0,80,0,0
73116,-116.279069767442,8,1,0,80,0,0
73200,-113.636363636364,8,1,0,80,0,0
73366,-117.647058823529,8,1,0,80,0,0
73450,-114.942528735632,8,1,0,80,0,0
73616,-117.647058823529,8,1,0,80,0,0
73700,-113.636363636364,8,1,0,80,0,0
73866,-116.279069767442,8,1,0,80,0,0
73950,-112.359550561798,8,1,0,80,0,0
74033,-108.695652173913,8,1,0,80,0,0
74116,-105.263157894737,8,1,0,80,0,0
74200,-102.040816326531,8,1,0,80,0,0
74366,-105.263157894737,8,1,0,80,0,0
74450,-102.040816326531,8,1,0,80,0,0
74616,-105.263157894737,8,1,0,80,0,0
74700,-100,8,1,0,80,0,0
74783,-95.2380952380952,8,1,0,80,0,0
74866,-90.9090909090909,8,1,0,80,0,0
74950,-86.9565217391304,8,1,0,80,0,0
75033,-83.3333333333333,8,1,0,80,0,0
75116,-80,8,1,0,80,0,0
75200,-76.9230769230769,8,1,0,80,0,0
75283,-74.0740740740741,8,1,0,80,0,0
75366,-71.4285714285714,8,1,0,80,0,0
75450,-68.9655172413793,8,1,0,80,0,0
75533,-66.6666666666667,8,1,0,80,0,0
75616,-64.5161290322581,8,1,0,80,0,0
75700,-62.5,8,1,0,80,0,0
75741,-200,8,1,0,80,0,0
76116,-62.5,8,1,0,80,0,0
76200,-66.6666666666667,8,1,0,80,0,0
76283,-71.4285714285714,8,1,0,80,0,0
76366,-76.9230769230769,8,1,0,80,0,0
76450,-83.3333333333333,8,1,0,80,0,0
76533,-90.9090909090909,8,1,0,80,0,0
76616,-100,8,1,0,80,0,0
76700,1000,4,1,0,60,1,1
76700,1000,4,1,0,95,1,1
76700,-25,4,1,0,90,0,1
76741,1000,4,1,0,90,1,9
76741,-25,4,1,0,90,0,1
76783,1000,4,1,0,90,1,9
76783,-25,4,1,0,90,0,1
76825,1000,4,1,0,90,1,9
76825,-25,4,1,0,90,0,1
76866,1000,4,1,0,90,1,9
76866,-25,4,1,0,90,0,1
76908,1000,4,1,0,90,1,9
76908,-25,4,1,0,90,0,1
76950,1000,4,1,0,90,1,9
76950,-25,4,1,0,90,0,1
76991,1000,4,1,0,90,1,9
76991,-25,4,1,0,90,0,1
77033,1000,4,1,0,90,1,9
77033,-25,4,1,0,90,0,1
77075,1000,4,1,0,90,1,9
77075,-25,4,1,0,90,0,1
77116,1000,4,1,0,90,1,9
77116,-25,4,1,0,90,0,1
77158,1000,4,1,0,90,1,9
77158,-25,4,1,0,90,0,1
77200,1000,4,1,0,90,1,9
77200,-25,4,1,0,90,0,1
77241,1000,4,1,0,90,1,9
77241,-25,4,1,0,90,0,1
77283,1000,4,1,0,90,1,9
77283,-25,4,1,0,90,0,1
77325,1000,4,1,0,90,1,9
77325,-25,4,1,0,90,0,1
77366,1000,4,1,0,90,1,9
77366,-25,4,1,0,90,0,1
77408,1000,4,1,0,90,1,9
77408,-25,4,1,0,90,0,1
77450,1000,4,1,0,90,1,9
77450,-25,4,1,0,90,0,1
77491,1000,4,1,0,90,1,9
77491,-25,4,1,0,90,0,1
77533,1000,4,1,0,90,1,9
77533,-25,4,1,0,90,0,1
77575,1000,4,1,0,90,1,9
77575,-25,4,1,0,90,0,1
77616,1000,4,1,0,90,1,9
77616,-25,4,1,0,90,0,1
77658,1000,4,1,0,90,1,9
77658,-25,4,1,0,90,0,1
77700,1000,4,1,0,90,1,1
77700,-25,4,1,0,90,0,1
77741,1000,4,1,0,90,1,9
77741,-25,4,1,0,90,0,1
77783,1000,4,1,0,90,1,9
77783,-25,4,1,0,90,0,1
77825,1000,4,1,0,90,1,9
77825,-25,4,1,0,90,0,1
77866,1000,4,1,0,90,1,9
77866,-25,4,1,0,90,0,1
77908,1000,4,1,0,90,1,9
77908,-25,4,1,0,90,0,1
77950,1000,4,1,0,90,1,9
77950,-25,4,1,0,90,0,1
77991,1000,4,1,0,90,1,9
77991,-25,4,1,0,90,0,1
78033,1000,4,1,0,90,1,9
78033,-25,4,1,0,90,0,1
78075,1000,4,1,0,90,1,9
78075,-25,4,1,0,90,0,1
78116,1000,4,1,0,90,1,9
78116,-25,4,1,0,90,0,1
78158,1000,4,1,0,90,1,9
78158,-25,4,1,0,90,0,1
78200,1000,4,1,0,90,1,9
78200,-25,4,1,0,90,0,1
78241,1000,4,1,0,90,1,9
78241,-25,4,1,0,90,0,1
78283,1000,4,1,0,90,1,9
78283,-25,4,1,0,90,0,1
78325,1000,4,1,0,90,1,9
78325,-25,4,1,0,90,0,1
78366,1000,4,1,0,90,1,9
78366,-25,4,1,0,90,0,1
78408,1000,4,1,0,90,1,9
78408,-25,4,1,0,90,0,1
78450,1000,4,1,0,90,1,9
78450,-25,4,1,0,90,0,1
78491,1000,4,1,0,90,1,9
78491,-25,4,1,0,90,0,1
78533,1000,4,1,0,90,1,9
78533,-25,4,1,0,90,0,1
78575,1000,4,1,0,90,1,9
78575,-25,4,1,0,90,0,1
78616,1000,4,1,0,90,1,9
78616,-25,4,1,0,90,0,1
78658,1000,4,1,0,90,1,9
78658,-25,4,1,0,90,0,1
78700,1000,4,1,0,90,1,1
78700,-25,4,1,0,90,0,1
78741,1000,4,1,0,90,1,9
78741,-25,4,1,0,90,0,1
78783,1000,4,1,0,90,1,9
78783,-25,4,1,0,90,0,1
78825,1000,4,1,0,90,1,9
78825,-25,4,1,0,90,0,1
78866,1000,4,1,0,90,1,9
78866,-25,4,1,0,90,0,1
78908,1000,4,1,0,90,1,9
78908,-25,4,1,0,90,0,1
78950,1000,4,1,0,90,1,9
78950,-25,4,1,0,90,0,1
78991,1000,4,1,0,90,1,9
78991,-25,4,1,0,90,0,1
79033,1000,4,1,0,90,1,9
79033,-25,4,1,0,90,0,1
79075,1000,4,1,0,90,1,9
79075,-25,4,1,0,90,0,1
79116,1000,4,1,0,90,1,9
79116,-25,4,1,0,90,0,1
79158,1000,4,1,0,90,1,9
79158,-25,4,1,0,90,0,1
79200,1000,4,1,0,90,1,9
79200,-25,4,1,0,90,0,1
79241,1000,4,1,0,90,1,9
79241,-25,4,1,0,90,0,1
79283,1000,4,1,0,90,1,9
79283,-25,4,1,0,90,0,1
79325,1000,4,1,0,90,1,9
79325,-25,4,1,0,90,0,1
79366,1000,4,1,0,90,1,9
79366,-25,4,1,0,90,0,1
79408,1000,4,1,0,90,1,9
79408,-25,4,1,0,90,0,1
79450,1000,4,1,0,90,1,9
79450,-25,4,1,0,90,0,1
79491,1000,4,1,0,90,1,9
79491,-25,4,1,0,90,0,1
79533,1000,4,1,0,90,1,9
79533,-25,4,1,0,90,0,1
79575,1000,4,1,0,90,1,9
79575,-25,4,1,0,90,0,1
79616,1000,4,1,0,90,1,9
79616,-25,4,1,0,90,0,1
79658,1000,4,1,0,90,1,9
79658,-25,4,1,0,90,0,1
79700,1000,4,1,0,90,1,1
79700,-25,4,1,0,90,0,1
79741,1000,4,1,0,90,1,9
79741,-25,4,1,0,90,0,1
79783,1000,4,1,0,90,1,9
79783,-25,4,1,0,90,0,1
79825,1000,4,1,0,90,1,9
79825,-25,4,1,0,90,0,1
79866,1000,4,1,0,90,1,9
79866,-25,4,1,0,90,0,1
79908,1000,4,1,0,90,1,9
79908,-25,4,1,0,90,0,1
79950,1000,4,1,0,90,1,9
79950,-25,4,1,0,90,0,1
79991,1000,4,1,0,90,1,9
79991,-25,4,1,0,90,0,1
80033,1000,4,1,0,90,1,9
80033,-25,4,1,0,90,0,1
80075,1000,4,1,0,90,1,9
80075,-25,4,1,0,90,0,1
80116,1000,4,1,0,90,1,9
80116,-25,4,1,0,90,0,1
80158,1000,4,1,0,90,1,9
80158,-25,4,1,0,90,0,1
80200,1000,4,1,0,90,1,9
80200,-25,4,1,0,90,0,1
80241,1000,4,1,0,90,1,9
80241,-25,4,1,0,90,0,1
80283,1000,4,1,0,90,1,9
80283,-25,4,1,0,90,0,1
80325,1000,4,1,0,90,1,9
80325,-25,4,1,0,90,0,1
80366,1000,4,1,0,90,1,9
80366,-25,4,1,0,90,0,1
80408,1000,4,1,0,90,1,9
80408,-25,4,1,0,90,0,1
80450,1000,4,1,0,90,1,9
80450,-25,4,1,0,90,0,1
80491,1000,4,1,0,90,1,9
80491,-25,4,1,0,90,0,1
80533,1000,4,1,0,90,1,9
80533,-25,4,1,0,90,0,1
80575,1000,4,1,0,90,1,9
80575,-25,4,1,0,90,0,1
80616,1000,4,1,0,90,1,9
80616,-25,4,1,0,90,0,1
80658,1000,4,1,0,90,1,9
80658,-25,4,1,0,90,0,1
80700,1000,4,1,0,90,1,1
80700,-25,4,1,0,90,0,1
80741,1000,4,1,0,90,1,9
80741,-25,4,1,0,90,0,1
80783,1000,4,1,0,90,1,9
80783,-25,4,1,0,90,0,1
80825,1000,4,1,0,90,1,9
80825,-25,4,1,0,90,0,1
80866,1000,4,1,0,90,1,9
80866,-25,4,1,0,90,0,1
80908,1000,4,1,0,90,1,9
80908,-25,4,1,0,90,0,1
80950,1000,4,1,0,90,1,9
80950,-25,4,1,0,90,0,1
80991,1000,4,1,0,90,1,9
80991,-25,4,1,0,90,0,1
81033,1000,4,1,0,90,1,9
81033,-25,4,1,0,90,0,1
81075,1000,4,1,0,90,1,9
81075,-25,4,1,0,90,0,1
81116,1000,4,1,0,90,1,9
81116,-25,4,1,0,90,0,1
81158,1000,4,1,0,90,1,9
81158,-25,4,1,0,90,0,1
81200,1000,4,1,0,90,1,9
81200,-25,4,1,0,90,0,1
81241,1000,4,1,0,90,1,9
81241,-25,4,1,0,90,0,1
81283,1000,4,1,0,90,1,9
81283,-25,4,1,0,90,0,1
81325,1000,4,1,0,90,1,9
81325,-25,4,1,0,90,0,1
81366,1000,4,1,0,90,1,9
81366,-25,4,1,0,90,0,1
81408,1000,4,1,0,90,1,9
81408,-25,4,1,0,90,0,1
81450,1000,4,1,0,90,1,9
81450,-25,4,1,0,90,0,1
81491,1000,4,1,0,90,1,9
81491,-25,4,1,0,90,0,1
81533,1000,4,1,0,90,1,9
81533,-25,4,1,0,90,0,1
81575,1000,4,1,0,90,1,9
81575,-25,4,1,0,90,0,1
81616,1000,4,1,0,90,1,9
81616,-25,4,1,0,90,0,1
81658,1000,4,1,0,90,1,9
81658,-25,4,1,0,90,0,1
81700,1000,4,1,0,90,1,1
81700,-25,4,1,0,90,0,1
81741,1000,4,1,0,90,1,9
81741,-25,4,1,0,90,0,1
81783,1000,4,1,0,90,1,9
81783,-25,4,1,0,90,0,1
81825,1000,4,1,0,90,1,9
81825,-25,4,1,0,90,0,1
81866,1000,4,1,0,90,1,9
81866,-25,4,1,0,90,0,1
81908,1000,4,1,0,90,1,9
81908,-25,4,1,0,90,0,1
81950,1000,4,1,0,90,1,9
81950,-25,4,1,0,90,0,1
81991,1000,4,1,0,90,1,9
81991,-25,4,1,0,90,0,1
82033,1000,4,1,0,90,1,9
82033,-25,4,1,0,90,0,1
82075,1000,4,1,0,90,1,9
82075,-25,4,1,0,90,0,1
82116,1000,4,1,0,90,1,9
82116,-25,4,1,0,90,0,1
82158,1000,4,1,0,90,1,9
82158,-25,4,1,0,90,0,1
82200,1000,4,1,0,90,1,9
82200,-25,4,1,0,90,0,1
82241,1000,4,1,0,90,1,9
82241,-25,4,1,0,90,0,1
82283,1000,4,1,0,90,1,9
82283,-25,4,1,0,90,0,1
82325,1000,4,1,0,90,1,9
82325,-25,4,1,0,90,0,1
82366,1000,4,1,0,90,1,9
82366,-25,4,1,0,90,0,1
82408,1000,4,1,0,90,1,9
82408,-25,4,1,0,90,0,1
82450,1000,4,1,0,90,1,9
82450,-25,4,1,0,90,0,1
82491,1000,4,1,0,90,1,9
82491,-25,4,1,0,90,0,1
82533,1000,4,1,0,90,1,9
82533,-25,4,1,0,90,0,1
82575,1000,4,1,0,90,1,9
82575,-25,4,1,0,90,0,1
82616,1000,4,1,0,90,1,9
82616,-25,4,1,0,90,0,1
82658,1000,4,1,0,90,1,9
82658,-25,4,1,0,90,0,1
82700,1000,4,1,0,90,1,1
82700,-25,4,1,0,90,0,1
82741,1000,4,1,0,90,1,9
82741,-25,4,1,0,90,0,1
82783,1000,4,1,0,90,1,9
82783,-25,4,1,0,90,0,1
82825,1000,4,1,0,90,1,9
82825,-25,4,1,0,90,0,1
82866,1000,4,1,0,90,1,9
82866,-25,4,1,0,90,0,1
82908,1000,4,1,0,90,1,9
82908,-25,4,1,0,90,0,1
82950,1000,4,1,0,90,1,9
82950,-25,4,1,0,90,0,1
82991,1000,4,1,0,90,1,9
82991,-25,4,1,0,90,0,1
83033,1000,4,1,0,90,1,9
83033,-25,4,1,0,90,0,1
83075,1000,4,1,0,90,1,9
83075,-25,4,1,0,90,0,1
83116,1000,4,1,0,90,1,9
83116,-25,4,1,0,90,0,1
83158,1000,4,1,0,90,1,9
83158,-25,4,1,0,90,0,1
83200,1000,4,1,0,90,1,9
83200,-25,4,1,0,90,0,1
83241,1000,4,1,0,90,1,9
83241,-25,4,1,0,90,0,1
83283,1000,4,1,0,90,1,9
83283,-25,4,1,0,90,0,1
83325,1000,4,1,0,90,1,9
83325,-25,4,1,0,90,0,1
83366,1000,4,1,0,90,1,9
83366,-25,4,1,0,90,0,1
83408,1000,4,1,0,90,1,9
83408,-25,4,1,0,90,0,1
83450,1000,4,1,0,90,1,9
83450,-25,4,1,0,90,0,1
83491,1000,4,1,0,90,1,9
83491,-25,4,1,0,90,0,1
83533,1000,4,1,0,90,1,9
83533,-25,4,1,0,90,0,1
83575,1000,4,1,0,90,1,9
83575,-25,4,1,0,90,0,1
83616,1000,4,1,0,90,1,9
83616,-25,4,1,0,90,0,1
83658,1000,4,1,0,90,1,9
83658,-25,4,1,0,90,0,1
83700,1000,4,1,0,90,1,1
83700,-25,4,1,0,90,0,1
83741,1000,4,1,0,90,1,9
83741,-25,4,1,0,90,0,1
83783,1000,4,1,0,90,1,9
83783,-25,4,1,0,90,0,1
83825,1000,4,1,0,90,1,9
83825,-25,4,1,0,90,0,1
83866,1000,4,1,0,90,1,9
83866,-25,4,1,0,90,0,1
83908,1000,4,1,0,90,1,9
83908,-25,4,1,0,90,0,1
83950,1000,4,1,0,90,1,9
83950,-25,4,1,0,90,0,1
83991,1000,4,1,0,90,1,9
83991,-25,4,1,0,90,0,1
84033,1000,4,1,0,90,1,9
84033,-25,4,1,0,90,0,1
84075,1000,4,1,0,90,1,9
84075,-25,4,1,0,90,0,1
84116,1000,4,1,0,90,1,9
84116,-25,4,1,0,90,0,1
84158,1000,4,1,0,90,1,9
84158,-25,4,1,0,90,0,1
84200,1000,4,1,0,90,1,9
84200,-25,4,1,0,90,0,1
84241,1000,4,1,0,90,1,9
84241,-25,4,1,0,90,0,1
84283,1000,4,1,0,90,1,9
84283,-25,4,1,0,90,0,1
84325,1000,4,1,0,90,1,9
84325,-25,4,1,0,90,0,1
84366,1000,4,1,0,90,1,9
84366,-25,4,1,0,90,0,1
84408,1000,4,1,0,90,1,9
84408,-25,4,1,0,90,0,1
84450,1000,4,1,0,90,1,9
84450,-25,4,1,0,90,0,1
84491,1000,4,1,0,90,1,9
84491,-25,4,1,0,90,0,1
84533,1000,4,1,0,90,1,9
84533,-25,4,1,0,90,0,1
84575,1000,4,1,0,90,1,9
84575,-25,4,1,0,90,0,1
84616,1000,4,1,0,90,1,8
84616,-25,4,1,0,90,0,0
84658,1000,4,1,0,90,1,8
84658,-25,4,1,0,90,0,0
84700,250,4,1,0,90,1,8
84866,1000,4,1,0,90,1,8
84866,-14.2857142857143,4,1,0,90,0,0
84907,1000,4,1,0,90,1,8
84907,-14.2857142857143,4,1,0,90,0,0
84949,1000,4,1,0,90,1,8
84949,-14.2857142857143,4,1,0,90,0,0
84991,1000,4,1,0,90,1,9
84991,-14.2857142857143,4,1,0,90,0,1
85033,1000,4,1,0,90,1,9
85033,-14.2857142857143,4,1,0,90,0,1
85074,1000,4,1,0,90,1,9
85074,-14.2857142857143,4,1,0,90,0,1
85116,1000,4,1,0,90,1,9
85116,-22.7272727272727,4,1,0,90,0,1
85158,1000,4,1,0,90,1,9
85158,-14.2857142857143,4,1,0,90,0,1
85200,1000,4,1,0,90,1,9
85200,-23.8095238095238,4,1,0,90,0,1
85241,1000,4,1,0,90,1,9
85241,-14.2857142857143,4,1,0,90,0,1
85283,1000,4,1,0,90,1,9
85283,-25,4,1,0,90,0,1
85325,1000,4,1,0,90,1,9
85325,-14.2857142857143,4,1,0,90,0,1
85366,1000,4,1,0,90,1,9
85366,-26.3157894736842,4,1,0,90,0,1
85407,1000,4,1,0,90,1,9
85407,-14.2857142857143,4,1,0,90,0,1
85449,1000,4,1,0,90,1,9
85449,-27.7777777777778,4,1,0,90,0,1
85491,1000,4,1,0,90,1,9
85491,-14.2857142857143,4,1,0,90,0,1
85533,1000,4,1,0,90,1,9
85533,-14.2857142857143,4,1,0,90,0,1
85574,1000,4,1,0,90,1,9
85574,-14.2857142857143,4,1,0,90,0,1
85616,1000,4,1,0,90,1,9
85616,-22.7272727272727,4,1,0,90,0,1
85658,1000,4,1,0,90,1,9
85658,-14.2857142857143,4,1,0,90,0,1
85700,1000,4,1,0,90,1,9
85700,-25,4,1,0,90,0,1
85741,1000,4,1,0,90,1,9
85741,-14.2857142857143,4,1,0,90,0,1
85783,1000,4,1,0,90,1,9
85783,-14.2857142857143,4,1,0,90,0,1
85825,1000,4,1,0,90,1,9
85825,-14.2857142857143,4,1,0,90,0,1
85866,1000,4,1,0,90,1,9
85866,-22.7272727272727,4,1,0,90,0,1
85907,1000,4,1,0,90,1,9
85907,-14.2857142857143,4,1,0,90,0,1
85949,1000,4,1,0,90,1,9
85949,-25,4,1,0,90,0,1
85991,1000,4,1,0,90,1,9
85991,-14.2857142857143,4,1,0,90,0,1
86032,1000,4,1,0,90,1,9
86032,-14.2857142857143,4,1,0,90,0,1
86073,1000,4,1,0,90,1,9
86073,-14.2857142857143,4,1,0,90,0,1
86115,1000,4,1,0,90,1,9
86115,-22.7272727272727,4,1,0,90,0,1
86157,1000,4,1,0,90,1,9
86157,-14.2857142857143,4,1,0,90,0,1
86199,1000,4,1,0,90,1,9
86199,-25,4,1,0,90,0,1
86240,1000,4,1,0,90,1,9
86240,-14.2857142857143,4,1,0,90,0,1
86282,1000,4,1,0,90,1,9
86282,-14.2857142857143,4,1,0,90,0,1
86324,1000,4,1,0,90,1,9
86324,-14.2857142857143,4,1,0,90,0,1
86365,1000,4,1,0,90,1,9
86365,-22.7272727272727,4,1,0,90,0,1
86407,1000,4,1,0,90,1,9
86407,-14.2857142857143,4,1,0,90,0,1
86449,1000,4,1,0,90,1,9
86449,-23.8095238095238,4,1,0,90,0,1
86490,1000,4,1,0,90,1,9
86490,-14.2857142857143,4,1,0,90,0,1
86532,1000,4,1,0,90,1,9
86532,-25,4,1,0,90,0,1
86574,1000,4,1,0,90,1,9
86574,-14.2857142857143,4,1,0,90,0,1
86615,1000,4,1,0,90,1,9
86615,-26.3157894736842,4,1,0,90,0,1
86656,1000,4,1,0,90,1,9
86656,-14.2857142857143,4,1,0,90,0,1
86698,1000,4,1,0,90,1,9
86698,-27.7777777777778,4,1,0,90,0,1
86740,1000,4,1,0,90,1,9
86740,-14.2857142857143,4,1,0,90,0,1
86782,1000,4,1,0,90,1,9
86782,-14.2857142857143,4,1,0,90,0,1
86824,1000,4,1,0,90,1,9
86824,-14.2857142857143,4,1,0,90,0,1
86866,1000,4,1,0,90,1,9
86866,-22.7272727272727,4,1,0,90,0,1
86907,1000,4,1,0,90,1,9
86907,-14.2857142857143,4,1,0,90,0,1
86949,1000,4,1,0,90,1,9
86949,-25,4,1,0,90,0,1
86991,1000,4,1,0,90,1,9
86991,-14.2857142857143,4,1,0,90,0,1
87032,1000,4,1,0,90,1,9
87032,-14.2857142857143,4,1,0,90,0,1
87073,1000,4,1,0,90,1,9
87073,-14.2857142857143,4,1,0,90,0,1
87115,1000,4,1,0,90,1,9
87115,-22.7272727272727,4,1,0,90,0,1
87157,1000,4,1,0,90,1,9
87157,-14.2857142857143,4,1,0,90,0,1
87199,1000,4,1,0,90,1,9
87199,-25,4,1,0,90,0,1
87240,1000,4,1,0,90,1,9
87240,-14.2857142857143,4,1,0,90,0,1
87282,1000,4,1,0,90,1,9
87282,-14.2857142857143,4,1,0,90,0,1
87324,1000,4,1,0,90,1,9
87324,-14.2857142857143,4,1,0,90,0,1
87366,1000,4,1,0,90,1,9
87366,-22.7272727272727,4,1,0,90,0,1
87407,1000,4,1,0,90,1,9
87407,-14.2857142857143,4,1,0,90,0,1
87449,1000,4,1,0,90,1,9
87449,-25,4,1,0,90,0,1
87491,1000,4,1,0,90,1,9
87491,-14.2857142857143,4,1,0,90,0,1
87533,1000,4,1,0,90,1,9
87533,-14.2857142857143,4,1,0,90,0,1
87574,1000,4,1,0,90,1,9
87574,-14.2857142857143,4,1,0,90,0,1
87616,1000,4,1,0,90,1,9
87616,-22.7272727272727,4,1,0,90,0,1
87658,1000,4,1,0,90,1,9
87658,-14.2857142857143,4,1,0,90,0,1
87700,1000,4,1,0,90,1,9
87700,-23.8095238095238,4,1,0,90,0,1
87741,1000,4,1,0,90,1,9
87741,-14.2857142857143,4,1,0,90,0,1
87783,1000,4,1,0,90,1,9
87783,-25,4,1,0,90,0,1
87825,1000,4,1,0,90,1,9
87825,-14.2857142857143,4,1,0,90,0,1
87866,1000,4,1,0,90,1,9
87866,-26.3157894736842,4,1,0,90,0,1
87907,1000,4,1,0,90,1,9
87907,-14.2857142857143,4,1,0,90,0,1
87949,1000,4,1,0,90,1,9
87949,-27.7777777777778,4,1,0,90,0,1
87991,1000,4,1,0,90,1,9
87991,-14.2857142857143,4,1,0,90,0,1
88032,1000,4,1,0,90,1,9
88032,-14.2857142857143,4,1,0,90,0,1
88073,1000,4,1,0,90,1,9
88073,-14.2857142857143,4,1,0,90,0,1
88115,1000,4,1,0,90,1,9
88115,-22.7272727272727,4,1,0,90,0,1
88157,1000,4,1,0,90,1,9
88157,-14.2857142857143,4,1,0,90,0,1
88199,1000,4,1,0,90,1,9
88199,-23.2558139534884,4,1,0,90,0,1
88240,1000,4,1,0,90,1,9
88240,-14.2857142857143,4,1,0,90,0,1
88282,1000,4,1,0,90,1,9
88282,-23.8095238095238,4,1,0,90,0,1
88324,1000,4,1,0,90,1,9
88324,-14.2857142857143,4,1,0,90,0,1
88366,1000,4,1,0,90,1,9
88366,-24.390243902439,4,1,0,90,0,1
88407,1000,4,1,0,90,1,9
88407,-14.2857142857143,4,1,0,90,0,1
88449,1000,4,1,0,90,1,9
88449,-25,4,1,0,90,0,1
88491,1000,4,1,0,90,1,9
88491,-14.2857142857143,4,1,0,90,0,1
88533,1000,4,1,0,90,1,9
88533,-25.5102040816327,4,1,0,90,0,1
88574,1000,4,1,0,90,1,9
88574,-14.2857142857143,4,1,0,90,0,1
88616,1000,4,1,0,90,1,9
88616,-26.0416666666667,4,1,0,90,0,1
88658,1000,4,1,0,90,1,9
88658,-14.2857142857143,4,1,0,90,0,1
88700,1000,4,1,0,90,1,9
88700,-26.5957446808511,4,1,0,90,0,1
88741,1000,4,1,0,90,1,9
88741,-14.2857142857143,4,1,0,90,0,1
88783,1000,4,1,0,90,1,9
88783,-45.4545454545455,4,1,0,90,0,1
88825,1000,4,1,0,90,1,9
88825,-14.2857142857143,4,1,0,90,0,1
88866,1000,4,1,0,90,1,9
88866,-22.7272727272727,4,1,0,90,0,1
88908,1000,4,1,0,90,1,9
88908,-14.2857142857143,4,1,0,90,0,1
88950,1000,4,1,0,90,1,9
88950,-25,4,1,0,90,0,1
88991,1000,4,1,0,90,1,9
88991,-14.2857142857143,4,1,0,90,0,1
89033,1000,4,1,0,90,1,9
89033,-14.2857142857143,4,1,0,90,0,1
89075,1000,4,1,0,90,1,9
89075,-14.2857142857143,4,1,0,90,0,1
89116,1000,4,1,0,90,1,9
89116,-22.7272727272727,4,1,0,90,0,1
89158,1000,4,1,0,90,1,9
89158,-14.2857142857143,4,1,0,90,0,1
89200,1000,4,1,0,90,1,9
89200,-25,4,1,0,90,0,1
89241,1000,4,1,0,90,1,9
89241,-14.2857142857143,4,1,0,90,0,1
89283,1000,4,1,0,90,1,9
89283,-14.2857142857143,4,1,0,90,0,1
89325,1000,4,1,0,90,1,9
89325,-14.2857142857143,4,1,0,90,0,1
89366,1000,4,1,0,90,1,9
89366,-22.7272727272727,4,1,0,90,0,1
89408,1000,4,1,0,90,1,9
89408,-14.2857142857143,4,1,0,90,0,1
89450,1000,4,1,0,90,1,9
89450,-25,4,1,0,90,0,1
89491,1000,4,1,0,90,1,9
89491,-14.2857142857143,4,1,0,90,0,1
89533,1000,4,1,0,90,1,9
89533,-14.2857142857143,4,1,0,90,0,1
89575,1000,4,1,0,90,1,9
89575,-14.2857142857143,4,1,0,90,0,1
89616,1000,4,1,0,90,1,9
89616,-22.7272727272727,4,1,0,90,0,1
89658,1000,4,1,0,90,1,9
89658,-14.2857142857143,4,1,0,90,0,1
89700,1000,4,1,0,90,1,9
89700,-23.8095238095238,4,1,0,90,0,1
89741,1000,4,1,0,90,1,9
89741,-14.2857142857143,4,1,0,90,0,1
89783,1000,4,1,0,90,1,9
89783,-25,4,1,0,90,0,1
89825,1000,4,1,0,90,1,9
89825,-14.2857142857143,4,1,0,90,0,1
89866,1000,4,1,0,90,1,9
89866,-26.3157894736842,4,1,0,90,0,1
89907,1000,4,1,0,90,1,9
89907,-14.2857142857143,4,1,0,90,0,1
89949,1000,4,1,0,90,1,9
89949,-27.7777777777778,4,1,0,90,0,1
89950,1000,4,1,0,90,1,9
89950,-27.7777777777778,4,1,0,90,0,1
89991,1000,4,1,0,90,1,9
89991,-14.2857142857143,4,1,0,90,0,1
90033,1000,4,1,0,90,1,9
90033,-14.2857142857143,4,1,0,90,0,1
90075,1000,4,1,0,90,1,9
90075,-14.2857142857143,4,1,0,90,0,1
90116,1000,4,1,0,90,1,9
90116,-22.7272727272727,4,1,0,90,0,1
90158,1000,4,1,0,90,1,9
90158,-14.2857142857143,4,1,0,90,0,1
90200,1000,4,1,0,90,1,9
90200,-25,4,1,0,90,0,1
90241,1000,4,1,0,90,1,9
90241,-14.2857142857143,4,1,0,90,0,1
90283,1000,4,1,0,90,1,9
90283,-14.2857142857143,4,1,0,90,0,1
90325,1000,4,1,0,90,1,9
90325,-14.2857142857143,4,1,0,90,0,1
90366,1000,4,1,0,90,1,9
90366,-22.7272727272727,4,1,0,90,0,1
90408,1000,4,1,0,90,1,9
90408,-14.2857142857143,4,1,0,90,0,1
90450,1000,4,1,0,90,1,9
90450,-23.8095238095238,4,1,0,90,0,1
90491,1000,4,1,0,90,1,9
90491,-14.2857142857143,4,1,0,90,0,1
90533,1000,4,1,0,90,1,9
90533,-25,4,1,0,90,0,1
90575,1000,4,1,0,90,1,9
90575,-14.2857142857143,4,1,0,90,0,1
90616,1000,4,1,0,90,1,9
90616,-26.3157894736842,4,1,0,90,0,1
90657,1000,4,1,0,90,1,9
90657,-14.2857142857143,4,1,0,90,0,1
90699,1000,4,1,0,90,1,9
90699,-27.7777777777778,4,1,0,90,0,1
90741,1000,4,1,0,90,1,9
90741,-35.7142857142857,4,1,0,90,0,1
90783,1000,4,1,0,90,1,9
90783,-25,4,1,0,90,0,1
90825,1000,4,1,0,90,1,9
90825,-25,4,1,0,90,0,1
90866,1000,4,1,0,90,1,9
90866,-22.7272727272727,4,1,0,90,0,1
90908,1000,4,1,0,90,1,9
90908,-22.7272727272727,4,1,0,90,0,1
90950,1000,4,1,0,90,1,9
90950,-25,4,1,0,90,0,1
90991,1000,4,1,0,90,1,9
90991,-25,4,1,0,90,0,1
91033,1000,4,1,0,90,1,9
91033,-25,4,1,0,90,0,1
91075,1000,4,1,0,90,1,9
91075,-25,4,1,0,90,0,1
91116,1000,4,1,0,90,1,9
91116,-22.7272727272727,4,1,0,90,0,1
91158,1000,4,1,0,90,1,9
91158,-22.7272727272727,4,1,0,90,0,1
91200,1000,4,1,0,90,1,9
91200,-25,4,1,0,90,0,1
91241,1000,4,1,0,90,1,9
91241,-25,4,1,0,90,0,1
91283,1000,4,1,0,90,1,9
91283,-25,4,1,0,90,0,1
91325,1000,4,1,0,90,1,9
91325,-25,4,1,0,90,0,1
91366,1000,4,1,0,90,1,9
91366,-22.7272727272727,4,1,0,90,0,1
91408,1000,4,1,0,90,1,9
91408,-22.7272727272727,4,1,0,90,0,1
91450,1000,4,1,0,90,1,9
91450,-25,4,1,0,90,0,1
91491,1000,4,1,0,90,1,9
91491,-25,4,1,0,90,0,1
91533,1000,4,1,0,90,1,9
91533,-25,4,1,0,90,0,1
91575,1000,4,1,0,90,1,9
91575,-25,4,1,0,90,0,1
91616,1000,4,1,0,90,1,9
91616,-22.7272727272727,4,1,0,90,0,1
91658,1000,4,1,0,90,1,9
91658,-22.7272727272727,4,1,0,90,0,1
91700,1000,4,1,0,90,1,9
91700,-25,4,1,0,90,0,1
91741,1000,4,1,0,90,1,9
91741,-25,4,1,0,90,0,1
91783,1000,4,1,0,90,1,9
91783,-14.2857142857143,4,1,0,90,0,1
91825,1000,4,1,0,90,1,9
91825,-14.2857142857143,4,1,0,90,0,1
91866,1000,4,1,0,90,1,9
91866,-20,4,1,0,90,0,1
91908,1000,4,1,0,90,1,9
91908,-20,4,1,0,90,0,1
91950,1000,4,1,0,90,1,9
91950,-20,4,1,0,90,0,1
91991,1000,4,1,0,90,1,9
91991,-20,4,1,0,90,0,1
92033,1000,4,1,0,90,1,9
92033,-20,4,1,0,90,0,1
92075,1000,4,1,0,90,1,9
92075,-20,4,1,0,90,0,1
92117,1000,4,1,0,90,1,9
92117,-20,4,1,0,90,0,1
92159,1000,4,1,0,90,1,9
92159,-20,4,1,0,90,0,1
92200,1000,4,1,0,90,1,9
92200,-20,4,1,0,90,0,1
92242,1000,4,1,0,90,1,9
92242,-20,4,1,0,90,0,1
92283,1000,4,1,0,90,1,9
92283,-20,4,1,0,90,0,1
92325,1000,4,1,0,90,1,9
92325,-20,4,1,0,90,0,1
92367,1000,4,1,0,90,1,9
92367,-20,4,1,0,90,0,1
92408,1000,4,1,0,90,1,9
92408,-20,4,1,0,90,0,1
92450,1000,4,1,0,90,1,9
92450,-20,4,1,0,90,0,1
92491,1000,4,1,0,90,1,9
92491,-20,4,1,0,90,0,1
92533,1000,4,1,0,90,1,9
92533,-20,4,1,0,90,0,1
92575,1000,4,1,0,90,1,9
92575,-20,4,1,0,90,0,1
92616,1000,4,1,0,90,1,9
92616,-20,4,1,0,90,0,1
92658,1000,4,1,0,90,1,9
92658,-20,4,1,0,90,0,1
92700,500,4,1,0,90,1,0
92700,500,4,1,0,90,1,0
92700,-40,4,1,0,90,0,0
92783,-100,4,1,0,90,0,0
93200,-200,4,1,0,50,0,0
94668,-346.020761245675,4,1,0,50,0,0
94700,-333.333333333333,4,1,0,50,0,0
95200,-200,4,1,0,50,0,0
96668,-346.020761245675,4,1,0,50,0,0
96700,-333.333333333333,4,1,0,50,0,0
97200,-200,4,1,0,50,0,0
98668,-346.020761245675,4,1,0,50,0,0
98700,-333.333333333333,4,1,0,50,0,0
99200,-200,4,1,0,50,0,0
100700,461.538461538462,4,1,0,80,1,1
100700,-50,4,1,0,80,0,1
101161,-100,4,1,0,80,0,0
102546,428.571428571429,4,1,0,80,1,1
102546,-50,4,1,0,80,0,1
102974,-100,4,1,0,80,0,0
104260,375,4,1,0,80,1,1
104260,-50,4,1,0,80,0,1
104635,-100,4,1,0,80,0,0
105760,333.333333333333,4,1,0,80,1,1
105760,-50,4,1,0,80,0,1
106093,-100,4,1,0,80,0,0
107093,300,4,1,0,80,1,1
107093,-66.6666666666667,4,1,0,80,0,1
107393,-100,4,1,0,80,0,0
107693,-66.6666666666667,4,1,0,80,0,1
107993,-100,4,1,0,80,0,0
108293,272.727272727273,4,1,0,80,1,1
108293,-66.6666666666667,4,1,0,80,0,1
108565,-100,4,1,0,80,0,0
108838,-66.6666666666667,4,1,0,80,0,1
109111,-100,4,1,0,80,0,0
109383,250,4,1,0,80,1,1
109383,-66.6666666666667,4,1,0,80,0,1
109633,-100,4,1,0,80,0,0
109883,-66.6666666666667,4,1,0,80,0,1
110133,-100,4,1,0,80,0,0
110383,214.285714285714,4,1,0,80,1,1
110383,-66.6666666666667,4,1,0,80,0,1
110597,-100,4,1,0,80,0,0
110811,-66.6666666666667,4,1,0,80,0,1
111025,-100,4,1,0,80,0,0
111240,200,4,1,0,80,1,1
111640,-100,4,1,0,80,0,0
112040,187.5,4,1,0,80,1,1
112415,-100,4,1,0,80,0,0
112790,176.470588235294,4,1,0,80,1,1
113142,-100,4,1,0,80,0,0
113495,166.666666666667,4,1,0,80,1,1
113828,-100,4,1,0,80,0,0
114161,157.894736842105,4,1,0,80,1,1
114477,-100,4,1,0,80,0,0
114793,153.846153846154,4,1,0,80,1,1
115100,-100,4,1,0,80,0,0
115408,150,4,1,0,80,1,1
115708,-100,4,1,0,80,0,0
116608,300,4,1,0,90,1,9
116610,300,4,1,0,90,1,0
116610,-40,4,1,0,90,0,1
116760,-40,4,1,0,90,0,0
117135,-50,4,1,0,90,0,1
117810,-100,4,1,0,90,0,0
117960,-90.9090909090909,4,1,0,90,0,0
118035,-83.3333333333333,4,1,0,90,0,0
118110,-76.9230769230769,4,1,0,90,0,0
118185,-71.4285714285714,4,1,0,90,0,0
118260,-66.6666666666667,4,1,0,90,0,0
118485,-68.9655172413793,4,1,0,90,0,0
118560,-71.4285714285714,4,1,0,90,0,0
118635,-74.0740740740741,4,1,0,90,0,0
118710,-74.0740740740741,4,1,0,90,0,0
118747,-72.463768115942,4,1,0,90,0,0
118860,-74.0740740740741,4,1,0,90,0,0
118897,-72.463768115942,4,1,0,90,0,0
119010,-50,4,1,0,90,0,1
119160,-50,4,1,0,90,0,0
119535,-200,4,1,0,90,0,1
120210,-100,4,1,0,90,0,0
120360,-90.9090909090909,4,1,0,90,0,0
120435,-100,4,1,0,90,0,0
120585,-90.9090909090909,4,1,0,90,0,0
120660,-100,4,1,0,90,0,0
120810,-62.5,4,1,0,90,0,0
120885,-66.6666666666667,4,1,0,90,0,0
120960,-71.4285714285714,4,1,0,90,0,0
120997,-76.9230769230769,4,1,0,90,0,0
121072,-83.3333333333333,4,1,0,90,0,0
121410,-50,4,1,0,90,0,1
121560,-50,4,1,0,90,0,0
121935,-33.3333333333333,4,1,0,90,0,1
122610,-100,4,1,0,90,0,0
122710,-90.9090909090909,4,1,0,90,0,0
122810,-83.3333333333333,4,1,0,90,0,0
122910,-76.9230769230769,4,1,0,90,0,0
123060,-74.0740740740741,4,1,0,90,0,0
123210,-71.4285714285714,4,1,0,90,0,0
123510,-71.4285714285714,4,1,0,90,0,0
123547,-74.0740740740741,4,1,0,90,0,0
123660,-71.4285714285714,4,1,0,90,0,0
123697,-74.0740740740741,4,1,0,90,0,0
123810,-50,4,1,0,90,0,1
123960,-83.3333333333333,4,1,0,90,0,0
124335,-285.714285714286,4,1,0,90,0,1
125010,-100,4,1,0,90,0,0
126210,-50,4,1,0,90,0,1
126228,-25,4,1,0,90,0,1
126360,-25,4,1,0,90,0,0
126735,-14.2857142857143,4,1,0,60,0,1
127410,-100,4,1,0,90,0,0
127560,-90.9090909090909,4,1,0,90,0,0
127635,-83.3333333333333,4,1,0,90,0,0
127710,-76.9230769230769,4,1,0,90,0,0
127785,-71.4285714285714,4,1,0,90,0,0
127860,-66.6666666666667,4,1,0,90,0,0
128085,-68.9655172413793,4,1,0,90,0,0
128160,-71.4285714285714,4,1,0,90,0,0
128235,-74.0740740740741,4,1,0,90,0,0
128310,-74.0740740740741,4,1,0,90,0,0
128347,-72.463768115942,4,1,0,90,0,0
128460,-74.0740740740741,4,1,0,90,0,0
128497,-72.463768115942,4,1,0,90,0,0
128610,-50,4,1,0,90,0,1
128628,-25,4,1,0,90,0,1
128760,-25,4,1,0,90,0,0
129135,-500,4,1,0,60,0,1
129810,-100,4,1,0,90,0,0
129960,-90.9090909090909,4,1,0,90,0,0
130035,-100,4,1,0,90,0,0
130185,-90.9090909090909,4,1,0,90,0,0
130260,-100,4,1,0,90,0,0
130410,-62.5,4,1,0,90,0,0
130485,-66.6666666666667,4,1,0,90,0,0
130560,-71.4285714285714,4,1,0,90,0,0
130597,-76.9230769230769,4,1,0,90,0,0
130672,-83.3333333333333,4,1,0,90,0,0
131010,-50,4,1,0,90,0,1
131028,-25,4,1,0,90,0,1
131160,-25,4,1,0,90,0,0
131535,-14.2857142857143,4,1,0,60,0,1
132210,-100,4,1,0,90,0,0
132310,-90.9090909090909,4,1,0,90,0,0
132410,-83.3333333333333,4,1,0,90,0,0
132510,-76.9230769230769,4,1,0,90,0,0
132660,-74.0740740740741,4,1,0,90,0,0
132810,-71.4285714285714,4,1,0,90,0,0
133110,-71.4285714285714,4,1,0,90,0,0
133147,-74.0740740740741,4,1,0,90,0,0
133260,-71.4285714285714,4,1,0,90,0,0
133297,-74.0740740740741,4,1,0,90,0,0
133410,-50,4,1,0,90,0,1
133428,-25,4,1,0,90,0,1
133560,-80,4,1,0,90,0,0
133935,-666.666666666667,4,1,0,90,0,1
134610,-100,4,1,0,90,0,0
135810,-66.6666666666667,4,1,0,90,0,1
135828,-1,4,1,0,100,0,1
136110,-83.3333333333333,4,1,0,90,0,0
136335,-14.2857142857143,4,1,0,60,0,1
137010,-100,4,1,0,90,0,0
137160,-90.9090909090909,4,1,0,90,0,0
137235,-83.3333333333333,4,1,0,90,0,0
137310,-76.9230769230769,4,1,0,90,0,0
137385,-71.4285714285714,4,1,0,90,0,0
137460,-66.6666666666667,4,1,0,90,0,0
137685,-68.9655172413793,4,1,0,90,0,0
137760,-71.4285714285714,4,1,0,90,0,0
137835,-74.0740740740741,4,1,0,90,0,0
137910,-74.0740740740741,4,1,0,90,0,0
137947,-72.463768115942,4,1,0,90,0,0
138060,-74.0740740740741,4,1,0,90,0,0
138097,-72.463768115942,4,1,0,90,0,0
138210,-66.6666666666667,4,1,0,90,0,0
138228,-1,4,1,0,100,0,1
138510,-83.3333333333333,4,1,0,90,0,0
138735,-1000,4,1,0,60,0,1
139410,-100,4,1,0,90,0,0
139710,-66.6666666666667,4,1,0,90,0,0
139785,-68.9655172413793,4,1,0,90,0,0
139860,-71.4285714285714,4,1,0,90,0,0
139935,-73.5294117647059,4,1,0,90,0,0
140010,-75.7575757575758,4,1,0,90,0,0
140085,-78.125,4,1,0,90,0,0
140160,-80.6451612903226,4,1,0,90,0,0
140235,-83.3333333333333,4,1,0,90,0,0
140310,-76.9230769230769,4,1,0,90,0,0
140610,-66.6666666666667,4,1,0,90,0,0
140628,-1,4,1,0,100,0,1
140910,-83.3333333333333,4,1,0,90,0,0
141135,-14.2857142857143,4,1,0,60,0,1
141810,-100,4,1,0,90,0,0
141910,-90.9090909090909,4,1,0,90,0,0
142010,-83.3333333333333,4,1,0,90,0,0
142110,-76.9230769230769,4,1,0,90,0,0
142260,-74.0740740740741,4,1,0,90,0,0
142410,-71.4285714285714,4,1,0,90,0,0
142710,-71.4285714285714,4,1,0,90,0,0
142747,-74.0740740740741,4,1,0,90,0,0
142860,-71.4285714285714,4,1,0,90,0,0
142897,-74.0740740740741,4,1,0,90,0,0
143010,-66.6666666666667,4,1,0,90,0,1
143028,-25,4,1,0,90,0,1
143160,-83.3333333333333,4,1,0,90,0,0
143560,-1000,4,1,0,90,0,1
144210,-100,4,1,0,90,0,0
145410,600,4,1,0,80,1,0
145410,-33.3333333333333,4,1,0,80,0,1
145560,-100,4,1,0,80,0,1
146010,-98.0392156862745,4,1,0,80,0,0
146210,-97.0873786407767,4,1,0,80,0,0
146410,-96.1538461538461,4,1,0,80,0,0
146610,545.454545454546,4,1,0,70,1,8
147700,500,4,1,0,70,1,1
148200,-98.0392156862745,4,1,0,70,0,0
148366,-97.0873786407767,4,1,0,70,0,0
148533,-96.1538461538461,4,1,0,70,0,0
148700,461.538461538462,4,1,0,70,1,8
149623,428.571428571429,4,1,0,80,1,1
150051,-98.0392156862745,4,1,0,80,0,0
150194,-97.0873786407767,4,1,0,80,0,0
150337,-96.1538461538461,4,1,0,80,0,0
150480,400,4,1,0,80,1,8
151280,375,4,1,0,80,1,1
151655,-98.0392156862745,4,1,0,80,0,0
151780,-97.0873786407767,4,1,0,80,0,0
151905,-96.1538461538461,4,1,0,80,0,0
152030,352.941176470588,4,1,0,80,1,8
152735,333.333333333333,4,1,0,80,1,1
153068,-98.0392156862745,4,1,0,80,0,0
153179,-97.0873786407767,4,1,0,80,0,0
153290,-96.1538461538461,4,1,0,80,0,0
153401,315.789473684211,4,1,0,80,1,9
153716,-100,4,1,0,80,0,0
153874,-96.1538461538461,4,1,0,80,0,0
154032,300,4,1,0,80,1,1
154332,-98.0392156862745,4,1,0,80,0,0
154432,-97.0873786407767,4,1,0,80,0,0
154532,-96.1538461538461,4,1,0,80,0,0
154632,285.714285714286,4,1,0,80,1,9
154917,-100,4,1,0,80,0,0
155060,-96.1538461538461,4,1,0,80,0,0
155203,272.727272727273,4,1,0,80,1,1
155475,-98.0392156862745,4,1,0,80,0,0
155566,-97.0873786407767,4,1,0,80,0,0
155657,-96.1538461538461,4,1,0,80,0,0
155748,260.869565217391,4,1,0,80,1,9
156008,-100,4,1,0,80,0,0
156139,-96.1538461538461,4,1,0,80,0,0
156269,250,4,1,0,80,1,1
156519,-98.0392156862745,4,1,0,80,0,0
156602,-97.0873786407767,4,1,0,80,0,0
156685,-96.1538461538461,4,1,0,80,0,0
156769,240,4,1,0,80,1,9
157009,-100,4,1,0,80,0,0
157129,-96.1538461538461,4,1,0,80,0,0
157249,230.769230769231,4,1,0,80,1,1
157479,-98.0392156862745,4,1,0,80,0,0
157556,-97.0873786407767,4,1,0,80,0,0
157633,-96.1538461538461,4,1,0,80,0,0
157710,222.222222222222,4,1,0,80,1,9
157932,-100,4,1,0,80,0,0
158043,-96.1538461538461,4,1,0,80,0,0
158154,214.285714285714,4,1,0,80,1,1
158368,-98.0392156862745,4,1,0,80,0,0
158439,-97.0873786407767,4,1,0,80,0,0
158511,-96.1538461538461,4,1,0,80,0,0
158582,206.896551724138,4,1,0,80,1,9
158788,-100,4,1,0,80,0,0
158892,-96.1538461538461,4,1,0,80,0,0
158995,200,4,1,0,80,1,1
159195,-98.0392156862745,4,1,0,80,0,0
159261,-97.0873786407767,4,1,0,80,0,0
159328,-96.1538461538461,4,1,0,80,0,0
159395,-96.1538461538461,4,1,0,80,0,1
159595,-96.1538461538461,4,1,0,80,0,0
159795,-96.1538461538461,4,1,0,80,0,1
159995,-96.1538461538461,4,1,0,80,0,0
160195,-96.1538461538461,4,1,0,80,0,1
160395,-96.1538461538461,4,1,0,80,0,0
160595,-96.1538461538461,4,1,0,80,0,1
160695,-96.1538461538461,4,1,0,80,0,0
160795,-96.1538461538461,4,1,0,80,0,1
160895,-96.1538461538461,4,1,0,80,0,0
160995,-96.1538461538461,4,1,0,80,0,1
161095,-96.1538461538461,4,1,0,80,0,0
161195,-96.1538461538461,4,1,0,80,0,1
161295,-96.1538461538461,4,1,0,80,0,0
161395,-96.1538461538461,4,1,0,80,0,1
161495,-96.1538461538461,4,1,0,80,0,0
161595,-96.1538461538461,4,1,0,80,0,1
161695,-96.1538461538461,4,1,0,80,0,0
161795,-96.1538461538461,4,1,0,80,0,1
161895,-96.1538461538461,4,1,0,80,0,0
161995,-96.1538461538461,4,1,0,80,0,1
162095,-96.1538461538461,4,1,0,80,0,0
162195,-96.1538461538461,4,1,0,80,0,1
162295,-96.1538461538461,4,1,0,80,0,0
162395,-96.1538461538461,4,1,0,80,0,1
162495,-96.1538461538461,4,1,0,80,0,0
162595,-96.1538461538461,4,1,0,80,0,1
162695,-96.1538461538461,4,1,0,80,0,0
162795,-96.1538461538461,4,1,0,80,0,1
162895,-96.1538461538461,4,1,0,80,0,0
162995,-96.1538461538461,4,1,0,80,0,1
163095,-96.1538461538461,4,1,0,80,0,0
163195,-96.1538461538461,4,1,0,80,0,1
163295,-96.1538461538461,4,1,0,80,0,0
163395,-96.1538461538461,4,1,0,80,0,1
163495,-96.1538461538461,4,1,0,80,0,0
163595,-96.1538461538461,4,1,0,80,0,1
163695,-96.1538461538461,4,1,0,80,0,0
163795,-96.1538461538461,4,1,0,80,0,1
163845,-96.1538461538461,4,1,0,80,0,0
163895,-96.1538461538461,4,1,0,80,0,1
163945,-96.1538461538461,4,1,0,80,0,0
163995,-96.1538461538461,4,1,0,80,0,1
164045,-96.1538461538461,4,1,0,80,0,0
164095,-96.1538461538461,4,1,0,80,0,1
164145,-96.1538461538461,4,1,0,80,0,0
164195,-96.1538461538461,4,1,0,80,0,1
164245,-96.1538461538461,4,1,0,80,0,0
164295,-96.1538461538461,4,1,0,80,0,1
164345,-96.1538461538461,4,1,0,80,0,0
164395,-96.1538461538461,4,1,0,80,0,1
164445,-96.1538461538461,4,1,0,80,0,0
164495,-96.1538461538461,4,1,0,80,0,1
164545,-96.1538461538461,4,1,0,80,0,0
164595,-96.1538461538461,4,1,0,80,0,1
164645,-96.1538461538461,4,1,0,80,0,0
164695,-96.1538461538461,4,1,0,80,0,1
164745,-96.1538461538461,4,1,0,80,0,0
164795,-96.1538461538461,4,1,0,80,0,1
164845,-96.1538461538461,4,1,0,80,0,0
164895,-96.1538461538461,4,1,0,80,0,1
164945,-96.1538461538461,4,1,0,80,0,0
164995,-96.1538461538461,4,1,0,80,0,1
165045,-96.1538461538461,4,1,0,80,0,0
165095,-96.1538461538461,4,1,0,80,0,1
165145,-96.1538461538461,4,1,0,80,0,0
165195,-96.1538461538461,4,1,0,80,0,1
165245,-96.1538461538461,4,1,0,80,0,0
165295,-96.1538461538461,4,1,0,80,0,1
165345,-96.1538461538461,4,1,0,80,0,0
165395,400,8,1,0,80,1,1
165395,-33.3333333333333,8,1,0,80,0,1
165445,-100,8,1,0,80,0,0
165995,-33.3333333333333,8,1,0,70,0,0
166395,-66.6666666666667,8,1,0,20,0,1
166396,200,8,1,0,20,1,1
166595,400,8,1,0,50,1,1
166595,-25,8,1,0,50,0,1
166695,-25,8,1,0,50,0,0
166999,400,4,1,0,90,1,0
166999,-50,4,1,0,90,0,0
167005,-1,4,1,0,100,0,0
167030,-66.6666666666667,4,1,0,90,0,0
167399,-66.6666666666667,4,1,0,90,0,1
167405,-1,4,1,0,100,0,1
167430,-66.6666666666667,4,1,0,90,0,1
167799,-66.6666666666667,4,1,0,90,0,0
167805,-1,4,1,0,100,0,0
167830,-66.6666666666667,4,1,0,90,0,0
168199,-50,4,1,0,90,0,1
168205,-1,4,1,0,100,0,1
168230,-66.6666666666667,4,1,0,90,0,1
168399,-25,4,1,0,90,0,1
168599,-66.6666666666667,4,1,0,90,0,0
168605,-1,4,1,0,100,0,0
168630,-66.6666666666667,4,1,0,90,0,0
168999,-66.6666666666667,4,1,0,90,0,1
169005,-1,4,1,0,100,0,1
169030,-66.6666666666667,4,1,0,90,0,1
169399,-66.6666666666667,4,1,0,90,0,0
169405,-1,4,1,0,100,0,0
169430,-66.6666666666667,4,1,0,90,0,0
169799,-50,4,1,0,90,0,1
169805,-1,4,1,0,100,0,1
169830,-66.6666666666667,4,1,0,90,0,1
170199,-50,4,1,0,90,0,0
170205,-1,4,1,0,100,0,0
170230,-66.6666666666667,4,1,0,90,0,0
170599,-66.6666666666667,4,1,0,90,0,1
170605,-1,4,1,0,100,0,1
170630,-66.6666666666667,4,1,0,90,0,1
170999,-66.6666666666667,4,1,0,90,0,0
171005,-1,4,1,0,100,0,0
171030,-66.6666666666667,4,1,0,90,0,0
171399,-50,4,1,0,90,0,1
171405,-1,4,1,0,100,0,1
171799,-66.6666666666667,4,1,0,90,0,0
171805,-1,4,1,0,100,0,0
171830,-66.6666666666667,4,1,0,90,0,0
172199,-66.6666666666667,4,1,0,90,0,1
172205,-1,4,1,0,100,0,1
172230,-66.6666666666667,4,1,0,90,0,1
172599,-66.6666666666667,4,1,0,90,0,0
172605,-1,4,1,0,100,0,0
172630,-66.6666666666667,4,1,0,90,0,0
172999,-50,4,1,0,90,0,1
173005,-1,4,1,0,100,0,1
173030,-66.6666666666667,4,1,0,90,0,1
173399,-50,4,1,0,90,0,0
173405,-1,4,1,0,100,0,0
173430,-66.6666666666667,4,1,0,90,0,0
173799,-66.6666666666667,4,1,0,90,0,1
173805,-1,4,1,0,100,0,1
173830,-66.6666666666667,4,1,0,90,0,1
174199,-66.6666666666667,4,1,0,90,0,0
174205,-1,4,1,0,100,0,0
174230,-66.6666666666667,4,1,0,90,0,0
174599,-50,4,1,0,90,0,1
174605,-1,4,1,0,100,0,1
174630,-66.6666666666667,4,1,0,90,0,1
174799,-10,4,1,0,90,0,1
174999,-66.6666666666667,4,1,0,90,0,0
175005,-1,4,1,0,100,0,0
175030,-66.6666666666667,4,1,0,90,0,0
175399,-66.6666666666667,4,1,0,90,0,1
175405,-1,4,1,0,100,0,1
175430,-66.6666666666667,4,1,0,90,0,1
175799,-66.6666666666667,4,1,0,90,0,0
175805,-1,4,1,0,100,0,0
175830,-66.6666666666667,4,1,0,90,0,0
176199,-66.6666666666667,4,1,0,90,0,1
176205,-1,4,1,0,100,0,1
176230,-66.6666666666667,4,1,0,90,0,1
176599,-50,4,1,0,90,0,0
176605,-1,4,1,0,100,0,0
176630,-66.6666666666667,4,1,0,90,0,0
176999,-66.6666666666667,4,1,0,90,0,1
177005,-1,4,1,0,100,0,1
177030,-66.6666666666667,4,1,0,90,0,1
177399,-66.6666666666667,4,1,0,90,0,0
177405,-1,4,1,0,100,0,0
177430,-66.6666666666667,4,1,0,90,0,0
177799,-50,4,1,0,90,0,1
177805,-1,4,1,0,100,0,1
177830,-25,4,1,0,90,0,1
178199,-100,4,1,0,90,0,0
178205,-1,4,1,0,100,0,0
178230,-100,4,1,0,90,0,0
178399,-95.2380952380952,4,1,0,90,0,0
178499,-90.9090909090909,4,1,0,90,0,0
178605,-1,4,1,0,100,0,0
178630,-66.6666666666667,4,1,0,90,0,0
178699,-86.9565217391304,4,1,0,90,0,0
178799,-83.3333333333333,4,1,0,90,0,0
178999,-83.3333333333333,4,1,0,90,0,0
179005,-1,4,1,0,100,0,0
179030,-80,4,1,0,90,0,0
179099,-76.9230769230769,4,1,0,90,0,0
179199,-74.0740740740741,4,1,0,90,0,0
179299,-71.4285714285714,4,1,0,90,0,0
179399,-68.9655172413793,4,1,0,90,0,0
179405,-1,4,1,0,100,0,0
179430,-66.6666666666667,4,1,0,90,0,0
179799,1000,4,1,0,90,1,1
179799,-20,4,1,0,90,0,1
179849,1000,4,1,0,90,1,9
179849,-20,4,1,0,90,0,1
179899,1000,4,1,0,90,1,9
179899,-20,4,1,0,90,0,1
179949,1000,4,1,0,90,1,9
179949,-20,4,1,0,90,0,1
179999,1000,4,1,0,90,1,9
179999,-20,4,1,0,90,0,1
180049,1000,4,1,0,90,1,9
180049,-20,4,1,0,90,0,1
180099,1000,4,1,0,90,1,9
180099,-20,4,1,0,90,0,1
180149,1000,4,1,0,90,1,9
180149,-20,4,1,0,90,0,1
180199,1000,4,1,0,90,1,9
180199,-20,4,1,0,90,0,1
180249,1000,4,1,0,90,1,9
180249,-20,4,1,0,90,0,1
180299,1000,4,1,0,90,1,9
180299,-20,4,1,0,90,0,1
180349,1000,4,1,0,90,1,9
180349,-20,4,1,0,90,0,1
180399,1000,4,1,0,90,1,9
180399,1000,4,1,0,90,1,9
180399,-20,4,1,0,90,0,1
180399,-20,4,1,0,90,0,1
180449,1000,4,1,0,90,1,9
180449,-20,4,1,0,90,0,1
180499,1000,4,1,0,90,1,9
180499,-20,4,1,0,90,0,1
180549,1000,4,1,0,90,1,9
180549,-20,4,1,0,90,0,1
180599,1000,4,1,0,90,1,9
180599,-12.5,4,1,0,100,0,0
180649,1000,4,1,0,90,1,9
180649,-20,4,1,0,90,0,1
180699,1000,4,1,0,90,1,9
180699,-20,4,1,0,90,0,1
180749,1000,4,1,0,90,1,9
180749,-20,4,1,0,90,0,1
180799,1000,4,1,0,90,1,9
180799,-20,4,1,0,90,0,1
180849,1000,4,1,0,90,1,9
180849,-20,4,1,0,90,0,1
180899,1000,4,1,0,90,1,9
180899,-20,4,1,0,90,0,1
180949,1000,4,1,0,90,1,9
180949,-20,4,1,0,90,0,1
180999,1000,4,1,0,90,1,9
180999,-20,4,1,0,90,0,1
181049,1000,4,1,0,90,1,9
181049,-20,4,1,0,90,0,1
181099,1000,4,1,0,90,1,9
181099,-20,4,1,0,90,0,1
181149,1000,4,1,0,90,1,9
181149,-20,4,1,0,90,0,1
181199,1000,4,1,0,90,1,9
181199,-20,4,1,0,90,0,1
181249,1000,4,1,0,90,1,9
181249,-20,4,1,0,90,0,1
181299,1000,4,1,0,90,1,9
181299,-20,4,1,0,90,0,1
181349,1000,4,1,0,90,1,9
181349,-20,4,1,0,90,0,1
181399,1000,4,1,0,90,1,9
181399,-12.5,4,1,0,100,0,0
181449,1000,4,1,0,90,1,9
181449,-20,4,1,0,90,0,1
181499,1000,4,1,0,90,1,9
181499,-20,4,1,0,90,0,1
181549,1000,4,1,0,90,1,9
181549,-20,4,1,0,90,0,1
181599,1000,4,1,0,90,1,9
181599,-20,4,1,0,90,0,1
181649,1000,4,1,0,90,1,9
181649,-20,4,1,0,90,0,1
181699,1000,4,1,0,90,1,9
181699,-20,4,1,0,90,0,1
181749,1000,4,1,0,90,1,9
181749,-20,4,1,0,90,0,1
181799,1000,4,1,0,90,1,9
181799,-20,4,1,0,90,0,1
181849,1000,4,1,0,90,1,9
181849,-20,4,1,0,90,0,1
181899,1000,4,1,0,90,1,9
181899,-20,4,1,0,90,0,1
181949,1000,4,1,0,90,1,9
181949,-20,4,1,0,90,0,1
181999,1000,4,1,0,90,1,9
181999,1000,4,1,0,90,1,9
181999,-20,4,1,0,90,0,1
181999,-20,4,1,0,90,0,1
182049,1000,4,1,0,90,1,9
182049,-20,4,1,0,90,0,1
182099,1000,4,1,0,90,1,9
182099,-20,4,1,0,90,0,1
182149,1000,4,1,0,90,1,9
182149,-20,4,1,0,90,0,1
182199,1000,4,1,0,90,1,9
182199,-20,4,1,0,90,0,1
182249,1000,4,1,0,90,1,9
182249,-20,4,1,0,90,0,1
182299,1000,4,1,0,90,1,9
182299,-20,4,1,0,90,0,1
182349,1000,4,1,0,90,1,9
182349,-20,4,1,0,90,0,1
182399,1000,4,1,0,90,1,9
182399,-20,4,1,0,90,0,1
182449,1000,4,1,0,90,1,9
182449,-20,4,1,0,90,0,1
182499,1000,4,1,0,90,1,9
182499,-20,4,1,0,90,0,1
182549,1000,4,1,0,90,1,9
182549,-20,4,1,0,90,0,1
182599,1000,4,1,0,90,1,9
182599,-12.5,4,1,0,100,0,0
182649,1000,4,1,0,90,1,9
182649,-20,4,1,0,90,0,1
182699,1000,4,1,0,90,1,9
182699,-20,4,1,0,90,0,1
182749,1000,4,1,0,90,1,9
182749,-20,4,1,0,90,0,1
182799,1000,4,1,0,90,1,9
182799,-20,4,1,0,90,0,1
182849,1000,4,1,0,90,1,9
182849,-20,4,1,0,90,0,1
182899,1000,4,1,0,90,1,9
182899,-20,4,1,0,90,0,1
182949,1000,4,1,0,90,1,9
182949,-20,4,1,0,90,0,1
182999,1000,4,1,0,90,1,9
182999,-12.5,4,1,0,100,0,0
183049,1000,4,1,0,90,1,9
183049,-20,4,1,0,90,0,1
183099,1000,4,1,0,90,1,9
183099,-20,4,1,0,90,0,1
183149,1000,4,1,0,90,1,9
183149,-20,4,1,0,90,0,1
183199,1000,4,1,0,90,1,9
183199,-20,4,1,0,90,0,1
183249,1000,4,1,0,90,1,9
183249,-20,4,1,0,90,0,1
183299,1000,4,1,0,90,1,9
183299,-20,4,1,0,90,0,1
183349,1000,4,1,0,90,1,9
183349,-20,4,1,0,90,0,1
183399,1000,4,1,0,90,1,9
183399,-20,4,1,0,90,0,1
183449,1000,4,1,0,90,1,9
183449,-20,4,1,0,90,0,1
183499,1000,4,1,0,90,1,9
183499,-20,4,1,0,90,0,1
183549,1000,4,1,0,90,1,9
183549,-20,4,1,0,90,0,1
183599,1000,4,1,0,90,1,9
183599,1000,4,1,0,90,1,9
183599,-20,4,1,0,90,0,1
183599,-20,4,1,0,90,0,1
183649,1000,4,1,0,90,1,9
183649,-20,4,1,0,90,0,1
183699,1000,4,1,0,90,1,9
183699,-20,4,1,0,90,0,1
183749,1000,4,1,0,90,1,9
183749,-20,4,1,0,90,0,1
183799,1000,4,1,0,90,1,9
183799,-12.5,4,1,0,100,0,0
183849,1000,4,1,0,90,1,9
183849,-20,4,1,0,90,0,1
183899,1000,4,1,0,90,1,9
183899,-20,4,1,0,90,0,1
183949,1000,4,1,0,90,1,9
183949,-20,4,1,0,90,0,1
183999,1000,4,1,0,90,1,9
183999,-20,4,1,0,90,0,1
184049,1000,4,1,0,90,1,9
184049,-20,4,1,0,90,0,1
184099,1000,4,1,0,90,1,9
184099,-20,4,1,0,90,0,1
184149,1000,4,1,0,90,1,9
184149,-20,4,1,0,90,0,1
184199,1000,4,1,0,90,1,9
184199,-20,4,1,0,90,0,1
184249,1000,4,1,0,90,1,9
184249,-20,4,1,0,90,0,1
184299,1000,4,1,0,90,1,9
184299,-20,4,1,0,90,0,1
184349,1000,4,1,0,90,1,9
184349,-20,4,1,0,90,0,1
184399,1000,4,1,0,90,1,9
184399,-20,4,1,0,90,0,1
184449,1000,4,1,0,90,1,9
184449,-20,4,1,0,90,0,1
184499,1000,4,1,0,90,1,9
184499,-20,4,1,0,90,0,1
184549,1000,4,1,0,90,1,9
184549,-20,4,1,0,90,0,1
184599,1000,4,1,0,90,1,9
184599,-12.5,4,1,0,100,0,0
184649,1000,4,1,0,90,1,9
184649,-20,4,1,0,90,0,1
184699,1000,4,1,0,90,1,9
184699,-20,4,1,0,90,0,1
184749,1000,4,1,0,90,1,9
184749,-20,4,1,0,90,0,1
184799,1000,4,1,0,90,1,9
184799,-20,4,1,0,90,0,1
184849,1000,4,1,0,90,1,9
184849,-20,4,1,0,90,0,1
184899,1000,4,1,0,90,1,9
184899,-20,4,1,0,90,0,1
184949,1000,4,1,0,90,1,9
184949,-20,4,1,0,90,0,1
184999,1000,4,1,0,90,1,9
184999,-20,4,1,0,90,0,1
185049,1000,4,1,0,90,1,9
185049,-20,4,1,0,90,0,1
185099,1000,4,1,0,90,1,9
185099,-20,4,1,0,90,0,1
185149,1000,4,1,0,90,1,9
185149,-20,4,1,0,90,0,1
185199,1000,4,1,0,90,1,9
185199,1000,4,1,0,90,1,9
185199,-20,4,1,0,90,0,1
185199,-20,4,1,0,90,0,1
185249,1000,4,1,0,90,1,9
185249,-20,4,1,0,90,0,1
185299,1000,4,1,0,90,1,9
185299,-20,4,1,0,90,0,1
185349,1000,4,1,0,90,1,9
185349,-20,4,1,0,90,0,1
185399,1000,4,1,0,90,1,9
185399,-20,4,1,0,90,0,1
185449,1000,4,1,0,90,1,9
185449,-20,4,1,0,90,0,1
185499,1000,4,1,0,90,1,9
185499,-20,4,1,0,90,0,1
185549,1000,4,1,0,90,1,9
185549,-20,4,1,0,90,0,1
185599,1000,4,1,0,90,1,9
185599,-20,4,1,0,90,0,1
185649,1000,4,1,0,90,1,9
185649,-20,4,1,0,90,0,1
185699,1000,4,1,0,90,1,9
185699,-20,4,1,0,90,0,1
185749,1000,4,1,0,90,1,9
185749,-20,4,1,0,90,0,1
185799,1000,4,1,0,90,1,9
185799,-12.5,4,1,0,100,0,0
185849,1000,4,1,0,90,1,9
185849,-20,4,1,0,90,0,1
185899,1000,4,1,0,90,1,9
185899,-20,4,1,0,90,0,1
185949,1000,4,1,0,90,1,9
185949,-20,4,1,0,90,0,1
185999,1000,4,1,0,90,1,9
185999,-20,4,1,0,90,0,1
186049,1000,4,1,0,90,1,9
186049,-20,4,1,0,90,0,1
186099,1000,4,1,0,90,1,9
186099,-20,4,1,0,90,0,1
186149,1000,4,1,0,90,1,9
186149,-20,4,1,0,90,0,1
186199,400,4,1,0,90,1,0
186199,-25,4,1,0,90,0,0
186265,-28.5714285714286,4,1,0,90,0,0
186332,-33.3333333333333,4,1,0,90,0,0
186399,-40,4,1,0,90,0,0
186465,-50,4,1,0,90,0,0
186599,1000,4,1,0,90,1,1
186599,-20,4,1,0,90,0,1
186649,1000,4,1,0,90,1,9
186649,-20,4,1,0,90,0,1
186699,1000,4,1,0,90,1,9
186699,-20,4,1,0,90,0,1
186749,1000,4,1,0,90,1,9
186749,-20,4,1,0,90,0,1
186799,1000,4,1,0,90,1,9
186799,-20,4,1,0,90,0,1
186849,1000,4,1,0,90,1,9
186849,-20,4,1,0,90,0,1
186899,1000,4,1,0,90,1,9
186899,-20,4,1,0,90,0,1
186949,1000,4,1,0,90,1,9
186949,-20,4,1,0,90,0,1
186999,1000,4,1,0,90,1,9
186999,-20,4,1,0,90,0,1
187049,1000,4,1,0,90,1,9
187049,-20,4,1,0,90,0,1
187099,1000,4,1,0,90,1,9
187099,-20,4,1,0,90,0,1
187149,1000,4,1,0,90,1,9
187149,-20,4,1,0,90,0,1
187199,1000,4,1,0,90,1,9
187199,-20,4,1,0,90,0,1
187249,1000,4,1,0,90,1,9
187249,-20,4,1,0,90,0,1
187299,1000,4,1,0,90,1,9
187299,-20,4,1,0,90,0,1
187349,1000,4,1,0,90,1,9
187349,-20,4,1,0,90,0,1
187399,1000,4,1,0,90,1,9
187399,-20,4,1,0,90,0,1
187449,1000,4,1,0,90,1,9
187449,-20,4,1,0,90,0,1
187499,1000,4,1,0,90,1,9
187499,-20,4,1,0,90,0,1
187549,1000,4,1,0,90,1,9
187549,-20,4,1,0,90,0,1
187599,1000,4,1,0,90,1,9
187599,-20,4,1,0,90,0,1
187649,1000,4,1,0,90,1,9
187649,-20,4,1,0,90,0,1
187699,1000,4,1,0,90,1,9
187699,-20,4,1,0,90,0,1
187749,1000,4,1,0,90,1,9
187749,-20,4,1,0,90,0,1
187799,1000,4,1,0,90,1,9
187799,1000,4,1,0,90,1,1
187799,-20,4,1,0,90,0,1
187799,-20,4,1,0,90,0,1
187849,1000,4,1,0,90,1,9
187849,1000,4,1,0,90,1,9
187849,-20,4,1,0,90,0,1
187849,-20,4,1,0,90,0,1
187899,1000,4,1,0,90,1,9
187899,1000,4,1,0,90,1,9
187899,-20,4,1,0,90,0,1
187899,-20,4,1,0,90,0,1
187949,1000,4,1,0,90,1,9
187949,1000,4,1,0,90,1,9
187949,-20,4,1,0,90,0,1
187949,-20,4,1,0,90,0,1
187999,1000,4,1,0,90,1,9
187999,1000,4,1,0,90,1,9
187999,-20,4,1,0,90,0,1
187999,-20,4,1,0,90,0,1
188049,1000,4,1,0,90,1,9
188049,1000,4,1,0,90,1,9
188049,-20,4,1,0,90,0,1
188049,-20,4,1,0,90,0,1
188099,1000,4,1,0,90,1,9
188099,1000,4,1,0,90,1,9
188099,-20,4,1,0,90,0,1
188099,-20,4,1,0,90,0,1
188149,1000,4,1,0,90,1,9
188149,1000,4,1,0,90,1,9
188149,-20,4,1,0,90,0,1
188149,-20,4,1,0,90,0,1
188199,1000,4,1,0,90,1,9
188199,-20,4,1,0,90,0,1
188249,1000,4,1,0,90,1,9
188249,-20,4,1,0,90,0,1
188299,1000,4,1,0,90,1,9
188299,-20,4,1,0,90,0,1
188349,1000,4,1,0,90,1,9
188349,-20,4,1,0,90,0,1
188399,1000,4,1,0,90,1,9
188399,-20,4,1,0,90,0,1
188449,1000,4,1,0,90,1,9
188449,-20,4,1,0,90,0,1
188499,1000,4,1,0,90,1,9
188499,-20,4,1,0,90,0,1
188549,1000,4,1,0,90,1,9
188549,-20,4,1,0,90,0,1
188599,1000,4,1,0,90,1,9
188599,-20,4,1,0,90,0,1
188649,1000,4,1,0,90,1,9
188649,-20,4,1,0,90,0,1
188699,1000,4,1,0,90,1,9
188699,-20,4,1,0,90,0,1
188749,1000,4,1,0,90,1,9
188749,-20,4,1,0,90,0,1
188799,1000,4,1,0,90,1,9
188799,-20,4,1,0,90,0,1
188849,1000,4,1,0,90,1,9
188849,-20,4,1,0,90,0,1
188899,1000,4,1,0,90,1,9
188899,-20,4,1,0,90,0,1
188949,1000,4,1,0,90,1,9
188949,-20,4,1,0,90,0,1
188999,1000,4,1,0,90,1,9
188999,-20,4,1,0,90,0,1
189010,-1,4,1,0,100,0,1
189399,1000,4,1,0,90,1,1
189399,-20,4,1,0,90,0,1
189449,1000,4,1,0,90,1,9
189449,-20,4,1,0,90,0,1
189499,1000,4,1,0,90,1,9
189499,-20,4,1,0,90,0,1
189549,1000,4,1,0,90,1,9
189549,-20,4,1,0,90,0,1
189599,1000,4,1,0,90,1,9
189599,-20,4,1,0,90,0,1
189649,1000,4,1,0,90,1,9
189649,-20,4,1,0,90,0,1
189699,1000,4,1,0,90,1,9
189699,-20,4,1,0,90,0,1
189749,1000,4,1,0,90,1,9
189749,-20,4,1,0,90,0,1
189799,1000,4,1,0,90,1,9
189799,-20,4,1,0,90,0,1
189849,1000,4,1,0,90,1,9
189849,-20,4,1,0,90,0,1
189899,1000,4,1,0,90,1,9
189899,-20,4,1,0,90,0,1
189949,1000,4,1,0,90,1,9
189949,-20,4,1,0,90,0,1
189999,1000,4,1,0,90,1,9
189999,-20,4,1,0,90,0,1
190049,1000,4,1,0,90,1,9
190049,-20,4,1,0,90,0,1
190099,1000,4,1,0,90,1,9
190099,-20,4,1,0,90,0,1
190149,1000,4,1,0,90,1,9
190149,-20,4,1,0,90,0,1
190199,1000,4,1,0,90,1,9
190199,-20,4,1,0,90,0,1
190249,1000,4,1,0,90,1,9
190249,-20,4,1,0,90,0,1
190299,1000,4,1,0,90,1,9
190299,-20,4,1,0,90,0,1
190349,1000,4,1,0,90,1,9
190349,-20,4,1,0,90,0,1
190399,1000,4,1,0,90,1,9
190399,-20,4,1,0,90,0,1
190449,1000,4,1,0,90,1,9
190449,-20,4,1,0,90,0,1
190499,1000,4,1,0,90,1,9
190499,-20,4,1,0,90,0,1
190549,1000,4,1,0,90,1,9
190549,-20,4,1,0,90,0,1
190599,1000,4,1,0,90,1,9
190599,-20,4,1,0,90,0,1
190649,1000,4,1,0,90,1,9
190649,-20,4,1,0,90,0,1
190699,1000,4,1,0,90,1,9
190699,-20,4,1,0,90,0,1
190749,1000,4,1,0,90,1,9
190749,-20,4,1,0,90,0,1
190799,1000,4,1,0,90,1,9
190799,-20,4,1,0,90,0,1
190849,1000,4,1,0,90,1,9
190849,-20,4,1,0,90,0,1
190899,1000,4,1,0,90,1,9
190899,-20,4,1,0,90,0,1
190949,1000,4,1,0,90,1,9
190949,-20,4,1,0,90,0,1
190999,400,4,1,0,90,1,8
191799,-66.6666666666667,4,1,0,90,0,0
191899,-68.9655172413793,4,1,0,90,0,0
191999,-71.4285714285714,4,1,0,90,0,0
192099,-74.0740740740741,4,1,0,90,0,0
192199,-76.9230769230769,4,1,0,90,0,0
192299,-80,4,1,0,90,0,0
192399,-83.3333333333333,4,1,0,90,0,0
192499,-86.9565217391304,4,1,0,90,0,0
192599,400,4,1,0,100,1,0
192599,-62.5,4,1,0,90,0,1
192602,-1,4,1,0,100,0,0
192627,-58.8235294117647,4,1,0,90,0,0
192699,-58.8235294117647,4,1,0,90,0,1
192702,-1,4,1,0,100,0,0
192727,-55.5555555555556,4,1,0,90,0,0
192802,-55.5555555555556,4,1,0,90,0,1
192805,-1,4,1,0,100,0,0
192830,-52.6315789473684,4,1,0,90,0,0
192902,-52.6315789473684,4,1,0,90,0,1
192905,-1,4,1,0,100,0,0
192930,-50,4,1,0,90,0,0
193002,-1,4,1,0,100,0,1
193027,-52.6315789473684,4,1,0,90,0,1
193102,-1,4,1,0,100,0,1
193127,-55.5555555555556,4,1,0,90,0,1
193205,-1,4,1,0,100,0,1
193230,-58.8235294117647,4,1,0,90,0,1
193305,-1,4,1,0,100,0,1
193330,-62.5,4,1,0,90,0,1
193402,-1,4,1,0,100,0,0
193427,-66.6666666666667,4,1,0,90,0,0
193502,-1,4,1,0,100,0,0
193527,-71.4285714285714,4,1,0,90,0,0
193605,-1,4,1,0,100,0,0
193630,-76.9230769230769,4,1,0,90,0,0
193705,-1,4,1,0,100,0,0
193730,-83.3333333333333,4,1,0,90,0,0
193802,-1,4,1,0,100,0,1
193827,-90.9090909090909,4,1,0,90,0,1
193902,-1,4,1,0,100,0,1
193927,-100,4,1,0,90,0,1
194005,-1,4,1,0,100,0,1
194030,-90.9090909090909,4,1,0,90,0,1
194105,-1,4,1,0,100,0,1
194130,-83.3333333333333,4,1,0,90,0,1
194202,-1,4,1,0,100,0,0
194227,-76.9230769230769,4,1,0,90,0,0
194302,-1,4,1,0,100,0,0
194327,-71.4285714285714,4,1,0,90,0,0
194405,-1,4,1,0,100,0,0
194430,-66.6666666666667,4,1,0,90,0,0
194505,-1,4,1,0,100,0,0
194530,-62.5,4,1,0,90,0,0
194602,-1,4,1,0,100,0,1
194627,-58.8235294117647,4,1,0,90,0,1
194702,-1,4,1,0,100,0,1
194727,-55.5555555555556,4,1,0,90,0,1
194805,-1,4,1,0,100,0,1
194830,-52.6315789473684,4,1,0,90,0,1
194905,-1,4,1,0,100,0,1
194930,-50,4,1,0,90,0,1
195002,-1,4,1,0,100,0,0
195027,-52.6315789473684,4,1,0,90,0,0
195102,-1,4,1,0,100,0,0
195127,-55.5555555555556,4,1,0,90,0,0
195205,-1,4,1,0,100,0,0
195230,-58.8235294117647,4,1,0,90,0,0
195305,-1,4,1,0,100,0,0
195330,-62.5,4,1,0,90,0,0
195402,-1,4,1,0,100,0,1
195427,-66.6666666666667,4,1,0,90,0,1
195502,-1,4,1,0,100,0,1
195527,-71.4285714285714,4,1,0,90,0,1
195605,-1,4,1,0,100,0,1
195630,-76.9230769230769,4,1,0,90,0,1
195705,-1,4,1,0,100,0,1
195730,-83.3333333333333,4,1,0,90,0,1
195802,-1,4,1,0,100,0,0
195827,-90.9090909090909,4,1,0,90,0,0
195902,-1,4,1,0,100,0,0
195927,-100,4,1,0,90,0,0
196005,-1,4,1,0,100,0,0
196030,-111.111111111111,4,1,0,90,0,0
196105,-1,4,1,0,100,0,0
196130,-125,4,1,0,90,0,0
196202,-1,4,1,0,100,0,1
196227,-111.111111111111,4,1,0,90,0,1
196302,-1,4,1,0,100,0,1
196327,-100,4,1,0,90,0,1
196405,-1,4,1,0,100,0,1
196430,-90.9090909090909,4,1,0,90,0,1
196505,-1,4,1,0,100,0,1
196530,-83.3333333333333,4,1,0,90,0,1
196602,-1,4,1,0,100,0,0
196627,-76.9230769230769,4,1,0,90,0,0
196702,-1,4,1,0,100,0,0
196727,-71.4285714285714,4,1,0,90,0,0
196805,-1,4,1,0,100,0,0
196830,-66.6666666666667,4,1,0,90,0,0
196905,-1,4,1,0,100,0,0
196930,-62.5,4,1,0,90,0,0
197002,-1,4,1,0,100,0,1
197027,-58.8235294117647,4,1,0,90,0,1
197102,-1,4,1,0,100,0,1
197127,-55.5555555555556,4,1,0,90,0,1
197205,-1,4,1,0,100,0,1
197230,-52.6315789473684,4,1,0,90,0,1
197305,-1,4,1,0,100,0,1
197330,-50,4,1,0,90,0,1
197402,-1,4,1,0,100,0,0
197427,-47.6190476190476,4,1,0,90,0,0
197502,-1,4,1,0,100,0,0
197527,-45.4545454545455,4,1,0,90,0,0
197605,-1,4,1,0,100,0,0
197630,-47.6190476190476,4,1,0,90,0,0
197705,-1,4,1,0,100,0,0
197730,-50,4,1,0,90,0,0
197802,-1,4,1,0,100,0,1
197827,-52.6315789473684,4,1,0,90,0,1
197902,-1,4,1,0,100,0,1
197927,-55.5555555555556,4,1,0,90,0,1
198005,-1,4,1,0,100,0,1
198030,-58.8235294117647,4,1,0,90,0,1
198105,-1,4,1,0,100,0,1
198130,-62.5,4,1,0,90,0,1
198202,-1,4,1,0,100,0,0
198227,-66.6666666666667,4,1,0,90,0,0
198302,-1,4,1,0,100,0,0
198327,-71.4285714285714,4,1,0,90,0,0
198405,-1,4,1,0,100,0,0
198430,-76.9230769230769,4,1,0,90,0,0
198505,-1,4,1,0,100,0,0
198530,-83.3333333333333,4,1,0,90,0,0
198602,-1,4,1,0,100,0,1
198627,-76.9230769230769,4,1,0,90,0,1
198702,-1,4,1,0,100,0,1
198727,-71.4285714285714,4,1,0,90,0,1
198805,-1,4,1,0,100,0,1
198830,-66.6666666666667,4,1,0,90,0,1
198905,-1,4,1,0,100,0,1
198930,-66.6666666666667,4,1,0,90,0,1
198998,1600,4,1,0,60,1,9
198998,-16.6666666666667,4,1,0,100,0,1
199001,200,4,1,0,60,1,9
199001,-1,4,1,0,100,0,0
199011,1600,4,1,0,60,1,9
199011,-16.6666666666667,4,1,0,100,0,1
199048,1600,4,1,0,60,1,9
199048,-16.6666666666667,4,1,0,100,0,1
199098,1600,4,1,0,60,1,9
199098,-14.7058823529412,4,1,0,100,0,1
199101,200,4,1,0,60,1,9
199101,-1,4,1,0,100,0,0
199101,-1,4,1,0,100,0,0
199111,1600,4,1,0,60,1,9
199111,-16.6666666666667,4,1,0,100,0,1
199148,1600,4,1,0,60,1,9
199148,-14.7058823529412,4,1,0,100,0,1
199198,1600,4,1,0,60,1,9
199198,-13.5135135135135,4,1,0,100,0,1
199201,200,4,1,0,60,1,9
199201,-1,4,1,0,100,0,0
199204,-1,4,1,0,100,0,1
199211,1600,4,1,0,60,1,9
199211,-16.6666666666667,4,1,0,100,0,1
199248,1600,4,1,0,60,1,9
199249,-13.5135135135135,4,1,0,100,0,1
199299,1600,4,1,0,60,1,9
199299,-12.8205128205128,4,1,0,100,0,1
199302,200,4,1,0,60,1,9
199302,-1,4,1,0,100,0,1
199305,-1,4,1,0,100,0,1
199312,1600,4,1,0,60,1,9
199312,-16.6666666666667,4,1,0,100,0,1
199349,1600,4,1,0,60,1,9
199349,-12.8205128205128,4,1,0,100,0,1
199399,1600,4,1,0,60,1,9
199399,-12.5,4,1,0,100,0,1
199402,200,4,1,0,60,1,9
199402,-1,4,1,0,100,0,1
199412,1600,4,1,0,60,1,9
199412,-16.6666666666667,4,1,0,100,0,1
199449,1600,4,1,0,60,1,9
199449,-12.5,4,1,0,100,0,1
199499,1600,4,1,0,60,1,9
199499,-12.8205128205128,4,1,0,100,0,1
199502,200,4,1,0,60,1,9
199502,-1,4,1,0,100,0,1
199502,-1,4,1,0,100,0,1
199512,1600,4,1,0,60,1,9
199512,-16.6666666666667,4,1,0,100,0,1
199549,1600,4,1,0,60,1,9
199549,-12.8205128205128,4,1,0,100,0,1
199599,1600,4,1,0,60,1,9
199599,-13.5135135135135,4,1,0,100,0,1
199602,200,4,1,0,60,1,9
199602,-1,4,1,0,100,0,1
199605,-1,4,1,0,100,0,1
199612,1600,4,1,0,60,1,9
199612,-16.6666666666667,4,1,0,100,0,1
199649,1600,4,1,0,60,1,9
199649,-13.5135135135135,4,1,0,100,0,1
199699,1600,4,1,0,60,1,9
199699,-14.7058823529412,4,1,0,100,0,1
199702,200,4,1,0,60,1,9
199702,-1,4,1,0,100,0,1
199705,-1,4,1,0,100,0,1
199712,1600,4,1,0,60,1,9
199712,-16.6666666666667,4,1,0,100,0,1
199749,1600,4,1,0,60,1,9
199749,-14.7058823529412,4,1,0,100,0,1
199799,1600,4,1,0,60,1,9
199799,-16.6666666666667,4,1,0,100,0,1
199802,200,4,1,0,60,1,9
199802,-1,4,1,0,100,0,1
199802,-1,4,1,0,100,0,1
199812,1600,4,1,0,60,1,9
199812,-16.6666666666667,4,1,0,100,0,1
199849,1600,4,1,0,60,1,9
199849,-16.6666666666667,4,1,0,100,0,1
199899,1600,4,1,0,60,1,9
199899,-19.2307692307692,4,1,0,100,0,1
199902,200,4,1,0,60,1,9
199902,-1,4,1,0,100,0,1
199902,-1,4,1,0,100,0,1
199912,1600,4,1,0,60,1,9
199912,-16.6666666666667,4,1,0,100,0,1
199949,1600,4,1,0,60,1,9
199949,-19.2307692307692,4,1,0,100,0,1
199999,1600,4,1,0,60,1,9
199999,-21.7391304347826,4,1,0,100,0,1
200001,200,4,1,0,60,1,9
200001,-1,4,1,0,100,0,1
200012,1600,4,1,0,60,1,9
200012,-16.6666666666667,4,1,0,100,0,1
200049,1600,4,1,0,60,1,9
200049,-21.7391304347826,4,1,0,100,0,1
200099,1600,4,1,0,60,1,9
200099,-23.8095238095238,4,1,0,100,0,1
200102,200,4,1,0,60,1,9
200102,-1,4,1,0,100,0,1
200105,-1,4,1,0,100,0,1
200112,1600,4,1,0,60,1,9
200112,-16.6666666666667,4,1,0,100,0,1
200149,1600,4,1,0,60,1,9
200149,-23.8095238095238,4,1,0,100,0,1
200199,1600,4,1,0,60,1,9
200199,-25,4,1,0,100,0,1
200202,200,4,1,0,60,1,9
200202,-1,4,1,0,100,0,1
200202,-1,4,1,0,100,0,1
200212,1600,4,1,0,60,1,9
200212,-16.6666666666667,4,1,0,100,0,1
200249,1600,4,1,0,60,1,9
200249,-25,4,1,0,100,0,1
200299,1600,4,1,0,60,1,9
200299,-23.8095238095238,4,1,0,100,0,1
200302,200,4,1,0,60,1,9
200302,-1,4,1,0,100,0,1
200302,-1,4,1,0,100,0,1
200312,1600,4,1,0,60,1,9
200312,-16.6666666666667,4,1,0,100,0,1
200349,1600,4,1,0,60,1,9
200349,-23.8095238095238,4,1,0,100,0,1
200399,1600,4,1,0,60,1,9
200399,-21.7391304347826,4,1,0,100,0,1
200402,200,4,1,0,60,1,9
200402,-1,4,1,0,100,0,1
200405,-1,4,1,0,100,0,1
200412,1600,4,1,0,60,1,9
200412,-16.6666666666667,4,1,0,100,0,1
200449,1600,4,1,0,60,1,9
200449,-21.7391304347826,4,1,0,100,0,1
200499,1600,4,1,0,60,1,9
200499,-19.2307692307692,4,1,0,100,0,1
200502,200,4,1,0,60,1,9
200502,-1,4,1,0,100,0,1
200505,-1,4,1,0,100,0,1
200512,1600,4,1,0,60,1,9
200512,-16.6666666666667,4,1,0,100,0,1
200549,1600,4,1,0,60,1,9
200549,-19.2307692307692,4,1,0,100,0,1
200599,1600,4,1,0,60,1,9
200599,-16.6666666666667,4,1,0,100,0,1
200602,200,4,1,0,60,1,9
200602,-1,4,1,0,100,0,1
200612,1600,4,1,0,60,1,9
200612,-16.6666666666667,4,1,0,100,0,1
200649,1600,4,1,0,60,1,9
200649,-16.6666666666667,4,1,0,100,0,1
200699,1600,4,1,0,60,1,9
200699,-14.7058823529412,4,1,0,100,0,1
200702,200,4,1,0,60,1,9
200702,-1,4,1,0,100,0,1
200702,-1,4,1,0,100,0,1
200712,1600,4,1,0,60,1,9
200712,-16.6666666666667,4,1,0,100,0,1
200749,1600,4,1,0,60,1,9
200749,-14.7058823529412,4,1,0,100,0,1
200799,1600,4,1,0,60,1,9
200799,-13.5135135135135,4,1,0,100,0,1
200802,200,4,1,0,60,1,9
200802,-1,4,1,0,100,0,1
200805,-1,4,1,0,100,0,1
200812,1600,4,1,0,60,1,9
200812,-16.6666666666667,4,1,0,100,0,1
200849,1600,4,1,0,60,1,9
200849,-13.5135135135135,4,1,0,100,0,1
200899,1600,4,1,0,60,1,9
200899,-12.8205128205128,4,1,0,100,0,1
200902,200,4,1,0,60,1,9
200902,-1,4,1,0,100,0,1
200905,-1,4,1,0,100,0,1
200912,1600,4,1,0,60,1,9
200912,-16.6666666666667,4,1,0,100,0,1
200949,1600,4,1,0,60,1,9
200949,-12.8205128205128,4,1,0,100,0,1
200999,1600,4,1,0,60,1,9
200999,-12.5,4,1,0,100,0,1
201002,200,4,1,0,60,1,9
201002,-1,4,1,0,100,0,1
201012,1600,4,1,0,60,1,9
201012,-16.6666666666667,4,1,0,100,0,1
201049,1600,4,1,0,60,1,9
201049,-12.5,4,1,0,100,0,1
201099,1600,4,1,0,60,1,9
201099,-12.8205128205128,4,1,0,100,0,1
201102,200,4,1,0,60,1,9
201102,-1,4,1,0,100,0,1
201102,-1,4,1,0,100,0,1
201112,1600,4,1,0,60,1,9
201112,-16.6666666666667,4,1,0,100,0,1
201149,1600,4,1,0,60,1,9
201149,-12.8205128205128,4,1,0,100,0,1
201199,1600,4,1,0,60,1,9
201199,-13.5135135135135,4,1,0,100,0,1
201202,200,4,1,0,60,1,9
201202,-1,4,1,0,100,0,1
201205,-1,4,1,0,100,0,1
201212,1600,4,1,0,60,1,9
201212,-16.6666666666667,4,1,0,100,0,1
201249,1600,4,1,0,60,1,9
201249,-13.5135135135135,4,1,0,100,0,1
201299,1600,4,1,0,60,1,9
201299,-14.7058823529412,4,1,0,100,0,1
201302,200,4,1,0,60,1,9
201302,-1,4,1,0,100,0,1
201305,-1,4,1,0,100,0,1
201312,1600,4,1,0,60,1,9
201312,-16.6666666666667,4,1,0,100,0,1
201349,1600,4,1,0,60,1,9
201349,-14.7058823529412,4,1,0,100,0,1
201399,1600,4,1,0,60,1,9
201399,-16.6666666666667,4,1,0,100,0,1
201402,200,4,1,0,60,1,9
201402,-1,4,1,0,100,0,1
201402,-1,4,1,0,100,0,1
201412,1600,4,1,0,60,1,9
201412,-16.6666666666667,4,1,0,100,0,1
201449,1600,4,1,0,60,1,9
201449,-16.6666666666667,4,1,0,100,0,1
201499,1600,4,1,0,60,1,9
201499,-19.2307692307692,4,1,0,100,0,1
201502,200,4,1,0,60,1,9
201502,-1,4,1,0,100,0,1
201502,-1,4,1,0,100,0,1
201512,1600,4,1,0,60,1,9
201512,-16.6666666666667,4,1,0,100,0,1
201549,1600,4,1,0,60,1,9
201549,-19.2307692307692,4,1,0,100,0,1
201599,1600,4,1,0,60,1,9
201599,-21.7391304347826,4,1,0,100,0,1
201601,200,4,1,0,60,1,9
201601,-1,4,1,0,100,0,1
201612,1600,4,1,0,60,1,9
201612,-16.6666666666667,4,1,0,100,0,1
201649,1600,4,1,0,60,1,9
201649,-21.7391304347826,4,1,0,100,0,1
201699,1600,4,1,0,60,1,9
201699,-23.8095238095238,4,1,0,100,0,1
201702,200,4,1,0,60,1,9
201702,-1,4,1,0,100,0,1
201705,-1,4,1,0,100,0,1
201712,1600,4,1,0,60,1,9
201712,-16.6666666666667,4,1,0,100,0,1
201749,1600,4,1,0,60,1,9
201749,-23.8095238095238,4,1,0,100,0,1
201799,1600,4,1,0,60,1,9
201799,-25,4,1,0,100,0,1
201802,200,4,1,0,60,1,9
201802,-1,4,1,0,100,0,1
201802,-1,4,1,0,100,0,1
201812,1600,4,1,0,60,1,9
201812,-16.6666666666667,4,1,0,100,0,1
201849,1600,4,1,0,60,1,9
201849,-25,4,1,0,100,0,1
201899,1600,4,1,0,60,1,9
201899,-23.8095238095238,4,1,0,100,0,1
201902,200,4,1,0,60,1,9
201902,-1,4,1,0,100,0,1
201902,-1,4,1,0,100,0,1
201912,1600,4,1,0,60,1,9
201912,-16.6666666666667,4,1,0,100,0,1
201949,1600,4,1,0,60,1,9
201949,-23.8095238095238,4,1,0,100,0,1
201999,1600,4,1,0,60,1,9
201999,-21.7391304347826,4,1,0,100,0,1
202002,200,4,1,0,60,1,9
202002,-1,4,1,0,100,0,1
202005,-1,4,1,0,100,0,1
202012,1600,4,1,0,60,1,9
202012,-16.6666666666667,4,1,0,100,0,1
202049,1600,4,1,0,60,1,9
202049,-21.7391304347826,4,1,0,100,0,1
202099,1600,4,1,0,60,1,9
202099,-19.2307692307692,4,1,0,100,0,1
202102,200,4,1,0,60,1,9
202102,-1,4,1,0,100,0,1
202105,-1,4,1,0,100,0,1
202112,1600,4,1,0,60,1,9
202112,-16.6666666666667,4,1,0,100,0,1
202149,1600,4,1,0,60,1,9
202149,-19.2307692307692,4,1,0,100,0,1
202199,1600,4,1,0,60,1,9
202199,-16.6666666666667,4,1,0,100,0,1
202202,200,4,1,0,60,1,9
202202,-1,4,1,0,100,0,1
202202,-1,4,1,0,100,0,1
202212,1600,4,1,0,60,1,9
202212,-16.6666666666667,4,1,0,100,0,1
202249,1600,4,1,0,60,1,9
202249,-16.6666666666667,4,1,0,100,0,1
202299,1600,4,1,0,60,1,9
202299,-14.7058823529412,4,1,0,100,0,1
202302,200,4,1,0,60,1,9
202302,-1,4,1,0,100,0,1
202302,-1,4,1,0,100,0,1
202302,-1,4,1,0,100,0,1
202312,1600,4,1,0,60,1,9
202312,-16.6666666666667,4,1,0,100,0,1
202349,1600,4,1,0,60,1,9
202349,-14.7058823529412,4,1,0,100,0,1
202399,1600,4,1,0,60,1,9
202399,-13.5135135135135,4,1,0,100,0,1
202402,200,4,1,0,60,1,9
202402,-1,4,1,0,100,0,1
202405,-1,4,1,0,100,0,1
202412,1600,4,1,0,60,1,9
202412,-16.6666666666667,4,1,0,100,0,1
202449,1600,4,1,0,60,1,9
202449,-13.5135135135135,4,1,0,100,0,1
202499,1600,4,1,0,60,1,9
202499,-12.8205128205128,4,1,0,100,0,1
202502,200,4,1,0,60,1,9
202502,-1,4,1,0,100,0,1
202505,-1,4,1,0,100,0,1
202512,1600,4,1,0,60,1,9
202512,-16.6666666666667,4,1,0,100,0,1
202549,1600,4,1,0,60,1,9
202549,-12.8205128205128,4,1,0,100,0,1
202599,1600,4,1,0,60,1,9
202599,-12.5,4,1,0,100,0,1
202602,200,4,1,0,60,1,9
202602,-1,4,1,0,100,0,1
202612,1600,4,1,0,60,1,9
202612,-16.6666666666667,4,1,0,100,0,1
202649,1600,4,1,0,60,1,9
202649,-12.5,4,1,0,100,0,1
202699,1600,4,1,0,60,1,9
202699,-12.8205128205128,4,1,0,100,0,1
202702,200,4,1,0,60,1,9
202702,-1,4,1,0,100,0,1
202702,-1,4,1,0,100,0,1
202712,1600,4,1,0,60,1,9
202712,-16.6666666666667,4,1,0,100,0,1
202749,1600,4,1,0,60,1,9
202749,-12.8205128205128,4,1,0,100,0,1
202799,1600,4,1,0,60,1,9
202799,-13.5135135135135,4,1,0,100,0,1
202802,200,4,1,0,60,1,9
202802,-1,4,1,0,100,0,1
202805,-1,4,1,0,100,0,1
202812,1600,4,1,0,60,1,9
202812,-16.6666666666667,4,1,0,100,0,1
202849,1600,4,1,0,60,1,9
202849,-13.5135135135135,4,1,0,100,0,1
202899,1600,4,1,0,60,1,9
202899,-14.7058823529412,4,1,0,100,0,1
202902,200,4,1,0,60,1,9
202902,-1,4,1,0,100,0,1
202905,-1,4,1,0,100,0,1
202912,1600,4,1,0,60,1,9
202912,-16.6666666666667,4,1,0,100,0,1
202949,1600,4,1,0,60,1,9
202949,-14.7058823529412,4,1,0,100,0,1
202999,1600,4,1,0,60,1,9
202999,-16.6666666666667,4,1,0,100,0,1
203002,200,4,1,0,60,1,9
203002,-1,4,1,0,100,0,1
203002,-1,4,1,0,100,0,1
203012,1600,4,1,0,60,1,9
203012,-16.6666666666667,4,1,0,100,0,1
203049,1600,4,1,0,60,1,9
203049,-16.6666666666667,4,1,0,100,0,1
203099,1600,4,1,0,60,1,9
203099,-19.2307692307692,4,1,0,100,0,1
203102,200,4,1,0,60,1,9
203102,-1,4,1,0,100,0,1
203102,-1,4,1,0,100,0,1
203112,1600,4,1,0,60,1,9
203112,-16.6666666666667,4,1,0,100,0,1
203149,1600,4,1,0,60,1,9
203149,-19.2307692307692,4,1,0,100,0,1
203199,1600,4,1,0,60,1,9
203199,-21.7391304347826,4,1,0,100,0,1
203201,200,4,1,0,60,1,9
203201,-1,4,1,0,100,0,1
203212,1600,4,1,0,60,1,9
203212,-16.6666666666667,4,1,0,100,0,1
203249,1600,4,1,0,60,1,9
203249,-21.7391304347826,4,1,0,100,0,1
203299,1600,4,1,0,60,1,9
203299,-23.8095238095238,4,1,0,100,0,1
203302,200,4,1,0,60,1,9
203302,-1,4,1,0,100,0,1
203305,-1,4,1,0,100,0,1
203312,1600,4,1,0,60,1,9
203312,-16.6666666666667,4,1,0,100,0,1
203349,1600,4,1,0,60,1,9
203349,-23.8095238095238,4,1,0,100,0,1
203399,1600,4,1,0,60,1,9
203399,-25,4,1,0,100,0,1
203402,200,4,1,0,60,1,9
203402,-1,4,1,0,100,0,1
203402,-1,4,1,0,100,0,1
203412,1600,4,1,0,60,1,9
203412,-16.6666666666667,4,1,0,100,0,1
203449,1600,4,1,0,60,1,9
203449,-25,4,1,0,100,0,1
203499,1600,4,1,0,60,1,9
203499,-23.8095238095238,4,1,0,100,0,1
203502,200,4,1,0,60,1,9
203502,-1,4,1,0,100,0,1
203502,-1,4,1,0,100,0,1
203512,1600,4,1,0,60,1,9
203512,-16.6666666666667,4,1,0,100,0,1
203549,1600,4,1,0,60,1,9
203549,-23.8095238095238,4,1,0,100,0,1
203599,1600,4,1,0,60,1,9
203599,-21.7391304347826,4,1,0,100,0,1
203602,200,4,1,0,60,1,9
203602,-1,4,1,0,100,0,1
203605,-1,4,1,0,100,0,1
203612,1600,4,1,0,60,1,9
203612,-16.6666666666667,4,1,0,100,0,1
203649,1600,4,1,0,60,1,9
203649,-21.7391304347826,4,1,0,100,0,1
203699,1600,4,1,0,60,1,9
203699,-19.2307692307692,4,1,0,100,0,1
203702,200,4,1,0,60,1,9
203702,-1,4,1,0,100,0,1
203705,-1,4,1,0,100,0,1
203712,1600,4,1,0,60,1,9
203712,-16.6666666666667,4,1,0,100,0,1
203749,1600,4,1,0,60,1,9
203749,-19.2307692307692,4,1,0,100,0,1
203799,400,4,1,0,90,1,1
203799,-66.6666666666667,4,1,0,100,0,0
203824,0.123238640495707,4,1,0,100,1,0
203824,-99999999999,4,1,0,100,0,0
204199,400,4,1,0,100,1,9
204199,-57.1428571428571,4,1,0,90,0,0
204224,0.203238640495707,4,1,0,100,1,0
204224,-99999999999,4,1,0,100,0,0
204599,400,4,1,0,100,1,9
204599,-50,4,1,0,100,0,1
204624,0.273238640495707,4,1,0,100,1,0
204624,-99999999999,4,1,0,100,0,0
204999,400,4,1,0,100,1,8
205024,0.313238640495707,4,1,0,100,1,0
205024,-99999999999,4,1,0,100,0,0
205099,400,4,1,0,100,1,8
205124,0.103238640495707,4,1,0,100,1,0
205124,-99999999999,4,1,0,100,0,0
205199,400,4,1,0,100,1,8
205224,0.153238640495707,4,1,0,100,1,0
205224,-99999999999,4,1,0,100,0,0
205299,400,4,1,0,100,1,8
205324,0.0632386404957066,4,1,0,100,1,0
205324,-99999999999,4,1,0,100,0,0
205400,100,4,1,0,100,1,1
205400,-200,4,1,0,100,0,1
205416,-25,4,1,0,100,0,1
205600,-200,4,1,0,100,0,1
205816,-25,4,1,0,100,0,1
206000,-200,4,1,0,100,0,1
206216,-25,4,1,0,100,0,1
206400,-200,4,1,0,100,0,1
206616,-25,4,1,0,100,0,1
206800,-200,4,1,0,100,0,1
207016,-25,4,1,0,100,0,1
207200,-200,4,1,0,100,0,1
207416,-25,4,1,0,100,0,1
207600,-200,4,1,0,100,0,1
207816,-25,4,1,0,100,0,1
208000,-200,4,1,0,100,0,1
208216,-25,4,1,0,100,0,1
208400,-200,4,1,0,100,0,1
208616,-25,4,1,0,100,0,1
208800,-200,4,1,0,100,0,1
209216,-25,4,1,0,100,0,1
209400,-200,4,1,0,100,0,1
209416,-25,4,1,0,100,0,1
209600,-200,4,1,0,100,0,1
210016,-25,4,1,0,100,0,1
210200,-200,4,1,0,100,0,1
210216,-25,4,1,0,100,0,1
210400,-200,4,1,0,100,0,1
211199,-100,4,1,0,100,0,1
211499,-66.6666666666667,4,1,0,100,0,1
211799,-50,4,1,0,100,0,1
211899,-25,4,1,0,100,0,0
212199,50,4,1,0,100,1,1
212199,-500,4,1,0,100,0,1
212199,-500,4,1,0,100,0,1
212224,-1,4,1,0,100,0,1
212249,-1,4,1,0,100,0,1
212399,-500,4,1,0,100,0,1
212424,-1,4,1,0,100,0,1
212449,-1,4,1,0,100,0,1
212599,-500,4,1,0,100,0,1
212624,-1,4,1,0,100,0,1
212649,-1,4,1,0,100,0,1
212699,-500,4,1,0,100,0,1
212724,-1,4,1,0,100,0,1
212799,-500,4,1,0,100,0,1
212824,-1,4,1,0,100,0,1
212849,-1,4,1,0,100,0,1
212899,-500,4,1,0,100,0,1
212924,-1,4,1,0,100,0,1
212949,-1,4,1,0,100,0,1
212999,-500,4,1,0,100,0,1
213024,-1,4,1,0,100,0,1
213049,-1,4,1,0,100,0,1
213099,-500,4,1,0,100,0,1
213124,-1,4,1,0,100,0,1
213149,-1,4,1,0,100,0,1
213199,-500,4,1,0,100,0,1
213224,-1,4,1,0,100,0,1
213249,-1,4,1,0,100,0,1
213299,-500,4,1,0,100,0,1
213324,-1,4,1,0,100,0,1
213349,-1,4,1,0,100,0,1
213399,-500,4,1,0,100,0,1
213424,-1,4,1,0,100,0,1
213449,-1,4,1,0,100,0,1
213499,-500,4,1,0,100,0,1
213524,-1,4,1,0,100,0,1
213549,-1,4,1,0,100,0,1
213599,-500,4,1,0,100,0,1
213624,-1,4,1,0,100,0,1
213649,-1,4,1,0,100,0,1
213699,-500,4,1,0,100,0,1
213724,-1,4,1,0,100,0,1
213749,-1,4,1,0,100,0,1
213799,-500,4,1,0,100,0,1
213824,-1,4,1,0,100,0,1
213849,-1,4,1,0,100,0,1
213899,-500,4,1,0,100,0,1
213924,-1,4,1,0,100,0,1
213949,-1,4,1,0,100,0,1
213999,-500,4,1,0,100,0,1
214024,-1,4,1,0,100,0,1
214049,-1,4,1,0,100,0,1
214099,-500,4,1,0,100,0,1
214124,-1,4,1,0,100,0,1
214149,-1,4,1,0,100,0,1
214199,-400,4,1,0,100,0,0
214399,-250,4,1,0,100,0,1
214599,-100,4,1,0,100,0,0
214999,100,4,1,0,100,1,1
214999,-333.333333333333,4,1,0,100,0,1
218200,500,4,1,0,85,1,0
218200,-66.6666666666667,4,1,0,85,0,0
218231,-66.6666666666667,4,1,0,85,0,0
218324,-1000,4,1,0,85,0,0
218731,-1000,4,1,0,85,0,0
222200,500,4,1,0,85,1,0
222231,-1000,4,1,0,85,0,0
224200,500,4,1,0,85,1,0
224231,-1000,4,1,0,85,0,0
226200,500,4,1,0,85,1,1
226200,-133.333333333333,4,1,0,85,0,1
226231,-50,4,1,0,85,0,0
226700,-100,4,1,0,85,0,0
226731,-500,4,1,0,85,0,0
226866,-100,4,1,0,85,0,0
226887,-500,4,1,0,85,0,0
227033,-100,4,1,0,85,0,0
227043,-500,4,1,0,85,0,0
227200,-100,4,1,0,85,0,0
227231,-500,4,1,0,85,0,0
227366,-100,4,1,0,85,0,0
227387,-500,4,1,0,85,0,0
227533,-100,4,1,0,85,0,0
227543,-500,4,1,0,85,0,0
227700,-100,4,1,0,85,0,0
227731,-500,4,1,0,85,0,0
228200,500,4,1,0,85,1,1
228200,-133.333333333333,4,1,0,85,0,1
228231,-50,4,1,0,85,0,0
228700,-100,4,1,0,85,0,0
228731,-333.333333333333,4,1,0,85,0,0
228866,-100,4,1,0,85,0,0
228887,-333.333333333333,4,1,0,85,0,0
229033,-100,4,1,0,85,0,0
229043,-333.333333333333,4,1,0,85,0,0
229200,-100,4,1,0,85,0,0
229231,-333.333333333333,4,1,0,85,0,0
229366,-100,4,1,0,85,0,0
229387,-333.333333333333,4,1,0,85,0,0
229533,-100,4,1,0,85,0,0
229543,-333.333333333333,4,1,0,85,0,0
229700,-100,4,1,0,85,0,0
229731,-333.333333333333,4,1,0,85,0,0
230200,500,4,1,0,85,1,1
230200,-133.333333333333,4,1,0,85,0,1
230231,-50,4,1,0,85,0,0
230700,-100,4,1,0,85,0,0
230731,-250,4,1,0,85,0,0
230866,-100,4,1,0,85,0,0
230887,-250,4,1,0,85,0,0
231033,-100,4,1,0,85,0,0
231043,-250,4,1,0,85,0,0
231200,-100,4,1,0,85,0,0
231231,-250,4,1,0,85,0,0
231366,-100,4,1,0,85,0,0
231387,-250,4,1,0,85,0,0
231533,-100,4,1,0,85,0,0
231543,-250,4,1,0,85,0,0
231700,-100,4,1,0,85,0,0
231731,-250,4,1,0,85,0,0
232200,500,4,1,0,85,1,1
232200,-133.333333333333,4,1,0,85,0,1
232231,-50,4,1,0,85,0,0
232700,-100,4,1,0,85,0,0
232731,-200,4,1,0,85,0,0
232866,-100,4,1,0,85,0,0
232887,-200,4,1,0,85,0,0
233033,-100,4,1,0,85,0,0
233043,-200,4,1,0,85,0,0
233200,-100,4,1,0,85,0,0
233231,-200,4,1,0,85,0,0
233366,-100,4,1,0,85,0,0
233387,-200,4,1,0,85,0,0
233533,-100,4,1,0,85,0,0
233543,-200,4,1,0,85,0,0
233700,-100,4,1,0,85,0,0
233731,-200,4,1,0,85,0,0
234200,500,4,1,0,85,1,1
234200,-133.333333333333,4,1,0,85,0,1
234231,-50,4,1,0,85,0,0
234698,-100,4,1,0,85,0,0
234729,-133.333333333333,4,1,0,85,0,0
234865,-95.2380952380952,4,1,0,85,0,0
234885,-133.333333333333,4,1,0,85,0,0
235032,-90.9090909090909,4,1,0,85,0,0
235041,-133.333333333333,4,1,0,85,0,0
235198,-86.9565217391304,4,1,0,85,0,0
235229,-133.333333333333,4,1,0,85,0,0
235365,-83.3333333333333,4,1,0,85,0,0
235385,-133.333333333333,4,1,0,85,0,0
235532,-80,4,1,0,85,0,0
235541,-133.333333333333,4,1,0,85,0,0
235698,-76.9230769230769,4,1,0,85,0,0
235729,-133.333333333333,4,1,0,85,0,0
235865,-74.0740740740741,4,1,0,85,0,0
235885,-133.333333333333,4,1,0,85,0,0
236032,-71.4285714285714,4,1,0,85,0,0
236041,-133.333333333333,4,1,0,85,0,0
236198,-68.9655172413793,4,1,0,85,0,0
236229,-125,4,1,0,85,0,0
236365,-66.6666666666667,4,1,0,85,0,0
236385,-125,4,1,0,85,0,0
236532,-64.5161290322581,4,1,0,85,0,0
236541,-125,4,1,0,85,0,0
236698,-62.5,4,1,0,85,0,0
236729,-125,4,1,0,85,0,0
236865,-60.6060606060606,4,1,0,85,0,0
236885,-111.111111111111,4,1,0,85,0,0
237032,-58.8235294117647,4,1,0,85,0,0
237041,-111.111111111111,4,1,0,85,0,0
237198,-57.1428571428571,4,1,0,85,0,0
237229,-111.111111111111,4,1,0,85,0,0
237365,-55.5555555555556,4,1,0,85,0,0
237385,-111.111111111111,4,1,0,85,0,0
237532,-54.054054054054,4,1,0,85,0,0
237541,-100,4,1,0,85,0,0
237698,-52.6315789473684,4,1,0,85,0,0
237729,-100,4,1,0,85,0,0
237865,-52.49343832021,4,1,0,85,0,0
237885,-100,4,1,0,85,0,0
238032,-50,4,1,0,85,0,0
238041,-100,4,1,0,85,0,0
238198,-40,4,1,0,85,0,0
238229,-1000,4,1,0,85,0,0
238365,-66.6666666666667,4,1,0,85,0,0
238385,-500,4,1,0,85,0,0
238448,-62.5,4,1,0,85,0,0
238479,-333.333333333333,4,1,0,85,0,0
238614,-62.5,4,1,0,85,0,0
238635,-250,4,1,0,85,0,0
238698,-58.8235294117647,4,1,0,85,0,0
238729,-200,4,1,0,85,0,0
238864,-58.8235294117647,4,1,0,85,0,0
238885,-133.333333333333,4,1,0,85,0,0
238948,-55.5555555555556,4,1,0,85,0,0
238979,-111.111111111111,4,1,0,85,0,0
239114,-55.5555555555556,4,1,0,85,0,0
239135,-90.9090909090909,4,1,0,85,0,0
239198,-52.6315789473684,4,1,0,85,0,0
239229,-76.9230769230769,4,1,0,85,0,0
239364,-52.6315789473684,4,1,0,85,0,0
239385,-66.6666666666667,4,1,0,85,0,0
239448,-50,4,1,0,85,0,0
239479,-55.5555555555556,4,1,0,85,0,0
239614,-50,4,1,0,85,0,0
239635,-50,4,1,0,85,0,0
239698,-47.6190476190476,4,1,0,85,0,0
239729,-40,4,1,0,85,0,0
239864,-47.6190476190476,4,1,0,85,0,0
239885,-33.3333333333333,4,1,0,85,0,0
239948,-45.4545454545455,4,1,0,85,0,0
239979,-28.5714285714286,4,1,0,85,0,0
240114,-43.4782608695652,4,1,0,85,0,0
240135,-25,4,1,0,85,0,0
240198,-41.6666666666667,4,1,0,85,0,0
240229,-25,4,1,0,85,0,0
240281,-40,4,1,0,85,0,0
240291,-25,4,1,0,85,0,0
240364,-38.4615384615385,4,1,0,85,0,0
240385,-25,4,1,0,85,0,0
240448,-37.037037037037,4,1,0,85,0,0
240479,-25,4,1,0,85,0,0
240531,-35.7142857142857,4,1,0,85,0,0
240541,-25,4,1,0,85,0,0
240614,-34.4827586206897,4,1,0,85,0,0
240635,-25,4,1,0,85,0,0
240698,-33.3333333333333,4,1,0,85,0,0
240729,-25,4,1,0,85,0,0
240781,-31.25,4,1,0,85,0,0
240791,-25,4,1,0,85,0,0
240864,-29.4117647058824,4,1,0,85,0,0
240885,-25,4,1,0,85,0,0
240948,-27.7777777777778,4,1,0,85,0,1
240979,-25,4,1,0,85,0,1
241031,-26.3157894736842,4,1,0,85,0,1
241041,-25,4,1,0,85,0,1
241114,-25,4,1,0,85,0,1
241135,-25,4,1,0,85,0,1
241200,250,4,1,0,85,1,1
241200,-33.3333333333333,4,1,0,85,0,1
241201,250,4,1,0,85,1,1
241201,-25,4,1,0,85,0,1
241215,-25,4,1,0,85,0,0
241700,-100,4,1,0,85,0,0
242200,500,4,1,0,85,1,1
242200,-66.6666666666667,4,1,0,85,0,1
242241,0.0632386404957066,4,1,0,100,1,0
242241,-9999,4,1,0,100,0,0
242283,-25,4,1,0,85,0,1
242284,500,4,1,0,100,1,0
242284,-9999,4,1,0,100,0,0
242325,-25,4,1,0,100,0,0
242700,500,4,1,0,85,1,1
242700,-83.3333333333333,4,1,0,85,0,1
243200,480,4,1,0,90,1,1
243230,0.153238640495707,4,1,0,100,1,0
243230,-9999,4,1,0,100,0,0
243360,480,4,1,0,90,1,1
243360,-80,4,1,0,90,0,1
243520,0.0632386404957066,4,1,0,100,1,0
243520,-9999,4,1,0,100,0,0
243600,480,4,1,0,90,1,1
243760,0.0632386404957066,4,1,0,100,1,0
243760,-9999,4,1,0,100,0,0
243840,480,4,1,0,90,1,1
244000,-79.3650793650794,4,1,0,90,0,1
244084,-78.125,4,1,0,90,0,1
244161,461.538461538462,4,1,0,90,1,1
244161,-76.9230769230769,4,1,0,85,0,1
244198,0.0632386404957066,4,1,0,100,1,0
244198,-9999,4,1,0,100,0,0
244237,461.538461538462,4,1,0,85,1,1
244237,-9999,4,1,0,100,0,0
244275,-25,4,1,0,100,0,0
244545,461.538461538462,4,1,0,85,1,1
244930,-75.7575757575758,4,1,0,85,0,1
245009,-74.6268656716418,4,1,0,85,0,1
245084,444.444444444444,4,1,0,90,1,1
245084,-74.0740740740741,4,1,0,90,0,1
245380,0.0632386404957066,4,1,0,100,1,0
245380,-9999,4,1,0,100,0,0
245380,-9999,4,1,0,100,0,0
245454,444.444444444444,4,1,0,90,1,1
245454,-74.0740740740741,4,1,0,90,0,1
245602,0.0632386404957066,4,1,0,100,1,0
245602,-9999,4,1,0,100,0,0
245602,-9999,4,1,0,100,0,0
245676,444.444444444444,4,1,0,90,1,1
245676,-74.0740740740741,4,1,0,90,0,1
245750,-66.6666666666667,4,1,0,90,0,1
245787,-25,4,1,0,90,0,1
245972,-83.3333333333333,4,1,0,85,0,1
245973,444.444444444444,4,1,0,90,1,1
245973,-74.0740740740741,4,1,0,90,0,1
246009,0.0632386404957066,4,1,0,100,1,0
246009,-9999,4,1,0,100,0,0
246047,444.444444444444,4,1,0,90,1,1
246047,-9999,4,1,0,100,0,0
246084,-25,4,1,0,100,0,0
246417,444.444444444444,4,1,0,90,1,1
246861,428.571428571429,4,1,0,90,1,1
246861,-71.4285714285714,4,1,0,90,0,1
246896,0.0632386404957066,4,1,0,100,1,0
246896,-9999,4,1,0,100,0,0
247003,428.571428571429,4,1,0,90,1,1
247003,-71.4285714285714,4,1,0,90,0,1
247145,0.0632386404957066,4,1,0,100,1,0
247145,-9999,4,1,0,100,0,0
247217,428.571428571429,4,1,0,90,1,1
247217,-71.4285714285714,4,1,0,90,0,1
247359,0.0632386404957066,4,1,0,100,1,0
247359,-9999,4,1,0,100,0,0
247431,428.571428571429,4,1,0,90,1,1
247432,-70.4225352112676,4,1,0,90,0,1
247503,-69.9300699300699,4,1,0,90,0,1
247611,-69.4444444444444,4,1,0,90,0,1
247719,413.793103448276,4,1,0,90,1,1
247719,-68.9655172413793,4,1,0,85,0,1
248097,0.0632386404957066,4,1,0,100,1,0
248097,-9999,4,1,0,100,0,0
248132,413.793103448276,4,1,0,85,1,1
248132,-9999,4,1,0,100,0,0
248166,-25,4,1,0,100,0,0
248339,413.793103448276,4,1,0,85,1,1
248339,-69.4444444444444,4,1,0,85,0,1
248408,-68.4931506849315,4,1,0,85,0,1
248479,-67.5675675675676,4,1,0,85,0,1
248546,400,4,1,0,90,1,1
248546,-66.6666666666667,4,1,0,85,0,1
248712,0.0632386404957066,4,1,0,100,1,0
248712,-9999,4,1,0,100,0,0
248746,400,4,1,0,85,1,1
248746,-9999,4,1,0,100,0,0
248779,-25,4,1,0,100,0,0
248879,400,4,1,0,85,1,1
249346,400,4,1,0,90,1,1
249346,-66.6666666666667,4,1,0,85,0,1
249378,-9999,4,1,0,100,0,0
249379,0.0632386404957066,4,1,0,100,1,0
249412,400,4,1,0,85,1,1
249412,-9999,4,1,0,100,0,0
249445,-25,4,1,0,100,0,0
249746,400,4,1,0,85,1,1
249979,0.0632386404957066,4,1,0,100,1,0
249979,-9999,4,1,0,100,0,0
250147,387.096774193548,4,1,0,90,1,1
250147,-64.5161290322581,4,1,0,85,0,1
250566,0.0632386404957066,4,1,0,100,1,0
250566,-9999,4,1,0,100,0,0
250727,387.096774193548,4,1,0,85,1,1
250759,-25,4,1,0,85,0,1
250921,375,4,1,0,90,1,1
250921,-62.5,4,1,0,85,0,1
251327,0.0632386404957066,4,1,0,100,1,0
251327,-9999,4,1,0,100,0,0
251483,375,4,1,0,85,1,1
252076,0.0632386404957066,4,1,0,100,1,0
252076,-9999,4,1,0,100,0,0
252233,375,4,1,0,85,1,1
252421,363.636363636364,4,1,0,90,1,1
252421,-60.6060606060606,4,1,0,85,0,1
252450,0.0632386404957066,4,1,0,100,1,0
252450,-9999,4,1,0,100,0,0
252481,363.636363636364,4,1,0,85,1,1
252481,-9999,4,1,0,100,0,0
252511,-25,4,1,0,100,0,0
252784,363.636363636364,4,1,0,85,1,1
252784,-125,4,1,0,85,0,1
252845,-100,4,1,0,85,0,1
253541,-25,4,1,0,100,0,0
253693,363.636363636364,4,1,0,85,1,1
253875,352.941176470588,4,1,0,90,1,1
253875,-58.8235294117647,4,1,0,85,0,1
254051,0.0632386404957066,4,1,0,100,1,0
254051,-9999,4,1,0,100,0,0
254139,352.941176470588,4,1,0,85,1,1
254315,0.0632386404957066,4,1,0,100,1,0
254315,-9999,4,1,0,100,0,0
254403,352.941176470588,4,1,0,85,1,1
254961,0.0632386404957066,4,1,0,100,1,0
254961,-9999,4,1,0,100,0,0
255286,333.333333333333,4,1,0,90,1,1
255286,333.333333333333,4,1,0,85,1,1
255286,-55.5555555555556,4,1,0,85,0,1
255341,0.0632386404957066,4,1,0,100,1,0
255341,-9999,4,1,0,100,0,0
255396,333.333333333333,4,1,0,85,1,1
255397,-9999,4,1,0,100,0,0
255451,-25,4,1,0,100,0,0
255952,333.333333333333,4,1,0,85,1,1
256619,324.324324324324,4,1,0,90,1,1
256646,-25,4,1,0,90,0,1
256781,-58.8235294117647,4,1,0,90,0,1
256808,-25,4,1,0,90,0,1
256862,-58.8235294117647,4,1,0,90,0,1
256970,-25,4,1,0,90,0,1
257024,-58.8235294117647,4,1,0,90,0,1
257132,-25,4,1,0,90,0,1
257267,-58.8235294117647,4,1,0,90,0,1
257537,-25,4,1,0,90,0,1
257591,-58.8235294117647,4,1,0,90,0,1
257693,-25,4,1,0,90,0,1
257754,-58.8235294117647,4,1,0,90,0,1
257855,-25,4,1,0,90,0,1
257916,315.789473684211,4,1,0,90,1,1
257916,-55.5555555555556,4,1,0,90,0,1
257968,0.0632386404957066,4,1,0,100,1,0
257968,-9999,4,1,0,100,0,0
258021,315.789473684211,4,1,0,90,1,1
258021,-9999,4,1,0,100,0,0
258073,-25,4,1,0,100,0,0
258231,315.789473684211,4,1,0,90,1,1
258283,0.0632386404957066,4,1,0,100,1,0
258283,-9999,4,1,0,100,0,0
258336,315.789473684211,4,1,0,90,1,1
258336,-9999,4,1,0,100,0,0
258388,-25,4,1,0,100,0,0
258546,315.789473684211,4,1,0,90,1,1
259179,307.692307692308,4,1,0,90,1,1
259179,-62.5,4,1,0,90,0,1
259204,0.0632386404957066,4,1,0,100,1,0
259204,-9999,4,1,0,100,0,0
259486,307.692307692308,4,1,0,90,1,1
259486,-55.5555555555556,4,1,0,90,0,1
260127,0.0632386404957066,4,1,0,100,1,0
260127,-9999,4,1,0,100,0,0
260409,300,4,1,0,90,1,1
260409,-58.8235294117647,4,1,0,90,0,1
260459,0.0632386404957066,4,1,0,100,1,0
260459,-9999,4,1,0,100,0,0
260509,300,4,1,0,90,1,1
260509,-25,4,1,0,100,0,0
260559,-25,4,1,0,100,0,0
261009,285.714285714286,4,1,0,90,1,1
261009,-55.5555555555556,4,1,0,90,0,1
261580,272.727272727273,4,1,0,90,1,1
261580,-62.5,4,1,0,90,0,1
261625,-25,4,1,0,90,0,1
261670,-62.5,4,1,0,90,0,1
261716,-25,4,1,0,90,0,1
261761,-62.5,4,1,0,90,0,1
261807,-25,4,1,0,90,0,1
261852,-62.5,4,1,0,90,0,1
261920,-25,4,1,0,90,0,1
261989,-62.5,4,1,0,90,0,1
262057,-25,4,1,0,90,0,1
262125,266.666666666667,4,1,0,90,1,1
262125,-62.5,4,1,0,90,0,1
262347,-25,4,1,0,90,0,1
262391,-62.5,4,1,0,90,0,1
262475,0.0632386404957066,4,1,0,100,1,0
262475,-9999,4,1,0,100,0,0
262525,266.666666666667,4,1,0,90,1,1
262525,-83.3333333333333,4,1,0,90,0,1
262608,0.0632386404957066,4,1,0,100,1,0
262608,-9999,4,1,0,100,0,0
262658,260.869565217391,4,1,0,90,1,1
262658,-66.6666666666667,4,1,0,90,0,1
263179,255.31914893617,4,1,0,90,1,1
263179,-66.6666666666667,4,1,0,90,0,1
263200,0.0632386404957066,4,1,0,100,1,0
263200,-9999,4,1,0,100,0,0
263306,255.31914893617,4,1,0,90,1,1
263689,260.869565217391,4,1,0,90,1,1
263689,-66.6666666666667,4,1,0,90,0,1
263754,-68.9655172413793,4,1,0,90,0,1
263819,272.727272727273,4,1,0,90,1,9
263819,-68.9655172413793,4,1,0,90,0,1
263887,-71.4285714285714,4,1,0,90,0,1
263955,333.333333333333,4,1,0,90,1,9
263955,-58.8235294117647,4,1,0,90,0,1
264038,-62.5,4,1,0,90,0,1
264121,352.941176470588,4,1,0,90,1,9
264121,-62.5,4,1,0,90,0,1
264209,-66.6666666666667,4,1,0,90,0,1
264297,428.571428571429,4,1,0,90,1,1
264297,-58.8235294117647,4,1,0,90,0,1
264404,-62.5,4,1,0,90,0,1
264511,-66.6666666666667,4,1,0,90,0,1
264618,-71.4285714285714,4,1,0,90,0,1
264725,600,4,1,0,90,1,9
264725,-55.5555555555556,4,1,0,90,0,1
264875,-58.8235294117647,4,1,0,90,0,1
265025,666.666666666667,4,1,0,90,1,9
265025,-58.8235294117647,4,1,0,90,0,1
265191,-62.5,4,1,0,90,0,1
265358,300,4,1,0,90,1,1
265358,-66.6666666666667,4,1,0,90,0,1
265383,0.0632386404957066,4,1,0,100,1,0
265383,-9999,4,1,0,100,0,0
265658,300,4,1,0,90,1,1
265658,-83.3333333333333,4,1,0,90,0,1
266558,315.789473684211,4,1,0,90,1,1
266558,-71.4285714285714,4,1,0,90,0,1
266584,0.0632386404957066,4,1,0,100,1,0
266584,-9999,4,1,0,100,0,0
266873,315.789473684211,4,1,0,90,1,1
266873,-90.9090909090909,4,1,0,90,0,1
267821,352.941176470588,4,1,0,90,1,1
267821,-76.9230769230769,4,1,0,90,0,1
267850,0.0632386404957066,4,1,0,100,1,0
267850,-9999,4,1,0,100,0,0
268173,352.941176470588,4,1,0,90,1,1
268173,-83.3333333333333,4,1,0,90,0,1
268291,-86.9565217391304,4,1,0,90,0,1
268526,375,4,1,0,90,1,9
268526,-83.3333333333333,4,1,0,90,0,1
268651,-84.7457627118644,4,1,0,90,0,1
268776,-90.9090909090909,4,1,0,90,0,1
269276,400,4,1,0,90,1,1
269276,-83.3333333333333,4,1,0,90,0,1
269309,0.0632386404957066,4,1,0,100,1,0
269309,-9999,4,1,0,100,0,0
269476,400,4,1,0,90,1,1
269476,-90.9090909090909,4,1,0,90,0,1
269509,0.0632386404957066,4,1,0,100,1,0
269509,-9999,4,1,0,100,0,0
269676,428.571428571429,4,1,0,90,1,9
269676,-90.9090909090909,4,1,0,90,0,1
269818,-100,4,1,0,90,0,1
269890,461.538461538462,4,1,0,90,1,9
269890,-100,4,1,0,90,0,1
270120,500,4,1,0,90,1,1
270120,-100,4,1,0,90,0,1
270245,-111.111111111111,4,1,0,90,0,1
271120,-33.3333333333333,4,1,0,90,0,0
271130,-1,4,1,0,100,0,0
271161,0.0632386404957066,4,1,0,100,1,0
271161,-1000,4,1,0,100,0,0
271170,3,4,1,0,100,1,0

[HitObjects]
136,208,680,6,2,L|224:200,1,0.0001
256,192,700,5,4,0:0:0:0:
256,192,1200,5,8,0:0:0:0:
256,192,1366,1,0,0:0:0:0:
256,192,1533,1,0,0:0:0:0:
256,192,1700,1,8,0:0:0:0:
256,192,1866,1,0,0:0:0:0:
256,192,2033,1,0,0:0:0:0:
256,192,2200,1,8,0:0:0:0:
256,192,2700,1,8,0:0:0:0:
256,192,3200,1,8,0:0:0:0:
256,192,3366,1,0,0:0:0:0:
256,192,3533,1,8,0:0:0:0:
256,192,3700,1,8,0:0:0:0:
256,192,3866,1,0,0:0:0:0:
256,192,4033,1,0,0:0:0:0:
256,192,4200,1,8,0:0:0:0:
256,192,4700,1,0,0:0:0:0:
256,192,5200,1,8,0:0:0:0:
256,192,5366,1,0,0:0:0:0:
256,192,5533,1,0,0:0:0:0:
256,192,5700,1,8,0:0:0:0:
256,192,5866,1,0,0:0:0:0:
256,192,6033,1,0,0:0:0:0:
256,192,6200,1,8,0:0:0:0:
256,192,6700,1,8,0:0:0:0:
256,192,7200,1,8,0:0:0:0:
256,192,7366,1,0,0:0:0:0:
256,192,7533,1,8,0:0:0:0:
256,192,7700,1,8,0:0:0:0:
256,192,7866,1,0,0:0:0:0:
256,192,8033,1,0,0:0:0:0:
256,192,8200,1,8,0:0:0:0:
256,192,8700,1,0,0:0:0:0:
256,192,9200,1,8,0:0:0:0:
256,192,9366,1,0,0:0:0:0:
256,192,9533,1,0,0:0:0:0:
256,192,9700,1,8,0:0:0:0:
256,192,9866,1,0,0:0:0:0:
256,192,10033,1,0,0:0:0:0:
256,192,10200,1,8,0:0:0:0:
256,192,10700,1,8,0:0:0:0:
256,192,11200,1,8,0:0:0:0:
256,192,11366,1,0,0:0:0:0:
256,192,11533,1,8,0:0:0:0:
256,192,11700,1,8,0:0:0:0:
256,192,11866,1,0,0:0:0:0:
256,192,12033,1,0,0:0:0:0:
256,192,12200,1,8,0:0:0:0:
256,192,12700,1,0,0:0:0:0:
256,192,13200,1,8,0:0:0:0:
256,192,13366,1,0,0:0:0:0:
256,192,13533,1,0,0:0:0:0:
256,192,13700,1,8,0:0:0:0:
256,192,13866,1,0,0:0:0:0:
256,192,14033,1,0,0:0:0:0:
256,192,14200,1,8,0:0:0:0:
256,192,14700,1,8,0:0:0:0:
256,192,15200,1,8,0:0:0:0:
256,192,15366,1,0,0:0:0:0:
256,192,15533,1,8,0:0:0:0:
256,192,15700,1,8,0:0:0:0:
256,192,15825,1,8,0:0:0:0:
256,192,15950,1,0,0:0:0:0:
256,192,16075,1,0,0:0:0:0:
256,192,16200,1,8,0:0:0:0:
256,192,16325,1,0,0:0:0:0:
256,192,16450,1,8,0:0:0:0:
256,192,16700,1,4,0:0:0:0:
256,192,17200,1,8,0:0:0:0:
256,192,17366,1,0,0:0:0:0:
256,192,17533,1,8,0:0:0:0:
256,192,17700,1,8,0:0:0:0:
256,192,17866,1,0,0:0:0:0:
256,192,18033,1,0,0:0:0:0:
256,192,18200,1,8,0:0:0:0:
256,192,18700,1,12,0:0:0:0:
256,192,19200,1,8,0:0:0:0:
256,192,19366,1,0,0:0:0:0:
256,192,19533,1,8,0:0:0:0:
256,192,19700,1,8,0:0:0:0:
256,192,19866,1,8,0:0:0:0:
256,192,20033,1,0,0:0:0:0:
256,192,20200,1,8,0:0:0:0:
256,192,20700,1,4,0:0:0:0:
256,192,21200,1,8,0:0:0:0:
256,192,21366,1,0,0:0:0:0:
256,192,21533,1,8,0:0:0:0:
256,192,21700,1,8,0:0:0:0:
256,192,21866,1,0,0:0:0:0:
256,192,22033,1,0,0:0:0:0:
256,192,22200,1,8,0:0:0:0:
256,192,22700,1,12,0:0:0:0:
256,192,23200,1,8,0:0:0:0:
256,192,23366,1,0,0:0:0:0:
256,192,23533,1,8,0:0:0:0:
256,192,23700,1,8,0:0:0:0:
256,192,23866,1,8,0:0:0:0:
256,192,24033,1,0,0:0:0:0:
256,192,24200,1,8,0:0:0:0:
256,192,24700,1,4,0:0:0:0:
256,192,25200,1,8,0:0:0:0:
256,192,25366,1,0,0:0:0:0:
256,192,25533,1,8,0:0:0:0:
256,192,25700,1,8,0:0:0:0:
256,192,25866,1,0,0:0:0:0:
256,192,26033,1,0,0:0:0:0:
256,192,26200,1,8,0:0:0:0:
256,192,26366,1,0,0:0:0:0:
256,192,26533,1,0,0:0:0:0:
256,192,26700,1,8,0:0:0:0:
256,192,26866,1,0,0:0:0:0:
256,192,27033,1,8,0:0:0:0:
256,192,27200,1,0,0:0:0:0:
256,192,27366,1,0,0:0:0:0:
256,192,27533,1,8,0:0:0:0:
256,192,27700,1,0,0:0:0:0:
256,192,27866,1,0,0:0:0:0:
256,192,28033,1,8,0:0:0:0:
256,192,28200,1,8,0:0:0:0:
256,192,28450,1,0,0:0:0:0:
256,192,28700,1,8,0:0:0:0:
256,192,28866,1,0,0:0:0:0:
256,192,28950,1,0,0:0:0:0:
256,192,29116,1,0,0:0:0:0:
256,192,29200,1,0,0:0:0:0:
256,192,29366,1,0,0:0:0:0:
256,192,29450,1,0,0:0:0:0:
256,192,29616,1,0,0:0:0:0:
256,192,29700,1,0,0:0:0:0:
256,192,29866,1,0,0:0:0:0:
256,192,29950,1,0,0:0:0:0:
256,192,30116,1,0,0:0:0:0:
256,192,30200,1,0,0:0:0:0:
256,192,30366,1,0,0:0:0:0:
256,192,30450,1,0,0:0:0:0:
256,192,30616,1,0,0:0:0:0:
256,192,30700,1,0,0:0:0:0:
256,192,30783,1,0,0:0:0:0:
256,192,30866,1,0,0:0:0:0:
256,192,30950,1,0,0:0:0:0:
256,192,31033,1,0,0:0:0:0:
256,192,31116,1,0,0:0:0:0:
256,192,31200,1,0,0:0:0:0:
256,192,31283,1,0,0:0:0:0:
256,192,31366,1,0,0:0:0:0:
256,192,31450,1,0,0:0:0:0:
256,192,31533,1,0,0:0:0:0:
256,192,31616,1,0,0:0:0:0:
256,192,31700,1,8,0:0:0:0:
224,192,31824,2,0,L,1,-1
160,128,32158,2,0,L,1,-1
160,128,32325,2,0,L,1,-1
160,128,32418,2,0,L,1,-1
160,128,32491,2,0,L,1,-1
160,128,32533,2,0,L,1,-1
160,128,32575,2,0,L,1,-1
160,128,32616,2,0,L,1,-1
160,128,32658,2,0,L,1,-1
160,128,32700,2,0,L,1,-1
160,128,32825,2,0,L,1,-1
160,128,32950,2,0,L,1,-1
160,128,33283,2,0,L,1,-1
48,120,33450,2,0,L,1,-1000
48,120,33516,2,0,L,1,-1000
48,120,33583,2,0,L,1,-1000
48,120,33650,2,0,L,1,-1000
48,120,33716,2,0,L,1,-1000
48,120,33783,2,0,L,1,-1000
48,120,33850,2,0,L,1,-1000
48,120,33916,2,0,L,1,-1000
48,120,33983,2,0,L,1,-1000
48,120,34050,2,0,L,1,-1000
48,120,34116,2,0,L,1,-1000
48,120,34183,2,0,L,1,-1000
48,120,34250,2,0,L,1,-1000
48,120,34316,2,0,L,1,-1000
48,120,34383,2,0,L,1,-1000
48,120,34450,2,0,L,1,-1000
48,120,34516,2,0,L,1,-1000
48,120,34583,2,0,L,1,-1000
48,120,34650,2,0,L,1,-1000
48,120,34716,2,0,L,1,-1000
48,120,34783,2,0,L,1,-1000
48,120,34850,2,0,L,1,-1000
48,120,34916,2,0,L,1,-1000
48,120,34983,2,0,L,1,-1000
48,120,35050,2,0,L,1,-1000
160,128,35083,2,0,L,1,-1
48,120,35116,2,0,L,1,-1000
48,120,35183,2,0,L,1,-1000
160,128,35216,2,4,L,1,-1
48,120,35250,2,0,L,1,-1000
48,120,35316,2,0,L,1,-1000
48,120,35383,2,0,L,1,-1000
48,120,35450,2,0,L,1,-1000
160,128,35483,2,4,L,1,-1
48,120,35516,2,0,L,1,-1000
48,120,35583,2,0,L,1,-1000
48,120,35650,2,0,L,1,-1000
160,128,35683,2,4,L,1,-1
48,120,35716,2,0,L,1,-1000
48,120,35783,2,0,L,1,-1000
48,120,35850,2,0,L,1,-1000
256,192,36200,1,8,0:0:0:0:
256,192,36450,1,0,0:0:0:0:
256,192,36700,5,12,0:0:0:0:
256,192,36741,2,4,L|352:192,12,87.5
256,192,37200,1,0,0:0:0:0:
256,192,37283,1,8,0:0:0:0:
256,192,37366,1,0,0:0:0:0:
256,192,37450,1,0,0:0:0:0:
256,192,37533,1,8,0:0:0:0:
256,192,37616,1,8,0:0:0:0:
256,192,37700,1,0,0:0:0:0:
256,192,37866,1,8,0:0:0:0:
256,192,37950,1,0,0:0:0:0:
256,192,38033,1,0,0:0:0:0:
256,192,38116,1,8,0:0:0:0:
256,192,38200,1,0,0:0:0:0:
256,192,38366,1,0,0:0:0:0:
256,192,38450,1,8,0:0:0:0:
256,192,38533,1,8,0:0:0:0:
256,192,38616,1,0,0:0:0:0:
256,192,38700,1,12,0:0:0:0:
256,192,38741,2,4,L|352:192,9,87.5
256,192,39116,1,8,0:0:0:0:
256,192,39283,1,8,0:0:0:0:
256,192,39366,1,8,0:0:0:0:
256,192,39450,1,8,0:0:0:0:
256,192,39616,1,8,0:0:0:0:
256,192,39700,1,0,0:0:0:0:
256,192,39783,1,0,0:0:0:0:
256,192,39866,1,0,0:0:0:0:
256,192,39950,1,8,0:0:0:0:
256,192,40116,1,8,0:0:0:0:
256,192,40200,1,0,0:0:0:0:
256,192,40366,1,0,0:0:0:0:
256,192,40450,1,12,0:0:0:0:
256,192,40700,1,12,0:0:0:0:
256,192,40741,2,4,L|352:192,12,87.5
256,192,41200,1,0,0:0:0:0:
256,192,41283,1,8,0:0:0:0:
256,192,41366,1,0,0:0:0:0:
256,192,41450,1,0,0:0:0:0:
256,192,41533,1,8,0:0:0:0:
256,192,41616,1,8,0:0:0:0:
256,192,41700,1,0,0:0:0:0:
256,192,41783,1,0,0:0:0:0:
256,192,41866,1,0,0:0:0:0:
256,192,41950,1,8,0:0:0:0:
256,192,42116,1,0,0:0:0:0:
256,192,42200,1,0,0:0:0:0:
256,192,42366,1,0,0:0:0:0:
256,192,42450,1,8,0:0:0:0:
256,192,42700,1,8,0:0:0:0:
256,192,42783,1,0,0:0:0:0:
256,192,42866,1,0,0:0:0:0:
256,192,42950,1,0,0:0:0:0:
256,192,43116,1,12,0:0:0:0:
256,192,43137,12,0,43325,0:0:0:0:
256,192,43137,12,0,43325,0:0:0:0:
256,192,43450,5,8,0:0:0:0:
256,192,43533,1,0,0:0:0:0:
256,192,43616,1,8,0:0:0:0:
256,192,43700,1,0,0:0:0:0:
256,192,43866,1,12,0:0:0:0:
256,192,43887,12,0,44075,0:0:0:0:
256,192,43887,12,0,44075,0:0:0:0:
256,192,44200,5,0,0:0:0:0:
256,192,44450,1,8,0:0:0:0:
256,192,44700,1,12,0:0:0:0:
256,192,44741,2,4,L|352:192,12,87.5
256,192,45200,1,0,0:0:0:0:
256,192,45283,1,8,0:0:0:0:
256,192,45366,1,0,0:0:0:0:
256,192,45450,1,0,0:0:0:0:
256,192,45533,1,8,0:0:0:0:
256,192,45616,1,8,0:0:0:0:
256,192,45700,1,0,0:0:0:0:
256,192,45866,1,8,0:0:0:0:
256,192,45950,1,0,0:0:0:0:
256,192,46033,1,0,0:0:0:0:
256,192,46116,1,8,0:0:0:0:
256,192,46200,1,0,0:0:0:0:
256,192,46366,1,0,0:0:0:0:
256,192,46450,1,8,0:0:0:0:
256,192,46533,1,8,0:0:0:0:
256,192,46616,1,0,0:0:0:0:
256,192,46700,1,12,0:0:0:0:
256,192,46741,2,4,L|384:192,7,116.666666666667
256,192,47116,1,8,0:0:0:0:
256,192,47283,1,8,0:0:0:0:
256,192,47366,1,8,0:0:0:0:
256,192,47450,1,8,0:0:0:0:
256,192,47616,1,8,0:0:0:0:
256,192,47700,1,0,0:0:0:0:
256,192,47783,1,0,0:0:0:0:
256,192,47866,1,0,0:0:0:0:
256,192,47950,1,8,0:0:0:0:
256,192,48116,1,0,0:0:0:0:
256,192,48200,1,8,0:0:0:0:
256,192,48283,1,8,0:0:0:0:
256,192,48366,1,0,0:0:0:0:
256,192,48450,1,12,0:0:0:0:
256,192,48700,1,12,0:0:0:0:
256,192,48741,2,4,L|352:192,12,87.5
256,192,49200,1,0,0:0:0:0:
256,192,49283,1,8,0:0:0:0:
256,192,49366,1,0,0:0:0:0:
256,192,49450,1,0,0:0:0:0:
256,192,49533,1,8,0:0:0:0:
256,192,49616,1,8,0:0:0:0:
256,192,49741,1,0,0:0:0:0:
256,192,49908,1,0,0:0:0:0:
256,192,50075,1,0,0:0:0:0:
256,192,50200,1,0,0:0:0:0:
256,192,50283,1,8,0:0:0:0:
256,192,50366,1,8,0:0:0:0:
256,192,50450,1,0,0:0:0:0:
256,192,50533,1,8,0:0:0:0:
256,192,50700,1,8,0:0:0:0:
256,192,50783,1,0,0:0:0:0:
256,192,50866,1,0,0:0:0:0:
256,192,50950,1,0,0:0:0:0:
256,192,51116,1,12,0:0:0:0:
256,192,51137,12,0,51325,0:0:0:0:
256,192,51137,12,0,51325,0:0:0:0:
256,192,51450,5,8,0:0:0:0:
256,192,51533,1,0,0:0:0:0:
256,192,51616,1,8,0:0:0:0:
256,192,51700,1,0,0:0:0:0:
256,192,51866,1,12,0:0:0:0:
256,192,51887,12,0,52075,0:0:0:0:
256,192,51887,12,0,52075,0:0:0:0:
256,192,52200,5,8,0:0:0:0:
256,192,52450,1,0,0:0:0:0:
48,120,52700,2,4,L,1,-1000
48,120,52731,2,4,L,1,-1000
48,120,52762,2,4,L,1,-1000
256,192,52950,1,4,0:0:0:0:
256,192,53200,1,0,0:0:0:0:
256,192,53283,1,8,0:0:0:0:
256,192,53366,1,0,0:0:0:0:
256,192,53450,1,0,0:0:0:0:
256,192,53533,1,8,0:0:0:0:
256,192,53616,1,8,0:0:0:0:
256,192,53700,1,0,0:0:0:0:
256,192,53783,1,0,0:0:0:0:
256,192,53866,1,0,0:0:0:0:
256,192,53950,1,8,0:0:0:0:
256,192,54116,1,0,0:0:0:0:
256,192,54200,1,8,0:0:0:0:
256,192,54366,1,8,0:0:0:0:
256,192,54533,1,0,0:0:0:0:
48,120,54668,2,4,L,1,-1000
48,120,54668,2,4,L,1,-1000
256,192,54700,1,4,0:0:0:0:
256,192,54950,1,0,0:0:0:0:
256,192,55033,1,0,0:0:0:0:
256,192,55116,1,8,0:0:0:0:
256,192,55283,1,8,0:0:0:0:
256,192,55366,1,8,0:0:0:0:
256,192,55450,1,8,0:0:0:0:
256,192,55616,1,8,0:0:0:0:
256,192,55700,1,0,0:0:0:0:
256,192,55783,1,0,0:0:0:0:
256,192,55866,1,0,0:0:0:0:
256,192,55950,1,8,0:0:0:0:
256,192,56116,1,0,0:0:0:0:
256,192,56200,1,0,0:0:0:0:
256,192,56366,1,0,0:0:0:0:
256,192,56450,1,12,0:0:0:0:
48,120,56668,2,4,L,1,-1000
48,120,56668,2,4,L,1,-1000
256,192,56700,1,4,0:0:0:0:
256,192,56950,1,0,0:0:0:0:
256,192,57033,1,0,0:0:0:0:
264,200,57116,1,0,0:0:0:0:
264,200,57200,1,8,0:0:0:0:
256,192,57283,1,0,0:0:0:0:
256,192,57366,1,0,0:0:0:0:
256,192,57450,1,8,0:0:0:0:
256,192,57533,1,8,0:0:0:0:
256,192,57616,1,0,0:0:0:0:
256,192,57700,1,8,0:0:0:0:
256,192,57783,1,0,0:0:0:0:
256,192,57866,1,0,0:0:0:0:
256,192,57950,1,8,0:0:0:0:
256,192,58033,1,8,0:0:0:0:
256,192,58116,1,0,0:0:0:0:
256,192,58200,1,8,0:0:0:0:
256,192,58366,1,8,0:0:0:0:
256,192,58533,1,8,0:0:0:0:
256,192,58700,1,8,0:0:0:0:
256,192,58783,1,0,0:0:0:0:
256,192,58866,1,0,0:0:0:0:
256,192,58950,1,0,0:0:0:0:
256,192,59116,1,12,0:0:0:0:
256,192,59137,12,0,59325,0:0:0:0:
256,192,59137,12,0,59325,0:0:0:0:
256,192,59450,5,8,0:0:0:0:
256,192,59533,1,0,0:0:0:0:
256,192,59616,1,8,0:0:0:0:
256,192,59700,1,0,0:0:0:0:
256,192,59866,1,12,0:0:0:0:
256,192,59887,12,0,60075,0:0:0:0:
256,192,59887,12,0,60075,0:0:0:0:
256,192,60200,5,8,0:0:0:0:
256,192,60450,1,8,0:0:0:0:
256,192,60700,1,8,0:0:0:0:
256,192,60741,2,4,L|480:192,1,204.166668613752
256,192,60950,2,4,L|480:192,1,224
256,192,61200,2,4,L|416:192,1,146.999995513916
256,192,61450,1,12,0:0:0:0:
256,192,61616,1,0,0:0:0:0:
256,192,61700,1,8,0:0:0:0:
256,192,61866,1,8,0:0:0:0:
256,192,61950,1,0,0:0:0:0:
256,192,62116,1,0,0:0:0:0:
256,192,62200,1,8,0:0:0:0:
256,192,62366,1,0,0:0:0:0:
256,192,62450,1,12,0:0:0:0:
48,120,62668,2,4,L,1,-1000
48,120,62668,2,4,L,1,-1000
256,192,62700,1,4,0:0:0:0:
256,192,62950,1,0,0:0:0:0:
256,192,63033,1,0,0:0:0:0:
256,192,63116,1,8,0:0:0:0:
256,192,63283,1,8,0:0:0:0:
256,192,63366,1,8,0:0:0:0:
256,192,63450,1,8,0:0:0:0:
256,192,63616,1,8,0:0:0:0:
256,192,63700,1,0,0:0:0:0:
256,192,63783,1,0,0:0:0:0:
256,192,63866,1,0,0:0:0:0:
256,192,63949,1,8,0:0:0:0:
256,192,64116,1,8,0:0:0:0:
256,192,64199,1,0,0:0:0:0:
256,192,64366,1,0,0:0:0:0:
256,192,64449,1,12,0:0:0:0:
176,208,64668,2,4,L,1,-1000
176,208,64668,2,4,L,1,-1000
256,192,64699,1,4,0:0:0:0:
256,192,64949,1,0,0:0:0:0:
256,192,65033,1,0,0:0:0:0:
256,192,65116,1,0,0:0:0:0:
256,192,65199,1,8,0:0:0:0:
256,192,65283,1,0,0:0:0:0:
256,192,65366,1,8,0:0:0:0:
256,192,65450,1,8,0:0:0:0:
256,192,65533,1,0,0:0:0:0:
256,192,65616,1,0,0:0:0:0:
256,192,65700,1,8,0:0:0:0:
256,192,65783,1,8,0:0:0:0:
256,192,65866,1,0,0:0:0:0:
256,192,65950,1,8,0:0:0:0:
256,192,66033,1,0,0:0:0:0:
256,192,66116,1,8,0:0:0:0:
256,192,66200,1,0,0:0:0:0:
256,192,66366,1,0,0:0:0:0:
256,192,66450,1,8,0:0:0:0:
256,192,66700,1,12,0:0:0:0:
256,192,66741,2,4,L|320:192,14,35
48,120,67200,2,4,L,1,-1000
256,192,67200,2,0,L|544:192,1,280
48,120,67231,2,4,L,1,-1000
48,120,67262,2,4,L,1,-1000
48,120,67700,2,4,L,1,-1000
256,192,67700,2,0,L|64:192,1,188.999994232178
48,120,67731,2,4,L,1,-1000
48,120,67762,2,4,L,1,-1000
256,192,68200,1,8,0:0:0:0:
256,192,68450,1,8,0:0:0:0:
256,192,68700,1,4,0:0:0:0:
256,192,68866,1,0,0:0:0:0:
256,192,68950,1,0,0:0:0:0:
256,192,69116,1,2,0:0:0:0:
256,192,69200,1,0,0:0:0:0:
256,192,69366,1,0,0:0:0:0:
256,192,69450,1,2,0:0:0:0:
256,192,69616,1,0,0:0:0:0:
256,192,69700,1,2,0:0:0:0:
256,192,69866,1,0,0:0:0:0:
256,192,69950,1,0,0:0:0:0:
256,192,70116,1,2,0:0:0:0:
256,192,70200,1,0,0:0:0:0:
256,192,70366,1,0,0:0:0:0:
256,192,70450,1,2,0:0:0:0:
256,192,70616,1,0,0:0:0:0:
256,192,70700,1,2,0:0:0:0:
256,192,70866,1,0,0:0:0:0:
256,192,70950,1,0,0:0:0:0:
256,192,71116,1,2,0:0:0:0:
256,192,71200,1,0,0:0:0:0:
256,192,71366,1,0,0:0:0:0:
256,192,71450,1,2,0:0:0:0:
256,192,71616,1,0,0:0:0:0:
256,192,71700,1,2,0:0:0:0:
256,192,71866,1,0,0:0:0:0:
256,192,71950,1,0,0:0:0:0:
256,192,72116,1,2,0:0:0:0:
256,192,72200,1,0,0:0:0:0:
256,192,72366,1,0,0:0:0:0:
256,192,72450,1,2,0:0:0:0:
256,192,72616,1,0,0:0:0:0:
256,192,72700,1,2,0:0:0:0:
256,192,72866,1,0,0:0:0:0:
256,192,72950,1,0,0:0:0:0:
256,192,73033,1,0,0:0:0:0:
256,192,73116,1,2,0:0:0:0:
256,192,73200,1,0,0:0:0:0:
256,192,73366,1,0,0:0:0:0:
256,192,73450,1,2,0:0:0:0:
256,192,73616,1,0,0:0:0:0:
256,192,73700,1,2,0:0:0:0:
256,192,73866,1,2,0:0:0:0:
256,192,73950,1,0,0:0:0:0:
256,192,74033,1,0,0:0:0:0:
256,192,74116,1,2,0:0:0:0:
256,192,74200,1,0,0:0:0:0:
256,192,74366,1,0,0:0:0:0:
256,192,74450,1,2,0:0:0:0:
256,192,74616,1,0,0:0:0:0:
256,192,74700,1,2,0:0:0:0:
256,192,74783,1,0,0:0:0:0:
256,192,74866,1,2,0:0:0:0:
256,192,74950,1,0,0:0:0:0:
256,192,75033,1,0,0:0:0:0:
256,192,75116,1,2,0:0:0:0:
256,192,75200,1,0,0:0:0:0:
256,192,75283,1,0,0:0:0:0:
256,192,75366,1,0,0:0:0:0:
256,192,75450,1,2,0:0:0:0:
256,192,75533,1,0,0:0:0:0:
256,192,75616,1,0,0:0:0:0:
256,192,75700,1,2,0:0:0:0:
48,120,75741,2,4,L,1,-500
256,192,76116,1,0,0:0:0:0:
256,192,76200,1,2,0:0:0:0:
256,192,76283,1,2,0:0:0:0:
256,192,76366,1,2,0:0:0:0:
256,192,76450,1,0,0:0:0:0:
256,192,76533,1,0,0:0:0:0:
256,184,76616,1,0,0:0:0:0:
256,184,76700,5,2,0:0:0:0:
136,208,76701,2,2,L|224:200,1,0.0001
136,208,76701,2,2,L|224:200,1,0.0001
136,208,76701,2,2,L|224:200,1,0.0001
256,192,76866,5,2,0:0:0:0:
256,192,76950,1,0,0:0:0:0:
136,208,76951,2,0,L|224:200,1,0.0001
136,208,76951,2,0,L|224:200,1,0.0001
136,208,76951,2,0,L|224:200,1,0.0001
256,192,77116,1,2,0:0:0:0:
256,192,77200,1,0,0:0:0:0:
136,208,77201,2,0,L|224:200,1,0.0001
136,208,77201,2,0,L|224:200,1,0.0001
136,208,77201,2,0,L|224:200,1,0.0001
256,192,77366,1,2,0:0:0:0:
256,192,77450,1,0,0:0:0:0:
136,208,77451,2,0,L|224:200,1,0.0001
136,208,77451,2,0,L|224:200,1,0.0001
136,208,77451,2,0,L|224:200,1,0.0001
256,192,77616,1,0,0:0:0:0:
256,192,77700,1,2,0:0:0:0:
136,208,77701,2,2,L|224:200,1,0.0001
136,208,77701,2,2,L|224:200,1,0.0001
136,208,77701,2,2,L|224:200,1,0.0001
256,192,77866,1,0,0:0:0:0:
256,192,77950,1,2,0:0:0:0:
136,208,77951,2,2,L|224:200,1,0.0001
136,208,77951,2,2,L|224:200,1,0.0001
136,208,77951,2,2,L|224:200,1,0.0001
256,192,78116,1,0,0:0:0:0:
256,192,78200,1,2,0:0:0:0:
136,208,78201,2,2,L|224:200,1,0.0001
136,208,78201,2,2,L|224:200,1,0.0001
136,208,78201,2,2,L|224:200,1,0.0001
256,192,78366,1,0,0:0:0:0:
256,192,78450,1,2,0:0:0:0:
136,208,78451,2,2,L|224:200,1,0.0001
136,208,78451,2,2,L|224:200,1,0.0001
136,208,78451,2,2,L|224:200,1,0.0001
256,192,78533,1,0,0:0:0:0:
256,192,78616,1,2,0:0:0:0:
136,208,78617,2,2,L|224:200,1,0.0001
136,208,78617,2,2,L|224:200,1,0.0001
136,208,78617,2,2,L|224:200,1,0.0001
256,192,78700,1,0,0:0:0:0:
256,192,78866,1,2,0:0:0:0:
256,192,78950,1,0,0:0:0:0:
136,208,78951,2,0,L|224:200,1,0.0001
136,208,78951,2,0,L|224:200,1,0.0001
136,208,78951,2,0,L|224:200,1,0.0001
256,192,79116,1,2,0:0:0:0:
256,192,79200,1,0,0:0:0:0:
136,208,79201,2,0,L|224:200,1,0.0001
136,208,79201,2,0,L|224:200,1,0.0001
136,208,79201,2,0,L|224:200,1,0.0001
256,192,79366,1,2,0:0:0:0:
136,208,79367,2,2,L|224:200,1,0.0001
136,208,79367,2,2,L|224:200,1,0.0001
136,208,79367,2,2,L|224:200,1,0.0001
256,192,79450,1,0,0:0:0:0:
256,192,79616,1,2,0:0:0:0:
136,208,79617,2,2,L|224:200,1,0.0001
136,208,79617,2,2,L|224:200,1,0.0001
136,208,79617,2,2,L|224:200,1,0.0001
256,192,79700,1,0,0:0:0:0:
256,192,79866,1,2,0:0:0:0:
256,192,79950,1,0,0:0:0:0:
136,208,79951,2,0,L|224:200,1,0.0001
136,208,79951,2,0,L|224:200,1,0.0001
136,208,79951,2,0,L|224:200,1,0.0001
256,192,80116,1,2,0:0:0:0:
256,192,80200,1,0,0:0:0:0:
136,208,80201,2,0,L|224:200,1,0.0001
136,208,80201,2,0,L|224:200,1,0.0001
136,208,80201,2,0,L|224:200,1,0.0001
256,192,80283,1,0,0:0:0:0:
136,208,80284,2,0,L|224:200,1,0.0001
136,208,80284,2,0,L|224:200,1,0.0001
136,208,80284,2,0,L|224:200,1,0.0001
256,192,80366,1,2,0:0:0:0:
256,192,80450,1,0,0:0:0:0:
136,208,80451,2,0,L|224:200,1,0.0001
136,208,80451,2,0,L|224:200,1,0.0001
136,208,80451,2,0,L|224:200,1,0.0001
256,192,80533,1,0,0:0:0:0:
136,208,80534,2,0,L|224:200,1,0.0001
136,208,80534,2,0,L|224:200,1,0.0001
136,208,80534,2,0,L|224:200,1,0.0001
256,192,80616,1,2,0:0:0:0:
256,192,80700,1,0,0:0:0:0:
136,208,80701,2,0,L|224:200,1,0.0001
136,208,80701,2,0,L|224:200,1,0.0001
136,208,80701,2,0,L|224:200,1,0.0001
256,192,80866,1,2,0:0:0:0:
136,208,80867,2,2,L|224:200,1,0.0001
136,208,80867,2,2,L|224:200,1,0.0001
136,208,80867,2,2,L|224:200,1,0.0001
256,192,80950,1,0,0:0:0:0:
256,192,81116,1,2,0:0:0:0:
256,192,81200,1,0,0:0:0:0:
136,208,81201,2,0,L|224:200,1,0.0001
136,208,81201,2,0,L|224:200,1,0.0001
136,208,81201,2,0,L|224:200,1,0.0001
256,192,81366,1,2,0:0:0:0:
136,208,81367,2,2,L|224:200,1,0.0001
136,208,81367,2,2,L|224:200,1,0.0001
136,208,81367,2,2,L|224:200,1,0.0001
256,192,81450,1,0,0:0:0:0:
256,192,81616,1,0,0:0:0:0:
256,192,81700,1,2,0:0:0:0:
136,208,81701,2,2,L|224:200,1,0.0001
136,208,81701,2,2,L|224:200,1,0.0001
136,208,81701,2,2,L|224:200,1,0.0001
256,192,81866,1,0,0:0:0:0:
136,208,81867,2,0,L|224:200,1,0.0001
136,208,81867,2,0,L|224:200,1,0.0001
136,208,81867,2,0,L|224:200,1,0.0001
256,192,81950,1,2,0:0:0:0:
256,192,82116,1,0,0:0:0:0:
256,192,82200,1,2,0:0:0:0:
136,208,82201,2,2,L|224:200,1,0.0001
136,208,82201,2,2,L|224:200,1,0.0001
136,208,82201,2,2,L|224:200,1,0.0001
256,192,82366,1,0,0:0:0:0:
256,192,82450,1,2,0:0:0:0:
136,208,82451,2,2,L|224:200,1,0.0001
136,208,82451,2,2,L|224:200,1,0.0001
136,208,82451,2,2,L|224:200,1,0.0001
256,192,82533,1,0,0:0:0:0:
256,192,82616,1,0,0:0:0:0:
256,192,82700,1,2,0:0:0:0:
136,208,82701,2,2,L|224:200,1,0.0001
136,208,82701,2,2,L|224:200,1,0.0001
136,208,82701,2,2,L|224:200,1,0.0001
256,192,82783,1,0,0:0:0:0:
256,192,82866,1,0,0:0:0:0:
256,192,82950,1,2,0:0:0:0:
136,208,82951,2,2,L|224:200,1,0.0001
136,208,82951,2,2,L|224:200,1,0.0001
136,208,82951,2,2,L|224:200,1,0.0001
256,192,83116,1,0,0:0:0:0:
136,208,83117,2,0,L|224:200,1,0.0001
136,208,83117,2,0,L|224:200,1,0.0001
136,208,83117,2,0,L|224:200,1,0.0001
256,192,83200,1,2,0:0:0:0:
256,192,83366,1,0,0:0:0:0:
136,208,83367,2,0,L|224:200,1,0.0001
136,208,83367,2,0,L|224:200,1,0.0001
136,208,83367,2,0,L|224:200,1,0.0001
256,192,83450,1,2,0:0:0:0:
256,192,83616,1,0,0:0:0:0:
256,192,83700,1,2,0:0:0:0:
136,208,83701,2,2,L|224:200,1,0.0001
136,208,83701,2,2,L|224:200,1,0.0001
136,208,83701,2,2,L|224:200,1,0.0001
256,192,83783,1,0,0:0:0:0:
256,192,83866,1,0,0:0:0:0:
256,192,83950,1,2,0:0:0:0:
136,208,83951,2,2,L|224:200,1,0.0001
136,208,83951,2,2,L|224:200,1,0.0001
136,208,83951,2,2,L|224:200,1,0.0001
256,192,84033,1,2,0:0:0:0:
136,208,84034,2,2,L|224:200,1,0.0001
136,208,84034,2,2,L|224:200,1,0.0001
136,208,84034,2,2,L|224:200,1,0.0001
256,192,84116,1,0,0:0:0:0:
256,192,84200,1,2,0:0:0:0:
136,208,84201,2,2,L|224:200,1,0.0001
136,208,84201,2,2,L|224:200,1,0.0001
136,208,84201,2,2,L|224:200,1,0.0001
256,192,84283,1,0,0:0:0:0:
256,192,84366,1,0,0:0:0:0:
256,192,84450,1,2,0:0:0:0:
136,208,84451,2,2,L|224:200,1,0.0001
136,208,84451,2,2,L|224:200,1,0.0001
136,208,84451,2,2,L|224:200,1,0.0001
256,192,84533,1,2,0:0:0:0:
136,208,84534,2,2,L|224:200,1,0.0001
136,208,84534,2,2,L|224:200,1,0.0001
136,208,84534,2,2,L|224:200,1,0.0001
256,192,84616,1,2,0:0:0:0:
136,208,84617,2,2,L|224:200,1,0.0001
136,208,84617,2,2,L|224:200,1,0.0001
136,208,84617,2,2,L|224:200,1,0.0001
256,192,84700,1,4,0:0:0:0:
256,192,84950,1,6,0:0:0:0:
256,192,85116,1,0,0:0:0:0:
136,208,85117,2,0,L|224:200,1,0.0001
136,208,85117,2,0,L|224:200,1,0.0001
136,208,85117,2,0,L|224:200,1,0.0001
256,192,85200,1,2,0:0:0:0:
136,208,85201,2,2,L|224:200,1,0.0001
136,208,85201,2,2,L|224:200,1,0.0001
136,208,85201,2,2,L|224:200,1,0.0001
256,192,85283,1,0,0:0:0:0:
136,208,85284,2,0,L|224:200,1,0.0001
136,208,85284,2,0,L|224:200,1,0.0001
136,208,85284,2,0,L|224:200,1,0.0001
256,192,85366,1,0,0:0:0:0:
136,208,85367,2,0,L|224:200,1,0.0001
136,208,85367,2,0,L|224:200,1,0.0001
136,208,85367,2,0,L|224:200,1,0.0001
256,192,85450,1,2,0:0:0:0:
136,208,85451,2,2,L|224:200,1,0.0001
136,208,85451,2,2,L|224:200,1,0.0001
136,208,85451,2,2,L|224:200,1,0.0001
256,192,85616,1,2,0:0:0:0:
136,208,85617,2,2,L|224:200,1,0.0001
136,208,85617,2,2,L|224:200,1,0.0001
136,208,85617,2,2,L|224:200,1,0.0001
256,192,85700,1,0,0:0:0:0:
136,208,85701,2,0,L|224:200,1,0.0001
136,208,85701,2,0,L|224:200,1,0.0001
136,208,85701,2,0,L|224:200,1,0.0001
256,192,85866,1,2,0:0:0:0:
136,208,85867,2,2,L|224:200,1,0.0001
136,208,85867,2,2,L|224:200,1,0.0001
136,208,85867,2,2,L|224:200,1,0.0001
256,192,85950,1,0,0:0:0:0:
136,208,85951,2,0,L|224:200,1,0.0001
136,208,85951,2,0,L|224:200,1,0.0001
136,208,85951,2,0,L|224:200,1,0.0001
256,192,86116,1,2,0:0:0:0:
136,208,86117,2,2,L|224:200,1,0.0001
136,208,86117,2,2,L|224:200,1,0.0001
136,208,86117,2,2,L|224:200,1,0.0001
256,192,86200,1,0,0:0:0:0:
136,208,86201,2,0,L|224:200,1,0.0001
136,208,86201,2,0,L|224:200,1,0.0001
136,208,86201,2,0,L|224:200,1,0.0001
256,192,86366,1,2,0:0:0:0:
136,208,86367,2,2,L|224:200,1,0.0001
136,208,86367,2,2,L|224:200,1,0.0001
136,208,86367,2,2,L|224:200,1,0.0001
256,192,86450,1,0,0:0:0:0:
136,208,86451,2,0,L|224:200,1,0.0001
136,208,86451,2,0,L|224:200,1,0.0001
136,208,86451,2,0,L|224:200,1,0.0001
256,192,86533,1,0,0:0:0:0:
136,208,86534,2,0,L|224:200,1,0.0001
136,208,86534,2,0,L|224:200,1,0.0001
136,208,86534,2,0,L|224:200,1,0.0001
256,192,86616,1,2,0:0:0:0:
136,208,86617,2,2,L|224:200,1,0.0001
136,208,86617,2,2,L|224:200,1,0.0001
136,208,86617,2,2,L|224:200,1,0.0001
256,192,86700,1,0,0:0:0:0:
136,208,86701,2,0,L|224:200,1,0.0001
136,208,86701,2,0,L|224:200,1,0.0001
136,208,86701,2,0,L|224:200,1,0.0001
256,192,86866,1,0,0:0:0:0:
136,208,86867,2,0,L|224:200,1,0.0001
136,208,86867,2,0,L|224:200,1,0.0001
136,208,86867,2,0,L|224:200,1,0.0001
256,192,86950,1,2,0:0:0:0:
136,208,86951,2,2,L|224:200,1,0.0001
136,208,86951,2,2,L|224:200,1,0.0001
136,208,86951,2,2,L|224:200,1,0.0001
256,192,87116,1,0,0:0:0:0:
136,208,87117,2,0,L|224:200,1,0.0001
136,208,87117,2,0,L|224:200,1,0.0001
136,208,87117,2,0,L|224:200,1,0.0001
256,192,87200,1,2,0:0:0:0:
136,208,87201,2,2,L|224:200,1,0.0001
136,208,87201,2,2,L|224:200,1,0.0001
136,208,87201,2,2,L|224:200,1,0.0001
256,192,87366,1,0,0:0:0:0:
136,208,87367,2,0,L|224:200,1,0.0001
136,208,87367,2,0,L|224:200,1,0.0001
136,208,87367,2,0,L|224:200,1,0.0001
256,192,87450,1,2,0:0:0:0:
136,208,87451,2,2,L|224:200,1,0.0001
136,208,87451,2,2,L|224:200,1,0.0001
136,208,87451,2,2,L|224:200,1,0.0001
256,192,87616,1,0,0:0:0:0:
136,208,87617,2,0,L|224:200,1,0.0001
136,208,87617,2,0,L|224:200,1,0.0001
136,208,87617,2,0,L|224:200,1,0.0001
256,192,87700,1,2,0:0:0:0:
136,208,87701,2,2,L|224:200,1,0.0001
136,208,87701,2,2,L|224:200,1,0.0001
136,208,87701,2,2,L|224:200,1,0.0001
256,192,87783,1,2,0:0:0:0:
136,208,87784,2,2,L|224:200,1,0.0001
136,208,87784,2,2,L|224:200,1,0.0001
136,208,87784,2,2,L|224:200,1,0.0001
256,192,87866,1,2,0:0:0:0:
136,208,87867,2,2,L|224:200,1,0.0001
136,208,87867,2,2,L|224:200,1,0.0001
136,208,87867,2,2,L|224:200,1,0.0001
256,192,87950,1,0,0:0:0:0:
136,208,87951,2,0,L|224:200,1,0.0001
136,208,87951,2,0,L|224:200,1,0.0001
136,208,87951,2,0,L|224:200,1,0.0001
256,192,88116,1,2,0:0:0:0:
136,208,88117,2,2,L|224:200,1,0.0001
136,208,88117,2,2,L|224:200,1,0.0001
136,208,88117,2,2,L|224:200,1,0.0001
256,192,88200,1,2,0:0:0:0:
136,208,88201,2,2,L|224:200,1,0.0001
136,208,88201,2,2,L|224:200,1,0.0001
136,208,88201,2,2,L|224:200,1,0.0001
256,192,88283,1,0,0:0:0:0:
136,208,88284,2,0,L|224:200,1,0.0001
136,208,88284,2,0,L|224:200,1,0.0001
136,208,88284,2,0,L|224:200,1,0.0001
256,192,88366,1,2,0:0:0:0:
136,208,88367,2,2,L|224:200,1,0.0001
136,208,88367,2,2,L|224:200,1,0.0001
136,208,88367,2,2,L|224:200,1,0.0001
256,192,88450,1,0,0:0:0:0:
136,208,88451,2,0,L|224:200,1,0.0001
136,208,88451,2,0,L|224:200,1,0.0001
136,208,88451,2,0,L|224:200,1,0.0001
256,192,88533,1,2,0:0:0:0:
136,208,88534,2,2,L|224:200,1,0.0001
136,208,88534,2,2,L|224:200,1,0.0001
136,208,88534,2,2,L|224:200,1,0.0001
256,192,88616,1,2,0:0:0:0:
136,208,88617,2,2,L|224:200,1,0.0001
136,208,88617,2,2,L|224:200,1,0.0001
136,208,88617,2,2,L|224:200,1,0.0001
256,192,88700,1,0,0:0:0:0:
136,208,88701,2,0,L|224:200,1,0.0001
136,208,88701,2,0,L|224:200,1,0.0001
136,208,88701,2,0,L|224:200,1,0.0001
256,192,88866,1,0,0:0:0:0:
136,208,88867,2,0,L|224:200,1,0.0001
136,208,88867,2,0,L|224:200,1,0.0001
136,208,88867,2,0,L|224:200,1,0.0001
256,192,88950,1,2,0:0:0:0:
136,208,88951,2,2,L|224:200,1,0.0001
136,208,88951,2,2,L|224:200,1,0.0001
136,208,88951,2,2,L|224:200,1,0.0001
256,192,89116,1,0,0:0:0:0:
136,208,89117,2,0,L|224:200,1,0.0001
136,208,89117,2,0,L|224:200,1,0.0001
136,208,89117,2,0,L|224:200,1,0.0001
256,192,89200,1,2,0:0:0:0:
136,208,89201,2,2,L|224:200,1,0.0001
136,208,89201,2,2,L|224:200,1,0.0001
136,208,89201,2,2,L|224:200,1,0.0001
256,192,89366,1,0,0:0:0:0:
136,208,89367,2,0,L|224:200,1,0.0001
136,208,89367,2,0,L|224:200,1,0.0001
136,208,89367,2,0,L|224:200,1,0.0001
256,192,89450,1,2,0:0:0:0:
136,208,89451,2,2,L|224:200,1,0.0001
136,208,89451,2,2,L|224:200,1,0.0001
136,208,89451,2,2,L|224:200,1,0.0001
256,192,89616,1,0,0:0:0:0:
136,208,89617,2,0,L|224:200,1,0.0001
136,208,89617,2,0,L|224:200,1,0.0001
136,208,89617,2,0,L|224:200,1,0.0001
256,192,89700,1,2,0:0:0:0:
136,208,89701,2,2,L|224:200,1,0.0001
136,208,89701,2,2,L|224:200,1,0.0001
136,208,89701,2,2,L|224:200,1,0.0001
256,192,89783,1,0,0:0:0:0:
136,208,89784,2,0,L|224:200,1,0.0001
136,208,89784,2,0,L|224:200,1,0.0001
136,208,89784,2,0,L|224:200,1,0.0001
256,192,89866,1,2,0:0:0:0:
136,208,89867,2,2,L|224:200,1,0.0001
136,208,89867,2,2,L|224:200,1,0.0001
136,208,89867,2,2,L|224:200,1,0.0001
256,192,89950,1,0,0:0:0:0:
136,208,89951,2,0,L|224:200,1,0.0001
136,208,89951,2,0,L|224:200,1,0.0001
136,208,89951,2,0,L|224:200,1,0.0001
256,192,90116,1,2,0:0:0:0:
136,208,90117,2,2,L|224:200,1,0.0001
136,208,90117,2,2,L|224:200,1,0.0001
136,208,90117,2,2,L|224:200,1,0.0001
256,192,90200,1,0,0:0:0:0:
136,208,90201,2,0,L|224:200,1,0.0001
136,208,90201,2,0,L|224:200,1,0.0001
136,208,90201,2,0,L|224:200,1,0.0001
256,192,90366,1,2,0:0:0:0:
136,208,90367,2,2,L|224:200,1,0.0001
136,208,90367,2,2,L|224:200,1,0.0001
136,208,90367,2,2,L|224:200,1,0.0001
256,192,90450,1,0,0:0:0:0:
136,208,90451,2,0,L|224:200,1,0.0001
136,208,90451,2,0,L|224:200,1,0.0001
136,208,90451,2,0,L|224:200,1,0.0001
256,192,90533,1,0,0:0:0:0:
136,208,90534,2,0,L|224:200,1,0.0001
136,208,90534,2,0,L|224:200,1,0.0001
136,208,90534,2,0,L|224:200,1,0.0001
256,192,90616,1,0,0:0:0:0:
136,208,90617,2,0,L|224:200,1,0.0001
136,208,90617,2,0,L|224:200,1,0.0001
136,208,90617,2,0,L|224:200,1,0.0001
256,192,90700,1,2,0:0:0:0:
136,208,90701,2,2,L|224:200,1,0.0001
136,208,90701,2,2,L|224:200,1,0.0001
136,208,90701,2,2,L|224:200,1,0.0001
256,192,90866,1,0,0:0:0:0:
136,208,90867,2,0,L|224:200,1,0.0001
136,208,90867,2,0,L|224:200,1,0.0001
136,208,90867,2,0,L|224:200,1,0.0001
256,192,90950,1,0,0:0:0:0:
136,208,90951,2,0,L|224:200,1,0.0001
136,208,90951,2,0,L|224:200,1,0.0001
136,208,90951,2,0,L|224:200,1,0.0001
256,192,91116,1,2,0:0:0:0:
136,208,91117,2,2,L|224:200,1,0.0001
136,208,91117,2,2,L|224:200,1,0.0001
136,208,91117,2,2,L|224:200,1,0.0001
256,192,91200,1,2,0:0:0:0:
136,208,91201,2,2,L|224:200,1,0.0001
136,208,91201,2,2,L|224:200,1,0.0001
136,208,91201,2,2,L|224:200,1,0.0001
256,192,91366,1,0,0:0:0:0:
136,208,91367,2,0,L|224:200,1,0.0001
136,208,91367,2,0,L|224:200,1,0.0001
136,208,91367,2,0,L|224:200,1,0.0001
256,192,91450,1,2,0:0:0:0:
136,208,91451,2,2,L|224:200,1,0.0001
136,208,91451,2,2,L|224:200,1,0.0001
136,208,91451,2,2,L|224:200,1,0.0001
256,192,91616,5,0,0:0:0:0:
136,208,91617,2,0,L|224:200,1,0.0001
136,208,91617,2,0,L|224:200,1,0.0001
136,208,91617,2,0,L|224:200,1,0.0001
256,192,91700,1,2,0:0:0:0:
136,208,91701,2,2,L|224:200,1,0.0001
136,208,91701,2,2,L|224:200,1,0.0001
136,208,91701,2,2,L|224:200,1,0.0001
256,192,91866,1,0,0:0:0:0:
136,208,91867,2,0,L|224:200,1,0.0001
136,208,91867,2,0,L|224:200,1,0.0001
136,208,91867,2,0,L|224:200,1,0.0001
256,192,91950,1,2,0:0:0:0:
136,208,91951,2,2,L|224:200,1,0.0001
136,208,91951,2,2,L|224:200,1,0.0001
136,208,91951,2,2,L|224:200,1,0.0001
256,192,92033,1,0,0:0:0:0:
136,208,92034,2,0,L|224:200,1,0.0001
136,208,92034,2,0,L|224:200,1,0.0001
136,208,92034,2,0,L|224:200,1,0.0001
256,192,92116,1,2,0:0:0:0:
136,208,92117,2,2,L|224:200,1,0.0001
136,208,92117,2,2,L|224:200,1,0.0001
136,208,92117,2,2,L|224:200,1,0.0001
256,192,92200,1,2,0:0:0:0:
136,208,92201,2,2,L|224:200,1,0.0001
136,208,92201,2,2,L|224:200,1,0.0001
136,208,92201,2,2,L|224:200,1,0.0001
256,192,92283,1,2,0:0:0:0:
136,208,92284,2,2,L|224:200,1,0.0001
136,208,92284,2,2,L|224:200,1,0.0001
136,208,92284,2,2,L|224:200,1,0.0001
256,192,92366,1,0,0:0:0:0:
136,208,92367,2,0,L|224:200,1,0.0001
136,208,92367,2,0,L|224:200,1,0.0001
136,208,92367,2,0,L|224:200,1,0.0001
256,192,92450,1,0,0:0:0:0:
136,208,92451,2,0,L|224:200,1,0.0001
136,208,92451,2,0,L|224:200,1,0.0001
136,208,92451,2,0,L|224:200,1,0.0001
256,192,92533,1,0,0:0:0:0:
136,208,92534,2,0,L|224:200,1,0.0001
136,208,92534,2,0,L|224:200,1,0.0001
136,208,92534,2,0,L|224:200,1,0.0001
256,192,92616,1,0,0:0:0:0:
136,208,92617,2,0,L|224:200,1,0.0001
136,208,92617,2,0,L|224:200,1,0.0001
136,208,92617,2,0,L|224:200,1,0.0001
256,192,92700,1,6,0:0:0:0:
136,208,92701,2,6,L|224:200,1,0.0001
136,208,92701,2,6,L|224:200,1,0.0001
136,208,92701,2,6,L|224:200,1,0.0001
256,192,93200,1,8,0:0:0:0:
256,192,93366,1,0,0:0:0:0:
256,192,93533,1,0,0:0:0:0:
256,192,93700,1,8,0:0:0:0:
256,192,93866,1,0,0:0:0:0:
256,192,94033,1,0,0:0:0:0:
256,192,94200,1,8,0:0:0:0:
136,208,94668,2,0,L|224:200,1,0.0001
256,192,94700,1,8,0:0:0:0:
256,192,95200,1,8,0:0:0:0:
256,192,95366,1,0,0:0:0:0:
256,192,95533,1,8,0:0:0:0:
256,192,95700,1,8,0:0:0:0:
256,192,95866,1,0,0:0:0:0:
256,192,96033,1,0,0:0:0:0:
256,192,96200,1,8,0:0:0:0:
136,208,96668,2,0,L|224:200,1,0.0001
256,192,96700,1,0,0:0:0:0:
256,192,97200,1,8,0:0:0:0:
256,192,97366,1,0,0:0:0:0:
256,192,97533,1,0,0:0:0:0:
256,192,97700,1,8,0:0:0:0:
256,192,97866,1,0,0:0:0:0:
256,192,98033,1,0,0:0:0:0:
256,192,98200,1,8,0:0:0:0:
136,208,98668,2,0,L|224:200,1,0.0001
256,192,98700,1,8,0:0:0:0:
256,192,99200,1,8,0:0:0:0:
256,192,99366,1,0,0:0:0:0:
256,192,99533,1,8,0:0:0:0:
256,192,99700,1,8,0:0:0:0:
256,192,99866,1,0,0:0:0:0:
256,192,100033,1,0,0:0:0:0:
256,192,100200,1,8,0:0:0:0:
256,192,100700,1,4,0:0:0:0:
256,192,101161,1,8,0:0:0:0:
256,192,101315,1,0,0:0:0:0:
256,192,101469,1,8,0:0:0:0:
256,192,101623,1,8,0:0:0:0:
256,192,101776,1,0,0:0:0:0:
256,192,101930,1,0,0:0:0:0:
256,192,102084,1,8,0:0:0:0:
256,192,102546,1,12,0:0:0:0:
256,192,102974,1,8,0:0:0:0:
256,192,103117,1,0,0:0:0:0:
256,192,103260,1,8,0:0:0:0:
256,192,103403,1,8,0:0:0:0:
256,192,103546,1,8,0:0:0:0:
256,192,103688,1,0,0:0:0:0:
256,192,103831,1,8,0:0:0:0:
256,192,104260,1,4,0:0:0:0:
256,192,104635,1,8,0:0:0:0:
256,192,104760,1,0,0:0:0:0:
256,192,104885,1,8,0:0:0:0:
256,192,105010,1,8,0:0:0:0:
256,192,105135,1,0,0:0:0:0:
256,192,105260,1,0,0:0:0:0:
256,192,105385,1,8,0:0:0:0:
256,192,105760,1,12,0:0:0:0:
256,192,106093,1,8,0:0:0:0:
256,192,106204,1,0,0:0:0:0:
256,192,106315,1,8,0:0:0:0:
256,192,106426,1,8,0:0:0:0:
256,192,106537,1,8,0:0:0:0:
256,192,106648,1,0,0:0:0:0:
256,192,106760,1,8,0:0:0:0:
256,192,107093,1,4,0:0:0:0:
256,192,107393,1,8,0:0:0:0:
256,192,107693,1,4,0:0:0:0:
256,192,107993,1,8,0:0:0:0:
256,192,108293,1,12,0:0:0:0:
256,192,108565,1,0,0:0:0:0:
256,192,108838,1,12,0:0:0:0:
256,192,109111,1,0,0:0:0:0:
256,192,109383,1,4,0:0:0:0:
256,192,109633,1,8,0:0:0:0:
256,192,109883,1,4,0:0:0:0:
256,192,110133,1,8,0:0:0:0:
256,192,110383,1,12,0:0:0:0:
256,192,110597,1,0,0:0:0:0:
256,192,110811,1,12,0:0:0:0:
256,192,111025,1,0,0:0:0:0:
256,192,111240,1,8,0:0:0:0:
256,192,111440,1,8,0:0:0:0:
256,192,111640,1,0,0:0:0:0:
256,192,111840,1,0,0:0:0:0:
256,192,112040,1,8,0:0:0:0:
256,192,112227,1,8,0:0:0:0:
256,192,112416,1,0,0:0:0:0:
256,192,112602,1,0,0:0:0:0:
256,192,112790,1,8,0:0:0:0:
256,192,112966,1,8,0:0:0:0:
256,192,113142,1,0,0:0:0:0:
256,192,113319,1,0,0:0:0:0:
256,192,113495,1,8,0:0:0:0:
256,192,113661,1,8,0:0:0:0:
256,192,113828,1,0,0:0:0:0:
256,192,113995,1,0,0:0:0:0:
256,192,114161,1,8,0:0:0:0:
256,192,114239,1,8,0:0:0:0:
256,192,114318,1,8,0:0:0:0:
256,192,114397,1,8,0:0:0:0:
256,192,114476,1,0,0:0:0:0:
256,192,114555,1,0,0:0:0:0:
256,192,114634,1,0,0:0:0:0:
256,192,114713,1,0,0:0:0:0:
256,192,114793,1,8,0:0:0:0:
256,192,114869,1,8,0:0:0:0:
256,192,114946,1,8,0:0:0:0:
256,192,115023,1,8,0:0:0:0:
256,192,115100,1,0,0:0:0:0:
256,192,115177,1,0,0:0:0:0:
256,192,115254,1,0,0:0:0:0:
256,192,115331,1,0,0:0:0:0:
256,192,115408,1,8,0:0:0:0:
256,192,115483,1,8,0:0:0:0:
256,192,115558,1,8,0:0:0:0:
256,192,115633,1,8,0:0:0:0:
256,192,115708,1,0,0:0:0:0:
256,192,115783,1,0,0:0:0:0:
256,192,115858,1,0,0:0:0:0:
256,192,115933,1,0,0:0:0:0:
256,192,116008,1,8,0:0:0:0:
256,192,116158,1,0,0:0:0:0:
256,192,116308,1,8,0:0:0:0:
256,192,116610,5,4,0:0:0:0:
256,192,116610,12,0,116910,0:0:0:0:
256,192,117210,5,2,0:0:0:0:
256,192,117285,1,2,0:0:0:0:
256,192,117360,1,2,0:0:0:0:
256,192,117435,1,2,0:0:0:0:
256,192,117510,1,2,0:0:0:0:
256,192,117585,1,2,0:0:0:0:
256,192,117660,1,2,0:0:0:0:
256,192,117735,1,2,0:0:0:0:
256,192,117810,1,4,0:0:0:0:
256,192,117960,1,0,0:0:0:0:
256,192,118035,1,0,0:0:0:0:
256,192,118110,1,2,0:0:0:0:
256,192,118185,1,2,0:0:0:0:
256,192,118260,1,0,0:0:0:0:
256,192,118410,1,2,0:0:0:0:
256,192,118485,1,2,0:0:0:0:
256,192,118560,1,0,0:0:0:0:
256,192,118635,1,0,0:0:0:0:
256,192,118710,1,2,0:0:0:0:
256,192,118747,1,2,0:0:0:0:
256,192,118860,1,2,0:0:0:0:
256,192,118897,1,2,0:0:0:0:
256,192,119010,5,4,0:0:0:0:
256,192,119010,12,0,119310,0:0:0:0:
256,192,119610,5,0,0:0:0:0:
256,192,119685,1,0,0:0:0:0:
256,192,119760,1,0,0:0:0:0:
256,192,119835,1,0,0:0:0:0:
256,192,119910,1,0,0:0:0:0:
256,192,119985,1,0,0:0:0:0:
256,192,120060,1,0,0:0:0:0:
256,192,120135,1,0,0:0:0:0:
256,192,120210,1,2,0:0:0:0:
256,192,120360,1,2,0:0:0:0:
256,192,120435,1,0,0:0:0:0:
256,192,120585,1,2,0:0:0:0:
256,192,120660,1,0,0:0:0:0:
256,192,120810,1,2,0:0:0:0:
256,192,120885,1,2,0:0:0:0:
256,192,120960,1,0,0:0:0:0:
256,192,121035,1,2,0:0:0:0:
256,192,121110,1,0,0:0:0:0:
256,192,121147,1,0,0:0:0:0:
256,192,121260,1,0,0:0:0:0:
256,192,121297,1,0,0:0:0:0:
256,192,121410,5,6,0:0:0:0:
256,192,121410,12,0,121710,0:0:0:0:
256,192,122010,5,2,0:0:0:0:
256,192,122085,1,2,0:0:0:0:
256,192,122160,1,2,0:0:0:0:
256,192,122235,1,2,0:0:0:0:
256,192,122310,1,2,0:0:0:0:
256,192,122385,1,2,0:0:0:0:
256,192,122460,1,2,0:0:0:0:
256,192,122535,1,2,0:0:0:0:
256,192,122610,1,4,0:0:0:0:
256,192,122710,1,2,0:0:0:0:
256,192,122810,1,2,0:0:0:0:
256,192,122910,1,2,0:0:0:0:
256,192,123060,1,0,0:0:0:0:
256,192,123210,1,2,0:0:0:0:
256,192,123360,1,0,0:0:0:0:
256,192,123435,1,0,0:0:0:0:
256,192,123510,1,2,0:0:0:0:
256,192,123547,1,2,0:0:0:0:
256,192,123660,1,2,0:0:0:0:
256,192,123697,1,2,0:0:0:0:
256,192,123810,5,4,0:0:0:0:
256,192,123960,1,2,0:0:0:0:
256,192,124035,1,2,0:0:0:0:
256,192,124110,1,0,0:0:0:0:
256,192,124185,1,0,0:0:0:0:
256,192,124260,1,2,0:0:0:0:
256,192,124410,1,0,0:0:0:0:
256,192,124485,1,0,0:0:0:0:
256,192,124560,1,0,0:0:0:0:
256,192,124635,1,0,0:0:0:0:
256,192,124710,1,0,0:0:0:0:
256,192,124785,1,0,0:0:0:0:
256,192,124860,1,0,0:0:0:0:
256,192,124935,1,0,0:0:0:0:
256,192,125010,1,6,0:0:0:0:
256,192,125160,1,2,0:0:0:0:
256,192,125235,1,0,0:0:0:0:
256,192,125385,1,2,0:0:0:0:
256,192,125460,1,0,0:0:0:0:
256,192,125610,1,2,0:0:0:0:
256,192,125760,1,0,0:0:0:0:
256,192,125835,1,0,0:0:0:0:
256,192,125910,1,2,0:0:0:0:
256,192,125985,1,2,0:0:0:0:
256,192,126060,1,0,0:0:0:0:
256,192,126135,1,0,0:0:0:0:
256,192,126210,5,6,0:0:0:0:
256,192,126210,8,0,126510,0:0:0:0:
136,208,126228,6,4,L|224:200,1,0.0001
256,192,126810,5,2,0:0:0:0:
256,192,126885,1,2,0:0:0:0:
256,192,126960,1,2,0:0:0:0:
256,192,127035,1,2,0:0:0:0:
256,192,127110,1,2,0:0:0:0:
256,192,127185,1,2,0:0:0:0:
256,192,127260,1,2,0:0:0:0:
256,192,127335,1,2,0:0:0:0:
256,192,127410,1,4,0:0:0:0:
256,192,127560,1,0,0:0:0:0:
256,192,127635,1,0,0:0:0:0:
256,192,127710,1,2,0:0:0:0:
256,192,127785,1,2,0:0:0:0:
256,192,127860,1,0,0:0:0:0:
256,192,128010,1,2,0:0:0:0:
256,192,128085,1,2,0:0:0:0:
256,192,128160,1,0,0:0:0:0:
256,192,128235,1,0,0:0:0:0:
256,192,128310,1,2,0:0:0:0:
256,192,128347,1,2,0:0:0:0:
256,192,128460,1,2,0:0:0:0:
256,192,128497,1,2,0:0:0:0:
256,192,128610,5,6,0:0:0:0:
256,192,128610,12,4,128910,0:0:0:0:
136,208,128628,6,4,L|224:200,1,0.0001
256,192,129210,1,0,0:0:0:0:
256,192,129285,1,0,0:0:0:0:
256,192,129360,1,0,0:0:0:0:
256,192,129435,1,0,0:0:0:0:
256,192,129510,1,0,0:0:0:0:
256,192,129585,1,0,0:0:0:0:
256,192,129660,1,0,0:0:0:0:
256,192,129735,1,0,0:0:0:0:
256,192,129810,1,6,0:0:0:0:
256,192,129960,1,2,0:0:0:0:
256,192,130035,1,0,0:0:0:0:
256,192,130185,1,2,0:0:0:0:
256,192,130260,1,0,0:0:0:0:
256,192,130410,1,2,0:0:0:0:
256,192,130485,1,0,0:0:0:0:
256,192,130560,1,0,0:0:0:0:
256,192,130635,1,2,0:0:0:0:
256,192,130710,1,0,0:0:0:0:
256,192,130747,1,0,0:0:0:0:
256,192,130860,1,0,0:0:0:0:
256,192,130897,1,0,0:0:0:0:
256,192,131010,5,6,0:0:0:0:
256,192,131010,8,0,131310,0:0:0:0:
136,208,131028,6,4,L|224:200,1,0.0001
256,192,131610,5,2,0:0:0:0:
256,192,131685,1,2,0:0:0:0:
256,192,131760,1,2,0:0:0:0:
256,192,131835,1,2,0:0:0:0:
256,192,131910,1,2,0:0:0:0:
256,192,131985,1,2,0:0:0:0:
256,192,132060,1,2,0:0:0:0:
256,192,132135,1,2,0:0:0:0:
256,192,132210,1,4,0:0:0:0:
256,192,132310,1,2,0:0:0:0:
256,192,132410,1,2,0:0:0:0:
256,192,132510,1,2,0:0:0:0:
256,192,132660,1,0,0:0:0:0:
256,192,132810,1,2,0:0:0:0:
256,192,132960,1,0,0:0:0:0:
256,192,133035,1,0,0:0:0:0:
256,192,133110,1,2,0:0:0:0:
256,192,133147,1,2,0:0:0:0:
256,192,133260,1,2,0:0:0:0:
256,192,133297,1,2,0:0:0:0:
256,192,133410,1,4,0:0:0:0:
136,208,133428,2,4,L|224:200,1,0.0001
256,192,133560,1,2,0:0:0:0:
256,192,133635,1,2,0:0:0:0:
256,192,133710,1,0,0:0:0:0:
256,192,133785,1,0,0:0:0:0:
256,192,133860,1,2,0:0:0:0:
256,192,134010,1,0,0:0:0:0:
256,192,134085,1,0,0:0:0:0:
256,192,134160,1,0,0:0:0:0:
256,192,134235,1,0,0:0:0:0:
256,192,134310,1,0,0:0:0:0:
256,192,134385,1,0,0:0:0:0:
256,192,134460,1,0,0:0:0:0:
256,192,134535,1,0,0:0:0:0:
256,192,134610,1,6,0:0:0:0:
256,192,134760,1,0,0:0:0:0:
256,192,134835,1,2,0:0:0:0:
256,192,134910,1,0,0:0:0:0:
256,192,134985,1,0,0:0:0:0:
256,192,135060,1,2,0:0:0:0:
256,192,135135,1,2,0:0:0:0:
256,192,135210,1,0,0:0:0:0:
256,192,135285,1,0,0:0:0:0:
256,192,135360,1,2,0:0:0:0:
256,192,135435,1,0,0:0:0:0:
256,192,135510,1,2,0:0:0:0:
256,192,135585,1,2,0:0:0:0:
256,192,135660,1,2,0:0:0:0:
256,192,135735,1,2,0:0:0:0:
256,192,135810,1,4,0:0:0:0:
256,192,135828,2,4,L|384:192,10,87.5
256,192,136110,1,6,0:0:0:0:
256,192,136410,1,2,0:0:0:0:
256,192,136485,1,2,0:0:0:0:
256,192,136560,1,2,0:0:0:0:
256,192,136635,1,2,0:0:0:0:
256,192,136710,1,2,0:0:0:0:
256,192,136785,1,2,0:0:0:0:
256,192,136860,1,2,0:0:0:0:
256,192,136935,1,2,0:0:0:0:
256,192,137010,1,4,0:0:0:0:
256,192,137160,1,0,0:0:0:0:
256,192,137235,1,0,0:0:0:0:
256,192,137310,1,2,0:0:0:0:
256,192,137385,1,2,0:0:0:0:
256,192,137460,1,0,0:0:0:0:
256,192,137610,1,2,0:0:0:0:
256,192,137685,1,2,0:0:0:0:
256,192,137760,1,0,0:0:0:0:
256,192,137835,1,0,0:0:0:0:
256,192,137910,1,2,0:0:0:0:
256,192,137947,1,2,0:0:0:0:
256,192,138060,1,2,0:0:0:0:
256,192,138097,1,2,0:0:0:0:
256,192,138210,1,4,0:0:0:0:
256,192,138228,2,4,L|416:192,10,87.5
256,192,138510,1,6,0:0:0:0:
256,192,138810,1,0,0:0:0:0:
256,192,138885,1,0,0:0:0:0:
256,192,138960,1,0,0:0:0:0:
256,192,139035,1,0,0:0:0:0:
256,192,139110,1,0,0:0:0:0:
256,192,139185,1,0,0:0:0:0:
256,192,139260,1,0,0:0:0:0:
256,192,139335,1,0,0:0:0:0:
256,192,139410,1,6,0:0:0:0:
256,192,139560,1,0,0:0:0:0:
256,192,139710,1,2,0:0:0:0:
256,192,139785,1,2,0:0:0:0:
256,192,139860,1,0,0:0:0:0:
256,192,139935,1,0,0:0:0:0:
256,192,140010,1,2,0:0:0:0:
256,192,140085,1,0,0:0:0:0:
256,192,140160,1,2,0:0:0:0:
256,192,140235,1,2,0:0:0:0:
256,192,140310,1,0,0:0:0:0:
256,192,140347,1,0,0:0:0:0:
256,192,140460,1,0,0:0:0:0:
256,192,140497,1,0,0:0:0:0:
256,192,140610,1,6,0:0:0:0:
256,192,140628,2,4,L|384:192,10,87.5
256,192,140910,1,4,0:0:0:0:
256,192,141210,1,2,0:0:0:0:
256,192,141285,1,2,0:0:0:0:
256,192,141360,1,2,0:0:0:0:
256,192,141435,1,2,0:0:0:0:
256,192,141510,1,2,0:0:0:0:
256,192,141585,1,2,0:0:0:0:
256,192,141660,1,2,0:0:0:0:
256,192,141735,1,2,0:0:0:0:
256,192,141810,1,4,0:0:0:0:
256,192,141910,1,2,0:0:0:0:
256,192,142010,1,2,0:0:0:0:
256,192,142110,1,2,0:0:0:0:
256,192,142260,1,0,0:0:0:0:
256,192,142410,1,2,0:0:0:0:
256,192,142560,1,0,0:0:0:0:
256,192,142635,1,0,0:0:0:0:
256,192,142710,1,2,0:0:0:0:
256,192,142747,1,2,0:0:0:0:
256,192,142860,1,2,0:0:0:0:
256,192,142897,1,2,0:0:0:0:
256,192,143010,1,4,0:0:0:0:
256,192,143028,2,4,L|256:256,2,35
256,192,143160,1,0,0:0:0:0:
256,192,143235,1,2,0:0:0:0:
256,192,143310,1,0,0:0:0:0:
256,192,143385,1,0,0:0:0:0:
256,192,143460,1,2,0:0:0:0:
256,192,143535,1,2,0:0:0:0:
256,192,143610,1,0,0:0:0:0:
256,192,143685,1,0,0:0:0:0:
256,192,143760,1,0,0:0:0:0:
256,192,143835,1,0,0:0:0:0:
256,192,143910,1,0,0:0:0:0:
256,192,143985,1,0,0:0:0:0:
256,192,144060,1,0,0:0:0:0:
256,192,144135,1,0,0:0:0:0:
256,192,144210,1,2,0:0:0:0:
256,192,144285,1,2,0:0:0:0:
256,192,144360,1,0,0:0:0:0:
256,192,144435,1,2,0:0:0:0:
256,192,144510,1,0,0:0:0:0:
256,192,144585,1,0,0:0:0:0:
256,192,144660,1,2,0:0:0:0:
256,192,144735,1,0,0:0:0:0:
256,192,144810,1,2,0:0:0:0:
256,192,144885,1,2,0:0:0:0:
256,192,144960,1,2,0:0:0:0:
256,192,145035,1,2,0:0:0:0:
256,192,145110,1,0,0:0:0:0:
256,192,145185,1,0,0:0:0:0:
256,192,145260,1,2,0:0:0:0:
256,192,145335,1,2,0:0:0:0:
256,192,145410,5,4,0:0:0:0:
256,192,146010,1,8,0:0:0:0:
256,192,146210,1,0,0:0:0:0:
256,192,146410,1,0,0:0:0:0:
256,192,146610,1,8,0:0:0:0:
256,192,146791,1,0,0:0:0:0:
256,192,146973,1,0,0:0:0:0:
256,192,147155,1,8,0:0:0:0:
256,192,147700,1,12,0:0:0:0:
256,192,148200,1,8,0:0:0:0:
256,192,148366,1,0,0:0:0:0:
256,192,148533,1,8,0:0:0:0:
256,192,148700,1,8,0:0:0:0:
256,192,148853,1,0,0:0:0:0:
256,192,149007,1,0,0:0:0:0:
256,192,149161,1,8,0:0:0:0:
256,192,149623,1,4,0:0:0:0:
256,192,150051,1,8,0:0:0:0:
256,192,150194,1,0,0:0:0:0:
256,192,150337,1,8,0:0:0:0:
256,192,150480,1,8,0:0:0:0:
256,192,150613,1,0,0:0:0:0:
256,192,150746,1,0,0:0:0:0:
256,192,150880,1,8,0:0:0:0:
256,192,151280,1,12,0:0:0:0:
256,192,151655,1,8,0:0:0:0:
256,192,151780,1,0,0:0:0:0:
256,192,151905,1,8,0:0:0:0:
256,192,152030,1,8,0:0:0:0:
256,192,152147,1,8,0:0:0:0:
256,192,152265,1,0,0:0:0:0:
256,192,152382,1,8,0:0:0:0:
256,192,152735,1,4,0:0:0:0:
160,128,152901,2,0,L,1,-10
256,192,153068,1,8,0:0:0:0:
256,192,153179,1,0,0:0:0:0:
256,192,153290,1,0,0:0:0:0:
256,192,153401,1,8,0:0:0:0:
256,192,153506,1,0,0:0:0:0:
256,192,153611,1,0,0:0:0:0:
256,192,153716,1,8,0:0:0:0:
256,192,153874,2,0,L,1,-5
256,192,154032,1,8,0:0:0:0:
160,128,154182,2,0,L,1,-10
256,192,154332,1,8,0:0:0:0:
256,192,154432,1,0,0:0:0:0:
256,192,154532,1,8,0:0:0:0:
256,192,154632,1,8,0:0:0:0:
256,192,154727,1,0,0:0:0:0:
256,192,154822,1,0,0:0:0:0:
256,192,154917,1,8,0:0:0:0:
160,128,155060,2,0,L,1,-5
256,192,155203,1,0,0:0:0:0:
160,128,155339,2,0,L,1,-10
256,192,155475,1,8,0:0:0:0:
256,192,155566,1,0,0:0:0:0:
256,192,155657,1,8,0:0:0:0:
256,192,155748,1,8,0:0:0:0:
256,192,155834,1,0,0:0:0:0:
256,192,155921,1,0,0:0:0:0:
256,192,156008,1,8,0:0:0:0:
160,128,156139,2,0,L,1,-6
256,192,156269,1,8,0:0:0:0:
160,128,156394,2,0,L,1,-10
256,192,156519,1,8,0:0:0:0:
256,192,156602,1,0,0:0:0:0:
256,192,156685,1,8,0:0:0:0:
256,192,156769,1,8,0:0:0:0:
256,192,156849,1,8,0:0:0:0:
256,192,156929,1,0,0:0:0:0:
256,192,157009,1,8,0:0:0:0:
160,128,157129,2,0,L,1,-7
256,192,157249,1,4,0:0:0:0:
224,192,157364,2,0,L,1,-10
256,192,157479,1,8,0:0:0:0:
256,192,157556,1,0,0:0:0:0:
256,192,157633,1,0,0:0:0:0:
256,192,157710,1,8,0:0:0:0:
256,192,157784,1,0,0:0:0:0:
256,192,157858,1,0,0:0:0:0:
256,192,157932,1,8,0:0:0:0:
160,128,158043,2,0,L,1,-7
256,192,158154,1,8,0:0:0:0:
160,128,158261,2,0,L,1,-10
256,192,158368,1,8,0:0:0:0:
256,192,158439,1,0,0:0:0:0:
256,192,158511,1,8,0:0:0:0:
256,192,158582,1,8,0:0:0:0:
256,192,158650,1,0,0:0:0:0:
256,192,158719,1,0,0:0:0:0:
256,192,158788,1,8,0:0:0:0:
224,192,158892,2,0,L,1,-8
256,192,158995,1,4,0:0:0:0:
224,192,159095,2,0,L,1,-10
256,192,159195,1,8,0:0:0:0:
256,192,159261,1,0,0:0:0:0:
256,192,159328,1,8,0:0:0:0:
256,192,159395,1,8,0:0:0:0:
256,192,159461,1,0,0:0:0:0:
256,192,159528,1,0,0:0:0:0:
256,192,159595,1,8,0:0:0:0:
224,192,159695,2,0,L,1,-8
256,192,159795,1,8,0:0:0:0:
384,224,159895,2,0,L,1,-10
256,192,159995,1,8,0:0:0:0:
256,192,160061,1,0,0:0:0:0:
256,192,160128,1,8,0:0:0:0:
256,192,160195,1,8,0:0:0:0:
256,192,160261,1,8,0:0:0:0:
256,192,160328,1,0,0:0:0:0:
256,192,160395,1,8,0:0:0:0:
352,256,160495,2,0,L,1,-8
256,192,160595,1,8,0:0:0:0:
256,192,160645,1,0,0:0:0:0:
256,192,160695,1,0,0:0:0:0:
136,208,160745,2,0,L|224:200,1,0.0001
256,192,160795,1,0,0:0:0:0:
160,128,160895,2,0,L,1,-50
136,208,160907,2,0,L|224:200,1,0.0001
256,192,160995,1,8,0:0:0:0:
256,192,161045,1,0,0:0:0:0:
256,192,161095,1,0,0:0:0:0:
136,208,161145,2,0,L|224:200,1,0.0001
256,192,161195,1,0,0:0:0:0:
160,128,161295,2,0,L,1,-50
136,208,161307,2,0,L|224:200,1,0.0001
256,192,161395,1,8,0:0:0:0:
256,192,161445,1,8,0:0:0:0:
256,192,161495,1,0,0:0:0:0:
136,208,161545,2,0,L|224:200,1,0.0001
256,192,161595,1,0,0:0:0:0:
160,128,161695,2,0,L,1,-50
136,208,161707,2,0,L|224:200,1,0.0001
256,192,161795,1,8,0:0:0:0:
256,192,161845,1,8,0:0:0:0:
256,192,161895,1,0,0:0:0:0:
136,208,161945,2,0,L|224:200,1,0.0001
256,192,161995,1,0,0:0:0:0:
160,128,162095,2,0,L,1,-50
136,208,162107,2,0,L|224:200,1,0.0001
256,192,162195,1,8,0:0:0:0:
256,192,162245,1,8,0:0:0:0:
256,192,162295,1,8,0:0:0:0:
136,208,162345,2,0,L|224:200,1,0.0001
256,192,162395,1,0,0:0:0:0:
160,128,162495,2,0,L,1,-50
136,208,162507,2,0,L|224:200,1,0.0001
256,192,162595,1,8,0:0:0:0:
256,192,162645,1,8,0:0:0:0:
256,192,162695,1,8,0:0:0:0:
136,208,162745,2,0,L|224:200,1,0.0001
256,192,162795,1,0,0:0:0:0:
256,224,162895,2,0,L,1,-50
136,208,162907,2,0,L|224:200,1,0.0001
256,192,162995,1,8,0:0:0:0:
256,192,163045,1,8,0:0:0:0:
256,192,163095,1,8,0:0:0:0:
136,208,163145,2,0,L|224:200,1,0.0001
256,192,163195,1,8,0:0:0:0:
160,128,163295,2,0,L,1,-50
136,208,163307,2,0,L|224:200,1,0.0001
256,192,163395,1,8,0:0:0:0:
256,192,163445,1,8,0:0:0:0:
256,192,163495,1,8,0:0:0:0:
136,208,163545,2,0,L|224:200,1,0.0001
256,192,163595,1,8,0:0:0:0:
160,128,163695,2,0,L,1,-50
136,208,163707,2,0,L|224:200,1,0.0001
256,192,163795,1,8,0:0:0:0:
136,208,163796,2,0,L|224:200,1,0.0001
256,192,163845,1,0,0:0:0:0:
136,208,163846,2,0,L|224:200,1,0.0001
256,192,163895,1,0,0:0:0:0:
136,208,163896,2,0,L|224:200,1,0.0001
256,192,163945,1,0,0:0:0:0:
136,208,163946,2,0,L|224:200,1,0.0001
256,192,163995,1,8,0:0:0:0:
136,208,163996,2,0,L|224:200,1,0.0001
136,208,164045,2,0,L|224:200,1,0.0001
136,208,164046,2,0,L|224:200,1,0.0001
136,208,164095,2,0,L|224:200,1,0.0001
136,208,164096,2,0,L|224:200,1,0.0001
136,208,164145,2,0,L|224:200,1,0.0001
136,208,164146,2,0,L|224:200,1,0.0001
256,192,164195,1,8,0:0:0:0:
136,208,164196,2,0,L|224:200,1,0.0001
256,192,164245,1,8,0:0:0:0:
136,208,164246,2,0,L|224:200,1,0.0001
256,192,164295,1,0,0:0:0:0:
136,208,164296,2,0,L|224:200,1,0.0001
256,192,164345,1,0,0:0:0:0:
136,208,164346,2,0,L|224:200,1,0.0001
256,192,164395,1,8,0:0:0:0:
136,208,164396,2,0,L|224:200,1,0.0001
136,208,164445,2,0,L|224:200,1,0.0001
136,208,164446,2,0,L|224:200,1,0.0001
136,208,164495,2,0,L|224:200,1,0.0001
136,208,164496,2,0,L|224:200,1,0.0001
136,208,164545,2,0,L|224:200,1,0.0001
136,208,164546,2,0,L|224:200,1,0.0001
256,192,164595,1,8,0:0:0:0:
136,208,164596,2,0,L|224:200,1,0.0001
256,192,164645,1,8,0:0:0:0:
136,208,164646,2,0,L|224:200,1,0.0001
256,192,164695,1,8,0:0:0:0:
136,208,164696,2,0,L|224:200,1,0.0001
256,192,164745,1,0,0:0:0:0:
136,208,164746,2,0,L|224:200,1,0.0001
256,192,164795,1,8,0:0:0:0:
136,208,164796,2,0,L|224:200,1,0.0001
136,208,164845,2,0,L|224:200,1,0.0001
136,208,164846,2,0,L|224:200,1,0.0001
136,208,164870,2,0,L|224:200,1,0.0001
136,208,164871,2,0,L|224:200,1,0.0001
136,208,164895,2,0,L|224:200,1,0.0001
136,208,164896,2,0,L|224:200,1,0.0001
136,208,164920,2,0,L|224:200,1,0.0001
136,208,164921,2,0,L|224:200,1,0.0001
136,208,164945,2,0,L|224:200,1,0.0001
136,208,164946,2,0,L|224:200,1,0.0001
256,192,164995,1,8,0:0:0:0:
136,208,164996,2,0,L|224:200,1,0.0001
256,192,165045,1,8,0:0:0:0:
136,208,165046,2,0,L|224:200,1,0.0001
256,192,165095,1,8,0:0:0:0:
136,208,165096,2,0,L|224:200,1,0.0001
256,192,165145,1,8,0:0:0:0:
136,208,165146,2,0,L|224:200,1,0.0001
256,192,165195,1,8,0:0:0:0:
136,208,165196,2,0,L|224:200,1,0.0001
136,208,165245,2,0,L|224:200,1,0.0001
136,208,165246,2,0,L|224:200,1,0.0001
136,208,165270,2,0,L|224:200,1,0.0001
136,208,165271,2,0,L|224:200,1,0.0001
136,208,165295,2,0,L|224:200,1,0.0001
136,208,165296,2,0,L|224:200,1,0.0001
136,208,165320,2,0,L|224:200,1,0.0001
136,208,165321,2,0,L|224:200,1,0.0001
136,208,165345,2,0,L|224:200,1,0.0001
136,208,165346,2,0,L|224:200,1,0.0001
256,192,165395,1,4,0:0:0:0:
136,208,165396,2,4,L|224:200,1,0.0001
136,208,165397,2,4,L|224:200,1,0.0001
256,192,165995,1,8,0:0:0:0:
256,192,166095,1,8,0:0:0:0:
256,192,166395,1,0,0:0:0:0:
256,192,166595,1,12,0:0:0:0:
136,208,166596,2,4,L|224:200,1,0.0001
136,208,166596,2,4,L|224:200,1,0.0001
136,208,166596,2,4,L|224:200,1,0.0001
136,208,166596,2,4,L|224:200,1,0.0001
136,208,166596,2,4,L|224:200,1,0.0001
256,192,166999,1,4,0:0:0:0:
256,192,167005,12,0,167205,0:0:0:0:
136,208,167006,6,4,L|224:200,1,0.0001
136,208,167007,6,4,L|224:200,1,0.0001
136,208,167008,6,4,L|224:200,1,0.0001
136,208,167009,6,4,L|224:200,1,0.0001
136,208,167010,6,4,L|224:200,1,0.0001
136,208,167011,6,4,L|224:200,1,0.0001
136,208,167012,6,4,L|224:200,1,0.0001
256,192,167399,1,8,0:0:0:0:
136,208,167405,2,4,L|224:200,1,0.0001
136,208,167406,2,4,L|224:200,1,0.0001
136,208,167407,2,4,L|224:200,1,0.0001
136,208,167408,2,4,L|224:200,1,0.0001
136,208,167409,2,4,L|224:200,1,0.0001
136,208,167410,2,4,L|224:200,1,0.0001
136,208,167411,2,4,L|224:200,1,0.0001
136,208,167412,2,4,L|224:200,1,0.0001
256,192,167499,1,0,0:0:0:0:
256,192,167599,1,8,0:0:0:0:
256,192,167799,1,0,0:0:0:0:
136,208,167805,2,4,L|224:200,1,0.0001
136,208,167806,2,4,L|224:200,1,0.0001
136,208,167807,2,4,L|224:200,1,0.0001
136,208,167808,2,4,L|224:200,1,0.0001
136,208,167809,2,4,L|224:200,1,0.0001
136,208,167810,2,4,L|224:200,1,0.0001
136,208,167811,2,4,L|224:200,1,0.0001
136,208,167812,2,4,L|224:200,1,0.0001
256,192,167865,1,8,0:0:0:0:
256,192,167932,1,8,0:0:0:0:
256,192,167999,1,0,0:0:0:0:
256,192,168099,1,0,0:0:0:0:
256,192,168199,1,12,0:0:0:0:
136,208,168205,2,4,L|224:200,1,0.0001
136,208,168206,2,4,L|224:200,1,0.0001
136,208,168207,2,4,L|224:200,1,0.0001
136,208,168208,2,4,L|224:200,1,0.0001
136,208,168209,2,4,L|224:200,1,0.0001
136,208,168210,2,4,L|224:200,1,0.0001
136,208,168211,2,4,L|224:200,1,0.0001
136,208,168212,2,4,L|224:200,1,0.0001
256,192,168399,2,4,L|480:192,1,210
256,192,168599,1,0,0:0:0:0:
136,208,168605,6,0,L|224:200,1,0.0001
136,208,168605,6,4,L|224:200,1,0.0001
136,208,168606,6,4,L|224:200,1,0.0001
136,208,168607,6,4,L|224:200,1,0.0001
136,208,168608,6,4,L|224:200,1,0.0001
136,208,168609,6,4,L|224:200,1,0.0001
136,208,168610,6,4,L|224:200,1,0.0001
136,208,168611,6,4,L|224:200,1,0.0001
136,208,168612,6,4,L|224:200,1,0.0001
256,192,168699,1,8,0:0:0:0:
256,192,168799,1,0,0:0:0:0:
256,192,168899,1,0,0:0:0:0:
256,192,168999,1,8,0:0:0:0:
136,208,169005,2,0,L|224:200,1,0.0001
136,208,169005,2,4,L|224:200,1,0.0001
136,208,169006,2,4,L|224:200,1,0.0001
136,208,169007,2,4,L|224:200,1,0.0001
136,208,169008,2,4,L|224:200,1,0.0001
136,208,169009,2,4,L|224:200,1,0.0001
136,208,169010,2,4,L|224:200,1,0.0001
136,208,169011,2,4,L|224:200,1,0.0001
136,208,169012,2,4,L|224:200,1,0.0001
256,192,169065,1,8,0:0:0:0:
256,192,169132,1,0,0:0:0:0:
256,192,169199,1,0,0:0:0:0:
256,192,169332,1,0,0:0:0:0:
256,192,169399,1,8,0:0:0:0:
136,208,169405,2,0,L|224:200,1,0.0001
136,208,169405,2,4,L|224:200,1,0.0001
136,208,169406,2,4,L|224:200,1,0.0001
136,208,169407,2,4,L|224:200,1,0.0001
136,208,169408,2,4,L|224:200,1,0.0001
136,208,169409,2,4,L|224:200,1,0.0001
136,208,169410,2,4,L|224:200,1,0.0001
136,208,169411,2,4,L|224:200,1,0.0001
136,208,169412,2,4,L|224:200,1,0.0001
256,192,169532,1,0,0:0:0:0:
256,192,169599,1,8,0:0:0:0:
256,192,169665,1,0,0:0:0:0:
256,192,169732,1,0,0:0:0:0:
256,192,169799,1,12,0:0:0:0:
136,208,169805,2,0,L|224:200,1,0.0001
136,208,169805,2,4,L|224:200,1,0.0001
136,208,169806,2,4,L|224:200,1,0.0001
136,208,169807,2,4,L|224:200,1,0.0001
136,208,169808,2,4,L|224:200,1,0.0001
136,208,169809,2,4,L|224:200,1,0.0001
136,208,169810,2,4,L|224:200,1,0.0001
136,208,169811,2,4,L|224:200,1,0.0001
136,208,169812,2,4,L|224:200,1,0.0001
256,192,169932,1,0,0:0:0:0:
256,192,169999,1,8,0:0:0:0:
256,192,170065,1,8,0:0:0:0:
256,192,170132,1,8,0:0:0:0:
256,192,170199,1,4,0:0:0:0:
256,192,170205,12,0,170405,0:0:0:0:
136,208,170205,6,0,L|224:200,1,0.0001
136,208,170205,6,4,L|224:200,1,0.0001
136,208,170206,6,4,L|224:200,1,0.0001
136,208,170207,6,4,L|224:200,1,0.0001
136,208,170208,6,4,L|224:200,1,0.0001
136,208,170209,6,4,L|224:200,1,0.0001
136,208,170210,6,4,L|224:200,1,0.0001
136,208,170211,6,4,L|224:200,1,0.0001
136,208,170212,6,4,L|224:200,1,0.0001
256,192,170599,1,8,0:0:0:0:
136,208,170605,2,0,L|224:200,1,0.0001
136,208,170605,2,4,L|224:200,1,0.0001
136,208,170606,2,4,L|224:200,1,0.0001
136,208,170607,2,4,L|224:200,1,0.0001
136,208,170608,2,4,L|224:200,1,0.0001
136,208,170609,2,4,L|224:200,1,0.0001
136,208,170610,2,4,L|224:200,1,0.0001
136,208,170611,2,4,L|224:200,1,0.0001
136,208,170612,2,4,L|224:200,1,0.0001
256,192,170699,1,0,0:0:0:0:
256,192,170799,1,8,0:0:0:0:
256,192,170999,1,0,0:0:0:0:
136,208,171005,2,0,L|224:200,1,0.0001
136,208,171005,2,4,L|224:200,1,0.0001
136,208,171006,2,4,L|224:200,1,0.0001
136,208,171007,2,4,L|224:200,1,0.0001
136,208,171008,2,4,L|224:200,1,0.0001
136,208,171009,2,4,L|224:200,1,0.0001
136,208,171010,2,4,L|224:200,1,0.0001
136,208,171011,2,4,L|224:200,1,0.0001
136,208,171012,2,4,L|224:200,1,0.0001
256,192,171065,1,0,0:0:0:0:
256,192,171132,1,0,0:0:0:0:
256,192,171199,1,8,0:0:0:0:
256,192,171299,1,0,0:0:0:0:
256,192,171399,1,12,0:0:0:0:
136,208,171405,2,0,L|224:200,1,0.0001
136,208,171405,2,4,L|224:200,1,0.0001
136,208,171406,2,4,L|224:200,1,0.0001
136,208,171407,2,4,L|224:200,1,0.0001
136,208,171408,2,4,L|224:200,1,0.0001
136,208,171409,2,4,L|224:200,1,0.0001
136,208,171410,2,4,L|224:200,1,0.0001
136,208,171411,2,4,L|224:200,1,0.0001
136,208,171412,2,4,L|224:200,1,0.0001
256,192,171424,2,4,B|544:192|544:192,4,262.5
256,192,171799,1,0,0:0:0:0:
136,208,171805,6,0,L|224:200,1,0.0001
136,208,171805,6,4,L|224:200,1,0.0001
136,208,171806,6,4,L|224:200,1,0.0001
136,208,171807,6,4,L|224:200,1,0.0001
136,208,171808,6,4,L|224:200,1,0.0001
136,208,171809,6,4,L|224:200,1,0.0001
136,208,171810,6,4,L|224:200,1,0.0001
136,208,171811,6,4,L|224:200,1,0.0001
136,208,171812,6,4,L|224:200,1,0.0001
256,192,171899,1,8,0:0:0:0:
256,192,171999,1,0,0:0:0:0:
256,192,172199,1,8,0:0:0:0:
136,208,172205,2,0,L|224:200,1,0.0001
136,208,172205,2,4,L|224:200,1,0.0001
136,208,172206,2,4,L|224:200,1,0.0001
136,208,172207,2,4,L|224:200,1,0.0001
136,208,172208,2,4,L|224:200,1,0.0001
136,208,172209,2,4,L|224:200,1,0.0001
136,208,172210,2,4,L|224:200,1,0.0001
136,208,172211,2,4,L|224:200,1,0.0001
136,208,172212,2,4,L|224:200,1,0.0001
256,192,172265,1,8,0:0:0:0:
256,192,172332,1,0,0:0:0:0:
256,192,172399,1,0,0:0:0:0:
256,192,172532,1,8,0:0:0:0:
256,192,172599,1,0,0:0:0:0:
136,208,172605,2,0,L|224:200,1,0.0001
136,208,172605,2,4,L|224:200,1,0.0001
136,208,172606,2,4,L|224:200,1,0.0001
136,208,172607,2,4,L|224:200,1,0.0001
136,208,172608,2,4,L|224:200,1,0.0001
136,208,172609,2,4,L|224:200,1,0.0001
136,208,172610,2,4,L|224:200,1,0.0001
136,208,172611,2,4,L|224:200,1,0.0001
136,208,172612,2,4,L|224:200,1,0.0001
256,192,172699,1,8,0:0:0:0:
256,192,172799,1,8,0:0:0:0:
256,192,172865,1,0,0:0:0:0:
256,192,172932,1,0,0:0:0:0:
256,192,172999,1,12,0:0:0:0:
256,192,173004,2,4,L|480:192,1,210
136,208,173005,2,0,L|224:200,1,0.0001
136,208,173005,2,4,L|224:200,1,0.0001
136,208,173006,2,4,L|224:200,1,0.0001
136,208,173007,2,4,L|224:200,1,0.0001
136,208,173008,2,4,L|224:200,1,0.0001
136,208,173009,2,4,L|224:200,1,0.0001
136,208,173010,2,4,L|224:200,1,0.0001
136,208,173011,2,4,L|224:200,1,0.0001
136,208,173012,2,4,L|224:200,1,0.0001
256,192,173399,1,4,0:0:0:0:
256,192,173405,12,0,173605,0:0:0:0:
136,208,173405,6,4,L|224:200,1,0.0001
136,208,173406,6,4,L|224:200,1,0.0001
136,208,173407,6,4,L|224:200,1,0.0001
136,208,173408,6,4,L|224:200,1,0.0001
136,208,173409,6,4,L|224:200,1,0.0001
136,208,173410,6,4,L|224:200,1,0.0001
136,208,173411,6,4,L|224:200,1,0.0001
136,208,173412,6,4,L|224:200,1,0.0001
256,192,173799,1,8,0:0:0:0:
136,208,173805,6,4,L|224:200,1,0.0001
136,208,173806,6,4,L|224:200,1,0.0001
136,208,173807,6,4,L|224:200,1,0.0001
136,208,173808,6,4,L|224:200,1,0.0001
136,208,173809,6,4,L|224:200,1,0.0001
136,208,173810,6,4,L|224:200,1,0.0001
136,208,173811,6,4,L|224:200,1,0.0001
136,208,173812,6,4,L|224:200,1,0.0001
256,192,173899,1,0,0:0:0:0:
256,192,173999,1,8,0:0:0:0:
256,192,174099,1,0,0:0:0:0:
256,192,174199,1,0,0:0:0:0:
136,208,174205,6,4,L|224:200,1,0.0001
136,208,174206,6,4,L|224:200,1,0.0001
136,208,174207,6,4,L|224:200,1,0.0001
136,208,174208,6,4,L|224:200,1,0.0001
136,208,174209,6,4,L|224:200,1,0.0001
136,208,174210,6,4,L|224:200,1,0.0001
136,208,174211,6,4,L|224:200,1,0.0001
136,208,174212,6,4,L|224:200,1,0.0001
256,192,174265,1,8,0:0:0:0:
256,192,174332,1,8,0:0:0:0:
256,192,174399,1,0,0:0:0:0:
256,192,174499,1,0,0:0:0:0:
256,192,174599,1,12,0:0:0:0:
136,208,174605,6,4,L|224:200,1,0.0001
136,208,174606,6,4,L|224:200,1,0.0001
136,208,174607,6,4,L|224:200,1,0.0001
136,208,174608,6,4,L|224:200,1,0.0001
136,208,174609,6,4,L|224:200,1,0.0001
136,208,174610,6,4,L|224:200,1,0.0001
136,208,174611,6,4,L|224:200,1,0.0001
136,208,174612,6,4,L|224:200,1,0.0001
256,192,174799,2,4,L|448:192,2,175
256,192,174999,1,0,0:0:0:0:
136,208,175005,6,4,L|224:200,1,0.0001
136,208,175005,6,4,L|224:200,1,0.0001
136,208,175006,6,4,L|224:200,1,0.0001
136,208,175007,6,4,L|224:200,1,0.0001
136,208,175008,6,4,L|224:200,1,0.0001
136,208,175009,6,4,L|224:200,1,0.0001
136,208,175010,6,4,L|224:200,1,0.0001
136,208,175011,6,4,L|224:200,1,0.0001
136,208,175012,6,4,L|224:200,1,0.0001
256,192,175099,1,8,0:0:0:0:
256,192,175199,1,0,0:0:0:0:
256,192,175299,1,0,0:0:0:0:
256,192,175399,1,8,0:0:0:0:
136,208,175405,6,4,L|224:200,1,0.0001
136,208,175405,2,4,L|224:200,1,0.0001
136,208,175406,6,4,L|224:200,1,0.0001
136,208,175407,6,4,L|224:200,1,0.0001
136,208,175408,6,4,L|224:200,1,0.0001
136,208,175409,6,4,L|224:200,1,0.0001
136,208,175410,6,4,L|224:200,1,0.0001
136,208,175411,6,4,L|224:200,1,0.0001
136,208,175412,6,4,L|224:200,1,0.0001
256,192,175465,1,0,0:0:0:0:
256,192,175532,1,0,0:0:0:0:
256,192,175665,1,8,0:0:0:0:
256,192,175732,1,0,0:0:0:0:
256,192,175799,1,8,0:0:0:0:
136,208,175805,6,4,L|224:200,1,0.0001
136,208,175805,2,4,L|224:200,1,0.0001
136,208,175806,6,4,L|224:200,1,0.0001
136,208,175807,6,4,L|224:200,1,0.0001
136,208,175808,6,4,L|224:200,1,0.0001
136,208,175809,6,4,L|224:200,1,0.0001
136,208,175810,6,4,L|224:200,1,0.0001
136,208,175811,6,4,L|224:200,1,0.0001
136,208,175812,6,4,L|224:200,1,0.0001
256,192,175932,1,0,0:0:0:0:
256,192,175999,1,8,0:0:0:0:
256,192,176065,1,0,0:0:0:0:
256,192,176132,1,0,0:0:0:0:
256,192,176199,1,8,0:0:0:0:
136,208,176205,6,4,L|224:200,1,0.0001
136,208,176205,2,4,L|224:200,1,0.0001
136,208,176206,6,4,L|224:200,1,0.0001
136,208,176207,6,4,L|224:200,1,0.0001
136,208,176208,6,4,L|224:200,1,0.0001
136,208,176209,6,4,L|224:200,1,0.0001
136,208,176210,6,4,L|224:200,1,0.0001
136,208,176211,6,4,L|224:200,1,0.0001
136,208,176212,6,4,L|224:200,1,0.0001
256,192,176332,1,8,0:0:0:0:
256,192,176399,1,8,0:0:0:0:
256,192,176465,1,8,0:0:0:0:
256,192,176532,1,8,0:0:0:0:
256,192,176599,1,4,0:0:0:0:
256,192,176605,12,0,176805,0:0:0:0:
136,208,176605,6,4,L|224:200,1,0.0001
136,208,176605,6,4,L|224:200,1,0.0001
136,208,176606,6,4,L|224:200,1,0.0001
136,208,176607,6,4,L|224:200,1,0.0001
136,208,176608,6,4,L|224:200,1,0.0001
136,208,176609,6,4,L|224:200,1,0.0001
136,208,176610,6,4,L|224:200,1,0.0001
136,208,176611,6,4,L|224:200,1,0.0001
136,208,176612,6,4,L|224:200,1,0.0001
256,192,176999,1,8,0:0:0:0:
136,208,177005,6,4,L|224:200,1,0.0001
136,208,177005,2,4,L|224:200,1,0.0001
136,208,177006,6,4,L|224:200,1,0.0001
136,208,177007,6,4,L|224:200,1,0.0001
136,208,177008,6,4,L|224:200,1,0.0001
136,208,177009,6,4,L|224:200,1,0.0001
136,208,177010,6,4,L|224:200,1,0.0001
136,208,177011,6,4,L|224:200,1,0.0001
136,208,177012,6,4,L|224:200,1,0.0001
256,192,177099,1,0,0:0:0:0:
256,192,177199,1,8,0:0:0:0:
256,192,177299,1,8,0:0:0:0:
256,192,177399,1,0,0:0:0:0:
136,208,177405,6,4,L|224:200,1,0.0001
136,208,177405,2,4,L|224:200,1,0.0001
136,208,177406,6,4,L|224:200,1,0.0001
136,208,177407,6,4,L|224:200,1,0.0001
136,208,177408,6,4,L|224:200,1,0.0001
136,208,177409,6,4,L|224:200,1,0.0001
136,208,177410,6,4,L|224:200,1,0.0001
136,208,177411,6,4,L|224:200,1,0.0001
136,208,177412,6,4,L|224:200,1,0.0001
256,192,177465,1,0,0:0:0:0:
256,192,177532,1,0,0:0:0:0:
256,192,177599,1,8,0:0:0:0:
256,192,177799,1,12,0:0:0:0:
136,208,177805,6,4,L|224:200,1,0.0001
136,208,177805,2,4,L|224:200,1,0.0001
136,208,177806,6,4,L|224:200,1,0.0001
136,208,177807,6,4,L|224:200,1,0.0001
136,208,177808,6,4,L|224:200,1,0.0001
136,208,177809,6,4,L|224:200,1,0.0001
136,208,177810,6,4,L|224:200,1,0.0001
136,208,177811,6,4,L|224:200,1,0.0001
136,208,177812,6,4,L|224:200,1,0.0001
256,192,177824,2,4,B|544:192|544:192,4,262.5
256,192,178199,1,4,0:0:0:0:
136,208,178205,6,4,L|224:200,1,0.0001
136,208,178205,6,4,L|224:200,1,0.0001
136,208,178206,6,0,L|224:200,1,0.0001
136,208,178207,6,0,L|224:200,1,0.0001
136,208,178208,6,0,L|224:200,1,0.0001
136,208,178209,6,0,L|224:200,1,0.0001
136,208,178210,6,0,L|224:200,1,0.0001
136,208,178211,6,0,L|224:200,1,0.0001
136,208,178212,6,0,L|224:200,1,0.0001
256,192,178399,1,0,0:0:0:0:
256,192,178499,1,0,0:0:0:0:
136,208,178605,6,0,L|224:200,1,0.0001
136,208,178605,2,0,L|224:200,1,0.0001
136,208,178606,6,0,L|224:200,1,0.0001
136,208,178607,6,0,L|224:200,1,0.0001
136,208,178608,6,0,L|224:200,1,0.0001
136,208,178609,6,0,L|224:200,1,0.0001
136,208,178610,6,0,L|224:200,1,0.0001
136,208,178611,6,0,L|224:200,1,0.0001
136,208,178612,6,0,L|224:200,1,0.0001
256,192,178699,1,0,0:0:0:0:
256,192,178799,1,8,0:0:0:0:
256,192,178999,1,8,0:0:0:0:
136,208,179005,6,0,L|224:200,1,0.0001
136,208,179005,2,0,L|224:200,1,0.0001
136,208,179006,6,0,L|224:200,1,0.0001
136,208,179007,6,0,L|224:200,1,0.0001
136,208,179008,6,0,L|224:200,1,0.0001
136,208,179009,6,0,L|224:200,1,0.0001
136,208,179010,6,0,L|224:200,1,0.0001
136,208,179011,6,0,L|224:200,1,0.0001
136,208,179012,6,0,L|224:200,1,0.0001
256,192,179099,1,8,0:0:0:0:
256,192,179199,1,8,0:0:0:0:
256,192,179299,1,0,0:0:0:0:
256,192,179399,1,8,0:0:0:0:
136,208,179405,6,0,L|224:200,1,0.0001
136,208,179405,2,0,L|224:200,1,0.0001
136,208,179406,6,0,L|224:200,1,0.0001
136,208,179407,6,0,L|224:200,1,0.0001
136,208,179408,6,0,L|224:200,1,0.0001
136,208,179409,6,0,L|224:200,1,0.0001
136,208,179410,6,0,L|224:200,1,0.0001
136,208,179411,6,0,L|224:200,1,0.0001
136,208,179412,6,0,L|224:200,1,0.0001
256,192,179499,1,8,0:0:0:0:
256,192,179599,1,0,0:0:0:0:
256,192,179699,1,0,0:0:0:0:
256,192,179799,1,12,0:0:0:0:
256,192,179999,1,0,0:0:0:0:
136,208,180000,2,0,L|224:200,1,0.0001
136,208,180000,2,0,L|224:200,1,0.0001
136,208,180000,2,0,L|224:200,1,0.0001
256,192,180099,1,2,0:0:0:0:
136,208,180100,2,2,L|224:200,1,0.0001
136,208,180100,2,2,L|224:200,1,0.0001
136,208,180100,2,2,L|224:200,1,0.0001
256,192,180299,1,0,0:0:0:0:
136,208,180300,2,0,L|224:200,1,0.0001
136,208,180300,2,0,L|224:200,1,0.0001
136,208,180300,2,0,L|224:200,1,0.0001
256,192,180399,1,2,0:0:0:0:
136,208,180400,2,2,L|224:200,1,0.0001
136,208,180400,2,2,L|224:200,1,0.0001
136,208,180400,2,2,L|224:200,1,0.0001
256,192,180599,1,4,0:0:0:0:
136,208,180600,2,4,L|224:200,1,0.0001
136,208,180600,2,4,L|224:200,1,0.0001
136,208,180600,2,4,L|224:200,1,0.0001
256,192,180799,1,2,0:0:0:0:
136,208,180800,2,2,L|224:200,1,0.0001
136,208,180800,2,2,L|224:200,1,0.0001
136,208,180800,2,2,L|224:200,1,0.0001
256,192,180899,1,0,0:0:0:0:
136,208,180900,2,0,L|224:200,1,0.0001
136,208,180900,2,0,L|224:200,1,0.0001
136,208,180900,2,0,L|224:200,1,0.0001
256,192,181099,1,2,0:0:0:0:
136,208,181100,2,2,L|224:200,1,0.0001
136,208,181100,2,2,L|224:200,1,0.0001
136,208,181100,2,2,L|224:200,1,0.0001
256,192,181199,1,0,0:0:0:0:
136,208,181200,2,0,L|224:200,1,0.0001
136,208,181200,2,0,L|224:200,1,0.0001
136,208,181200,2,0,L|224:200,1,0.0001
256,192,181399,1,6,0:0:0:0:
136,208,181400,2,6,L|224:200,1,0.0001
136,208,181400,2,6,L|224:200,1,0.0001
136,208,181400,2,6,L|224:200,1,0.0001
256,192,181599,1,0,0:0:0:0:
136,208,181600,2,0,L|224:200,1,0.0001
136,208,181600,2,0,L|224:200,1,0.0001
136,208,181600,2,0,L|224:200,1,0.0001
256,192,181699,1,2,0:0:0:0:
136,208,181700,2,2,L|224:200,1,0.0001
136,208,181700,2,2,L|224:200,1,0.0001
136,208,181700,2,2,L|224:200,1,0.0001
256,192,181899,1,0,0:0:0:0:
136,208,181900,2,0,L|224:200,1,0.0001
136,208,181900,2,0,L|224:200,1,0.0001
136,208,181900,2,0,L|224:200,1,0.0001
256,192,181999,1,2,0:0:0:0:
136,208,182000,2,2,L|224:200,1,0.0001
136,208,182000,2,2,L|224:200,1,0.0001
136,208,182000,2,2,L|224:200,1,0.0001
256,192,182198,1,0,0:0:0:0:
136,208,182199,2,0,L|224:200,1,0.0001
136,208,182199,2,0,L|224:200,1,0.0001
136,208,182199,2,0,L|224:200,1,0.0001
256,192,182265,1,0,0:0:0:0:
136,208,182266,2,0,L|224:200,1,0.0001
136,208,182266,2,0,L|224:200,1,0.0001
136,208,182266,2,0,L|224:200,1,0.0001
256,192,182399,1,2,0:0:0:0:
136,208,182400,2,2,L|224:200,1,0.0001
136,208,182400,2,2,L|224:200,1,0.0001
136,208,182400,2,2,L|224:200,1,0.0001
256,192,182465,1,2,0:0:0:0:
136,208,182466,2,2,L|224:200,1,0.0001
136,208,182466,2,2,L|224:200,1,0.0001
136,208,182466,2,2,L|224:200,1,0.0001
256,192,182599,1,4,0:0:0:0:
136,208,182600,2,4,L|224:200,1,0.0001
136,208,182600,2,4,L|224:200,1,0.0001
136,208,182600,2,4,L|224:200,1,0.0001
48,120,182661,2,4,L,1,-1000
256,192,182999,1,6,0:0:0:0:
136,208,183000,2,6,L|224:200,1,0.0001
136,208,183000,2,6,L|224:200,1,0.0001
136,208,183000,2,6,L|224:200,1,0.0001
256,192,183199,1,0,0:0:0:0:
136,208,183200,2,0,L|224:200,1,0.0001
136,208,183200,2,0,L|224:200,1,0.0001
136,208,183200,2,0,L|224:200,1,0.0001
256,192,183299,1,2,0:0:0:0:
136,208,183300,2,2,L|224:200,1,0.0001
136,208,183300,2,2,L|224:200,1,0.0001
136,208,183300,2,2,L|224:200,1,0.0001
256,192,183499,1,0,0:0:0:0:
136,208,183500,2,0,L|224:200,1,0.0001
136,208,183500,2,0,L|224:200,1,0.0001
136,208,183500,2,0,L|224:200,1,0.0001
256,192,183599,1,2,0:0:0:0:
136,208,183600,2,2,L|224:200,1,0.0001
136,208,183600,2,2,L|224:200,1,0.0001
136,208,183600,2,2,L|224:200,1,0.0001
256,192,183799,1,4,0:0:0:0:
136,208,183800,2,4,L|224:200,1,0.0001
136,208,183800,2,4,L|224:200,1,0.0001
136,208,183800,2,4,L|224:200,1,0.0001
256,192,183999,1,2,0:0:0:0:
136,208,184000,2,2,L|224:200,1,0.0001
136,208,184000,2,2,L|224:200,1,0.0001
136,208,184000,2,2,L|224:200,1,0.0001
256,192,184099,1,0,0:0:0:0:
136,208,184100,2,0,L|224:200,1,0.0001
136,208,184100,2,0,L|224:200,1,0.0001
136,208,184100,2,0,L|224:200,1,0.0001
256,192,184299,1,2,0:0:0:0:
136,208,184300,2,2,L|224:200,1,0.0001
136,208,184300,2,2,L|224:200,1,0.0001
136,208,184300,2,2,L|224:200,1,0.0001
256,192,184399,1,0,0:0:0:0:
136,208,184400,2,0,L|224:200,1,0.0001
136,208,184400,2,0,L|224:200,1,0.0001
136,208,184400,2,0,L|224:200,1,0.0001
256,192,184599,1,6,0:0:0:0:
136,208,184600,2,6,L|224:200,1,0.0001
136,208,184600,2,6,L|224:200,1,0.0001
136,208,184600,2,6,L|224:200,1,0.0001
256,192,184799,1,0,0:0:0:0:
136,208,184800,2,0,L|224:200,1,0.0001
136,208,184800,2,0,L|224:200,1,0.0001
136,208,184800,2,0,L|224:200,1,0.0001
256,192,184899,1,2,0:0:0:0:
136,208,184900,2,2,L|224:200,1,0.0001
136,208,184900,2,2,L|224:200,1,0.0001
136,208,184900,2,2,L|224:200,1,0.0001
256,192,185099,1,0,0:0:0:0:
136,208,185100,2,0,L|224:200,1,0.0001
136,208,185100,2,0,L|224:200,1,0.0001
136,208,185100,2,0,L|224:200,1,0.0001
256,192,185199,1,2,0:0:0:0:
136,208,185200,2,2,L|224:200,1,0.0001
136,208,185200,2,2,L|224:200,1,0.0001
136,208,185200,2,2,L|224:200,1,0.0001
256,192,185399,1,2,0:0:0:0:
136,208,185400,2,2,L|224:200,1,0.0001
136,208,185400,2,2,L|224:200,1,0.0001
136,208,185400,2,2,L|224:200,1,0.0001
256,192,185465,1,2,0:0:0:0:
136,208,185466,2,2,L|224:200,1,0.0001
136,208,185466,2,2,L|224:200,1,0.0001
136,208,185466,2,2,L|224:200,1,0.0001
256,192,185599,1,0,0:0:0:0:
136,208,185600,2,0,L|224:200,1,0.0001
136,208,185600,2,0,L|224:200,1,0.0001
136,208,185600,2,0,L|224:200,1,0.0001
256,192,185665,1,0,0:0:0:0:
136,208,185666,2,0,L|224:200,1,0.0001
136,208,185666,2,0,L|224:200,1,0.0001
136,208,185666,2,0,L|224:200,1,0.0001
256,192,185799,1,6,0:0:0:0:
136,208,185800,2,6,L|224:200,1,0.0001
136,208,185800,2,6,L|224:200,1,0.0001
136,208,185800,2,6,L|224:200,1,0.0001
48,120,185849,2,4,L,1,-1000
48,120,186199,2,4,L,1,-1000
48,120,186261,2,4,L,1,-1000
48,120,186330,2,4,L,1,-1000
48,120,186399,2,4,L,1,-1000
48,120,186461,2,4,L,1,-1000
256,192,186599,1,2,0:0:0:0:
136,208,186600,2,2,L|224:200,1,0.0001
136,208,186600,2,2,L|224:200,1,0.0001
136,208,186600,2,2,L|224:200,1,0.0001
256,192,186799,1,2,0:0:0:0:
136,208,186800,2,2,L|224:200,1,0.0001
136,208,186800,2,2,L|224:200,1,0.0001
136,208,186800,2,2,L|224:200,1,0.0001
256,192,186999,1,2,0:0:0:0:
136,208,187000,2,2,L|224:200,1,0.0001
136,208,187000,2,2,L|224:200,1,0.0001
136,208,187000,2,2,L|224:200,1,0.0001
256,192,187099,1,0,0:0:0:0:
136,208,187100,2,0,L|224:200,1,0.0001
136,208,187100,2,0,L|224:200,1,0.0001
136,208,187100,2,0,L|224:200,1,0.0001
256,192,187199,1,0,0:0:0:0:
136,208,187200,2,0,L|224:200,1,0.0001
136,208,187200,2,0,L|224:200,1,0.0001
136,208,187200,2,0,L|224:200,1,0.0001
256,192,187299,1,2,0:0:0:0:
136,208,187300,2,2,L|224:200,1,0.0001
136,208,187300,2,2,L|224:200,1,0.0001
136,208,187300,2,2,L|224:200,1,0.0001
256,192,187399,1,0,0:0:0:0:
136,208,187400,2,0,L|224:200,1,0.0001
136,208,187400,2,0,L|224:200,1,0.0001
136,208,187400,2,0,L|224:200,1,0.0001
256,192,187599,1,2,0:0:0:0:
136,208,187600,2,2,L|224:200,1,0.0001
136,208,187600,2,2,L|224:200,1,0.0001
136,208,187600,2,2,L|224:200,1,0.0001
256,192,187799,1,2,0:0:0:0:
136,208,187800,2,2,L|224:200,1,0.0001
136,208,187800,2,2,L|224:200,1,0.0001
136,208,187800,2,2,L|224:200,1,0.0001
256,192,187899,1,2,0:0:0:0:
136,208,187900,2,2,L|224:200,1,0.0001
136,208,187900,2,2,L|224:200,1,0.0001
136,208,187900,2,2,L|224:200,1,0.0001
256,192,187999,1,0,0:0:0:0:
136,208,188000,2,0,L|224:200,1,0.0001
136,208,188000,2,0,L|224:200,1,0.0001
136,208,188000,2,0,L|224:200,1,0.0001
256,192,188099,1,2,0:0:0:0:
136,208,188100,2,2,L|224:200,1,0.0001
136,208,188100,2,2,L|224:200,1,0.0001
136,208,188100,2,2,L|224:200,1,0.0001
256,192,188199,1,2,0:0:0:0:
136,208,188200,2,2,L|224:200,1,0.0001
136,208,188200,2,2,L|224:200,1,0.0001
136,208,188200,2,2,L|224:200,1,0.0001
256,192,188299,1,0,0:0:0:0:
136,208,188300,2,0,L|224:200,1,0.0001
136,208,188300,2,0,L|224:200,1,0.0001
136,208,188300,2,0,L|224:200,1,0.0001
256,192,188399,1,2,0:0:0:0:
136,208,188400,2,2,L|224:200,1,0.0001
136,208,188400,2,2,L|224:200,1,0.0001
136,208,188400,2,2,L|224:200,1,0.0001
256,192,188599,1,0,0:0:0:0:
136,208,188600,2,0,L|224:200,1,0.0001
136,208,188600,2,0,L|224:200,1,0.0001
136,208,188600,2,0,L|224:200,1,0.0001
256,192,188665,1,0,0:0:0:0:
136,208,188666,2,0,L|224:200,1,0.0001
136,208,188666,2,0,L|224:200,1,0.0001
136,208,188666,2,0,L|224:200,1,0.0001
256,192,188732,1,0,0:0:0:0:
136,208,188733,2,0,L|224:200,1,0.0001
136,208,188733,2,0,L|224:200,1,0.0001
136,208,188733,2,0,L|224:200,1,0.0001
256,192,188799,1,2,0:0:0:0:
136,208,188800,2,2,L|224:200,1,0.0001
136,208,188800,2,2,L|224:200,1,0.0001
136,208,188800,2,2,L|224:200,1,0.0001
256,192,188865,1,2,0:0:0:0:
136,208,188866,2,2,L|224:200,1,0.0001
136,208,188866,2,2,L|224:200,1,0.0001
136,208,188866,2,2,L|224:200,1,0.0001
256,192,188932,1,2,0:0:0:0:
136,208,188933,2,2,L|224:200,1,0.0001
136,208,188933,2,2,L|224:200,1,0.0001
136,208,188933,2,2,L|224:200,1,0.0001
256,192,188999,1,4,0:0:0:0:
136,208,189000,2,4,L|224:200,1,0.0001
136,208,189000,2,4,L|224:200,1,0.0001
136,208,189000,2,4,L|224:200,1,0.0001
48,120,189024,2,4,L,1,-1000
256,192,189399,1,2,0:0:0:0:
136,208,189400,2,2,L|224:200,1,0.0001
136,208,189400,2,2,L|224:200,1,0.0001
136,208,189400,2,2,L|224:200,1,0.0001
256,192,189499,1,0,0:0:0:0:
136,208,189500,2,0,L|224:200,1,0.0001
136,208,189500,2,0,L|224:200,1,0.0001
136,208,189500,2,0,L|224:200,1,0.0001
256,192,189599,1,0,0:0:0:0:
136,208,189600,2,0,L|224:200,1,0.0001
136,208,189600,2,0,L|224:200,1,0.0001
136,208,189600,2,0,L|224:200,1,0.0001
256,192,189699,1,2,0:0:0:0:
136,208,189700,2,2,L|224:200,1,0.0001
136,208,189700,2,2,L|224:200,1,0.0001
136,208,189700,2,2,L|224:200,1,0.0001
256,192,189799,1,0,0:0:0:0:
136,208,189800,2,0,L|224:200,1,0.0001
136,208,189800,2,0,L|224:200,1,0.0001
136,208,189800,2,0,L|224:200,1,0.0001
256,192,189899,1,0,0:0:0:0:
136,208,189900,2,0,L|224:200,1,0.0001
136,208,189900,2,0,L|224:200,1,0.0001
136,208,189900,2,0,L|224:200,1,0.0001
256,192,189999,1,2,0:0:0:0:
136,208,190000,2,2,L|224:200,1,0.0001
136,208,190000,2,2,L|224:200,1,0.0001
136,208,190000,2,2,L|224:200,1,0.0001
256,192,190099,1,2,0:0:0:0:
136,208,190100,2,2,L|224:200,1,0.0001
136,208,190100,2,2,L|224:200,1,0.0001
136,208,190100,2,2,L|224:200,1,0.0001
256,192,190199,1,0,0:0:0:0:
136,208,190200,2,0,L|224:200,1,0.0001
136,208,190200,2,0,L|224:200,1,0.0001
136,208,190200,2,0,L|224:200,1,0.0001
256,192,190299,1,0,0:0:0:0:
136,208,190300,2,0,L|224:200,1,0.0001
136,208,190300,2,0,L|224:200,1,0.0001
136,208,190300,2,0,L|224:200,1,0.0001
256,192,190399,1,0,0:0:0:0:
136,208,190400,2,0,L|224:200,1,0.0001
136,208,190400,2,0,L|224:200,1,0.0001
136,208,190400,2,0,L|224:200,1,0.0001
256,192,190499,1,2,0:0:0:0:
136,208,190500,2,2,L|224:200,1,0.0001
136,208,190500,2,2,L|224:200,1,0.0001
136,208,190500,2,2,L|224:200,1,0.0001
256,192,190599,1,0,0:0:0:0:
136,208,190600,2,0,L|224:200,1,0.0001
136,208,190600,2,0,L|224:200,1,0.0001
136,208,190600,2,0,L|224:200,1,0.0001
256,192,190799,1,2,0:0:0:0:
136,208,190800,2,2,L|224:200,1,0.0001
136,208,190800,2,2,L|224:200,1,0.0001
136,208,190800,2,2,L|224:200,1,0.0001
256,192,190849,1,2,0:0:0:0:
136,208,190850,2,2,L|224:200,1,0.0001
136,208,190850,2,2,L|224:200,1,0.0001
136,208,190850,2,2,L|224:200,1,0.0001
256,192,190899,1,2,0:0:0:0:
136,208,190900,2,2,L|224:200,1,0.0001
136,208,190900,2,2,L|224:200,1,0.0001
136,208,190900,2,2,L|224:200,1,0.0001
256,192,190949,1,2,0:0:0:0:
136,208,190950,2,2,L|224:200,1,0.0001
136,208,190950,2,2,L|224:200,1,0.0001
136,208,190950,2,2,L|224:200,1,0.0001
256,192,190999,1,4,0:0:0:0:
136,208,191000,2,4,L|224:200,1,0.0001
136,208,191000,2,4,L|224:200,1,0.0001
136,208,191000,2,4,L|224:200,1,0.0001
256,192,191799,1,8,0:0:0:0:
256,192,191899,1,8,0:0:0:0:
256,192,191999,1,0,0:0:0:0:
256,192,192099,1,0,0:0:0:0:
256,192,192199,1,8,0:0:0:0:
256,192,192299,1,0,0:0:0:0:
256,192,192399,1,8,0:0:0:0:
256,192,192499,1,0,0:0:0:0:
256,192,192599,1,8,0:0:0:0:
136,208,192602,6,4,L,1,-10
136,208,192603,6,4,L,1,-10
136,208,192604,6,4,L,1,-10
136,208,192605,6,4,L,1,-10
136,208,192606,6,4,L,1,-10
136,208,192607,6,4,L,1,-10
136,208,192608,6,4,L,1,-10
136,208,192609,6,4,L,1,-10
256,192,192699,1,0,0:0:0:0:
160,128,192702,2,4,L,1,-10
256,192,192799,1,0,0:0:0:0:
160,128,192808,2,4,L,1,-10
256,192,192899,1,0,0:0:0:0:
160,128,192908,2,4,L,1,-10
256,192,192999,1,8,0:0:0:0:
136,208,193002,6,4,L|224:200,1,0.0001
136,208,193003,6,4,L|224:200,1,0.0001
136,208,193004,6,4,L|224:200,1,0.0001
136,208,193005,6,4,L|224:200,1,0.0001
136,208,193006,6,4,L|224:200,1,0.0001
136,208,193007,6,4,L|224:200,1,0.0001
136,208,193008,6,4,L|224:200,1,0.0001
136,208,193009,6,4,L|224:200,1,0.0001
256,192,193099,1,8,0:0:0:0:
160,128,193102,2,4,L,1,-10
256,192,193199,1,0,0:0:0:0:
160,128,193208,2,4,L,1,-10
256,192,193299,1,0,0:0:0:0:
160,128,193308,2,4,L,1,-10
256,192,193399,1,8,0:0:0:0:
136,208,193402,6,4,L|224:200,1,0.0001
136,208,193403,6,4,L|224:200,1,0.0001
136,208,193404,6,4,L|224:200,1,0.0001
136,208,193405,6,4,L|224:200,1,0.0001
136,208,193406,6,4,L|224:200,1,0.0001
136,208,193407,6,4,L|224:200,1,0.0001
136,208,193408,6,4,L|224:200,1,0.0001
136,208,193409,6,4,L|224:200,1,0.0001
256,192,193499,1,0,0:0:0:0:
160,128,193502,2,4,L,1,-10
256,192,193599,1,0,0:0:0:0:
160,128,193605,2,4,L,1,-10
256,192,193699,1,0,0:0:0:0:
160,128,193705,2,4,L,1,-10
256,192,193799,1,8,0:0:0:0:
136,208,193802,6,4,L|224:200,1,0.0001
136,208,193803,6,4,L|224:200,1,0.0001
136,208,193804,6,4,L|224:200,1,0.0001
136,208,193805,6,4,L|224:200,1,0.0001
136,208,193806,6,4,L|224:200,1,0.0001
136,208,193807,6,4,L|224:200,1,0.0001
136,208,193808,6,4,L|224:200,1,0.0001
136,208,193809,6,4,L|224:200,1,0.0001
256,192,193899,1,8,0:0:0:0:
160,128,193902,2,4,L,1,-10
256,192,193999,1,0,0:0:0:0:
160,128,194005,2,4,L,1,-10
256,192,194099,1,0,0:0:0:0:
160,128,194105,2,4,L,1,-10
256,192,194199,1,8,0:0:0:0:
136,208,194202,6,4,L|224:200,1,0.0001
136,208,194203,6,4,L|224:200,1,0.0001
136,208,194204,6,4,L|224:200,1,0.0001
136,208,194205,6,4,L|224:200,1,0.0001
136,208,194206,6,4,L|224:200,1,0.0001
136,208,194207,6,4,L|224:200,1,0.0001
136,208,194208,6,4,L|224:200,1,0.0001
136,208,194209,6,4,L|224:200,1,0.0001
256,192,194299,1,0,0:0:0:0:
160,128,194302,2,4,L,1,-10
256,192,194399,1,0,0:0:0:0:
160,128,194405,2,4,L,1,-10
256,192,194499,1,0,0:0:0:0:
160,128,194505,2,4,L,1,-10
256,192,194599,1,8,0:0:0:0:
136,208,194602,6,4,L|224:200,1,0.0001
136,208,194603,6,4,L|224:200,1,0.0001
136,208,194604,6,4,L|224:200,1,0.0001
136,208,194605,6,4,L|224:200,1,0.0001
136,208,194606,6,4,L|224:200,1,0.0001
136,208,194607,6,4,L|224:200,1,0.0001
136,208,194608,6,4,L|224:200,1,0.0001
136,208,194609,6,4,L|224:200,1,0.0001
256,192,194699,1,8,0:0:0:0:
160,128,194702,2,4,L,1,-10
256,192,194799,1,0,0:0:0:0:
160,128,194805,2,4,L,1,-10
256,192,194899,1,0,0:0:0:0:
160,128,194905,2,4,L,1,-10
256,192,194999,1,8,0:0:0:0:
136,208,195002,6,4,L|224:200,1,0.0001
136,208,195003,6,4,L|224:200,1,0.0001
136,208,195004,6,4,L|224:200,1,0.0001
136,208,195005,6,4,L|224:200,1,0.0001
136,208,195006,6,4,L|224:200,1,0.0001
136,208,195007,6,4,L|224:200,1,0.0001
136,208,195008,6,4,L|224:200,1,0.0001
136,208,195009,6,4,L|224:200,1,0.0001
256,192,195099,1,0,0:0:0:0:
160,128,195102,2,4,L,1,-10
256,192,195199,1,8,0:0:0:0:
160,128,195205,2,4,L,1,-10
256,192,195299,1,0,0:0:0:0:
160,128,195305,2,4,L,1,-10
256,192,195399,1,8,0:0:0:0:
136,208,195402,6,4,L|224:200,1,0.0001
136,208,195403,6,4,L|224:200,1,0.0001
136,208,195404,6,4,L|224:200,1,0.0001
136,208,195405,6,4,L|224:200,1,0.0001
136,208,195406,6,4,L|224:200,1,0.0001
136,208,195407,6,4,L|224:200,1,0.0001
136,208,195408,6,4,L|224:200,1,0.0001
136,208,195409,6,4,L|224:200,1,0.0001
256,192,195499,1,8,0:0:0:0:
160,128,195502,2,4,L,1,-10
256,192,195599,1,0,0:0:0:0:
160,128,195605,2,4,L,1,-10
256,192,195699,1,0,0:0:0:0:
160,128,195705,2,4,L,1,-10
256,192,195799,1,8,0:0:0:0:
136,208,195802,6,4,L|224:200,1,0.0001
136,208,195803,6,4,L|224:200,1,0.0001
136,208,195804,6,4,L|224:200,1,0.0001
136,208,195805,6,4,L|224:200,1,0.0001
136,208,195806,6,4,L|224:200,1,0.0001
136,208,195807,6,4,L|224:200,1,0.0001
136,208,195808,6,4,L|224:200,1,0.0001
136,208,195809,6,4,L|224:200,1,0.0001
256,192,195899,1,0,0:0:0:0:
160,128,195902,2,4,L,1,-10
256,192,195999,1,0,0:0:0:0:
160,128,196005,2,4,L,1,-10
256,192,196099,1,0,0:0:0:0:
160,128,196105,2,4,L,1,-10
256,192,196199,1,8,0:0:0:0:
136,208,196202,6,4,L|224:200,1,0.0001
136,208,196203,6,4,L|224:200,1,0.0001
136,208,196204,6,4,L|224:200,1,0.0001
136,208,196205,6,4,L|224:200,1,0.0001
136,208,196206,6,4,L|224:200,1,0.0001
136,208,196207,6,4,L|224:200,1,0.0001
136,208,196208,6,4,L|224:200,1,0.0001
136,208,196209,6,4,L|224:200,1,0.0001
256,192,196299,1,8,0:0:0:0:
160,128,196302,2,4,L,1,-10
256,192,196399,1,0,0:0:0:0:
160,128,196405,2,4,L,1,-10
256,192,196499,1,8,0:0:0:0:
160,128,196505,2,4,L,1,-10
256,192,196599,1,8,0:0:0:0:
136,208,196602,6,12,L|224:200,1,0.0001
136,208,196603,6,12,L|224:200,1,0.0001
136,208,196604,6,12,L|224:200,1,0.0001
136,208,196605,6,12,L|224:200,1,0.0001
136,208,196606,6,12,L|224:200,1,0.0001
136,208,196607,6,12,L|224:200,1,0.0001
136,208,196608,6,12,L|224:200,1,0.0001
136,208,196609,6,12,L|224:200,1,0.0001
256,192,196699,1,8,0:0:0:0:
160,128,196702,2,4,L,1,-10
256,192,196799,1,0,0:0:0:0:
160,128,196805,2,4,L,1,-10
256,192,196899,1,0,0:0:0:0:
160,128,196905,2,4,L,1,-10
256,192,196999,1,8,0:0:0:0:
136,208,197002,6,4,L|224:200,1,0.0001
136,208,197003,6,4,L|224:200,1,0.0001
136,208,197004,6,4,L|224:200,1,0.0001
136,208,197005,6,4,L|224:200,1,0.0001
136,208,197006,6,4,L|224:200,1,0.0001
136,208,197007,6,4,L|224:200,1,0.0001
136,208,197008,6,4,L|224:200,1,0.0001
136,208,197009,6,4,L|224:200,1,0.0001
256,192,197099,1,8,0:0:0:0:
160,128,197102,2,4,L,1,-10
256,192,197199,1,0,0:0:0:0:
160,128,197205,2,4,L,1,-10
256,192,197299,1,0,0:0:0:0:
160,128,197305,2,4,L,1,-10
256,192,197399,1,8,0:0:0:0:
136,208,197402,6,4,L|224:200,1,0.0001
136,208,197403,6,4,L|224:200,1,0.0001
136,208,197404,6,4,L|224:200,1,0.0001
136,208,197405,6,4,L|224:200,1,0.0001
136,208,197406,6,4,L|224:200,1,0.0001
136,208,197407,6,4,L|224:200,1,0.0001
136,208,197408,6,4,L|224:200,1,0.0001
136,208,197409,6,4,L|224:200,1,0.0001
256,192,197499,1,0,0:0:0:0:
160,128,197502,2,4,L,1,-10
256,192,197599,1,8,0:0:0:0:
160,128,197605,2,4,L,1,-10
256,192,197699,1,8,0:0:0:0:
160,128,197705,2,4,L,1,-10
256,192,197799,1,0,0:0:0:0:
136,208,197802,6,4,L|224:200,1,0.0001
136,208,197803,6,4,L|224:200,1,0.0001
136,208,197804,6,4,L|224:200,1,0.0001
136,208,197805,6,4,L|224:200,1,0.0001
136,208,197806,6,4,L|224:200,1,0.0001
136,208,197807,6,4,L|224:200,1,0.0001
136,208,197808,6,4,L|224:200,1,0.0001
136,208,197809,6,4,L|224:200,1,0.0001
256,192,197899,1,8,0:0:0:0:
160,128,197902,2,4,L,1,-10
256,192,197999,1,0,0:0:0:0:
160,128,198005,2,4,L,1,-10
256,192,198099,1,8,0:0:0:0:
160,128,198105,2,4,L,1,-10
256,192,198199,1,8,0:0:0:0:
136,208,198202,6,4,L|224:200,1,0.0001
136,208,198203,6,4,L|224:200,1,0.0001
136,208,198204,6,4,L|224:200,1,0.0001
136,208,198205,6,4,L|224:200,1,0.0001
136,208,198206,6,4,L|224:200,1,0.0001
136,208,198207,6,4,L|224:200,1,0.0001
136,208,198208,6,4,L|224:200,1,0.0001
136,208,198209,6,4,L|224:200,1,0.0001
256,192,198299,1,0,0:0:0:0:
160,128,198302,2,4,L,1,-10
256,192,198399,1,8,0:0:0:0:
160,128,198405,2,4,L,1,-10
256,192,198499,1,8,0:0:0:0:
160,128,198505,2,4,L,1,-10
256,192,198599,1,0,0:0:0:0:
136,208,198602,6,4,L|224:200,1,0.0001
136,208,198603,6,4,L|224:200,1,0.0001
136,208,198604,6,4,L|224:200,1,0.0001
136,208,198605,6,4,L|224:200,1,0.0001
136,208,198606,6,4,L|224:200,1,0.0001
136,208,198607,6,4,L|224:200,1,0.0001
136,208,198608,6,4,L|224:200,1,0.0001
136,208,198609,6,4,L|224:200,1,0.0001
256,192,198699,1,0,0:0:0:0:
256,192,198799,1,10,0:0:0:0:
224,224,198805,2,6,L,1,-10
256,192,198899,1,2,0:0:0:0:
224,160,198905,2,4,L,1,-10
256,192,198999,1,0,0:0:0:0:
136,208,199000,2,0,L|224:200,1,0.0001
136,208,199000,2,0,L|224:200,1,0.0001
136,208,199000,2,0,L|224:200,1,0.0001
256,192,199099,1,0,0:0:0:0:
136,208,199100,2,0,L|224:200,1,0.0001
136,208,199100,2,0,L|224:200,1,0.0001
136,208,199100,2,0,L|224:200,1,0.0001
256,192,199199,1,0,0:0:0:0:
136,208,199200,2,0,L|224:200,1,0.0001
136,208,199200,2,0,L|224:200,1,0.0001
136,208,199200,2,0,L|224:200,1,0.0001
256,192,199299,1,0,0:0:0:0:
136,208,199300,2,0,L|224:200,1,0.0001
136,208,199300,2,0,L|224:200,1,0.0001
136,208,199300,2,0,L|224:200,1,0.0001
256,192,199399,1,2,0:0:0:0:
136,208,199400,2,2,L|224:200,1,0.0001
136,208,199400,2,2,L|224:200,1,0.0001
136,208,199400,2,2,L|224:200,1,0.0001
256,192,199499,1,2,0:0:0:0:
136,208,199500,2,2,L|224:200,1,0.0001
136,208,199500,2,2,L|224:200,1,0.0001
136,208,199500,2,2,L|224:200,1,0.0001
136,208,199508,6,6,L,1,-10
136,208,199509,6,6,L,1,-10
256,192,199599,1,0,0:0:0:0:
136,208,199600,2,0,L|224:200,1,0.0001
136,208,199600,2,0,L|224:200,1,0.0001
136,208,199600,2,0,L|224:200,1,0.0001
136,208,199609,6,4,L,1,-10
136,208,199610,6,4,L,1,-10
256,192,199699,1,0,0:0:0:0:
136,208,199700,2,0,L|224:200,1,0.0001
136,208,199700,2,0,L|224:200,1,0.0001
136,208,199700,2,0,L|224:200,1,0.0001
136,208,199709,6,4,L,1,-10
136,208,199710,6,4,L,1,-10
256,192,199799,1,2,0:0:0:0:
136,208,199800,2,2,L|224:200,1,0.0001
136,208,199800,2,2,L|224:200,1,0.0001
136,208,199800,2,2,L|224:200,1,0.0001
136,208,199807,6,6,L,1,-10
136,208,199808,6,6,L,1,-10
136,208,199809,6,6,L,1,-10
136,208,199810,6,6,L,1,-10
256,192,199899,1,2,0:0:0:0:
136,208,199900,2,2,L|224:200,1,0.0001
136,208,199900,2,2,L|224:200,1,0.0001
136,208,199900,2,2,L|224:200,1,0.0001
136,208,199907,6,6,L,1,-10
136,208,199908,6,6,L,1,-10
136,208,199909,6,6,L,1,-10
136,208,199911,6,6,L,1,-10
256,192,199999,1,0,0:0:0:0:
136,208,200000,2,0,L|224:200,1,0.0001
136,208,200000,2,0,L|224:200,1,0.0001
136,208,200000,2,0,L|224:200,1,0.0001
136,208,200008,6,4,L,1,-10
136,208,200009,6,4,L,1,-10
136,208,200010,6,4,L,1,-10
136,208,200011,6,4,L,1,-10
256,192,200099,1,0,0:0:0:0:
136,208,200100,2,0,L|224:200,1,0.0001
136,208,200100,2,0,L|224:200,1,0.0001
136,208,200100,2,0,L|224:200,1,0.0001
136,208,200108,6,4,L,1,-10
136,208,200109,6,4,L,1,-10
136,208,200110,6,4,L,1,-10
136,208,200111,6,4,L,1,-10
256,192,200199,1,2,0:0:0:0:
136,208,200200,2,2,L|224:200,1,0.0001
136,208,200200,2,2,L|224:200,1,0.0001
136,208,200200,2,2,L|224:200,1,0.0001
256,192,200299,1,2,0:0:0:0:
136,208,200300,2,2,L|224:200,1,0.0001
136,208,200300,2,2,L|224:200,1,0.0001
136,208,200300,2,2,L|224:200,1,0.0001
136,208,200307,6,6,L,1,-10
136,208,200308,6,6,L,1,-10
256,192,200399,1,2,0:0:0:0:
136,208,200400,2,2,L|224:200,1,0.0001
136,208,200400,2,2,L|224:200,1,0.0001
136,208,200400,2,2,L|224:200,1,0.0001
136,208,200408,6,6,L,1,-10
136,208,200409,6,6,L,1,-10
256,192,200499,1,2,0:0:0:0:
136,208,200500,2,2,L|224:200,1,0.0001
136,208,200500,2,2,L|224:200,1,0.0001
136,208,200500,2,2,L|224:200,1,0.0001
136,208,200508,6,6,L,1,-10
136,208,200509,6,6,L,1,-10
256,192,200599,1,0,0:0:0:0:
136,208,200600,2,0,L|224:200,1,0.0001
136,208,200600,2,0,L|224:200,1,0.0001
136,208,200600,2,0,L|224:200,1,0.0001
136,208,200607,6,4,L,1,-10
136,208,200608,6,4,L,1,-10
136,208,200609,6,4,L,1,-10
136,208,200610,6,4,L,1,-10
256,192,200699,1,0,0:0:0:0:
136,208,200700,2,0,L|224:200,1,0.0001
136,208,200700,2,0,L|224:200,1,0.0001
136,208,200700,2,0,L|224:200,1,0.0001
136,208,200707,6,4,L,1,-10
136,208,200708,6,4,L,1,-10
136,208,200709,6,4,L,1,-10
136,208,200711,6,4,L,1,-10
256,192,200799,1,2,0:0:0:0:
136,208,200800,2,2,L|224:200,1,0.0001
136,208,200800,2,2,L|224:200,1,0.0001
136,208,200800,2,2,L|224:200,1,0.0001
136,208,200808,6,6,L,1,-10
136,208,200809,6,6,L,1,-10
136,208,200810,6,6,L,1,-10
136,208,200811,6,6,L,1,-10
256,192,200899,1,0,0:0:0:0:
136,208,200900,2,0,L|224:200,1,0.0001
136,208,200900,2,0,L|224:200,1,0.0001
136,208,200900,2,0,L|224:200,1,0.0001
136,208,200908,6,4,L,1,-10
136,208,200909,6,4,L,1,-10
136,208,200910,6,4,L,1,-10
136,208,200911,6,4,L,1,-10
256,192,200999,1,2,0:0:0:0:
136,208,201000,2,2,L|224:200,1,0.0001
136,208,201000,2,2,L|224:200,1,0.0001
136,208,201000,2,2,L|224:200,1,0.0001
256,192,201099,1,2,0:0:0:0:
136,208,201100,2,2,L|224:200,1,0.0001
136,208,201100,2,2,L|224:200,1,0.0001
136,208,201100,2,2,L|224:200,1,0.0001
136,208,201107,6,6,L,1,-10
136,208,201108,6,6,L,1,-10
256,192,201199,1,0,0:0:0:0:
136,208,201200,2,0,L|224:200,1,0.0001
136,208,201200,2,0,L|224:200,1,0.0001
136,208,201200,2,0,L|224:200,1,0.0001
136,208,201208,6,4,L,1,-10
136,208,201209,6,4,L,1,-10
256,192,201299,1,0,0:0:0:0:
136,208,201300,2,0,L|224:200,1,0.0001
136,208,201300,2,0,L|224:200,1,0.0001
136,208,201300,2,0,L|224:200,1,0.0001
136,208,201308,6,4,L,1,-10
136,208,201309,6,4,L,1,-10
256,192,201399,1,2,0:0:0:0:
136,208,201400,2,2,L|224:200,1,0.0001
136,208,201400,2,2,L|224:200,1,0.0001
136,208,201400,2,2,L|224:200,1,0.0001
136,208,201407,6,6,L,1,-10
136,208,201408,6,6,L,1,-10
136,208,201409,6,6,L,1,-10
136,208,201410,6,6,L,1,-10
256,192,201499,1,0,0:0:0:0:
136,208,201500,2,0,L|224:200,1,0.0001
136,208,201500,2,0,L|224:200,1,0.0001
136,208,201500,2,0,L|224:200,1,0.0001
136,208,201507,6,4,L,1,-10
136,208,201508,6,4,L,1,-10
136,208,201509,6,4,L,1,-10
136,208,201511,6,4,L,1,-10
256,192,201599,1,2,0:0:0:0:
136,208,201600,2,2,L|224:200,1,0.0001
136,208,201600,2,2,L|224:200,1,0.0001
136,208,201600,2,2,L|224:200,1,0.0001
136,208,201608,6,6,L,1,-10
136,208,201609,6,6,L,1,-10
136,208,201610,6,6,L,1,-10
136,208,201611,6,6,L,1,-10
256,192,201699,1,0,0:0:0:0:
136,208,201700,2,0,L|224:200,1,0.0001
136,208,201700,2,0,L|224:200,1,0.0001
136,208,201700,2,0,L|224:200,1,0.0001
136,208,201708,6,4,L,1,-10
136,208,201709,6,4,L,1,-10
136,208,201710,6,4,L,1,-10
136,208,201711,6,4,L,1,-10
256,192,201799,1,2,0:0:0:0:
136,208,201800,2,2,L|224:200,1,0.0001
136,208,201800,2,2,L|224:200,1,0.0001
136,208,201800,2,2,L|224:200,1,0.0001
256,192,201899,1,2,0:0:0:0:
136,208,201900,2,2,L|224:200,1,0.0001
136,208,201900,2,2,L|224:200,1,0.0001
136,208,201900,2,2,L|224:200,1,0.0001
136,208,201907,6,6,L,1,-10
136,208,201908,6,6,L,1,-10
256,192,201999,1,0,0:0:0:0:
136,208,202000,2,0,L|224:200,1,0.0001
136,208,202000,2,0,L|224:200,1,0.0001
136,208,202000,2,0,L|224:200,1,0.0001
136,208,202008,6,4,L,1,-10
136,208,202009,6,4,L,1,-10
256,192,202099,1,0,0:0:0:0:
136,208,202100,2,0,L|224:200,1,0.0001
136,208,202100,2,0,L|224:200,1,0.0001
136,208,202100,2,0,L|224:200,1,0.0001
136,208,202108,6,4,L,1,-10
136,208,202109,6,4,L,1,-10
256,192,202199,1,2,0:0:0:0:
136,208,202200,2,2,L|224:200,1,0.0001
136,208,202200,2,2,L|224:200,1,0.0001
136,208,202200,2,2,L|224:200,1,0.0001
136,208,202207,6,6,L,1,-10
136,208,202208,6,6,L,1,-10
136,208,202209,6,6,L,1,-10
136,208,202210,6,6,L,1,-10
256,192,202299,1,2,0:0:0:0:
136,208,202300,2,2,L|224:200,1,0.0001
136,208,202300,2,2,L|224:200,1,0.0001
136,208,202300,2,2,L|224:200,1,0.0001
136,208,202307,6,6,L,1,-10
136,208,202308,6,6,L,1,-10
136,208,202309,6,6,L,1,-10
136,208,202311,6,6,L,1,-10
256,192,202399,1,0,0:0:0:0:
136,208,202400,2,0,L|224:200,1,0.0001
136,208,202400,2,0,L|224:200,1,0.0001
136,208,202400,2,0,L|224:200,1,0.0001
136,208,202408,6,4,L,1,-10
136,208,202409,6,4,L,1,-10
136,208,202410,6,4,L,1,-10
136,208,202411,6,4,L,1,-10
256,192,202499,1,0,0:0:0:0:
136,208,202500,2,0,L|224:200,1,0.0001
136,208,202500,2,0,L|224:200,1,0.0001
136,208,202500,2,0,L|224:200,1,0.0001
136,208,202508,6,4,L,1,-10
136,208,202509,6,4,L,1,-10
136,208,202510,6,4,L,1,-10
136,208,202511,6,4,L,1,-10
256,192,202599,1,2,0:0:0:0:
136,208,202600,2,2,L|224:200,1,0.0001
136,208,202600,2,2,L|224:200,1,0.0001
136,208,202600,2,2,L|224:200,1,0.0001
256,192,202699,1,2,0:0:0:0:
136,208,202700,2,2,L|224:200,1,0.0001
136,208,202700,2,2,L|224:200,1,0.0001
136,208,202700,2,2,L|224:200,1,0.0001
136,208,202708,6,6,L,1,-10
256,192,202799,1,0,0:0:0:0:
136,208,202800,2,0,L|224:200,1,0.0001
136,208,202800,2,0,L|224:200,1,0.0001
136,208,202800,2,0,L|224:200,1,0.0001
136,208,202808,6,4,L,1,-10
136,208,202809,6,4,L,1,-10
256,192,202899,1,0,0:0:0:0:
136,208,202900,2,0,L|224:200,1,0.0001
136,208,202900,2,0,L|224:200,1,0.0001
136,208,202900,2,0,L|224:200,1,0.0001
136,208,202908,6,4,L,1,-10
136,208,202909,6,4,L,1,-10
256,192,202999,1,2,0:0:0:0:
136,208,203000,2,2,L|224:200,1,0.0001
136,208,203000,2,2,L|224:200,1,0.0001
136,208,203000,2,2,L|224:200,1,0.0001
136,208,203007,6,6,L,1,-10
136,208,203008,6,6,L,1,-10
136,208,203009,6,6,L,1,-10
136,208,203010,6,6,L,1,-10
256,192,203099,1,0,0:0:0:0:
136,208,203100,2,0,L|224:200,1,0.0001
136,208,203100,2,0,L|224:200,1,0.0001
136,208,203100,2,0,L|224:200,1,0.0001
136,208,203107,6,4,L,1,-10
136,208,203108,6,4,L,1,-10
136,208,203109,6,4,L,1,-10
136,208,203111,6,4,L,1,-10
256,192,203199,1,2,0:0:0:0:
136,208,203200,2,2,L|224:200,1,0.0001
136,208,203200,2,2,L|224:200,1,0.0001
136,208,203200,2,2,L|224:200,1,0.0001
256,192,203299,1,0,0:0:0:0:
136,208,203300,2,0,L|224:200,1,0.0001
136,208,203300,2,0,L|224:200,1,0.0001
136,208,203300,2,0,L|224:200,1,0.0001
136,208,203308,6,4,L,1,-10
136,208,203309,6,4,L,1,-10
136,208,203310,6,4,L,1,-10
136,208,203311,6,4,L,1,-10
256,192,203399,1,2,0:0:0:0:
136,208,203400,2,2,L|224:200,1,0.0001
136,208,203400,2,2,L|224:200,1,0.0001
136,208,203400,2,2,L|224:200,1,0.0001
256,192,203499,1,2,0:0:0:0:
136,208,203500,2,2,L|224:200,1,0.0001
136,208,203500,2,2,L|224:200,1,0.0001
136,208,203500,2,2,L|224:200,1,0.0001
136,208,203507,6,6,L,1,-10
136,208,203508,6,6,L,1,-10
256,192,203599,1,2,0:0:0:0:
136,208,203600,2,2,L|224:200,1,0.0001
136,208,203600,2,2,L|224:200,1,0.0001
136,208,203600,2,2,L|224:200,1,0.0001
136,208,203608,6,6,L,1,-10
136,208,203609,6,6,L,1,-10
256,192,203699,1,2,0:0:0:0:
136,208,203700,2,2,L|224:200,1,0.0001
136,208,203700,2,2,L|224:200,1,0.0001
136,208,203700,2,2,L|224:200,1,0.0001
136,208,203708,6,6,L,1,-10
136,208,203709,6,6,L,1,-10
256,192,203799,1,4,0:0:0:0:
256,192,204199,1,4,0:0:0:0:
256,192,204599,1,4,0:0:0:0:
256,192,204999,1,2,0:0:0:0:
256,192,205099,1,2,0:0:0:0:
256,192,205199,1,2,0:0:0:0:
256,192,205299,1,2,0:0:0:0:
256,192,205400,1,4,0:0:0:0:
136,208,205401,2,4,L|224:200,1,0.0001
136,208,205401,2,4,L|224:200,1,0.0001
136,208,205401,2,4,L|224:200,1,0.0001
136,208,205401,2,4,L|224:200,1,0.0001
136,208,205401,2,4,L|224:200,1,0.0001
136,208,205401,2,4,L|224:200,1,0.0001
256,192,205418,2,4,L|640:192,2,385
256,192,205600,1,2,0:0:0:0:
136,208,205601,2,2,L|224:200,1,0.0001
136,208,205601,2,2,L|224:200,1,0.0001
136,208,205601,2,2,L|224:200,1,0.0001
136,208,205601,2,2,L|224:200,1,0.0001
136,208,205601,2,2,L|224:200,1,0.0001
136,208,205601,2,2,L|224:200,1,0.0001
256,192,205700,1,2,0:0:0:0:
136,208,205701,2,2,L|224:200,1,0.0001
136,208,205701,2,2,L|224:200,1,0.0001
136,208,205701,2,2,L|224:200,1,0.0001
136,208,205701,2,2,L|224:200,1,0.0001
136,208,205701,2,2,L|224:200,1,0.0001
136,208,205701,2,2,L|224:200,1,0.0001
256,192,205800,1,0,0:0:0:0:
136,208,205801,2,0,L|224:200,1,0.0001
136,208,205801,2,0,L|224:200,1,0.0001
136,208,205801,2,0,L|224:200,1,0.0001
136,208,205801,2,0,L|224:200,1,0.0001
136,208,205801,2,0,L|224:200,1,0.0001
136,208,205801,2,0,L|224:200,1,0.0001
256,192,205816,2,4,L|672:192,2,385
256,192,206000,1,2,0:0:0:0:
136,208,206001,2,2,L|224:200,1,0.0001
136,208,206001,2,2,L|224:200,1,0.0001
136,208,206001,2,2,L|224:200,1,0.0001
136,208,206001,2,2,L|224:200,1,0.0001
136,208,206001,2,2,L|224:200,1,0.0001
136,208,206001,2,2,L|224:200,1,0.0001
256,192,206100,1,2,0:0:0:0:
136,208,206101,2,2,L|224:200,1,0.0001
136,208,206101,2,2,L|224:200,1,0.0001
136,208,206101,2,2,L|224:200,1,0.0001
136,208,206101,2,2,L|224:200,1,0.0001
136,208,206101,2,2,L|224:200,1,0.0001
136,208,206101,2,2,L|224:200,1,0.0001
256,192,206200,1,0,0:0:0:0:
136,208,206201,2,0,L|224:200,1,0.0001
136,208,206201,2,0,L|224:200,1,0.0001
136,208,206201,2,0,L|224:200,1,0.0001
136,208,206201,2,0,L|224:200,1,0.0001
136,208,206201,2,0,L|224:200,1,0.0001
136,208,206201,2,0,L|224:200,1,0.0001
256,192,206216,2,4,L|640:192,2,385
256,192,206400,1,2,0:0:0:0:
136,208,206401,2,2,L|224:200,1,0.0001
136,208,206401,2,2,L|224:200,1,0.0001
136,208,206401,2,2,L|224:200,1,0.0001
136,208,206401,2,2,L|224:200,1,0.0001
136,208,206401,2,2,L|224:200,1,0.0001
136,208,206401,2,2,L|224:200,1,0.0001
256,192,206500,1,0,0:0:0:0:
136,208,206501,2,0,L|224:200,1,0.0001
136,208,206501,2,0,L|224:200,1,0.0001
136,208,206501,2,0,L|224:200,1,0.0001
136,208,206501,2,0,L|224:200,1,0.0001
136,208,206501,2,0,L|224:200,1,0.0001
136,208,206501,2,0,L|224:200,1,0.0001
256,192,206600,1,0,0:0:0:0:
136,208,206601,2,0,L|224:200,1,0.0001
136,208,206601,2,0,L|224:200,1,0.0001
136,208,206601,2,0,L|224:200,1,0.0001
136,208,206601,2,0,L|224:200,1,0.0001
136,208,206601,2,0,L|224:200,1,0.0001
136,208,206601,2,0,L|224:200,1,0.0001
256,192,206618,2,4,L|640:192,2,385
256,192,206800,1,2,0:0:0:0:
136,208,206801,2,2,L|224:200,1,0.0001
136,208,206801,2,2,L|224:200,1,0.0001
136,208,206801,2,2,L|224:200,1,0.0001
136,208,206801,2,2,L|224:200,1,0.0001
136,208,206801,2,2,L|224:200,1,0.0001
136,208,206801,2,2,L|224:200,1,0.0001
256,192,206900,1,0,0:0:0:0:
136,208,206901,2,0,L|224:200,1,0.0001
136,208,206901,2,0,L|224:200,1,0.0001
136,208,206901,2,0,L|224:200,1,0.0001
136,208,206901,2,0,L|224:200,1,0.0001
136,208,206901,2,0,L|224:200,1,0.0001
136,208,206901,2,0,L|224:200,1,0.0001
256,192,207000,1,0,0:0:0:0:
136,208,207001,2,0,L|224:200,1,0.0001
136,208,207001,2,0,L|224:200,1,0.0001
136,208,207001,2,0,L|224:200,1,0.0001
136,208,207001,2,0,L|224:200,1,0.0001
136,208,207001,2,0,L|224:200,1,0.0001
136,208,207001,2,0,L|224:200,1,0.0001
256,192,207016,2,4,L|640:192,2,385
256,192,207200,1,2,0:0:0:0:
136,208,207201,2,2,L|224:200,1,0.0001
136,208,207201,2,2,L|224:200,1,0.0001
136,208,207201,2,2,L|224:200,1,0.0001
136,208,207201,2,2,L|224:200,1,0.0001
136,208,207201,2,2,L|224:200,1,0.0001
136,208,207201,2,2,L|224:200,1,0.0001
256,192,207300,1,0,0:0:0:0:
136,208,207301,2,0,L|224:200,1,0.0001
136,208,207301,2,0,L|224:200,1,0.0001
136,208,207301,2,0,L|224:200,1,0.0001
136,208,207301,2,0,L|224:200,1,0.0001
136,208,207301,2,0,L|224:200,1,0.0001
136,208,207301,2,0,L|224:200,1,0.0001
256,192,207400,1,2,0:0:0:0:
136,208,207401,2,2,L|224:200,1,0.0001
136,208,207401,2,2,L|224:200,1,0.0001
136,208,207401,2,2,L|224:200,1,0.0001
136,208,207401,2,2,L|224:200,1,0.0001
136,208,207401,2,2,L|224:200,1,0.0001
136,208,207401,2,2,L|224:200,1,0.0001
256,192,207418,2,4,L|640:192,2,385
256,192,207600,1,2,0:0:0:0:
136,208,207601,2,2,L|224:200,1,0.0001
136,208,207601,2,2,L|224:200,1,0.0001
136,208,207601,2,2,L|224:200,1,0.0001
136,208,207601,2,2,L|224:200,1,0.0001
136,208,207601,2,2,L|224:200,1,0.0001
136,208,207601,2,2,L|224:200,1,0.0001
256,192,207700,1,0,0:0:0:0:
136,208,207701,2,0,L|224:200,1,0.0001
136,208,207701,2,0,L|224:200,1,0.0001
136,208,207701,2,0,L|224:200,1,0.0001
136,208,207701,2,0,L|224:200,1,0.0001
136,208,207701,2,0,L|224:200,1,0.0001
136,208,207701,2,0,L|224:200,1,0.0001
256,192,207800,1,2,0:0:0:0:
136,208,207801,2,2,L|224:200,1,0.0001
136,208,207801,2,2,L|224:200,1,0.0001
136,208,207801,2,2,L|224:200,1,0.0001
136,208,207801,2,2,L|224:200,1,0.0001
136,208,207801,2,2,L|224:200,1,0.0001
136,208,207801,2,2,L|224:200,1,0.0001
256,192,207816,2,4,L|640:192,2,385
256,192,208000,1,0,0:0:0:0:
136,208,208001,2,0,L|224:200,1,0.0001
136,208,208001,2,0,L|224:200,1,0.0001
136,208,208001,2,0,L|224:200,1,0.0001
136,208,208001,2,0,L|224:200,1,0.0001
136,208,208001,2,0,L|224:200,1,0.0001
136,208,208001,2,0,L|224:200,1,0.0001
256,192,208100,1,2,0:0:0:0:
136,208,208101,2,2,L|224:200,1,0.0001
136,208,208101,2,2,L|224:200,1,0.0001
136,208,208101,2,2,L|224:200,1,0.0001
136,208,208101,2,2,L|224:200,1,0.0001
136,208,208101,2,2,L|224:200,1,0.0001
136,208,208101,2,2,L|224:200,1,0.0001
256,192,208200,1,0,0:0:0:0:
136,208,208201,2,0,L|224:200,1,0.0001
136,208,208201,2,0,L|224:200,1,0.0001
136,208,208201,2,0,L|224:200,1,0.0001
136,208,208201,2,0,L|224:200,1,0.0001
136,208,208201,2,0,L|224:200,1,0.0001
136,208,208201,2,0,L|224:200,1,0.0001
256,192,208216,2,4,L|640:192,2,385
256,192,208400,1,0,0:0:0:0:
136,208,208401,2,0,L|224:200,1,0.0001
136,208,208401,2,0,L|224:200,1,0.0001
136,208,208401,2,0,L|224:200,1,0.0001
136,208,208401,2,0,L|224:200,1,0.0001
136,208,208401,2,0,L|224:200,1,0.0001
136,208,208401,2,0,L|224:200,1,0.0001
256,192,208500,1,2,0:0:0:0:
136,208,208501,2,2,L|224:200,1,0.0001
136,208,208501,2,2,L|224:200,1,0.0001
136,208,208501,2,2,L|224:200,1,0.0001
136,208,208501,2,2,L|224:200,1,0.0001
136,208,208501,2,2,L|224:200,1,0.0001
136,208,208501,2,2,L|224:200,1,0.0001
256,192,208600,1,0,0:0:0:0:
136,208,208601,2,0,L|224:200,1,0.0001
136,208,208601,2,0,L|224:200,1,0.0001
136,208,208601,2,0,L|224:200,1,0.0001
136,208,208601,2,0,L|224:200,1,0.0001
136,208,208601,2,0,L|224:200,1,0.0001
136,208,208601,2,0,L|224:200,1,0.0001
256,192,208616,2,4,L|640:192,2,385
256,192,208800,1,2,0:0:0:0:
136,208,208801,2,2,L|224:200,1,0.0001
136,208,208801,2,2,L|224:200,1,0.0001
136,208,208801,2,2,L|224:200,1,0.0001
136,208,208801,2,2,L|224:200,1,0.0001
136,208,208801,2,2,L|224:200,1,0.0001
136,208,208801,2,2,L|224:200,1,0.0001
256,192,208900,1,2,0:0:0:0:
136,208,208901,2,2,L|224:200,1,0.0001
136,208,208901,2,2,L|224:200,1,0.0001
136,208,208901,2,2,L|224:200,1,0.0001
136,208,208901,2,2,L|224:200,1,0.0001
136,208,208901,2,2,L|224:200,1,0.0001
136,208,208901,2,2,L|224:200,1,0.0001
256,192,209000,1,0,0:0:0:0:
136,208,209001,2,0,L|224:200,1,0.0001
136,208,209001,2,0,L|224:200,1,0.0001
136,208,209001,2,0,L|224:200,1,0.0001
136,208,209001,2,0,L|224:200,1,0.0001
136,208,209001,2,0,L|224:200,1,0.0001
136,208,209001,2,0,L|224:200,1,0.0001
256,192,209100,1,2,0:0:0:0:
136,208,209101,2,2,L|224:200,1,0.0001
136,208,209101,2,2,L|224:200,1,0.0001
136,208,209101,2,2,L|224:200,1,0.0001
136,208,209101,2,2,L|224:200,1,0.0001
136,208,209101,2,2,L|224:200,1,0.0001
136,208,209101,2,2,L|224:200,1,0.0001
256,192,209200,1,2,0:0:0:0:
136,208,209201,2,2,L|224:200,1,0.0001
136,208,209201,2,2,L|224:200,1,0.0001
136,208,209201,2,2,L|224:200,1,0.0001
136,208,209201,2,2,L|224:200,1,0.0001
136,208,209201,2,2,L|224:200,1,0.0001
136,208,209201,2,2,L|224:200,1,0.0001
256,192,209216,2,4,L|672:192,2,385
256,192,209400,1,0,0:0:0:0:
136,208,209401,2,0,L|224:200,1,0.0001
136,208,209401,2,0,L|224:200,1,0.0001
136,208,209401,2,0,L|224:200,1,0.0001
136,208,209401,2,0,L|224:200,1,0.0001
136,208,209401,2,0,L|224:200,1,0.0001
136,208,209401,2,0,L|224:200,1,0.0001
256,192,209416,2,4,L|640:192,2,385
256,192,209600,1,2,0:0:0:0:
136,208,209601,2,2,L|224:200,1,0.0001
136,208,209601,2,2,L|224:200,1,0.0001
136,208,209601,2,2,L|224:200,1,0.0001
136,208,209601,2,2,L|224:200,1,0.0001
136,208,209601,2,2,L|224:200,1,0.0001
136,208,209601,2,2,L|224:200,1,0.0001
256,192,209700,1,0,0:0:0:0:
136,208,209701,2,0,L|224:200,1,0.0001
136,208,209701,2,0,L|224:200,1,0.0001
136,208,209701,2,0,L|224:200,1,0.0001
136,208,209701,2,0,L|224:200,1,0.0001
136,208,209701,2,0,L|224:200,1,0.0001
136,208,209701,2,0,L|224:200,1,0.0001
256,192,209800,1,0,0:0:0:0:
136,208,209801,2,0,L|224:200,1,0.0001
136,208,209801,2,0,L|224:200,1,0.0001
136,208,209801,2,0,L|224:200,1,0.0001
136,208,209801,2,0,L|224:200,1,0.0001
136,208,209801,2,0,L|224:200,1,0.0001
136,208,209801,2,0,L|224:200,1,0.0001
256,192,209900,1,0,0:0:0:0:
136,208,209901,2,0,L|224:200,1,0.0001
136,208,209901,2,0,L|224:200,1,0.0001
136,208,209901,2,0,L|224:200,1,0.0001
136,208,209901,2,0,L|224:200,1,0.0001
136,208,209901,2,0,L|224:200,1,0.0001
136,208,209901,2,0,L|224:200,1,0.0001
256,192,210000,1,2,0:0:0:0:
136,208,210001,2,2,L|224:200,1,0.0001
136,208,210001,2,2,L|224:200,1,0.0001
136,208,210001,2,2,L|224:200,1,0.0001
136,208,210001,2,2,L|224:200,1,0.0001
136,208,210001,2,2,L|224:200,1,0.0001
136,208,210001,2,2,L|224:200,1,0.0001
256,192,210016,2,4,L|640:192,2,385
256,192,210200,1,0,0:0:0:0:
136,208,210201,2,0,L|224:200,1,0.0001
136,208,210201,2,0,L|224:200,1,0.0001
136,208,210201,2,0,L|224:200,1,0.0001
136,208,210201,2,0,L|224:200,1,0.0001
136,208,210201,2,0,L|224:200,1,0.0001
136,208,210201,2,0,L|224:200,1,0.0001
256,192,210216,2,4,L|640:192,2,385
256,192,210400,1,2,0:0:0:0:
136,208,210401,2,2,L|224:200,1,0.0001
136,208,210401,2,2,L|224:200,1,0.0001
136,208,210401,2,2,L|224:200,1,0.0001
136,208,210401,2,2,L|224:200,1,0.0001
136,208,210401,2,2,L|224:200,1,0.0001
136,208,210401,2,2,L|224:200,1,0.0001
256,192,210500,1,0,0:0:0:0:
136,208,210501,2,0,L|224:200,1,0.0001
136,208,210501,2,0,L|224:200,1,0.0001
136,208,210501,2,0,L|224:200,1,0.0001
136,208,210501,2,0,L|224:200,1,0.0001
136,208,210501,2,0,L|224:200,1,0.0001
136,208,210501,2,0,L|224:200,1,0.0001
256,192,210600,1,2,0:0:0:0:
136,208,210601,2,2,L|224:200,1,0.0001
136,208,210601,2,2,L|224:200,1,0.0001
136,208,210601,2,2,L|224:200,1,0.0001
136,208,210601,2,2,L|224:200,1,0.0001
136,208,210601,2,2,L|224:200,1,0.0001
136,208,210601,2,2,L|224:200,1,0.0001
256,192,210700,1,2,0:0:0:0:
136,208,210701,2,2,L|224:200,1,0.0001
136,208,210701,2,2,L|224:200,1,0.0001
136,208,210701,2,2,L|224:200,1,0.0001
136,208,210701,2,2,L|224:200,1,0.0001
136,208,210701,2,2,L|224:200,1,0.0001
136,208,210701,2,2,L|224:200,1,0.0001
256,192,210800,1,0,0:0:0:0:
136,208,210801,2,0,L|224:200,1,0.0001
136,208,210801,2,0,L|224:200,1,0.0001
136,208,210801,2,0,L|224:200,1,0.0001
136,208,210801,2,0,L|224:200,1,0.0001
136,208,210801,2,0,L|224:200,1,0.0001
136,208,210801,2,0,L|224:200,1,0.0001
256,192,210900,1,2,0:0:0:0:
136,208,210901,2,2,L|224:200,1,0.0001
136,208,210901,2,2,L|224:200,1,0.0001
136,208,210901,2,2,L|224:200,1,0.0001
136,208,210901,2,2,L|224:200,1,0.0001
136,208,210901,2,2,L|224:200,1,0.0001
136,208,210901,2,2,L|224:200,1,0.0001
256,192,211000,1,0,0:0:0:0:
136,208,211001,2,0,L|224:200,1,0.0001
136,208,211001,2,0,L|224:200,1,0.0001
136,208,211001,2,0,L|224:200,1,0.0001
136,208,211001,2,0,L|224:200,1,0.0001
136,208,211001,2,0,L|224:200,1,0.0001
136,208,211001,2,0,L|224:200,1,0.0001
256,192,211199,1,4,0:0:0:0:
136,208,211200,2,4,L|224:200,1,0.0001
136,208,211200,2,4,L|224:200,1,0.0001
136,208,211200,2,4,L|224:200,1,0.0001
136,208,211200,2,4,L|224:200,1,0.0001
136,208,211200,2,4,L|224:200,1,0.0001
136,208,211200,2,4,L|224:200,1,0.0001
136,208,211200,2,4,L|224:200,1,0.0001
136,208,211200,2,4,L|224:200,1,0.0001
136,208,211200,2,4,L|224:200,1,0.0001
256,192,211500,1,4,0:0:0:0:
136,208,211501,2,4,L|224:200,1,0.0001
136,208,211501,2,4,L|224:200,1,0.0001
136,208,211501,2,4,L|224:200,1,0.0001
136,208,211501,2,4,L|224:200,1,0.0001
136,208,211501,2,4,L|224:200,1,0.0001
136,208,211501,2,4,L|224:200,1,0.0001
136,208,211501,2,4,L|224:200,1,0.0001
136,208,211501,2,4,L|224:200,1,0.0001
136,208,211501,2,4,L|224:200,1,0.0001
256,192,211800,1,6,0:0:0:0:
136,208,211801,2,6,L|224:200,1,0.0001
136,208,211801,2,6,L|224:200,1,0.0001
136,208,211801,2,6,L|224:200,1,0.0001
136,208,211801,2,6,L|224:200,1,0.0001
136,208,211801,2,6,L|224:200,1,0.0001
136,208,211801,2,6,L|224:200,1,0.0001
136,208,211801,2,6,L|224:200,1,0.0001
136,208,211801,2,6,L|224:200,1,0.0001
136,208,211801,2,6,L|224:200,1,0.0001
136,208,211801,2,6,L|224:200,1,0.0001
136,208,211801,2,6,L|224:200,1,0.0001
136,208,211801,2,6,L|224:200,1,0.0001
256,192,211900,2,4,L|448:192,1,175
256,192,211925,2,4,L|448:192,1,175
256,192,211950,2,4,L|448:192,1,175
256,192,211975,2,4,L|448:192,1,175
256,192,212000,2,4,L|448:192,1,175
256,192,212025,2,4,L|448:192,1,175
256,192,212050,2,4,L|448:192,1,175
256,192,212075,2,4,L|448:192,1,175
256,192,212100,2,4,L|448:192,1,175
256,192,212125,2,4,L|448:192,1,175
256,192,212199,1,6,0:0:0:0:
136,208,212200,2,6,L|224:200,1,0.0001
136,208,212200,2,6,L|224:200,1,0.0001
136,208,212200,2,6,L|224:200,1,0.0001
136,208,212200,2,6,L|224:200,1,0.0001
136,208,212200,2,6,L|224:200,1,0.0001
136,208,212200,2,6,L|224:200,1,0.0001
136,208,212200,2,6,L|224:200,1,0.0001
136,208,212200,2,6,L|224:200,1,0.0001
136,208,212200,2,6,L|224:200,1,0.0001
8,0,212224,6,0,B|8:336|8:336|504:336|504:336|504:0|504:0|16:0|16:0|16:328|16:328|496:328|496:328|496:-8|496:-8|0:344|0:344|136:248|136:248|224:240,1,3616.66666666667
256,192,212399,1,0,0:0:0:0:
136,208,212400,2,0,L|224:200,1,0.0001
136,208,212400,2,0,L|224:200,1,0.0001
136,208,212400,2,0,L|224:200,1,0.0001
136,208,212400,2,0,L|224:200,1,0.0001
136,208,212400,2,0,L|224:200,1,0.0001
136,208,212400,2,0,L|224:200,1,0.0001
136,208,212400,2,0,L|224:200,1,0.0001
136,208,212400,2,0,L|224:200,1,0.0001
136,208,212400,2,0,L|224:200,1,0.0001
8,0,212424,6,0,B|8:336|8:336|504:336|504:336|504:0|504:0|16:0|16:0|16:328|16:328|496:328|496:328|496:-8|496:-8|0:344|0:344|136:248|136:248|224:240,1,3616.66666666667
256,192,212599,1,2,0:0:0:0:
136,208,212600,2,2,L|224:200,1,0.0001
136,208,212600,2,2,L|224:200,1,0.0001
136,208,212600,2,2,L|224:200,1,0.0001
136,208,212600,2,2,L|224:200,1,0.0001
136,208,212600,2,2,L|224:200,1,0.0001
136,208,212600,2,2,L|224:200,1,0.0001
136,208,212600,2,2,L|224:200,1,0.0001
136,208,212600,2,2,L|224:200,1,0.0001
136,208,212600,2,2,L|224:200,1,0.0001
8,0,212624,2,0,B|512:0|512:0|512:336,1,700
256,192,212699,1,2,0:0:0:0:
136,208,212700,2,2,L|224:200,1,0.0001
136,208,212700,2,2,L|224:200,1,0.0001
136,208,212700,2,2,L|224:200,1,0.0001
136,208,212700,2,2,L|224:200,1,0.0001
136,208,212700,2,2,L|224:200,1,0.0001
136,208,212700,2,2,L|224:200,1,0.0001
136,208,212700,2,2,L|224:200,1,0.0001
136,208,212700,2,2,L|224:200,1,0.0001
136,208,212700,2,2,L|224:200,1,0.0001
8,0,212724,2,0,B|512:0|512:0|512:336,1,700
256,192,212799,1,0,0:0:0:0:
136,208,212800,2,0,L|224:200,1,0.0001
136,208,212800,2,0,L|224:200,1,0.0001
136,208,212800,2,0,L|224:200,1,0.0001
136,208,212800,2,0,L|224:200,1,0.0001
136,208,212800,2,0,L|224:200,1,0.0001
136,208,212800,2,0,L|224:200,1,0.0001
136,208,212800,2,0,L|224:200,1,0.0001
136,208,212800,2,0,L|224:200,1,0.0001
136,208,212800,2,0,L|224:200,1,0.0001
136,208,212824,6,4,L,1,-10
136,208,212849,6,4,L,1,-10
256,192,212899,1,0,0:0:0:0:
136,208,212900,2,0,L|224:200,1,0.0001
136,208,212900,2,0,L|224:200,1,0.0001
136,208,212900,2,0,L|224:200,1,0.0001
136,208,212900,2,0,L|224:200,1,0.0001
136,208,212900,2,0,L|224:200,1,0.0001
136,208,212900,2,0,L|224:200,1,0.0001
136,208,212900,2,0,L|224:200,1,0.0001
136,208,212900,2,0,L|224:200,1,0.0001
136,208,212900,2,0,L|224:200,1,0.0001
8,0,212924,2,0,B|512:0|512:0|512:336,1,700
256,192,212999,1,2,0:0:0:0:
136,208,213000,2,2,L|224:200,1,0.0001
136,208,213000,2,2,L|224:200,1,0.0001
136,208,213000,2,2,L|224:200,1,0.0001
136,208,213000,2,2,L|224:200,1,0.0001
136,208,213000,2,2,L|224:200,1,0.0001
136,208,213000,2,2,L|224:200,1,0.0001
136,208,213000,2,2,L|224:200,1,0.0001
136,208,213000,2,2,L|224:200,1,0.0001
136,208,213000,2,2,L|224:200,1,0.0001
8,0,213024,2,0,B|512:0|512:0|512:336,1,700
256,192,213099,1,0,0:0:0:0:
136,208,213100,2,0,L|224:200,1,0.0001
136,208,213100,2,0,L|224:200,1,0.0001
136,208,213100,2,0,L|224:200,1,0.0001
136,208,213100,2,0,L|224:200,1,0.0001
136,208,213100,2,0,L|224:200,1,0.0001
136,208,213100,2,0,L|224:200,1,0.0001
136,208,213100,2,0,L|224:200,1,0.0001
136,208,213100,2,0,L|224:200,1,0.0001
136,208,213100,2,0,L|224:200,1,0.0001
8,0,213124,2,0,B|512:0|512:0|512:336,1,700
256,192,213199,1,2,0:0:0:0:
136,208,213200,2,2,L|224:200,1,0.0001
136,208,213200,2,2,L|224:200,1,0.0001
136,208,213200,2,2,L|224:200,1,0.0001
136,208,213200,2,2,L|224:200,1,0.0001
136,208,213200,2,2,L|224:200,1,0.0001
136,208,213200,2,2,L|224:200,1,0.0001
136,208,213200,2,2,L|224:200,1,0.0001
136,208,213200,2,2,L|224:200,1,0.0001
136,208,213200,2,2,L|224:200,1,0.0001
8,0,213224,2,0,B|512:0|512:0|512:336,1,700
136,208,213249,6,4,L,1,-10
256,192,213299,1,2,0:0:0:0:
136,208,213300,2,2,L|224:200,1,0.0001
136,208,213300,2,2,L|224:200,1,0.0001
136,208,213300,2,2,L|224:200,1,0.0001
136,208,213300,2,2,L|224:200,1,0.0001
136,208,213300,2,2,L|224:200,1,0.0001
136,208,213300,2,2,L|224:200,1,0.0001
136,208,213300,2,2,L|224:200,1,0.0001
136,208,213300,2,2,L|224:200,1,0.0001
136,208,213300,2,2,L|224:200,1,0.0001
136,208,213324,6,4,L,1,-10
8,0,213349,2,0,B|512:0|512:0|512:336,1,700
256,192,213399,1,2,0:0:0:0:
136,208,213400,2,2,L|224:200,1,0.0001
136,208,213400,2,2,L|224:200,1,0.0001
136,208,213400,2,2,L|224:200,1,0.0001
136,208,213400,2,2,L|224:200,1,0.0001
136,208,213400,2,2,L|224:200,1,0.0001
136,208,213400,2,2,L|224:200,1,0.0001
136,208,213400,2,2,L|224:200,1,0.0001
136,208,213400,2,2,L|224:200,1,0.0001
136,208,213400,2,2,L|224:200,1,0.0001
8,0,213424,2,0,B|512:0|512:0|512:336,1,787.5
136,208,213449,6,4,L,1,-10
256,192,213499,1,0,0:0:0:0:
136,208,213500,2,0,L|224:200,1,0.0001
136,208,213500,2,0,L|224:200,1,0.0001
136,208,213500,2,0,L|224:200,1,0.0001
136,208,213500,2,0,L|224:200,1,0.0001
136,208,213500,2,0,L|224:200,1,0.0001
136,208,213500,2,0,L|224:200,1,0.0001
136,208,213500,2,0,L|224:200,1,0.0001
136,208,213500,2,0,L|224:200,1,0.0001
136,208,213500,2,0,L|224:200,1,0.0001
8,0,213524,2,0,B|512:0|512:0|512:336,1,700
136,208,213549,6,4,L,1,-10
256,192,213599,1,0,0:0:0:0:
136,208,213600,2,0,L|224:200,1,0.0001
136,208,213600,2,0,L|224:200,1,0.0001
136,208,213600,2,0,L|224:200,1,0.0001
136,208,213600,2,0,L|224:200,1,0.0001
136,208,213600,2,0,L|224:200,1,0.0001
136,208,213600,2,0,L|224:200,1,0.0001
136,208,213600,2,0,L|224:200,1,0.0001
136,208,213600,2,0,L|224:200,1,0.0001
136,208,213600,2,0,L|224:200,1,0.0001
8,0,213624,2,0,B|512:0|512:0|512:336,1,700
136,208,213649,6,4,L,1,-10
256,192,213699,1,0,0:0:0:0:
136,208,213700,2,0,L|224:200,1,0.0001
136,208,213700,2,0,L|224:200,1,0.0001
136,208,213700,2,0,L|224:200,1,0.0001
136,208,213700,2,0,L|224:200,1,0.0001
136,208,213700,2,0,L|224:200,1,0.0001
136,208,213700,2,0,L|224:200,1,0.0001
136,208,213700,2,0,L|224:200,1,0.0001
136,208,213700,2,0,L|224:200,1,0.0001
136,208,213700,2,0,L|224:200,1,0.0001
8,0,213724,2,0,B|512:0|512:0|512:336,1,700
136,208,213749,6,4,L,1,-10
256,192,213799,1,2,0:0:0:0:
136,208,213800,2,2,L|224:200,1,0.0001
136,208,213800,2,2,L|224:200,1,0.0001
136,208,213800,2,2,L|224:200,1,0.0001
136,208,213800,2,2,L|224:200,1,0.0001
136,208,213800,2,2,L|224:200,1,0.0001
136,208,213800,2,2,L|224:200,1,0.0001
136,208,213800,2,2,L|224:200,1,0.0001
136,208,213800,2,2,L|224:200,1,0.0001
136,208,213800,2,2,L|224:200,1,0.0001
8,0,213824,2,0,B|512:0|512:0|512:336,1,700
136,208,213849,6,4,L,1,-10
256,192,213899,1,2,0:0:0:0:
136,208,213900,2,2,L|224:200,1,0.0001
136,208,213900,2,2,L|224:200,1,0.0001
136,208,213900,2,2,L|224:200,1,0.0001
136,208,213900,2,2,L|224:200,1,0.0001
136,208,213900,2,2,L|224:200,1,0.0001
136,208,213900,2,2,L|224:200,1,0.0001
136,208,213900,2,2,L|224:200,1,0.0001
136,208,213900,2,2,L|224:200,1,0.0001
136,208,213900,2,2,L|224:200,1,0.0001
8,0,213924,2,0,B|512:0|512:0|512:336,1,700
136,208,213949,6,4,L,1,-10
256,192,213999,1,0,0:0:0:0:
136,208,214000,2,0,L|224:200,1,0.0001
136,208,214000,2,0,L|224:200,1,0.0001
136,208,214000,2,0,L|224:200,1,0.0001
136,208,214000,2,0,L|224:200,1,0.0001
136,208,214000,2,0,L|224:200,1,0.0001
136,208,214000,2,0,L|224:200,1,0.0001
136,208,214000,2,0,L|224:200,1,0.0001
136,208,214000,2,0,L|224:200,1,0.0001
136,208,214000,2,0,L|224:200,1,0.0001
8,0,214024,2,0,B|512:0|512:0|512:336,1,700
136,208,214049,6,4,L,1,-10
256,192,214099,1,0,0:0:0:0:
136,208,214100,2,0,L|224:200,1,0.0001
136,208,214100,2,0,L|224:200,1,0.0001
136,208,214100,2,0,L|224:200,1,0.0001
136,208,214100,2,0,L|224:200,1,0.0001
136,208,214100,2,0,L|224:200,1,0.0001
136,208,214100,2,0,L|224:200,1,0.0001
136,208,214100,2,0,L|224:200,1,0.0001
136,208,214100,2,0,L|224:200,1,0.0001
136,208,214100,2,0,L|224:200,1,0.0001
8,0,214124,2,0,B|512:0|512:0|512:336,1,700
136,208,214149,6,4,L,1,-10
256,192,214199,1,2,0:0:0:0:
136,208,214200,2,2,L|224:200,1,0.0001
136,208,214200,2,2,L|224:200,1,0.0001
136,208,214200,2,2,L|224:200,1,0.0001
136,208,214200,2,2,L|224:200,1,0.0001
136,208,214200,2,2,L|224:200,1,0.0001
136,208,214200,2,2,L|224:200,1,0.0001
136,208,214200,2,2,L|224:200,1,0.0001
136,208,214200,2,2,L|224:200,1,0.0001
136,208,214200,2,2,L|224:200,1,0.0001
256,192,214399,1,0,0:0:0:0:
256,192,214499,1,0,0:0:0:0:
256,192,214599,1,6,0:0:0:0:
136,208,214600,2,6,L|224:200,1,0.0001
136,208,214600,2,6,L|224:200,1,0.0001
136,208,214600,2,6,L|224:200,1,0.0001
136,208,214600,2,6,L|224:200,1,0.0001
136,208,214600,2,6,L|224:200,1,0.0001
136,208,214600,2,6,L|224:200,1,0.0001
136,208,214600,2,6,L|224:200,1,0.0001
136,208,214600,2,6,L|224:200,1,0.0001
136,208,214600,2,6,L|224:200,1,0.0001
136,208,214600,2,6,L|224:200,1,0.0001
136,208,214600,2,6,L|224:200,1,0.0001
136,208,214600,2,6,L|224:200,1,0.0001
136,208,214600,2,6,L|224:200,1,0.0001
136,208,214600,2,6,L|224:200,1,0.0001
136,208,214600,2,6,L|224:200,1,0.0001
136,208,214600,2,6,L|224:200,1,0.0001
136,208,214600,2,6,L|224:200,1,0.0001
136,208,214600,2,6,L|224:200,1,0.0001
256,192,214999,1,4,0:0:0:0:
136,208,215000,2,4,L|224:200,1,0.0001
136,208,215000,2,4,L|224:200,1,0.0001
136,208,215000,2,4,L|224:200,1,0.0001
136,208,215000,2,4,L|224:200,1,0.0001
136,208,215000,2,4,L|224:200,1,0.0001
136,208,215000,2,4,L|224:200,1,0.0001
136,208,215000,2,4,L|224:200,1,0.0001
136,208,215000,2,4,L|224:200,1,0.0001
136,208,215000,2,4,L|224:200,1,0.0001
136,208,215000,2,4,L|224:200,1,0.0001
136,208,215000,2,4,L|224:200,1,0.0001
136,208,215000,2,4,L|224:200,1,0.0001
256,192,215199,1,2,0:0:0:0:
136,208,215200,2,2,L|224:200,1,0.0001
136,208,215200,2,2,L|224:200,1,0.0001
136,208,215200,2,2,L|224:200,1,0.0001
136,208,215200,2,2,L|224:200,1,0.0001
136,208,215200,2,2,L|224:200,1,0.0001
136,208,215200,2,2,L|224:200,1,0.0001
136,208,215200,2,2,L|224:200,1,0.0001
136,208,215200,2,2,L|224:200,1,0.0001
136,208,215200,2,2,L|224:200,1,0.0001
136,208,215200,2,2,L|224:200,1,0.0001
136,208,215200,2,2,L|224:200,1,0.0001
136,208,215200,2,2,L|224:200,1,0.0001
256,192,215299,1,0,0:0:0:0:
136,208,215300,2,0,L|224:200,1,0.0001
136,208,215300,2,0,L|224:200,1,0.0001
136,208,215300,2,0,L|224:200,1,0.0001
136,208,215300,2,0,L|224:200,1,0.0001
136,208,215300,2,0,L|224:200,1,0.0001
136,208,215300,2,0,L|224:200,1,0.0001
136,208,215300,2,0,L|224:200,1,0.0001
136,208,215300,2,0,L|224:200,1,0.0001
136,208,215300,2,0,L|224:200,1,0.0001
136,208,215300,2,0,L|224:200,1,0.0001
136,208,215300,2,0,L|224:200,1,0.0001
136,208,215300,2,0,L|224:200,1,0.0001
256,192,215399,1,2,0:0:0:0:
136,208,215400,2,2,L|224:200,1,0.0001
136,208,215400,2,2,L|224:200,1,0.0001
136,208,215400,2,2,L|224:200,1,0.0001
136,208,215400,2,2,L|224:200,1,0.0001
136,208,215400,2,2,L|224:200,1,0.0001
136,208,215400,2,2,L|224:200,1,0.0001
136,208,215400,2,2,L|224:200,1,0.0001
136,208,215400,2,2,L|224:200,1,0.0001
136,208,215400,2,2,L|224:200,1,0.0001
136,208,215400,2,2,L|224:200,1,0.0001
136,208,215400,2,2,L|224:200,1,0.0001
136,208,215400,2,2,L|224:200,1,0.0001
256,192,215499,1,2,0:0:0:0:
136,208,215500,2,2,L|224:200,1,0.0001
136,208,215500,2,2,L|224:200,1,0.0001
136,208,215500,2,2,L|224:200,1,0.0001
136,208,215500,2,2,L|224:200,1,0.0001
136,208,215500,2,2,L|224:200,1,0.0001
136,208,215500,2,2,L|224:200,1,0.0001
136,208,215500,2,2,L|224:200,1,0.0001
136,208,215500,2,2,L|224:200,1,0.0001
136,208,215500,2,2,L|224:200,1,0.0001
136,208,215500,2,2,L|224:200,1,0.0001
136,208,215500,2,2,L|224:200,1,0.0001
136,208,215500,2,2,L|224:200,1,0.0001
256,192,215599,1,0,0:0:0:0:
136,208,215600,2,0,L|224:200,1,0.0001
136,208,215600,2,0,L|224:200,1,0.0001
136,208,215600,2,0,L|224:200,1,0.0001
136,208,215600,2,0,L|224:200,1,0.0001
136,208,215600,2,0,L|224:200,1,0.0001
136,208,215600,2,0,L|224:200,1,0.0001
136,208,215600,2,0,L|224:200,1,0.0001
136,208,215600,2,0,L|224:200,1,0.0001
136,208,215600,2,0,L|224:200,1,0.0001
136,208,215600,2,0,L|224:200,1,0.0001
136,208,215600,2,0,L|224:200,1,0.0001
136,208,215600,2,0,L|224:200,1,0.0001
256,192,215699,1,0,0:0:0:0:
136,208,215700,2,0,L|224:200,1,0.0001
136,208,215700,2,0,L|224:200,1,0.0001
136,208,215700,2,0,L|224:200,1,0.0001
136,208,215700,2,0,L|224:200,1,0.0001
136,208,215700,2,0,L|224:200,1,0.0001
136,208,215700,2,0,L|224:200,1,0.0001
136,208,215700,2,0,L|224:200,1,0.0001
136,208,215700,2,0,L|224:200,1,0.0001
136,208,215700,2,0,L|224:200,1,0.0001
136,208,215700,2,0,L|224:200,1,0.0001
136,208,215700,2,0,L|224:200,1,0.0001
136,208,215700,2,0,L|224:200,1,0.0001
256,192,215799,1,2,0:0:0:0:
136,208,215800,2,2,L|224:200,1,0.0001
136,208,215800,2,2,L|224:200,1,0.0001
136,208,215800,2,2,L|224:200,1,0.0001
136,208,215800,2,2,L|224:200,1,0.0001
136,208,215800,2,2,L|224:200,1,0.0001
136,208,215800,2,2,L|224:200,1,0.0001
136,208,215800,2,2,L|224:200,1,0.0001
136,208,215800,2,2,L|224:200,1,0.0001
136,208,215800,2,2,L|224:200,1,0.0001
136,208,215800,2,2,L|224:200,1,0.0001
136,208,215800,2,2,L|224:200,1,0.0001
136,208,215800,2,2,L|224:200,1,0.0001
256,192,215899,1,0,0:0:0:0:
136,208,215900,2,0,L|224:200,1,0.0001
136,208,215900,2,0,L|224:200,1,0.0001
136,208,215900,2,0,L|224:200,1,0.0001
136,208,215900,2,0,L|224:200,1,0.0001
136,208,215900,2,0,L|224:200,1,0.0001
136,208,215900,2,0,L|224:200,1,0.0001
136,208,215900,2,0,L|224:200,1,0.0001
136,208,215900,2,0,L|224:200,1,0.0001
136,208,215900,2,0,L|224:200,1,0.0001
136,208,215900,2,0,L|224:200,1,0.0001
136,208,215900,2,0,L|224:200,1,0.0001
136,208,215900,2,0,L|224:200,1,0.0001
256,192,215999,1,0,0:0:0:0:
136,208,216000,2,0,L|224:200,1,0.0001
136,208,216000,2,0,L|224:200,1,0.0001
136,208,216000,2,0,L|224:200,1,0.0001
136,208,216000,2,0,L|224:200,1,0.0001
136,208,216000,2,0,L|224:200,1,0.0001
136,208,216000,2,0,L|224:200,1,0.0001
136,208,216000,2,0,L|224:200,1,0.0001
136,208,216000,2,0,L|224:200,1,0.0001
136,208,216000,2,0,L|224:200,1,0.0001
136,208,216000,2,0,L|224:200,1,0.0001
136,208,216000,2,0,L|224:200,1,0.0001
136,208,216000,2,0,L|224:200,1,0.0001
256,192,216099,1,0,0:0:0:0:
136,208,216100,2,0,L|224:200,1,0.0001
136,208,216100,2,0,L|224:200,1,0.0001
136,208,216100,2,0,L|224:200,1,0.0001
136,208,216100,2,0,L|224:200,1,0.0001
136,208,216100,2,0,L|224:200,1,0.0001
136,208,216100,2,0,L|224:200,1,0.0001
136,208,216100,2,0,L|224:200,1,0.0001
136,208,216100,2,0,L|224:200,1,0.0001
136,208,216100,2,0,L|224:200,1,0.0001
136,208,216100,2,0,L|224:200,1,0.0001
136,208,216100,2,0,L|224:200,1,0.0001
136,208,216100,2,0,L|224:200,1,0.0001
256,192,216199,1,2,0:0:0:0:
136,208,216200,2,2,L|224:200,1,0.0001
136,208,216200,2,2,L|224:200,1,0.0001
136,208,216200,2,2,L|224:200,1,0.0001
136,208,216200,2,2,L|224:200,1,0.0001
136,208,216200,2,2,L|224:200,1,0.0001
136,208,216200,2,2,L|224:200,1,0.0001
136,208,216200,2,2,L|224:200,1,0.0001
136,208,216200,2,2,L|224:200,1,0.0001
136,208,216200,2,2,L|224:200,1,0.0001
136,208,216200,2,2,L|224:200,1,0.0001
136,208,216200,2,2,L|224:200,1,0.0001
136,208,216200,2,2,L|224:200,1,0.0001
256,192,216299,1,2,0:0:0:0:
136,208,216300,2,2,L|224:200,1,0.0001
136,208,216300,2,2,L|224:200,1,0.0001
136,208,216300,2,2,L|224:200,1,0.0001
136,208,216300,2,2,L|224:200,1,0.0001
136,208,216300,2,2,L|224:200,1,0.0001
136,208,216300,2,2,L|224:200,1,0.0001
136,208,216300,2,2,L|224:200,1,0.0001
136,208,216300,2,2,L|224:200,1,0.0001
136,208,216300,2,2,L|224:200,1,0.0001
136,208,216300,2,2,L|224:200,1,0.0001
136,208,216300,2,2,L|224:200,1,0.0001
136,208,216300,2,2,L|224:200,1,0.0001
256,192,216399,1,0,0:0:0:0:
136,208,216400,2,0,L|224:200,1,0.0001
136,208,216400,2,0,L|224:200,1,0.0001
136,208,216400,2,0,L|224:200,1,0.0001
136,208,216400,2,0,L|224:200,1,0.0001
136,208,216400,2,0,L|224:200,1,0.0001
136,208,216400,2,0,L|224:200,1,0.0001
136,208,216400,2,0,L|224:200,1,0.0001
136,208,216400,2,0,L|224:200,1,0.0001
136,208,216400,2,0,L|224:200,1,0.0001
136,208,216400,2,0,L|224:200,1,0.0001
136,208,216400,2,0,L|224:200,1,0.0001
136,208,216400,2,0,L|224:200,1,0.0001
256,192,216499,1,0,0:0:0:0:
136,208,216500,2,0,L|224:200,1,0.0001
136,208,216500,2,0,L|224:200,1,0.0001
136,208,216500,2,0,L|224:200,1,0.0001
136,208,216500,2,0,L|224:200,1,0.0001
136,208,216500,2,0,L|224:200,1,0.0001
136,208,216500,2,0,L|224:200,1,0.0001
136,208,216500,2,0,L|224:200,1,0.0001
136,208,216500,2,0,L|224:200,1,0.0001
136,208,216500,2,0,L|224:200,1,0.0001
136,208,216500,2,0,L|224:200,1,0.0001
136,208,216500,2,0,L|224:200,1,0.0001
136,208,216500,2,0,L|224:200,1,0.0001
256,192,216599,1,2,0:0:0:0:
136,208,216600,2,2,L|224:200,1,0.0001
136,208,216600,2,2,L|224:200,1,0.0001
136,208,216600,2,2,L|224:200,1,0.0001
136,208,216600,2,2,L|224:200,1,0.0001
136,208,216600,2,2,L|224:200,1,0.0001
136,208,216600,2,2,L|224:200,1,0.0001
136,208,216600,2,2,L|224:200,1,0.0001
136,208,216600,2,2,L|224:200,1,0.0001
136,208,216600,2,2,L|224:200,1,0.0001
136,208,216600,2,2,L|224:200,1,0.0001
136,208,216600,2,2,L|224:200,1,0.0001
136,208,216600,2,2,L|224:200,1,0.0001
256,192,216699,1,0,0:0:0:0:
136,208,216700,2,0,L|224:200,1,0.0001
136,208,216700,2,0,L|224:200,1,0.0001
136,208,216700,2,0,L|224:200,1,0.0001
136,208,216700,2,0,L|224:200,1,0.0001
136,208,216700,2,0,L|224:200,1,0.0001
136,208,216700,2,0,L|224:200,1,0.0001
136,208,216700,2,0,L|224:200,1,0.0001
136,208,216700,2,0,L|224:200,1,0.0001
136,208,216700,2,0,L|224:200,1,0.0001
136,208,216700,2,0,L|224:200,1,0.0001
136,208,216700,2,0,L|224:200,1,0.0001
136,208,216700,2,0,L|224:200,1,0.0001
256,192,216799,1,0,0:0:0:0:
136,208,216800,2,0,L|224:200,1,0.0001
136,208,216800,2,0,L|224:200,1,0.0001
136,208,216800,2,0,L|224:200,1,0.0001
136,208,216800,2,0,L|224:200,1,0.0001
136,208,216800,2,0,L|224:200,1,0.0001
136,208,216800,2,0,L|224:200,1,0.0001
136,208,216800,2,0,L|224:200,1,0.0001
136,208,216800,2,0,L|224:200,1,0.0001
136,208,216800,2,0,L|224:200,1,0.0001
136,208,216800,2,0,L|224:200,1,0.0001
136,208,216800,2,0,L|224:200,1,0.0001
136,208,216800,2,0,L|224:200,1,0.0001
256,192,216899,1,0,0:0:0:0:
136,208,216900,2,0,L|224:200,1,0.0001
136,208,216900,2,0,L|224:200,1,0.0001
136,208,216900,2,0,L|224:200,1,0.0001
136,208,216900,2,0,L|224:200,1,0.0001
136,208,216900,2,0,L|224:200,1,0.0001
136,208,216900,2,0,L|224:200,1,0.0001
136,208,216900,2,0,L|224:200,1,0.0001
136,208,216900,2,0,L|224:200,1,0.0001
136,208,216900,2,0,L|224:200,1,0.0001
136,208,216900,2,0,L|224:200,1,0.0001
136,208,216900,2,0,L|224:200,1,0.0001
136,208,216900,2,0,L|224:200,1,0.0001
256,192,216999,1,2,0:0:0:0:
136,208,217000,2,2,L|224:200,1,0.0001
136,208,217000,2,2,L|224:200,1,0.0001
136,208,217000,2,2,L|224:200,1,0.0001
136,208,217000,2,2,L|224:200,1,0.0001
136,208,217000,2,2,L|224:200,1,0.0001
136,208,217000,2,2,L|224:200,1,0.0001
136,208,217000,2,2,L|224:200,1,0.0001
136,208,217000,2,2,L|224:200,1,0.0001
136,208,217000,2,2,L|224:200,1,0.0001
136,208,217000,2,2,L|224:200,1,0.0001
136,208,217000,2,2,L|224:200,1,0.0001
136,208,217000,2,2,L|224:200,1,0.0001
256,192,217099,1,0,0:0:0:0:
136,208,217100,2,0,L|224:200,1,0.0001
136,208,217100,2,0,L|224:200,1,0.0001
136,208,217100,2,0,L|224:200,1,0.0001
136,208,217100,2,0,L|224:200,1,0.0001
136,208,217100,2,0,L|224:200,1,0.0001
136,208,217100,2,0,L|224:200,1,0.0001
136,208,217100,2,0,L|224:200,1,0.0001
136,208,217100,2,0,L|224:200,1,0.0001
136,208,217100,2,0,L|224:200,1,0.0001
136,208,217100,2,0,L|224:200,1,0.0001
136,208,217100,2,0,L|224:200,1,0.0001
136,208,217100,2,0,L|224:200,1,0.0001
256,192,217199,1,2,0:0:0:0:
136,208,217200,2,2,L|224:200,1,0.0001
136,208,217200,2,2,L|224:200,1,0.0001
136,208,217200,2,2,L|224:200,1,0.0001
136,208,217200,2,2,L|224:200,1,0.0001
136,208,217200,2,2,L|224:200,1,0.0001
136,208,217200,2,2,L|224:200,1,0.0001
136,208,217200,2,2,L|224:200,1,0.0001
136,208,217200,2,2,L|224:200,1,0.0001
136,208,217200,2,2,L|224:200,1,0.0001
136,208,217200,2,2,L|224:200,1,0.0001
136,208,217200,2,2,L|224:200,1,0.0001
136,208,217200,2,2,L|224:200,1,0.0001
256,192,217299,1,0,0:0:0:0:
136,208,217300,2,0,L|224:200,1,0.0001
136,208,217300,2,0,L|224:200,1,0.0001
136,208,217300,2,0,L|224:200,1,0.0001
136,208,217300,2,0,L|224:200,1,0.0001
136,208,217300,2,0,L|224:200,1,0.0001
136,208,217300,2,0,L|224:200,1,0.0001
136,208,217300,2,0,L|224:200,1,0.0001
136,208,217300,2,0,L|224:200,1,0.0001
136,208,217300,2,0,L|224:200,1,0.0001
136,208,217300,2,0,L|224:200,1,0.0001
136,208,217300,2,0,L|224:200,1,0.0001
136,208,217300,2,0,L|224:200,1,0.0001
256,192,217399,1,2,0:0:0:0:
136,208,217400,2,2,L|224:200,1,0.0001
136,208,217400,2,2,L|224:200,1,0.0001
136,208,217400,2,2,L|224:200,1,0.0001
136,208,217400,2,2,L|224:200,1,0.0001
136,208,217400,2,2,L|224:200,1,0.0001
136,208,217400,2,2,L|224:200,1,0.0001
136,208,217400,2,2,L|224:200,1,0.0001
136,208,217400,2,2,L|224:200,1,0.0001
136,208,217400,2,2,L|224:200,1,0.0001
136,208,217400,2,2,L|224:200,1,0.0001
136,208,217400,2,2,L|224:200,1,0.0001
136,208,217400,2,2,L|224:200,1,0.0001
256,192,217499,1,2,0:0:0:0:
136,208,217500,2,2,L|224:200,1,0.0001
136,208,217500,2,2,L|224:200,1,0.0001
136,208,217500,2,2,L|224:200,1,0.0001
136,208,217500,2,2,L|224:200,1,0.0001
136,208,217500,2,2,L|224:200,1,0.0001
136,208,217500,2,2,L|224:200,1,0.0001
136,208,217500,2,2,L|224:200,1,0.0001
136,208,217500,2,2,L|224:200,1,0.0001
136,208,217500,2,2,L|224:200,1,0.0001
136,208,217500,2,2,L|224:200,1,0.0001
136,208,217500,2,2,L|224:200,1,0.0001
136,208,217500,2,2,L|224:200,1,0.0001
256,192,217599,1,2,0:0:0:0:
136,208,217600,2,2,L|224:200,1,0.0001
136,208,217600,2,2,L|224:200,1,0.0001
136,208,217600,2,2,L|224:200,1,0.0001
136,208,217600,2,2,L|224:200,1,0.0001
136,208,217600,2,2,L|224:200,1,0.0001
136,208,217600,2,2,L|224:200,1,0.0001
136,208,217600,2,2,L|224:200,1,0.0001
136,208,217600,2,2,L|224:200,1,0.0001
136,208,217600,2,2,L|224:200,1,0.0001
136,208,217600,2,2,L|224:200,1,0.0001
136,208,217600,2,2,L|224:200,1,0.0001
136,208,217600,2,2,L|224:200,1,0.0001
256,192,217699,1,0,0:0:0:0:
136,208,217700,2,0,L|224:200,1,0.0001
136,208,217700,2,0,L|224:200,1,0.0001
136,208,217700,2,0,L|224:200,1,0.0001
136,208,217700,2,0,L|224:200,1,0.0001
136,208,217700,2,0,L|224:200,1,0.0001
136,208,217700,2,0,L|224:200,1,0.0001
136,208,217700,2,0,L|224:200,1,0.0001
136,208,217700,2,0,L|224:200,1,0.0001
136,208,217700,2,0,L|224:200,1,0.0001
136,208,217700,2,0,L|224:200,1,0.0001
136,208,217700,2,0,L|224:200,1,0.0001
136,208,217700,2,0,L|224:200,1,0.0001
256,192,217799,1,2,0:0:0:0:
136,208,217800,2,2,L|224:200,1,0.0001
136,208,217800,2,2,L|224:200,1,0.0001
136,208,217800,2,2,L|224:200,1,0.0001
136,208,217800,2,2,L|224:200,1,0.0001
136,208,217800,2,2,L|224:200,1,0.0001
136,208,217800,2,2,L|224:200,1,0.0001
136,208,217800,2,2,L|224:200,1,0.0001
136,208,217800,2,2,L|224:200,1,0.0001
136,208,217800,2,2,L|224:200,1,0.0001
136,208,217800,2,2,L|224:200,1,0.0001
136,208,217800,2,2,L|224:200,1,0.0001
136,208,217800,2,2,L|224:200,1,0.0001
256,192,217899,1,2,0:0:0:0:
136,208,217900,2,2,L|224:200,1,0.0001
136,208,217900,2,2,L|224:200,1,0.0001
136,208,217900,2,2,L|224:200,1,0.0001
136,208,217900,2,2,L|224:200,1,0.0001
136,208,217900,2,2,L|224:200,1,0.0001
136,208,217900,2,2,L|224:200,1,0.0001
136,208,217900,2,2,L|224:200,1,0.0001
136,208,217900,2,2,L|224:200,1,0.0001
136,208,217900,2,2,L|224:200,1,0.0001
136,208,217900,2,2,L|224:200,1,0.0001
136,208,217900,2,2,L|224:200,1,0.0001
136,208,217900,2,2,L|224:200,1,0.0001
256,192,217999,1,0,0:0:0:0:
136,208,218000,2,0,L|224:200,1,0.0001
136,208,218000,2,0,L|224:200,1,0.0001
136,208,218000,2,0,L|224:200,1,0.0001
136,208,218000,2,0,L|224:200,1,0.0001
136,208,218000,2,0,L|224:200,1,0.0001
136,208,218000,2,0,L|224:200,1,0.0001
136,208,218000,2,0,L|224:200,1,0.0001
136,208,218000,2,0,L|224:200,1,0.0001
136,208,218000,2,0,L|224:200,1,0.0001
136,208,218000,2,0,L|224:200,1,0.0001
136,208,218000,2,0,L|224:200,1,0.0001
136,208,218000,2,0,L|224:200,1,0.0001
256,192,218099,1,0,0:0:0:0:
136,208,218100,2,0,L|224:200,1,0.0001
136,208,218100,2,0,L|224:200,1,0.0001
136,208,218100,2,0,L|224:200,1,0.0001
136,208,218100,2,0,L|224:200,1,0.0001
136,208,218100,2,0,L|224:200,1,0.0001
136,208,218100,2,0,L|224:200,1,0.0001
136,208,218100,2,0,L|224:200,1,0.0001
136,208,218100,2,0,L|224:200,1,0.0001
136,208,218100,2,0,L|224:200,1,0.0001
136,208,218100,2,0,L|224:200,1,0.0001
136,208,218100,2,0,L|224:200,1,0.0001
136,208,218100,2,0,L|224:200,1,0.0001
256,192,218200,1,6,0:0:0:0:
136,208,218201,2,6,L|224:200,1,0.0001
136,208,218201,2,6,L|224:200,1,0.0001
136,208,218201,2,6,L|224:200,1,0.0001
136,208,218201,2,6,L|224:200,1,0.0001
136,208,218201,2,6,L|224:200,1,0.0001
136,208,218201,2,6,L|224:200,1,0.0001
136,208,218201,2,6,L|224:200,1,0.0001
136,208,218201,2,6,L|224:200,1,0.0001
136,208,218201,2,6,L|224:200,1,0.0001
136,208,218201,2,6,L|224:200,1,0.0001
136,208,218201,2,6,L|224:200,1,0.0001
136,208,218201,2,6,L|224:200,1,0.0001
136,208,218201,2,6,L|224:200,1,0.0001
136,208,218201,2,6,L|224:200,1,0.0001
136,208,218201,2,6,L|224:200,1,0.0001
136,208,218201,2,6,L|224:200,1,0.0001
136,208,218201,2,6,L|224:200,1,0.0001
136,208,218201,2,6,L|224:200,1,0.0001
48,120,218231,2,4,L,1,-1000
48,120,218262,2,4,L,1,-1000
48,120,218293,2,4,L,1,-1000
136,208,218356,2,6,L|224:200,1,0.0001
136,208,218450,2,6,L|224:200,1,0.0001
136,208,218543,2,6,L|224:200,1,0.0001
136,208,218637,2,6,L|224:200,1,0.0001
136,208,218731,2,6,L|224:200,1,0.0001
136,208,218814,2,6,L|224:200,1,0.0001
136,208,218897,2,6,L|224:200,1,0.0001
136,208,218981,2,6,L|224:200,1,0.0001
136,208,219064,2,6,L|224:200,1,0.0001
136,208,219147,2,6,L|224:200,1,0.0001
136,208,219231,2,6,L|224:200,1,0.0001
136,208,219314,2,6,L|224:200,1,0.0001
136,208,219397,2,6,L|224:200,1,0.0001
136,208,219481,2,6,L|224:200,1,0.0001
136,208,219564,2,6,L|224:200,1,0.0001
136,208,219647,2,6,L|224:200,1,0.0001
136,208,219731,2,6,L|224:200,1,0.0001
136,208,219814,2,6,L|224:200,1,0.0001
136,208,219897,2,6,L|224:200,1,0.0001
136,208,219981,2,6,L|224:200,1,0.0001
136,208,220064,2,6,L|224:200,1,0.0001
136,208,220147,2,6,L|224:200,1,0.0001
136,208,220231,2,6,L|224:200,1,0.0001
136,208,220314,2,6,L|224:200,1,0.0001
136,208,220397,2,6,L|224:200,1,0.0001
136,208,220481,2,6,L|224:200,1,0.0001
136,208,220564,2,6,L|224:200,1,0.0001
136,208,220647,2,6,L|224:200,1,0.0001
136,208,220731,2,6,L|224:200,1,0.0001
136,208,220814,2,6,L|224:200,1,0.0001
136,208,220897,2,6,L|224:200,1,0.0001
136,208,220981,2,6,L|224:200,1,0.0001
136,208,221064,2,6,L|224:200,1,0.0001
136,208,221147,2,6,L|224:200,1,0.0001
136,208,221231,2,6,L|224:200,1,0.0001
136,208,221314,2,6,L|224:200,1,0.0001
136,208,221397,2,6,L|224:200,1,0.0001
136,208,221481,2,6,L|224:200,1,0.0001
136,208,221564,2,6,L|224:200,1,0.0001
136,208,221647,2,6,L|224:200,1,0.0001
136,208,221731,2,6,L|224:200,1,0.0001
136,208,221814,2,6,L|224:200,1,0.0001
136,208,221897,2,6,L|224:200,1,0.0001
136,208,221981,2,6,L|224:200,1,0.0001
136,208,222064,2,6,L|224:200,1,0.0001
136,208,222147,2,6,L|224:200,1,0.0001
256,192,222200,1,0,0:0:0:0:
136,208,222231,2,6,L|224:200,1,0.0001
136,208,222314,2,6,L|224:200,1,0.0001
136,208,222397,2,6,L|224:200,1,0.0001
136,208,222481,2,6,L|224:200,1,0.0001
136,208,222564,2,6,L|224:200,1,0.0001
136,208,222647,2,6,L|224:200,1,0.0001
136,208,222731,2,6,L|224:200,1,0.0001
136,208,222814,2,6,L|224:200,1,0.0001
136,208,222897,2,6,L|224:200,1,0.0001
136,208,222981,2,6,L|224:200,1,0.0001
136,208,223064,2,6,L|224:200,1,0.0001
136,208,223147,2,6,L|224:200,1,0.0001
136,208,223231,2,6,L|224:200,1,0.0001
136,208,223314,2,6,L|224:200,1,0.0001
136,208,223397,2,6,L|224:200,1,0.0001
136,208,223481,2,6,L|224:200,1,0.0001
136,208,223564,2,6,L|224:200,1,0.0001
136,208,223647,2,6,L|224:200,1,0.0001
136,208,223731,2,6,L|224:200,1,0.0001
136,208,223814,2,6,L|224:200,1,0.0001
136,208,223897,2,6,L|224:200,1,0.0001
136,208,223981,2,6,L|224:200,1,0.0001
136,208,224064,2,6,L|224:200,1,0.0001
136,208,224147,2,6,L|224:200,1,0.0001
256,192,224200,1,8,0:0:0:0:
136,208,224231,2,6,L|224:200,1,0.0001
136,208,224314,2,6,L|224:200,1,0.0001
136,208,224397,2,6,L|224:200,1,0.0001
136,208,224481,2,6,L|224:200,1,0.0001
136,208,224564,2,6,L|224:200,1,0.0001
136,208,224647,2,6,L|224:200,1,0.0001
136,208,224731,2,6,L|224:200,1,0.0001
136,208,224814,2,6,L|224:200,1,0.0001
136,208,224897,2,6,L|224:200,1,0.0001
136,208,224981,2,6,L|224:200,1,0.0001
136,208,225064,2,6,L|224:200,1,0.0001
136,208,225147,2,6,L|224:200,1,0.0001
136,208,225231,2,6,L|224:200,1,0.0001
136,208,225314,2,6,L|224:200,1,0.0001
136,208,225397,2,6,L|224:200,1,0.0001
136,208,225481,2,6,L|224:200,1,0.0001
136,208,225564,2,6,L|224:200,1,0.0001
136,208,225647,2,6,L|224:200,1,0.0001
136,208,225731,2,6,L|224:200,1,0.0001
136,208,225814,2,6,L|224:200,1,0.0001
136,208,225897,2,6,L|224:200,1,0.0001
136,208,225981,2,6,L|224:200,1,0.0001
136,208,226064,2,6,L|224:200,1,0.0001
136,208,226147,2,6,L|224:200,1,0.0001
256,192,226200,1,4,0:0:0:0:
136,208,226231,2,6,L|224:200,1,0.0001
136,208,226314,2,6,L|224:200,1,0.0001
136,208,226397,2,6,L|224:200,1,0.0001
136,208,226481,2,6,L|224:200,1,0.0001
136,208,226564,2,6,L|224:200,1,0.0001
136,208,226647,2,6,L|224:200,1,0.0001
256,192,226700,1,8,0:0:0:0:
136,208,226731,2,6,L|224:200,1,0.0001
136,208,226814,2,6,L|224:200,1,0.0001
256,192,226866,1,0,0:0:0:0:
136,208,226897,2,6,L|224:200,1,0.0001
136,208,226981,2,6,L|224:200,1,0.0001
256,192,227033,1,8,0:0:0:0:
136,208,227064,2,6,L|224:200,1,0.0001
136,208,227147,2,6,L|224:200,1,0.0001
256,192,227200,1,8,0:0:0:0:
136,208,227231,2,6,L|224:200,1,0.0001
136,208,227314,2,6,L|224:200,1,0.0001
256,192,227366,1,0,0:0:0:0:
136,208,227397,2,6,L|224:200,1,0.0001
136,208,227481,2,6,L|224:200,1,0.0001
256,192,227533,1,0,0:0:0:0:
136,208,227564,2,6,L|224:200,1,0.0001
136,208,227647,2,6,L|224:200,1,0.0001
256,192,227700,1,8,0:0:0:0:
136,208,227731,2,6,L|224:200,1,0.0001
136,208,227814,2,6,L|224:200,1,0.0001
136,208,227897,2,6,L|224:200,1,0.0001
136,208,227981,2,6,L|224:200,1,0.0001
136,208,228064,2,6,L|224:200,1,0.0001
136,208,228147,2,6,L|224:200,1,0.0001
256,192,228200,1,12,0:0:0:0:
136,208,228231,2,6,L|224:200,1,0.0001
136,208,228314,2,6,L|224:200,1,0.0001
136,208,228397,2,6,L|224:200,1,0.0001
136,208,228481,2,6,L|224:200,1,0.0001
136,208,228564,2,6,L|224:200,1,0.0001
136,208,228647,2,6,L|224:200,1,0.0001
256,192,228700,1,8,0:0:0:0:
136,208,228731,2,6,L|224:200,1,0.0001
136,208,228814,2,6,L|224:200,1,0.0001
256,192,228866,1,0,0:0:0:0:
136,208,228897,2,6,L|224:200,1,0.0001
136,208,228981,2,6,L|224:200,1,0.0001
256,192,229033,1,8,0:0:0:0:
136,208,229064,2,6,L|224:200,1,0.0001
136,208,229147,2,6,L|224:200,1,0.0001
256,192,229200,1,8,0:0:0:0:
136,208,229231,2,6,L|224:200,1,0.0001
136,208,229314,2,6,L|224:200,1,0.0001
256,192,229366,1,8,0:0:0:0:
136,208,229397,2,6,L|224:200,1,0.0001
136,208,229481,2,6,L|224:200,1,0.0001
256,192,229533,1,0,0:0:0:0:
136,208,229564,2,6,L|224:200,1,0.0001
136,208,229647,2,6,L|224:200,1,0.0001
256,192,229700,1,8,0:0:0:0:
136,208,229731,2,6,L|224:200,1,0.0001
136,208,229814,2,6,L|224:200,1,0.0001
136,208,229897,2,6,L|224:200,1,0.0001
136,208,229981,2,6,L|224:200,1,0.0001
136,208,230064,2,6,L|224:200,1,0.0001
136,208,230147,2,6,L|224:200,1,0.0001
256,192,230200,1,4,0:0:0:0:
136,208,230231,2,6,L|224:200,1,0.0001
136,208,230314,2,6,L|224:200,1,0.0001
136,208,230397,2,6,L|224:200,1,0.0001
136,208,230481,2,6,L|224:200,1,0.0001
136,208,230564,2,6,L|224:200,1,0.0001
136,208,230647,2,6,L|224:200,1,0.0001
256,192,230700,1,8,0:0:0:0:
136,208,230731,2,6,L|224:200,1,0.0001
136,208,230814,2,6,L|224:200,1,0.0001
256,192,230867,1,0,0:0:0:0:
136,208,230897,2,6,L|224:200,1,0.0001
136,208,230981,2,6,L|224:200,1,0.0001
256,192,231033,1,0,0:0:0:0:
136,208,231064,2,6,L|224:200,1,0.0001
136,208,231147,2,6,L|224:200,1,0.0001
256,192,231200,1,8,0:0:0:0:
136,208,231231,2,6,L|224:200,1,0.0001
136,208,231314,2,6,L|224:200,1,0.0001
256,192,231366,1,0,0:0:0:0:
136,208,231397,2,6,L|224:200,1,0.0001
136,208,231481,2,6,L|224:200,1,0.0001
256,192,231533,1,0,0:0:0:0:
136,208,231564,2,6,L|224:200,1,0.0001
136,208,231647,2,6,L|224:200,1,0.0001
256,192,231700,1,8,0:0:0:0:
136,208,231731,2,6,L|224:200,1,0.0001
136,208,231814,2,6,L|224:200,1,0.0001
136,208,231897,2,6,L|224:200,1,0.0001
136,208,231981,2,6,L|224:200,1,0.0001
136,208,232064,2,6,L|224:200,1,0.0001
136,208,232147,2,6,L|224:200,1,0.0001
256,192,232200,1,12,0:0:0:0:
136,208,232231,2,6,L|224:200,1,0.0001
136,208,232314,2,6,L|224:200,1,0.0001
136,208,232397,2,6,L|224:200,1,0.0001
136,208,232481,2,6,L|224:200,1,0.0001
136,208,232564,2,6,L|224:200,1,0.0001
136,208,232647,2,6,L|224:200,1,0.0001
256,192,232700,1,8,0:0:0:0:
136,208,232731,2,6,L|224:200,1,0.0001
136,208,232814,2,6,L|224:200,1,0.0001
256,192,232866,1,0,0:0:0:0:
136,208,232897,2,6,L|224:200,1,0.0001
136,208,232981,2,6,L|224:200,1,0.0001
256,192,233033,1,8,0:0:0:0:
136,208,233064,2,6,L|224:200,1,0.0001
136,208,233147,2,6,L|224:200,1,0.0001
256,192,233200,1,8,0:0:0:0:
136,208,233231,2,6,L|224:200,1,0.0001
136,208,233314,2,6,L|224:200,1,0.0001
256,192,233366,1,0,0:0:0:0:
136,208,233397,2,6,L|224:200,1,0.0001
136,208,233481,2,6,L|224:200,1,0.0001
256,192,233533,1,8,0:0:0:0:
136,208,233564,2,6,L|224:200,1,0.0001
136,208,233647,2,6,L|224:200,1,0.0001
256,192,233700,1,8,0:0:0:0:
136,208,233731,2,6,L|224:200,1,0.0001
136,208,233814,2,6,L|224:200,1,0.0001
136,208,233897,2,6,L|224:200,1,0.0001
136,208,233981,2,6,L|224:200,1,0.0001
136,208,234064,2,6,L|224:200,1,0.0001
136,208,234147,2,6,L|224:200,1,0.0001
256,192,234200,1,4,0:0:0:0:
136,208,234231,2,6,L|224:200,1,0.0001
136,208,234314,2,6,L|224:200,1,0.0001
136,208,234397,2,6,L|224:200,1,0.0001
136,208,234481,2,6,L|224:200,1,0.0001
136,208,234564,2,6,L|224:200,1,0.0001
136,208,234647,2,6,L|224:200,1,0.0001
256,192,234700,1,8,0:0:0:0:
136,208,234731,2,6,L|224:200,1,0.0001
136,208,234814,2,6,L|224:200,1,0.0001
256,192,234866,1,0,0:0:0:0:
136,208,234897,2,6,L|224:200,1,0.0001
136,208,234981,2,6,L|224:200,1,0.0001
256,192,235033,1,8,0:0:0:0:
136,208,235064,2,6,L|224:200,1,0.0001
136,208,235147,2,6,L|224:200,1,0.0001
256,192,235200,1,8,0:0:0:0:
136,208,235231,2,6,L|224:200,1,0.0001
136,208,235314,2,6,L|224:200,1,0.0001
256,192,235366,1,0,0:0:0:0:
136,208,235397,2,6,L|224:200,1,0.0001
136,208,235481,2,6,L|224:200,1,0.0001
256,192,235533,1,0,0:0:0:0:
136,208,235564,2,6,L|224:200,1,0.0001
136,208,235647,2,6,L|224:200,1,0.0001
256,192,235700,1,8,0:0:0:0:
136,208,235731,2,6,L|224:200,1,0.0001
136,208,235814,2,6,L|224:200,1,0.0001
256,192,235866,1,0,0:0:0:0:
136,208,235897,2,6,L|224:200,1,0.0001
136,208,235981,2,6,L|224:200,1,0.0001
256,192,236033,1,8,0:0:0:0:
136,208,236064,2,6,L|224:200,1,0.0001
136,208,236147,2,6,L|224:200,1,0.0001
256,192,236200,1,8,0:0:0:0:
136,208,236231,2,6,L|224:200,1,0.0001
136,208,236314,2,6,L|224:200,1,0.0001
256,192,236366,1,0,0:0:0:0:
136,208,236397,2,6,L|224:200,1,0.0001
136,208,236481,2,6,L|224:200,1,0.0001
256,192,236533,1,8,0:0:0:0:
136,208,236564,2,6,L|224:200,1,0.0001
136,208,236647,2,6,L|224:200,1,0.0001
256,192,236700,1,0,0:0:0:0:
136,208,236731,2,6,L|224:200,1,0.0001
136,208,236814,2,6,L|224:200,1,0.0001
256,192,236866,1,0,0:0:0:0:
136,208,236897,2,6,L|224:200,1,0.0001
136,208,236981,2,6,L|224:200,1,0.0001
256,192,237033,1,8,0:0:0:0:
136,208,237064,2,6,L|224:200,1,0.0001
136,208,237147,2,6,L|224:200,1,0.0001
256,192,237200,1,8,0:0:0:0:
136,208,237231,2,6,L|224:200,1,0.0001
136,208,237314,2,6,L|224:200,1,0.0001
256,192,237366,1,0,0:0:0:0:
136,208,237397,2,6,L|224:200,1,0.0001
136,208,237481,2,6,L|224:200,1,0.0001
256,192,237533,1,8,0:0:0:0:
136,208,237564,2,6,L|224:200,1,0.0001
136,208,237647,2,6,L|224:200,1,0.0001
256,192,237700,1,8,0:0:0:0:
136,208,237731,2,6,L|224:200,1,0.0001
136,208,237814,2,6,L|224:200,1,0.0001
256,192,237866,1,0,0:0:0:0:
136,208,237897,2,6,L|224:200,1,0.0001
136,208,237981,2,6,L|224:200,1,0.0001
256,192,238033,1,0,0:0:0:0:
136,208,238064,2,6,L|224:200,1,0.0001
136,208,238147,2,6,L|224:200,1,0.0001
256,192,238200,1,8,0:0:0:0:
136,208,238231,2,6,L|224:200,1,0.0001
136,208,238314,2,6,L|224:200,1,0.0001
256,192,238366,1,0,0:0:0:0:
136,208,238397,2,6,L|224:200,1,0.0001
256,192,238450,1,0,0:0:0:0:
136,208,238481,2,6,L|224:200,1,0.0001
136,208,238564,2,6,L|224:200,1,0.0001
256,192,238616,1,0,0:0:0:0:
136,208,238647,2,6,L|224:200,1,0.0001
256,192,238700,1,0,0:0:0:0:
136,208,238731,2,6,L|224:200,1,0.0001
136,208,238814,2,6,L|224:200,1,0.0001
256,192,238866,1,0,0:0:0:0:
136,208,238897,2,6,L|224:200,1,0.0001
256,192,238950,1,0,0:0:0:0:
136,208,238981,2,6,L|224:200,1,0.0001
136,208,239064,2,6,L|224:200,1,0.0001
256,192,239116,1,0,0:0:0:0:
136,208,239147,2,6,L|224:200,1,0.0001
256,192,239200,1,0,0:0:0:0:
136,208,239231,2,6,L|224:200,1,0.0001
136,208,239314,2,6,L|224:200,1,0.0001
256,192,239366,1,0,0:0:0:0:
136,208,239397,2,6,L|224:200,1,0.0001
256,192,239450,1,0,0:0:0:0:
136,208,239481,2,6,L|224:200,1,0.0001
136,208,239564,2,6,L|224:200,1,0.0001
256,192,239616,1,0,0:0:0:0:
136,208,239647,2,6,L|224:200,1,0.0001
256,192,239700,1,0,0:0:0:0:
136,208,239731,2,6,L|224:200,1,0.0001
136,208,239814,2,6,L|224:200,1,0.0001
256,192,239866,1,0,0:0:0:0:
136,208,239897,2,6,L|224:200,1,0.0001
256,192,239950,1,0,0:0:0:0:
136,208,239981,2,6,L|224:200,1,0.0001
136,208,240064,2,6,L|224:200,1,0.0001
256,192,240116,1,0,0:0:0:0:
136,208,240147,2,6,L|224:200,1,0.0001
256,192,240200,1,0,0:0:0:0:
136,208,240231,2,6,L|224:200,1,0.0001
256,192,240283,1,0,0:0:0:0:
136,208,240314,2,6,L|224:200,1,0.0001
256,192,240366,1,0,0:0:0:0:
136,208,240397,2,6,L|224:200,1,0.0001
256,192,240450,1,0,0:0:0:0:
136,208,240481,2,6,L|224:200,1,0.0001
256,192,240533,1,0,0:0:0:0:
136,208,240564,2,6,L|224:200,1,0.0001
256,192,240616,1,0,0:0:0:0:
136,208,240647,2,6,L|224:200,1,0.0001
256,192,240700,1,0,0:0:0:0:
136,208,240731,2,6,L|224:200,1,0.0001
256,192,240783,1,0,0:0:0:0:
136,208,240814,2,6,L|224:200,1,0.0001
256,192,240866,1,0,0:0:0:0:
136,208,240897,2,6,L|224:200,1,0.0001
256,192,240950,1,0,0:0:0:0:
136,208,240981,2,6,L|224:200,1,0.0001
256,192,241033,1,0,0:0:0:0:
136,208,241064,2,6,L|224:200,1,0.0001
256,192,241116,1,0,0:0:0:0:
136,208,241147,2,6,L|224:200,1,0.0001
256,192,241200,1,6,0:0:0:0:
136,208,241201,2,4,L|224:200,1,0.0001
136,208,241201,2,4,L|224:200,1,0.0001
136,208,241201,2,4,L|224:200,1,0.0001
136,208,241201,2,4,L|224:200,1,0.0001
136,208,241201,2,4,L|224:200,1,0.0001
136,208,241201,2,4,L|224:200,1,0.0001
136,208,241201,2,4,L|224:200,1,0.0001
136,208,241201,2,4,L|224:200,1,0.0001
136,208,241201,2,4,L|224:200,1,0.0001
136,208,241201,2,4,L|224:200,1,0.0001
136,208,241201,2,4,L|224:200,1,0.0001
136,208,241201,2,4,L|224:200,1,0.0001
256,192,241700,1,8,0:0:0:0:
256,192,241950,1,0,0:0:0:0:
256,192,242200,5,12,0:0:0:0:
296,216,242241,2,4,L|384:208,1,0.0001
296,216,242241,2,4,L|384:208,1,0.0001
296,216,242241,2,4,L|384:208,1,0.0001
296,216,242241,2,4,L|384:208,1,0.0001
296,216,242241,2,4,L|384:208,1,0.0001
296,216,242241,2,4,L|384:208,1,0.0001
296,216,242241,2,4,L|384:208,1,0.0001
296,216,242241,2,4,L|384:208,1,0.0001
296,216,242241,2,4,L|384:208,1,0.0001
296,216,242241,2,4,L|384:208,1,0.0001
296,216,242241,2,4,L|384:208,1,0.0001
296,216,242241,2,4,L|384:208,1,0.0001
296,216,242284,2,4,L|384:208,1,0.0001
296,216,242284,2,4,L|384:208,1,0.0001
296,216,242284,2,4,L|384:208,1,0.0001
296,216,242284,2,4,L|384:208,1,0.0001
296,216,242284,2,4,L|384:208,1,0.0001
296,216,242284,2,4,L|384:208,1,0.0001
296,216,242284,2,4,L|384:208,1,0.0001
296,216,242284,2,4,L|384:208,1,0.0001
296,216,242284,2,4,L|384:208,1,0.0001
296,216,242284,2,4,L|384:208,1,0.0001
296,216,242284,2,4,L|384:208,1,0.0001
296,216,242284,2,4,L|384:208,1,0.0001
296,216,242325,2,4,L|384:208,1,0.0001
296,216,242325,2,4,L|384:208,1,0.0001
296,216,242325,2,4,L|384:208,1,0.0001
296,216,242325,2,4,L|384:208,1,0.0001
296,216,242325,2,4,L|384:208,1,0.0001
296,216,242325,2,4,L|384:208,1,0.0001
296,216,242325,2,4,L|384:208,1,0.0001
296,216,242325,2,4,L|384:208,1,0.0001
296,216,242325,2,4,L|384:208,1,0.0001
296,216,242325,2,4,L|384:208,1,0.0001
296,216,242325,2,4,L|384:208,1,0.0001
296,216,242325,2,4,L|384:208,1,0.0001
136,208,242366,2,4,L|224:200,1,0.0001
136,208,242366,2,4,L|224:200,1,0.0001
136,208,242366,2,4,L|224:200,1,0.0001
136,208,242366,2,4,L|224:200,1,0.0001
136,208,242366,2,4,L|224:200,1,0.0001
136,208,242366,2,4,L|224:200,1,0.0001
136,208,242366,2,4,L|224:200,1,0.0001
136,208,242366,2,4,L|224:200,1,0.0001
136,208,242366,2,4,L|224:200,1,0.0001
136,208,242366,2,4,L|224:200,1,0.0001
136,208,242366,2,4,L|224:200,1,0.0001
136,208,242366,2,4,L|224:200,1,0.0001
136,208,242408,2,4,L|224:200,1,0.0001
136,208,242408,2,4,L|224:200,1,0.0001
136,208,242408,2,4,L|224:200,1,0.0001
136,208,242408,2,4,L|224:200,1,0.0001
136,208,242408,2,4,L|224:200,1,0.0001
136,208,242408,2,4,L|224:200,1,0.0001
136,208,242408,2,4,L|224:200,1,0.0001
136,208,242408,2,4,L|224:200,1,0.0001
136,208,242408,2,4,L|224:200,1,0.0001
136,208,242408,2,4,L|224:200,1,0.0001
136,208,242408,2,4,L|224:200,1,0.0001
136,208,242408,2,4,L|224:200,1,0.0001
136,208,242450,2,4,L|224:200,1,0.0001
136,208,242450,2,4,L|224:200,1,0.0001
136,208,242450,2,4,L|224:200,1,0.0001
136,208,242450,2,4,L|224:200,1,0.0001
136,208,242450,2,4,L|224:200,1,0.0001
136,208,242450,2,4,L|224:200,1,0.0001
136,208,242450,2,4,L|224:200,1,0.0001
136,208,242450,2,4,L|224:200,1,0.0001
136,208,242450,2,4,L|224:200,1,0.0001
136,208,242450,2,4,L|224:200,1,0.0001
136,208,242450,2,4,L|224:200,1,0.0001
136,208,242450,2,4,L|224:200,1,0.0001
136,208,242491,2,4,L|224:200,1,0.0001
136,208,242491,2,4,L|224:200,1,0.0001
136,208,242491,2,4,L|224:200,1,0.0001
136,208,242491,2,4,L|224:200,1,0.0001
136,208,242491,2,4,L|224:200,1,0.0001
136,208,242491,2,4,L|224:200,1,0.0001
136,208,242491,2,4,L|224:200,1,0.0001
136,208,242491,2,4,L|224:200,1,0.0001
136,208,242491,2,4,L|224:200,1,0.0001
136,208,242491,2,4,L|224:200,1,0.0001
136,208,242491,2,4,L|224:200,1,0.0001
136,208,242491,2,4,L|224:200,1,0.0001
136,208,242533,2,4,L|224:200,1,0.0001
136,208,242533,2,4,L|224:200,1,0.0001
136,208,242533,2,4,L|224:200,1,0.0001
136,208,242533,2,4,L|224:200,1,0.0001
136,208,242533,2,4,L|224:200,1,0.0001
136,208,242533,2,4,L|224:200,1,0.0001
136,208,242533,2,4,L|224:200,1,0.0001
136,208,242533,2,4,L|224:200,1,0.0001
136,208,242533,2,4,L|224:200,1,0.0001
136,208,242533,2,4,L|224:200,1,0.0001
136,208,242533,2,4,L|224:200,1,0.0001
136,208,242533,2,4,L|224:200,1,0.0001
136,208,242575,2,4,L|224:200,1,0.0001
136,208,242575,2,4,L|224:200,1,0.0001
136,208,242575,2,4,L|224:200,1,0.0001
136,208,242575,2,4,L|224:200,1,0.0001
136,208,242575,2,4,L|224:200,1,0.0001
136,208,242575,2,4,L|224:200,1,0.0001
136,208,242575,2,4,L|224:200,1,0.0001
136,208,242575,2,4,L|224:200,1,0.0001
136,208,242575,2,4,L|224:200,1,0.0001
136,208,242575,2,4,L|224:200,1,0.0001
136,208,242575,2,4,L|224:200,1,0.0001
136,208,242575,2,4,L|224:200,1,0.0001
136,208,242616,2,4,L|224:200,1,0.0001
136,208,242616,2,4,L|224:200,1,0.0001
136,208,242616,2,4,L|224:200,1,0.0001
136,208,242616,2,4,L|224:200,1,0.0001
136,208,242616,2,4,L|224:200,1,0.0001
136,208,242616,2,4,L|224:200,1,0.0001
136,208,242616,2,4,L|224:200,1,0.0001
136,208,242616,2,4,L|224:200,1,0.0001
136,208,242616,2,4,L|224:200,1,0.0001
136,208,242616,2,4,L|224:200,1,0.0001
136,208,242616,2,4,L|224:200,1,0.0001
136,208,242616,2,4,L|224:200,1,0.0001
256,192,242700,1,8,0:0:0:0:
256,192,242783,1,0,0:0:0:0:
256,192,242866,1,0,0:0:0:0:
256,192,242950,1,8,0:0:0:0:
256,192,243033,1,0,0:0:0:0:
256,192,243116,1,0,0:0:0:0:
256,192,243360,1,8,0:0:0:0:
256,192,243440,1,0,0:0:0:0:
256,192,243600,1,8,0:0:0:0:
256,192,243680,1,0,0:0:0:0:
256,192,243840,1,0,0:0:0:0:
256,192,243920,1,8,0:0:0:0:
256,192,244000,1,8,0:0:0:0:
256,192,244080,1,0,0:0:0:0:
256,192,244161,1,12,0:0:0:0:
136,208,244199,2,4,L|224:200,1,0.0001
136,208,244199,2,4,L|224:200,1,0.0001
136,208,244199,2,4,L|224:200,1,0.0001
136,208,244199,2,4,L|224:200,1,0.0001
136,208,244199,2,4,L|224:200,1,0.0001
136,208,244199,2,4,L|224:200,1,0.0001
136,208,244199,2,4,L|224:200,1,0.0001
136,208,244199,2,4,L|224:200,1,0.0001
136,208,244199,2,4,L|224:200,1,0.0001
136,208,244199,2,4,L|224:200,1,0.0001
136,208,244199,2,4,L|224:200,1,0.0001
136,208,244199,2,4,L|224:200,1,0.0001
136,208,244242,2,4,L|224:200,1,0.0001
136,208,244242,2,4,L|224:200,1,0.0001
136,208,244242,2,4,L|224:200,1,0.0001
136,208,244242,2,4,L|224:200,1,0.0001
136,208,244242,2,4,L|224:200,1,0.0001
136,208,244242,2,4,L|224:200,1,0.0001
136,208,244242,2,4,L|224:200,1,0.0001
136,208,244242,2,4,L|224:200,1,0.0001
136,208,244242,2,4,L|224:200,1,0.0001
136,208,244242,2,4,L|224:200,1,0.0001
136,208,244242,2,4,L|224:200,1,0.0001
136,208,244242,2,4,L|224:200,1,0.0001
136,208,244283,2,4,L|224:200,1,0.0001
136,208,244283,2,4,L|224:200,1,0.0001
136,208,244283,2,4,L|224:200,1,0.0001
136,208,244283,2,4,L|224:200,1,0.0001
136,208,244283,2,4,L|224:200,1,0.0001
136,208,244283,2,4,L|224:200,1,0.0001
136,208,244283,2,4,L|224:200,1,0.0001
136,208,244283,2,4,L|224:200,1,0.0001
136,208,244283,2,4,L|224:200,1,0.0001
136,208,244283,2,4,L|224:200,1,0.0001
136,208,244283,2,4,L|224:200,1,0.0001
136,208,244283,2,4,L|224:200,1,0.0001
136,208,244324,2,4,L|224:200,1,0.0001
136,208,244324,2,4,L|224:200,1,0.0001
136,208,244324,2,4,L|224:200,1,0.0001
136,208,244324,2,4,L|224:200,1,0.0001
136,208,244324,2,4,L|224:200,1,0.0001
136,208,244324,2,4,L|224:200,1,0.0001
136,208,244324,2,4,L|224:200,1,0.0001
136,208,244324,2,4,L|224:200,1,0.0001
136,208,244324,2,4,L|224:200,1,0.0001
136,208,244324,2,4,L|224:200,1,0.0001
136,208,244324,2,4,L|224:200,1,0.0001
136,208,244324,2,4,L|224:200,1,0.0001
136,208,244366,2,4,L|224:200,1,0.0001
136,208,244366,2,4,L|224:200,1,0.0001
136,208,244366,2,4,L|224:200,1,0.0001
136,208,244366,2,4,L|224:200,1,0.0001
136,208,244366,2,4,L|224:200,1,0.0001
136,208,244366,2,4,L|224:200,1,0.0001
136,208,244366,2,4,L|224:200,1,0.0001
136,208,244366,2,4,L|224:200,1,0.0001
136,208,244366,2,4,L|224:200,1,0.0001
136,208,244366,2,4,L|224:200,1,0.0001
136,208,244366,2,4,L|224:200,1,0.0001
136,208,244366,2,4,L|224:200,1,0.0001
136,208,244408,2,4,L|224:200,1,0.0001
136,208,244408,2,4,L|224:200,1,0.0001
136,208,244408,2,4,L|224:200,1,0.0001
136,208,244408,2,4,L|224:200,1,0.0001
136,208,244408,2,4,L|224:200,1,0.0001
136,208,244408,2,4,L|224:200,1,0.0001
136,208,244408,2,4,L|224:200,1,0.0001
136,208,244408,2,4,L|224:200,1,0.0001
136,208,244408,2,4,L|224:200,1,0.0001
136,208,244408,2,4,L|224:200,1,0.0001
136,208,244408,2,4,L|224:200,1,0.0001
136,208,244408,2,4,L|224:200,1,0.0001
136,208,244449,2,4,L|224:200,1,0.0001
136,208,244449,2,4,L|224:200,1,0.0001
136,208,244449,2,4,L|224:200,1,0.0001
136,208,244449,2,4,L|224:200,1,0.0001
136,208,244449,2,4,L|224:200,1,0.0001
136,208,244449,2,4,L|224:200,1,0.0001
136,208,244449,2,4,L|224:200,1,0.0001
136,208,244449,2,4,L|224:200,1,0.0001
136,208,244449,2,4,L|224:200,1,0.0001
136,208,244449,2,4,L|224:200,1,0.0001
136,208,244449,2,4,L|224:200,1,0.0001
136,208,244449,2,4,L|224:200,1,0.0001
136,208,244491,2,4,L|224:200,1,0.0001
136,208,244491,2,4,L|224:200,1,0.0001
136,208,244491,2,4,L|224:200,1,0.0001
136,208,244491,2,4,L|224:200,1,0.0001
136,208,244491,2,4,L|224:200,1,0.0001
136,208,244491,2,4,L|224:200,1,0.0001
136,208,244491,2,4,L|224:200,1,0.0001
136,208,244491,2,4,L|224:200,1,0.0001
136,208,244491,2,4,L|224:200,1,0.0001
136,208,244491,2,4,L|224:200,1,0.0001
136,208,244491,2,4,L|224:200,1,0.0001
136,208,244491,2,4,L|224:200,1,0.0001
256,192,244545,1,8,0:0:0:0:
256,192,244622,1,0,0:0:0:0:
256,192,244699,1,8,0:0:0:0:
256,192,244776,1,8,0:0:0:0:
256,192,244853,1,8,0:0:0:0:
256,192,244930,1,0,0:0:0:0:
256,192,245007,1,8,0:0:0:0:
256,192,245084,1,0,0:0:0:0:
256,192,245158,1,0,0:0:0:0:
256,192,245232,1,0,0:0:0:0:
256,192,245306,1,8,0:0:0:0:
256,192,245454,1,8,0:0:0:0:
256,192,245528,1,0,0:0:0:0:
256,192,245676,1,0,0:0:0:0:
256,192,245750,1,12,0:0:0:0:
136,208,245787,2,4,L|224:200,1,0.0001
136,208,245787,2,4,L|224:200,1,0.0001
136,208,245787,2,4,L|224:200,1,0.0001
136,208,245787,2,4,L|224:200,1,0.0001
136,208,245787,2,4,L|224:200,1,0.0001
136,208,245787,2,4,L|224:200,1,0.0001
136,208,245787,2,4,L|224:200,1,0.0001
136,208,245787,2,4,L|224:200,1,0.0001
136,208,245787,2,4,L|224:200,1,0.0001
136,208,245787,2,4,L|224:200,1,0.0001
136,208,245787,2,4,L|224:200,1,0.0001
136,208,245787,2,4,L|224:200,1,0.0001
256,192,245973,1,12,0:0:0:0:
136,208,246010,2,4,L|224:200,1,0.0001
136,208,246010,2,4,L|224:200,1,0.0001
136,208,246010,2,4,L|224:200,1,0.0001
136,208,246010,2,4,L|224:200,1,0.0001
136,208,246010,2,4,L|224:200,1,0.0001
136,208,246010,2,4,L|224:200,1,0.0001
136,208,246010,2,4,L|224:200,1,0.0001
136,208,246010,2,4,L|224:200,1,0.0001
136,208,246010,2,4,L|224:200,1,0.0001
136,208,246010,2,4,L|224:200,1,0.0001
136,208,246010,2,4,L|224:200,1,0.0001
136,208,246010,2,4,L|224:200,1,0.0001
136,208,246053,2,4,L|224:200,1,0.0001
136,208,246053,2,4,L|224:200,1,0.0001
136,208,246053,2,4,L|224:200,1,0.0001
136,208,246053,2,4,L|224:200,1,0.0001
136,208,246053,2,4,L|224:200,1,0.0001
136,208,246053,2,4,L|224:200,1,0.0001
136,208,246053,2,4,L|224:200,1,0.0001
136,208,246053,2,4,L|224:200,1,0.0001
136,208,246053,2,4,L|224:200,1,0.0001
136,208,246053,2,4,L|224:200,1,0.0001
136,208,246053,2,4,L|224:200,1,0.0001
136,208,246053,2,4,L|224:200,1,0.0001
136,208,246094,2,4,L|224:200,1,0.0001
136,208,246094,2,4,L|224:200,1,0.0001
136,208,246094,2,4,L|224:200,1,0.0001
136,208,246094,2,4,L|224:200,1,0.0001
136,208,246094,2,4,L|224:200,1,0.0001
136,208,246094,2,4,L|224:200,1,0.0001
136,208,246094,2,4,L|224:200,1,0.0001
136,208,246094,2,4,L|224:200,1,0.0001
136,208,246094,2,4,L|224:200,1,0.0001
136,208,246094,2,4,L|224:200,1,0.0001
136,208,246094,2,4,L|224:200,1,0.0001
136,208,246094,2,4,L|224:200,1,0.0001
136,208,246135,2,4,L|224:200,1,0.0001
136,208,246135,2,4,L|224:200,1,0.0001
136,208,246135,2,4,L|224:200,1,0.0001
136,208,246135,2,4,L|224:200,1,0.0001
136,208,246135,2,4,L|224:200,1,0.0001
136,208,246135,2,4,L|224:200,1,0.0001
136,208,246135,2,4,L|224:200,1,0.0001
136,208,246135,2,4,L|224:200,1,0.0001
136,208,246135,2,4,L|224:200,1,0.0001
136,208,246135,2,4,L|224:200,1,0.0001
136,208,246135,2,4,L|224:200,1,0.0001
136,208,246135,2,4,L|224:200,1,0.0001
136,208,246177,2,4,L|224:200,1,0.0001
136,208,246177,2,4,L|224:200,1,0.0001
136,208,246177,2,4,L|224:200,1,0.0001
136,208,246177,2,4,L|224:200,1,0.0001
136,208,246177,2,4,L|224:200,1,0.0001
136,208,246177,2,4,L|224:200,1,0.0001
136,208,246177,2,4,L|224:200,1,0.0001
136,208,246177,2,4,L|224:200,1,0.0001
136,208,246177,2,4,L|224:200,1,0.0001
136,208,246177,2,4,L|224:200,1,0.0001
136,208,246177,2,4,L|224:200,1,0.0001
136,208,246177,2,4,L|224:200,1,0.0001
136,208,246219,2,4,L|224:200,1,0.0001
136,208,246219,2,4,L|224:200,1,0.0001
136,208,246219,2,4,L|224:200,1,0.0001
136,208,246219,2,4,L|224:200,1,0.0001
136,208,246219,2,4,L|224:200,1,0.0001
136,208,246219,2,4,L|224:200,1,0.0001
136,208,246219,2,4,L|224:200,1,0.0001
136,208,246219,2,4,L|224:200,1,0.0001
136,208,246219,2,4,L|224:200,1,0.0001
136,208,246219,2,4,L|224:200,1,0.0001
136,208,246219,2,4,L|224:200,1,0.0001
136,208,246219,2,4,L|224:200,1,0.0001
136,208,246260,2,4,L|224:200,1,0.0001
136,208,246260,2,4,L|224:200,1,0.0001
136,208,246260,2,4,L|224:200,1,0.0001
136,208,246260,2,4,L|224:200,1,0.0001
136,208,246260,2,4,L|224:200,1,0.0001
136,208,246260,2,4,L|224:200,1,0.0001
136,208,246260,2,4,L|224:200,1,0.0001
136,208,246260,2,4,L|224:200,1,0.0001
136,208,246260,2,4,L|224:200,1,0.0001
136,208,246260,2,4,L|224:200,1,0.0001
136,208,246260,2,4,L|224:200,1,0.0001
136,208,246260,2,4,L|224:200,1,0.0001
136,208,246302,2,4,L|224:200,1,0.0001
136,208,246302,2,4,L|224:200,1,0.0001
136,208,246302,2,4,L|224:200,1,0.0001
136,208,246302,2,4,L|224:200,1,0.0001
136,208,246302,2,4,L|224:200,1,0.0001
136,208,246302,2,4,L|224:200,1,0.0001
136,208,246302,2,4,L|224:200,1,0.0001
136,208,246302,2,4,L|224:200,1,0.0001
136,208,246302,2,4,L|224:200,1,0.0001
136,208,246302,2,4,L|224:200,1,0.0001
136,208,246302,2,4,L|224:200,1,0.0001
136,208,246302,2,4,L|224:200,1,0.0001
136,208,246343,2,4,L|224:200,1,0.0001
136,208,246343,2,4,L|224:200,1,0.0001
136,208,246343,2,4,L|224:200,1,0.0001
136,208,246343,2,4,L|224:200,1,0.0001
136,208,246343,2,4,L|224:200,1,0.0001
136,208,246343,2,4,L|224:200,1,0.0001
136,208,246343,2,4,L|224:200,1,0.0001
136,208,246343,2,4,L|224:200,1,0.0001
136,208,246343,2,4,L|224:200,1,0.0001
136,208,246343,2,4,L|224:200,1,0.0001
136,208,246343,2,4,L|224:200,1,0.0001
136,208,246343,2,4,L|224:200,1,0.0001
256,192,246417,1,8,0:0:0:0:
256,192,246491,1,0,0:0:0:0:
256,192,246565,1,0,0:0:0:0:
256,192,246639,1,0,0:0:0:0:
256,192,246713,1,8,0:0:0:0:
256,192,246787,1,0,0:0:0:0:
256,192,247003,1,0,0:0:0:0:
256,192,247074,1,0,0:0:0:0:
256,192,247218,1,8,0:0:0:0:
256,192,247289,1,0,0:0:0:0:
256,192,247432,1,0,0:0:0:0:
256,192,247503,1,8,0:0:0:0:
256,192,247719,1,0,0:0:0:0:
256,192,247787,1,8,0:0:0:0:
256,192,247856,1,0,0:0:0:0:
256,192,247925,1,0,0:0:0:0:
256,192,248063,1,12,0:0:0:0:
136,208,248098,2,4,L|224:200,1,0.0001
136,208,248098,2,4,L|224:200,1,0.0001
136,208,248098,2,4,L|224:200,1,0.0001
136,208,248098,2,4,L|224:200,1,0.0001
136,208,248098,2,4,L|224:200,1,0.0001
136,208,248098,2,4,L|224:200,1,0.0001
136,208,248098,2,4,L|224:200,1,0.0001
136,208,248098,2,4,L|224:200,1,0.0001
136,208,248098,2,4,L|224:200,1,0.0001
136,208,248098,2,4,L|224:200,1,0.0001
136,208,248098,2,4,L|224:200,1,0.0001
136,208,248098,2,4,L|224:200,1,0.0001
136,208,248132,2,4,L|224:200,1,0.0001
136,208,248132,2,4,L|224:200,1,0.0001
136,208,248132,2,4,L|224:200,1,0.0001
136,208,248132,2,4,L|224:200,1,0.0001
136,208,248132,2,4,L|224:200,1,0.0001
136,208,248132,2,4,L|224:200,1,0.0001
136,208,248132,2,4,L|224:200,1,0.0001
136,208,248132,2,4,L|224:200,1,0.0001
136,208,248132,2,4,L|224:200,1,0.0001
136,208,248132,2,4,L|224:200,1,0.0001
136,208,248132,2,4,L|224:200,1,0.0001
136,208,248132,2,4,L|224:200,1,0.0001
136,208,248167,2,4,L|224:200,1,0.0001
136,208,248167,2,4,L|224:200,1,0.0001
136,208,248167,2,4,L|224:200,1,0.0001
136,208,248167,2,4,L|224:200,1,0.0001
136,208,248167,2,4,L|224:200,1,0.0001
136,208,248167,2,4,L|224:200,1,0.0001
136,208,248167,2,4,L|224:200,1,0.0001
136,208,248167,2,4,L|224:200,1,0.0001
136,208,248167,2,4,L|224:200,1,0.0001
136,208,248167,2,4,L|224:200,1,0.0001
136,208,248167,2,4,L|224:200,1,0.0001
136,208,248167,2,4,L|224:200,1,0.0001
136,208,248201,2,4,L|224:200,1,0.0001
136,208,248201,2,4,L|224:200,1,0.0001
136,208,248201,2,4,L|224:200,1,0.0001
136,208,248201,2,4,L|224:200,1,0.0001
136,208,248201,2,4,L|224:200,1,0.0001
136,208,248201,2,4,L|224:200,1,0.0001
136,208,248201,2,4,L|224:200,1,0.0001
136,208,248201,2,4,L|224:200,1,0.0001
136,208,248201,2,4,L|224:200,1,0.0001
136,208,248201,2,4,L|224:200,1,0.0001
136,208,248201,2,4,L|224:200,1,0.0001
136,208,248201,2,4,L|224:200,1,0.0001
136,208,248236,2,4,L|224:200,1,0.0001
136,208,248236,2,4,L|224:200,1,0.0001
136,208,248236,2,4,L|224:200,1,0.0001
136,208,248236,2,4,L|224:200,1,0.0001
136,208,248236,2,4,L|224:200,1,0.0001
136,208,248236,2,4,L|224:200,1,0.0001
136,208,248236,2,4,L|224:200,1,0.0001
136,208,248236,2,4,L|224:200,1,0.0001
136,208,248236,2,4,L|224:200,1,0.0001
136,208,248236,2,4,L|224:200,1,0.0001
136,208,248236,2,4,L|224:200,1,0.0001
136,208,248236,2,4,L|224:200,1,0.0001
136,208,248270,2,4,L|224:200,1,0.0001
136,208,248270,2,4,L|224:200,1,0.0001
136,208,248270,2,4,L|224:200,1,0.0001
136,208,248270,2,4,L|224:200,1,0.0001
136,208,248270,2,4,L|224:200,1,0.0001
136,208,248270,2,4,L|224:200,1,0.0001
136,208,248270,2,4,L|224:200,1,0.0001
136,208,248270,2,4,L|224:200,1,0.0001
136,208,248270,2,4,L|224:200,1,0.0001
136,208,248270,2,4,L|224:200,1,0.0001
136,208,248270,2,4,L|224:200,1,0.0001
136,208,248270,2,4,L|224:200,1,0.0001
256,192,248339,1,8,0:0:0:0:
256,192,248408,1,0,0:0:0:0:
256,192,248477,1,8,0:0:0:0:
256,192,248546,1,0,0:0:0:0:
256,192,248679,1,12,0:0:0:0:
136,208,248712,2,4,L|224:200,1,0.0001
136,208,248712,2,4,L|224:200,1,0.0001
136,208,248712,2,4,L|224:200,1,0.0001
136,208,248712,2,4,L|224:200,1,0.0001
136,208,248712,2,4,L|224:200,1,0.0001
136,208,248712,2,4,L|224:200,1,0.0001
136,208,248712,2,4,L|224:200,1,0.0001
136,208,248712,2,4,L|224:200,1,0.0001
136,208,248712,2,4,L|224:200,1,0.0001
136,208,248712,2,4,L|224:200,1,0.0001
136,208,248712,2,4,L|224:200,1,0.0001
136,208,248712,2,4,L|224:200,1,0.0001
136,208,248746,2,4,L|224:200,1,0.0001
136,208,248746,2,4,L|224:200,1,0.0001
136,208,248746,2,4,L|224:200,1,0.0001
136,208,248746,2,4,L|224:200,1,0.0001
136,208,248746,2,4,L|224:200,1,0.0001
136,208,248746,2,4,L|224:200,1,0.0001
136,208,248746,2,4,L|224:200,1,0.0001
136,208,248746,2,4,L|224:200,1,0.0001
136,208,248746,2,4,L|224:200,1,0.0001
136,208,248746,2,4,L|224:200,1,0.0001
136,208,248746,2,4,L|224:200,1,0.0001
136,208,248746,2,4,L|224:200,1,0.0001
136,208,248779,2,4,L|224:200,1,0.0001
136,208,248779,2,4,L|224:200,1,0.0001
136,208,248779,2,4,L|224:200,1,0.0001
136,208,248779,2,4,L|224:200,1,0.0001
136,208,248779,2,4,L|224:200,1,0.0001
136,208,248779,2,4,L|224:200,1,0.0001
136,208,248779,2,4,L|224:200,1,0.0001
136,208,248779,2,4,L|224:200,1,0.0001
136,208,248779,2,4,L|224:200,1,0.0001
136,208,248779,2,4,L|224:200,1,0.0001
136,208,248779,2,4,L|224:200,1,0.0001
136,208,248779,2,4,L|224:200,1,0.0001
136,208,248812,2,4,L|224:200,1,0.0001
136,208,248812,2,4,L|224:200,1,0.0001
136,208,248812,2,4,L|224:200,1,0.0001
136,208,248812,2,4,L|224:200,1,0.0001
136,208,248812,2,4,L|224:200,1,0.0001
136,208,248812,2,4,L|224:200,1,0.0001
136,208,248812,2,4,L|224:200,1,0.0001
136,208,248812,2,4,L|224:200,1,0.0001
136,208,248812,2,4,L|224:200,1,0.0001
136,208,248812,2,4,L|224:200,1,0.0001
136,208,248812,2,4,L|224:200,1,0.0001
136,208,248812,2,4,L|224:200,1,0.0001
256,192,248879,1,0,0:0:0:0:
256,192,248946,1,0,0:0:0:0:
256,192,249079,1,0,0:0:0:0:
256,192,249146,1,0,0:0:0:0:
256,192,249279,1,0,0:0:0:0:
256,192,249346,1,12,0:0:0:0:
136,208,249379,2,4,L|224:200,1,0.0001
136,208,249379,2,4,L|224:200,1,0.0001
136,208,249379,2,4,L|224:200,1,0.0001
136,208,249379,2,4,L|224:200,1,0.0001
136,208,249379,2,4,L|224:200,1,0.0001
136,208,249379,2,4,L|224:200,1,0.0001
136,208,249379,2,4,L|224:200,1,0.0001
136,208,249379,2,4,L|224:200,1,0.0001
136,208,249379,2,4,L|224:200,1,0.0001
136,208,249379,2,4,L|224:200,1,0.0001
136,208,249379,2,4,L|224:200,1,0.0001
136,208,249379,2,4,L|224:200,1,0.0001
136,208,249412,2,4,L|224:200,1,0.0001
136,208,249412,2,4,L|224:200,1,0.0001
136,208,249412,2,4,L|224:200,1,0.0001
136,208,249412,2,4,L|224:200,1,0.0001
136,208,249412,2,4,L|224:200,1,0.0001
136,208,249412,2,4,L|224:200,1,0.0001
136,208,249412,2,4,L|224:200,1,0.0001
136,208,249412,2,4,L|224:200,1,0.0001
136,208,249412,2,4,L|224:200,1,0.0001
136,208,249412,2,4,L|224:200,1,0.0001
136,208,249412,2,4,L|224:200,1,0.0001
136,208,249412,2,4,L|224:200,1,0.0001
136,208,249446,2,4,L|224:200,1,0.0001
136,208,249446,2,4,L|224:200,1,0.0001
136,208,249446,2,4,L|224:200,1,0.0001
136,208,249446,2,4,L|224:200,1,0.0001
136,208,249446,2,4,L|224:200,1,0.0001
136,208,249446,2,4,L|224:200,1,0.0001
136,208,249446,2,4,L|224:200,1,0.0001
136,208,249446,2,4,L|224:200,1,0.0001
136,208,249446,2,4,L|224:200,1,0.0001
136,208,249446,2,4,L|224:200,1,0.0001
136,208,249446,2,4,L|224:200,1,0.0001
136,208,249446,2,4,L|224:200,1,0.0001
136,208,249479,2,4,L|224:200,1,0.0001
136,208,249479,2,4,L|224:200,1,0.0001
136,208,249479,2,4,L|224:200,1,0.0001
136,208,249479,2,4,L|224:200,1,0.0001
136,208,249479,2,4,L|224:200,1,0.0001
136,208,249479,2,4,L|224:200,1,0.0001
136,208,249479,2,4,L|224:200,1,0.0001
136,208,249479,2,4,L|224:200,1,0.0001
136,208,249479,2,4,L|224:200,1,0.0001
136,208,249479,2,4,L|224:200,1,0.0001
136,208,249479,2,4,L|224:200,1,0.0001
136,208,249479,2,4,L|224:200,1,0.0001
136,208,249512,2,4,L|224:200,1,0.0001
136,208,249512,2,4,L|224:200,1,0.0001
136,208,249512,2,4,L|224:200,1,0.0001
136,208,249512,2,4,L|224:200,1,0.0001
136,208,249512,2,4,L|224:200,1,0.0001
136,208,249512,2,4,L|224:200,1,0.0001
136,208,249512,2,4,L|224:200,1,0.0001
136,208,249512,2,4,L|224:200,1,0.0001
136,208,249512,2,4,L|224:200,1,0.0001
136,208,249512,2,4,L|224:200,1,0.0001
136,208,249512,2,4,L|224:200,1,0.0001
136,208,249512,2,4,L|224:200,1,0.0001
136,208,249546,2,4,L|224:200,1,0.0001
136,208,249546,2,4,L|224:200,1,0.0001
136,208,249546,2,4,L|224:200,1,0.0001
136,208,249546,2,4,L|224:200,1,0.0001
136,208,249546,2,4,L|224:200,1,0.0001
136,208,249546,2,4,L|224:200,1,0.0001
136,208,249546,2,4,L|224:200,1,0.0001
136,208,249546,2,4,L|224:200,1,0.0001
136,208,249546,2,4,L|224:200,1,0.0001
136,208,249546,2,4,L|224:200,1,0.0001
136,208,249546,2,4,L|224:200,1,0.0001
136,208,249546,2,4,L|224:200,1,0.0001
136,208,249579,2,4,L|224:200,1,0.0001
136,208,249579,2,4,L|224:200,1,0.0001
136,208,249579,2,4,L|224:200,1,0.0001
136,208,249579,2,4,L|224:200,1,0.0001
136,208,249579,2,4,L|224:200,1,0.0001
136,208,249579,2,4,L|224:200,1,0.0001
136,208,249579,2,4,L|224:200,1,0.0001
136,208,249579,2,4,L|224:200,1,0.0001
136,208,249579,2,4,L|224:200,1,0.0001
136,208,249579,2,4,L|224:200,1,0.0001
136,208,249579,2,4,L|224:200,1,0.0001
136,208,249579,2,4,L|224:200,1,0.0001
136,208,249612,2,4,L|224:200,1,0.0001
136,208,249612,2,4,L|224:200,1,0.0001
136,208,249612,2,4,L|224:200,1,0.0001
136,208,249612,2,4,L|224:200,1,0.0001
136,208,249612,2,4,L|224:200,1,0.0001
136,208,249612,2,4,L|224:200,1,0.0001
136,208,249612,2,4,L|224:200,1,0.0001
136,208,249612,2,4,L|224:200,1,0.0001
136,208,249612,2,4,L|224:200,1,0.0001
136,208,249612,2,4,L|224:200,1,0.0001
136,208,249612,2,4,L|224:200,1,0.0001
136,208,249612,2,4,L|224:200,1,0.0001
136,208,249646,2,4,L|224:200,1,0.0001
136,208,249646,2,4,L|224:200,1,0.0001
136,208,249646,2,4,L|224:200,1,0.0001
136,208,249646,2,4,L|224:200,1,0.0001
136,208,249646,2,4,L|224:200,1,0.0001
136,208,249646,2,4,L|224:200,1,0.0001
136,208,249646,2,4,L|224:200,1,0.0001
136,208,249646,2,4,L|224:200,1,0.0001
136,208,249646,2,4,L|224:200,1,0.0001
136,208,249646,2,4,L|224:200,1,0.0001
136,208,249646,2,4,L|224:200,1,0.0001
136,208,249646,2,4,L|224:200,1,0.0001
136,208,249679,2,4,L|224:200,1,0.0001
136,208,249679,2,4,L|224:200,1,0.0001
136,208,249679,2,4,L|224:200,1,0.0001
136,208,249679,2,4,L|224:200,1,0.0001
136,208,249679,2,4,L|224:200,1,0.0001
136,208,249679,2,4,L|224:200,1,0.0001
136,208,249679,2,4,L|224:200,1,0.0001
136,208,249679,2,4,L|224:200,1,0.0001
136,208,249679,2,4,L|224:200,1,0.0001
136,208,249679,2,4,L|224:200,1,0.0001
136,208,249679,2,4,L|224:200,1,0.0001
136,208,249679,2,4,L|224:200,1,0.0001
256,192,249746,1,12,0:0:0:0:
256,192,249946,1,8,0:0:0:0:
136,208,249979,2,4,L|224:200,1,0.0001
136,208,249979,2,4,L|224:200,1,0.0001
136,208,249979,2,4,L|224:200,1,0.0001
136,208,249979,2,4,L|224:200,1,0.0001
136,208,249979,2,4,L|224:200,1,0.0001
136,208,249979,2,4,L|224:200,1,0.0001
136,208,249979,2,4,L|224:200,1,0.0001
136,208,249979,2,4,L|224:200,1,0.0001
136,208,249979,2,4,L|224:200,1,0.0001
136,208,249979,2,4,L|224:200,1,0.0001
136,208,249979,2,4,L|224:200,1,0.0001
136,208,249979,2,4,L|224:200,1,0.0001
256,192,250147,1,8,0:0:0:0:
256,192,250211,1,0,0:0:0:0:
256,192,250276,1,0,0:0:0:0:
256,192,250340,1,8,0:0:0:0:
256,192,250437,1,0,0:0:0:0:
256,192,250534,1,12,0:0:0:0:
136,208,250566,2,4,L|224:200,1,0.0001
136,208,250566,2,4,L|224:200,1,0.0001
136,208,250566,2,4,L|224:200,1,0.0001
136,208,250566,2,4,L|224:200,1,0.0001
136,208,250566,2,4,L|224:200,1,0.0001
136,208,250566,2,4,L|224:200,1,0.0001
136,208,250566,2,4,L|224:200,1,0.0001
136,208,250566,2,4,L|224:200,1,0.0001
136,208,250566,2,4,L|224:200,1,0.0001
136,208,250566,2,4,L|224:200,1,0.0001
136,208,250566,2,4,L|224:200,1,0.0001
136,208,250566,2,4,L|224:200,1,0.0001
256,192,250727,1,8,0:0:0:0:
136,208,250759,2,4,L|224:200,1,0.0001
136,208,250759,2,4,L|224:200,1,0.0001
136,208,250759,2,4,L|224:200,1,0.0001
136,208,250759,2,4,L|224:200,1,0.0001
136,208,250759,2,4,L|224:200,1,0.0001
136,208,250759,2,4,L|224:200,1,0.0001
136,208,250759,2,4,L|224:200,1,0.0001
136,208,250759,2,4,L|224:200,1,0.0001
136,208,250759,2,4,L|224:200,1,0.0001
136,208,250759,2,4,L|224:200,1,0.0001
136,208,250759,2,4,L|224:200,1,0.0001
136,208,250759,2,4,L|224:200,1,0.0001
256,192,250921,1,8,0:0:0:0:
256,192,250983,1,8,0:0:0:0:
256,192,251046,1,8,0:0:0:0:
256,192,251108,1,0,0:0:0:0:
256,192,251202,1,0,0:0:0:0:
256,192,251296,1,12,0:0:0:0:
136,208,251327,2,4,L|224:200,1,0.0001
136,208,251327,2,4,L|224:200,1,0.0001
136,208,251327,2,4,L|224:200,1,0.0001
136,208,251327,2,4,L|224:200,1,0.0001
136,208,251327,2,4,L|224:200,1,0.0001
136,208,251327,2,4,L|224:200,1,0.0001
136,208,251327,2,4,L|224:200,1,0.0001
136,208,251327,2,4,L|224:200,1,0.0001
136,208,251327,2,4,L|224:200,1,0.0001
136,208,251327,2,4,L|224:200,1,0.0001
136,208,251327,2,4,L|224:200,1,0.0001
136,208,251327,2,4,L|224:200,1,0.0001
256,192,251483,1,8,0:0:0:0:
256,192,251671,1,8,0:0:0:0:
256,192,251717,1,0,0:0:0:0:
256,192,251764,1,0,0:0:0:0:
256,192,251858,1,8,0:0:0:0:
256,192,251905,1,8,0:0:0:0:
256,192,251952,1,0,0:0:0:0:
256,192,252046,1,12,0:0:0:0:
136,208,252076,2,4,L|224:200,1,0.0001
136,208,252076,2,4,L|224:200,1,0.0001
136,208,252076,2,4,L|224:200,1,0.0001
136,208,252076,2,4,L|224:200,1,0.0001
136,208,252076,2,4,L|224:200,1,0.0001
136,208,252076,2,4,L|224:200,1,0.0001
136,208,252076,2,4,L|224:200,1,0.0001
136,208,252076,2,4,L|224:200,1,0.0001
136,208,252076,2,4,L|224:200,1,0.0001
136,208,252076,2,4,L|224:200,1,0.0001
136,208,252076,2,4,L|224:200,1,0.0001
136,208,252076,2,4,L|224:200,1,0.0001
256,192,252233,1,0,0:0:0:0:
256,192,252421,1,12,0:0:0:0:
136,208,252451,2,4,L|224:200,1,0.0001
136,208,252451,2,4,L|224:200,1,0.0001
136,208,252451,2,4,L|224:200,1,0.0001
136,208,252451,2,4,L|224:200,1,0.0001
136,208,252451,2,4,L|224:200,1,0.0001
136,208,252451,2,4,L|224:200,1,0.0001
136,208,252451,2,4,L|224:200,1,0.0001
136,208,252451,2,4,L|224:200,1,0.0001
136,208,252451,2,4,L|224:200,1,0.0001
136,208,252451,2,4,L|224:200,1,0.0001
136,208,252451,2,4,L|224:200,1,0.0001
136,208,252451,2,4,L|224:200,1,0.0001
136,208,252481,2,4,L|224:200,1,0.0001
136,208,252481,2,4,L|224:200,1,0.0001
136,208,252481,2,4,L|224:200,1,0.0001
136,208,252481,2,4,L|224:200,1,0.0001
136,208,252481,2,4,L|224:200,1,0.0001
136,208,252481,2,4,L|224:200,1,0.0001
136,208,252481,2,4,L|224:200,1,0.0001
136,208,252481,2,4,L|224:200,1,0.0001
136,208,252481,2,4,L|224:200,1,0.0001
136,208,252481,2,4,L|224:200,1,0.0001
136,208,252481,2,4,L|224:200,1,0.0001
136,208,252481,2,4,L|224:200,1,0.0001
136,208,252511,2,4,L|224:200,1,0.0001
136,208,252511,2,4,L|224:200,1,0.0001
136,208,252511,2,4,L|224:200,1,0.0001
136,208,252511,2,4,L|224:200,1,0.0001
136,208,252511,2,4,L|224:200,1,0.0001
136,208,252511,2,4,L|224:200,1,0.0001
136,208,252511,2,4,L|224:200,1,0.0001
136,208,252511,2,4,L|224:200,1,0.0001
136,208,252511,2,4,L|224:200,1,0.0001
136,208,252511,2,4,L|224:200,1,0.0001
136,208,252511,2,4,L|224:200,1,0.0001
136,208,252511,2,4,L|224:200,1,0.0001
136,208,252541,2,4,L|224:200,1,0.0001
136,208,252541,2,4,L|224:200,1,0.0001
136,208,252541,2,4,L|224:200,1,0.0001
136,208,252541,2,4,L|224:200,1,0.0001
136,208,252541,2,4,L|224:200,1,0.0001
136,208,252541,2,4,L|224:200,1,0.0001
136,208,252541,2,4,L|224:200,1,0.0001
136,208,252541,2,4,L|224:200,1,0.0001
136,208,252541,2,4,L|224:200,1,0.0001
136,208,252541,2,4,L|224:200,1,0.0001
136,208,252541,2,4,L|224:200,1,0.0001
136,208,252541,2,4,L|224:200,1,0.0001
136,208,252571,2,4,L|224:200,1,0.0001
136,208,252571,2,4,L|224:200,1,0.0001
136,208,252571,2,4,L|224:200,1,0.0001
136,208,252571,2,4,L|224:200,1,0.0001
136,208,252571,2,4,L|224:200,1,0.0001
136,208,252571,2,4,L|224:200,1,0.0001
136,208,252571,2,4,L|224:200,1,0.0001
136,208,252571,2,4,L|224:200,1,0.0001
136,208,252571,2,4,L|224:200,1,0.0001
136,208,252571,2,4,L|224:200,1,0.0001
136,208,252571,2,4,L|224:200,1,0.0001
136,208,252571,2,4,L|224:200,1,0.0001
136,208,252602,2,4,L|224:200,1,0.0001
136,208,252602,2,4,L|224:200,1,0.0001
136,208,252602,2,4,L|224:200,1,0.0001
136,208,252602,2,4,L|224:200,1,0.0001
136,208,252602,2,4,L|224:200,1,0.0001
136,208,252602,2,4,L|224:200,1,0.0001
136,208,252602,2,4,L|224:200,1,0.0001
136,208,252602,2,4,L|224:200,1,0.0001
136,208,252602,2,4,L|224:200,1,0.0001
136,208,252602,2,4,L|224:200,1,0.0001
136,208,252602,2,4,L|224:200,1,0.0001
136,208,252602,2,4,L|224:200,1,0.0001
136,208,252632,2,4,L|224:200,1,0.0001
136,208,252632,2,4,L|224:200,1,0.0001
136,208,252632,2,4,L|224:200,1,0.0001
136,208,252632,2,4,L|224:200,1,0.0001
136,208,252632,2,4,L|224:200,1,0.0001
136,208,252632,2,4,L|224:200,1,0.0001
136,208,252632,2,4,L|224:200,1,0.0001
136,208,252632,2,4,L|224:200,1,0.0001
136,208,252632,2,4,L|224:200,1,0.0001
136,208,252632,2,4,L|224:200,1,0.0001
136,208,252632,2,4,L|224:200,1,0.0001
136,208,252632,2,4,L|224:200,1,0.0001
136,208,252662,2,4,L|224:200,1,0.0001
136,208,252662,2,4,L|224:200,1,0.0001
136,208,252662,2,4,L|224:200,1,0.0001
136,208,252662,2,4,L|224:200,1,0.0001
136,208,252662,2,4,L|224:200,1,0.0001
136,208,252662,2,4,L|224:200,1,0.0001
136,208,252662,2,4,L|224:200,1,0.0001
136,208,252662,2,4,L|224:200,1,0.0001
136,208,252662,2,4,L|224:200,1,0.0001
136,208,252662,2,4,L|224:200,1,0.0001
136,208,252662,2,4,L|224:200,1,0.0001
136,208,252662,2,4,L|224:200,1,0.0001
136,208,252693,2,4,L|224:200,1,0.0001
136,208,252693,2,4,L|224:200,1,0.0001
136,208,252693,2,4,L|224:200,1,0.0001
136,208,252693,2,4,L|224:200,1,0.0001
136,208,252693,2,4,L|224:200,1,0.0001
136,208,252693,2,4,L|224:200,1,0.0001
136,208,252693,2,4,L|224:200,1,0.0001
136,208,252693,2,4,L|224:200,1,0.0001
136,208,252693,2,4,L|224:200,1,0.0001
136,208,252693,2,4,L|224:200,1,0.0001
136,208,252693,2,4,L|224:200,1,0.0001
136,208,252693,2,4,L|224:200,1,0.0001
136,208,252723,2,4,L|224:200,1,0.0001
136,208,252723,2,4,L|224:200,1,0.0001
136,208,252723,2,4,L|224:200,1,0.0001
136,208,252723,2,4,L|224:200,1,0.0001
136,208,252723,2,4,L|224:200,1,0.0001
136,208,252723,2,4,L|224:200,1,0.0001
136,208,252723,2,4,L|224:200,1,0.0001
136,208,252723,2,4,L|224:200,1,0.0001
136,208,252723,2,4,L|224:200,1,0.0001
136,208,252723,2,4,L|224:200,1,0.0001
136,208,252723,2,4,L|224:200,1,0.0001
136,208,252723,2,4,L|224:200,1,0.0001
256,192,252784,1,12,0:0:0:0:
256,192,252845,1,0,0:0:0:0:
256,192,252905,1,0,0:0:0:0:
256,192,252966,1,8,0:0:0:0:
256,192,253057,1,0,0:0:0:0:
256,192,253148,1,8,0:0:0:0:
256,192,253208,1,8,0:0:0:0:
256,192,253269,1,8,0:0:0:0:
256,192,253330,1,0,0:0:0:0:
256,192,253421,1,0,0:0:0:0:
256,192,253511,1,12,0:0:0:0:
136,208,253541,2,4,L|224:200,1,0.0001
136,208,253541,2,4,L|224:200,1,0.0001
136,208,253541,2,4,L|224:200,1,0.0001
136,208,253541,2,4,L|224:200,1,0.0001
136,208,253541,2,4,L|224:200,1,0.0001
136,208,253541,2,4,L|224:200,1,0.0001
136,208,253541,2,4,L|224:200,1,0.0001
136,208,253541,2,4,L|224:200,1,0.0001
136,208,253541,2,4,L|224:200,1,0.0001
136,208,253541,2,4,L|224:200,1,0.0001
136,208,253541,2,4,L|224:200,1,0.0001
136,208,253541,2,4,L|224:200,1,0.0001
256,192,253693,1,0,0:0:0:0:
256,192,253875,1,8,0:0:0:0:
256,192,253963,1,0,0:0:0:0:
256,192,254139,1,0,0:0:0:0:
256,192,254227,1,12,0:0:0:0:
256,192,254404,1,8,0:0:0:0:
256,192,254492,1,0,0:0:0:0:
256,192,254580,1,8,0:0:0:0:
256,192,254625,1,0,0:0:0:0:
256,192,254669,1,0,0:0:0:0:
256,192,254757,1,8,0:0:0:0:
256,192,254801,1,8,0:0:0:0:
256,192,254845,1,0,0:0:0:0:
256,192,254932,1,12,0:0:0:0:
136,208,254961,2,4,L|224:200,1,0.0001
136,208,254961,2,4,L|224:200,1,0.0001
136,208,254961,2,4,L|224:200,1,0.0001
136,208,254961,2,4,L|224:200,1,0.0001
136,208,254961,2,4,L|224:200,1,0.0001
136,208,254961,2,4,L|224:200,1,0.0001
136,208,254961,2,4,L|224:200,1,0.0001
136,208,254961,2,4,L|224:200,1,0.0001
136,208,254961,2,4,L|224:200,1,0.0001
256,192,254961,2,0,B|-16:160|144:128,1,245
256,192,255286,1,12,0:0:0:0:
136,208,255341,2,4,L|224:200,1,0.0001
136,208,255341,2,4,L|224:200,1,0.0001
136,208,255341,2,4,L|224:200,1,0.0001
136,208,255341,2,4,L|224:200,1,0.0001
136,208,255341,2,4,L|224:200,1,0.0001
136,208,255341,2,4,L|224:200,1,0.0001
136,208,255341,2,4,L|224:200,1,0.0001
136,208,255341,2,4,L|224:200,1,0.0001
136,208,255341,2,4,L|224:200,1,0.0001
136,208,255341,2,4,L|224:200,1,0.0001
136,208,255341,2,4,L|224:200,1,0.0001
136,208,255341,2,4,L|224:200,1,0.0001
136,208,255397,2,4,L|224:200,1,0.0001
136,208,255397,2,4,L|224:200,1,0.0001
136,208,255397,2,4,L|224:200,1,0.0001
136,208,255397,2,4,L|224:200,1,0.0001
136,208,255397,2,4,L|224:200,1,0.0001
136,208,255397,2,4,L|224:200,1,0.0001
136,208,255397,2,4,L|224:200,1,0.0001
136,208,255397,2,4,L|224:200,1,0.0001
136,208,255397,2,4,L|224:200,1,0.0001
136,208,255397,2,4,L|224:200,1,0.0001
136,208,255397,2,4,L|224:200,1,0.0001
136,208,255397,2,4,L|224:200,1,0.0001
136,208,255452,2,4,L|224:200,1,0.0001
136,208,255452,2,4,L|224:200,1,0.0001
136,208,255452,2,4,L|224:200,1,0.0001
136,208,255452,2,4,L|224:200,1,0.0001
136,208,255452,2,4,L|224:200,1,0.0001
136,208,255452,2,4,L|224:200,1,0.0001
136,208,255452,2,4,L|224:200,1,0.0001
136,208,255452,2,4,L|224:200,1,0.0001
136,208,255452,2,4,L|224:200,1,0.0001
136,208,255452,2,4,L|224:200,1,0.0001
136,208,255452,2,4,L|224:200,1,0.0001
136,208,255452,2,4,L|224:200,1,0.0001
136,208,255508,2,4,L|224:200,1,0.0001
136,208,255508,2,4,L|224:200,1,0.0001
136,208,255508,2,4,L|224:200,1,0.0001
136,208,255508,2,4,L|224:200,1,0.0001
136,208,255508,2,4,L|224:200,1,0.0001
136,208,255508,2,4,L|224:200,1,0.0001
136,208,255508,2,4,L|224:200,1,0.0001
136,208,255508,2,4,L|224:200,1,0.0001
136,208,255508,2,4,L|224:200,1,0.0001
136,208,255508,2,4,L|224:200,1,0.0001
136,208,255508,2,4,L|224:200,1,0.0001
136,208,255508,2,4,L|224:200,1,0.0001
136,208,255563,2,4,L|224:200,1,0.0001
136,208,255563,2,4,L|224:200,1,0.0001
136,208,255563,2,4,L|224:200,1,0.0001
136,208,255563,2,4,L|224:200,1,0.0001
136,208,255563,2,4,L|224:200,1,0.0001
136,208,255563,2,4,L|224:200,1,0.0001
136,208,255563,2,4,L|224:200,1,0.0001
136,208,255563,2,4,L|224:200,1,0.0001
136,208,255563,2,4,L|224:200,1,0.0001
136,208,255563,2,4,L|224:200,1,0.0001
136,208,255563,2,4,L|224:200,1,0.0001
136,208,255563,2,4,L|224:200,1,0.0001
136,208,255619,2,4,L|224:200,1,0.0001
136,208,255619,2,4,L|224:200,1,0.0001
136,208,255619,2,4,L|224:200,1,0.0001
136,208,255619,2,4,L|224:200,1,0.0001
136,208,255619,2,4,L|224:200,1,0.0001
136,208,255619,2,4,L|224:200,1,0.0001
136,208,255619,2,4,L|224:200,1,0.0001
136,208,255619,2,4,L|224:200,1,0.0001
136,208,255619,2,4,L|224:200,1,0.0001
136,208,255619,2,4,L|224:200,1,0.0001
136,208,255619,2,4,L|224:200,1,0.0001
136,208,255619,2,4,L|224:200,1,0.0001
136,208,255674,2,4,L|224:200,1,0.0001
136,208,255674,2,4,L|224:200,1,0.0001
136,208,255674,2,4,L|224:200,1,0.0001
136,208,255674,2,4,L|224:200,1,0.0001
136,208,255674,2,4,L|224:200,1,0.0001
136,208,255674,2,4,L|224:200,1,0.0001
136,208,255674,2,4,L|224:200,1,0.0001
136,208,255674,2,4,L|224:200,1,0.0001
136,208,255674,2,4,L|224:200,1,0.0001
136,208,255674,2,4,L|224:200,1,0.0001
136,208,255674,2,4,L|224:200,1,0.0001
136,208,255674,2,4,L|224:200,1,0.0001
136,208,255730,2,4,L|224:200,1,0.0001
136,208,255730,2,4,L|224:200,1,0.0001
136,208,255730,2,4,L|224:200,1,0.0001
136,208,255730,2,4,L|224:200,1,0.0001
136,208,255730,2,4,L|224:200,1,0.0001
136,208,255730,2,4,L|224:200,1,0.0001
136,208,255730,2,4,L|224:200,1,0.0001
136,208,255730,2,4,L|224:200,1,0.0001
136,208,255730,2,4,L|224:200,1,0.0001
136,208,255730,2,4,L|224:200,1,0.0001
136,208,255730,2,4,L|224:200,1,0.0001
136,208,255730,2,4,L|224:200,1,0.0001
136,208,255786,2,4,L|224:200,1,0.0001
136,208,255786,2,4,L|224:200,1,0.0001
136,208,255786,2,4,L|224:200,1,0.0001
136,208,255786,2,4,L|224:200,1,0.0001
136,208,255786,2,4,L|224:200,1,0.0001
136,208,255786,2,4,L|224:200,1,0.0001
136,208,255786,2,4,L|224:200,1,0.0001
136,208,255786,2,4,L|224:200,1,0.0001
136,208,255786,2,4,L|224:200,1,0.0001
136,208,255786,2,4,L|224:200,1,0.0001
136,208,255786,2,4,L|224:200,1,0.0001
136,208,255786,2,4,L|224:200,1,0.0001
136,208,255841,2,4,L|224:200,1,0.0001
136,208,255841,2,4,L|224:200,1,0.0001
136,208,255841,2,4,L|224:200,1,0.0001
136,208,255841,2,4,L|224:200,1,0.0001
136,208,255841,2,4,L|224:200,1,0.0001
136,208,255841,2,4,L|224:200,1,0.0001
136,208,255841,2,4,L|224:200,1,0.0001
136,208,255841,2,4,L|224:200,1,0.0001
136,208,255841,2,4,L|224:200,1,0.0001
136,208,255841,2,4,L|224:200,1,0.0001
136,208,255841,2,4,L|224:200,1,0.0001
136,208,255841,2,4,L|224:200,1,0.0001
256,192,255952,5,2,0:0:0:0:
256,192,256036,1,2,0:0:0:0:
256,192,256119,1,2,0:0:0:0:
256,192,256202,1,2,0:0:0:0:
256,192,256286,1,2,0:0:0:0:
256,192,256369,1,2,0:0:0:0:
256,192,256452,1,2,0:0:0:0:
256,192,256536,1,2,0:0:0:0:
256,192,256619,1,4,0:0:0:0:
256,192,256646,2,4,L|352:192,1,70
256,192,256781,1,0,0:0:0:0:
256,192,256808,2,4,L|320:192,1,35
256,192,256862,1,0,0:0:0:0:
256,192,256943,1,2,0:0:0:0:
256,192,256970,2,4,L|320:192,1,35
256,192,257024,1,2,0:0:0:0:
256,192,257105,1,0,0:0:0:0:
256,192,257132,2,4,L|352:192,1,70
256,192,257267,1,2,0:0:0:0:
256,192,257348,1,2,0:0:0:0:
256,192,257429,1,0,0:0:0:0:
256,192,257510,1,0,0:0:0:0:
136,208,257537,2,4,L|224:200,1,0.0001
136,208,257537,2,4,L|224:200,1,0.0001
136,208,257537,2,4,L|224:200,1,0.0001
136,208,257537,2,4,L|224:200,1,0.0001
136,208,257537,2,4,L|224:200,1,0.0001
136,208,257537,2,4,L|224:200,1,0.0001
136,208,257537,2,4,L|224:200,1,0.0001
136,208,257537,2,4,L|224:200,1,0.0001
136,208,257537,2,4,L|224:200,1,0.0001
136,208,257537,2,4,L|224:200,1,0.0001
136,208,257537,2,4,L|224:200,1,0.0001
136,208,257537,2,4,L|224:200,1,0.0001
256,192,257591,1,2,0:0:0:0:
256,192,257632,1,2,0:0:0:0:
136,208,257693,2,4,L|224:200,1,0.0001
136,208,257693,2,4,L|224:200,1,0.0001
136,208,257693,2,4,L|224:200,1,0.0001
136,208,257693,2,4,L|224:200,1,0.0001
136,208,257693,2,4,L|224:200,1,0.0001
136,208,257693,2,4,L|224:200,1,0.0001
136,208,257693,2,4,L|224:200,1,0.0001
136,208,257693,2,4,L|224:200,1,0.0001
136,208,257693,2,4,L|224:200,1,0.0001
136,208,257693,2,4,L|224:200,1,0.0001
136,208,257693,2,4,L|224:200,1,0.0001
136,208,257693,2,4,L|224:200,1,0.0001
256,192,257754,1,2,0:0:0:0:
256,192,257794,1,2,0:0:0:0:
136,208,257855,2,4,L|224:200,1,0.0001
136,208,257855,2,4,L|224:200,1,0.0001
136,208,257855,2,4,L|224:200,1,0.0001
136,208,257855,2,4,L|224:200,1,0.0001
136,208,257855,2,4,L|224:200,1,0.0001
136,208,257855,2,4,L|224:200,1,0.0001
136,208,257855,2,4,L|224:200,1,0.0001
136,208,257855,2,4,L|224:200,1,0.0001
136,208,257855,2,4,L|224:200,1,0.0001
136,208,257855,2,4,L|224:200,1,0.0001
136,208,257855,2,4,L|224:200,1,0.0001
136,208,257855,2,4,L|224:200,1,0.0001
256,192,257916,1,4,0:0:0:0:
136,208,257968,2,4,L|224:200,1,0.0001
136,208,257968,2,4,L|224:200,1,0.0001
136,208,257968,2,4,L|224:200,1,0.0001
136,208,257968,2,4,L|224:200,1,0.0001
136,208,257968,2,4,L|224:200,1,0.0001
136,208,257968,2,4,L|224:200,1,0.0001
136,208,257968,2,4,L|224:200,1,0.0001
136,208,257968,2,4,L|224:200,1,0.0001
136,208,257968,2,4,L|224:200,1,0.0001
136,208,257968,2,4,L|224:200,1,0.0001
136,208,257968,2,4,L|224:200,1,0.0001
136,208,257968,2,4,L|224:200,1,0.0001
136,208,258021,2,4,L|224:200,1,0.0001
136,208,258021,2,4,L|224:200,1,0.0001
136,208,258021,2,4,L|224:200,1,0.0001
136,208,258021,2,4,L|224:200,1,0.0001
136,208,258021,2,4,L|224:200,1,0.0001
136,208,258021,2,4,L|224:200,1,0.0001
136,208,258021,2,4,L|224:200,1,0.0001
136,208,258021,2,4,L|224:200,1,0.0001
136,208,258021,2,4,L|224:200,1,0.0001
136,208,258021,2,4,L|224:200,1,0.0001
136,208,258021,2,4,L|224:200,1,0.0001
136,208,258021,2,4,L|224:200,1,0.0001
136,208,258073,2,4,L|224:200,1,0.0001
136,208,258073,2,4,L|224:200,1,0.0001
136,208,258073,2,4,L|224:200,1,0.0001
136,208,258073,2,4,L|224:200,1,0.0001
136,208,258073,2,4,L|224:200,1,0.0001
136,208,258073,2,4,L|224:200,1,0.0001
136,208,258073,2,4,L|224:200,1,0.0001
136,208,258073,2,4,L|224:200,1,0.0001
136,208,258073,2,4,L|224:200,1,0.0001
136,208,258073,2,4,L|224:200,1,0.0001
136,208,258073,2,4,L|224:200,1,0.0001
136,208,258073,2,4,L|224:200,1,0.0001
136,208,258126,2,4,L|224:200,1,0.0001
136,208,258126,2,4,L|224:200,1,0.0001
136,208,258126,2,4,L|224:200,1,0.0001
136,208,258126,2,4,L|224:200,1,0.0001
136,208,258126,2,4,L|224:200,1,0.0001
136,208,258126,2,4,L|224:200,1,0.0001
136,208,258126,2,4,L|224:200,1,0.0001
136,208,258126,2,4,L|224:200,1,0.0001
136,208,258126,2,4,L|224:200,1,0.0001
136,208,258126,2,4,L|224:200,1,0.0001
136,208,258126,2,4,L|224:200,1,0.0001
136,208,258126,2,4,L|224:200,1,0.0001
256,192,258231,1,6,0:0:0:0:
136,208,258283,2,4,L|224:200,1,0.0001
136,208,258283,2,4,L|224:200,1,0.0001
136,208,258283,2,4,L|224:200,1,0.0001
136,208,258283,2,4,L|224:200,1,0.0001
136,208,258283,2,4,L|224:200,1,0.0001
136,208,258283,2,4,L|224:200,1,0.0001
136,208,258283,2,4,L|224:200,1,0.0001
136,208,258283,2,4,L|224:200,1,0.0001
136,208,258283,2,4,L|224:200,1,0.0001
136,208,258283,2,4,L|224:200,1,0.0001
136,208,258283,2,4,L|224:200,1,0.0001
136,208,258283,2,4,L|224:200,1,0.0001
136,208,258336,2,4,L|224:200,1,0.0001
136,208,258336,2,4,L|224:200,1,0.0001
136,208,258336,2,4,L|224:200,1,0.0001
136,208,258336,2,4,L|224:200,1,0.0001
136,208,258336,2,4,L|224:200,1,0.0001
136,208,258336,2,4,L|224:200,1,0.0001
136,208,258336,2,4,L|224:200,1,0.0001
136,208,258336,2,4,L|224:200,1,0.0001
136,208,258336,2,4,L|224:200,1,0.0001
136,208,258336,2,4,L|224:200,1,0.0001
136,208,258336,2,4,L|224:200,1,0.0001
136,208,258336,2,4,L|224:200,1,0.0001
136,208,258388,2,4,L|224:200,1,0.0001
136,208,258388,2,4,L|224:200,1,0.0001
136,208,258388,2,4,L|224:200,1,0.0001
136,208,258388,2,4,L|224:200,1,0.0001
136,208,258388,2,4,L|224:200,1,0.0001
136,208,258388,2,4,L|224:200,1,0.0001
136,208,258388,2,4,L|224:200,1,0.0001
136,208,258388,2,4,L|224:200,1,0.0001
136,208,258388,2,4,L|224:200,1,0.0001
136,208,258388,2,4,L|224:200,1,0.0001
136,208,258388,2,4,L|224:200,1,0.0001
136,208,258388,2,4,L|224:200,1,0.0001
136,208,258441,2,4,L|224:200,1,0.0001
136,208,258441,2,4,L|224:200,1,0.0001
136,208,258441,2,4,L|224:200,1,0.0001
136,208,258441,2,4,L|224:200,1,0.0001
136,208,258441,2,4,L|224:200,1,0.0001
136,208,258441,2,4,L|224:200,1,0.0001
136,208,258441,2,4,L|224:200,1,0.0001
136,208,258441,2,4,L|224:200,1,0.0001
136,208,258441,2,4,L|224:200,1,0.0001
136,208,258441,2,4,L|224:200,1,0.0001
136,208,258441,2,4,L|224:200,1,0.0001
136,208,258441,2,4,L|224:200,1,0.0001
256,192,258547,1,0,0:0:0:0:
256,192,258626,1,0,0:0:0:0:
256,192,258705,1,0,0:0:0:0:
256,192,258784,1,0,0:0:0:0:
256,192,258863,1,0,0:0:0:0:
256,192,258942,1,0,0:0:0:0:
256,192,259021,1,0,0:0:0:0:
256,192,259100,1,0,0:0:0:0:
256,192,259179,1,6,0:0:0:0:
256,192,259486,1,8,0:0:0:0:
256,192,259537,1,8,0:0:0:0:
256,192,259589,1,8,0:0:0:0:
256,192,259640,1,0,0:0:0:0:
256,192,259691,1,0,0:0:0:0:
256,192,259743,1,0,0:0:0:0:
256,192,259794,1,8,0:0:0:0:
256,192,259871,1,0,0:0:0:0:
256,192,259948,1,8,0:0:0:0:
256,192,260025,1,0,0:0:0:0:
256,192,260102,1,8,0:0:0:0:
256,192,260409,1,12,0:0:0:0:
136,208,260459,2,4,L|224:200,1,0.0001
136,208,260459,2,4,L|224:200,1,0.0001
136,208,260459,2,4,L|224:200,1,0.0001
136,208,260459,2,4,L|224:200,1,0.0001
136,208,260459,2,4,L|224:200,1,0.0001
136,208,260459,2,4,L|224:200,1,0.0001
136,208,260459,2,4,L|224:200,1,0.0001
136,208,260459,2,4,L|224:200,1,0.0001
136,208,260459,2,4,L|224:200,1,0.0001
136,208,260459,2,4,L|224:200,1,0.0001
136,208,260459,2,4,L|224:200,1,0.0001
136,208,260459,2,4,L|224:200,1,0.0001
136,208,260509,2,4,L|224:200,1,0.0001
136,208,260509,2,4,L|224:200,1,0.0001
136,208,260509,2,4,L|224:200,1,0.0001
136,208,260509,2,4,L|224:200,1,0.0001
136,208,260509,2,4,L|224:200,1,0.0001
136,208,260509,2,4,L|224:200,1,0.0001
136,208,260509,2,4,L|224:200,1,0.0001
136,208,260509,2,4,L|224:200,1,0.0001
136,208,260509,2,4,L|224:200,1,0.0001
136,208,260509,2,4,L|224:200,1,0.0001
136,208,260509,2,4,L|224:200,1,0.0001
136,208,260509,2,4,L|224:200,1,0.0001
136,208,260559,2,4,L|224:200,1,0.0001
136,208,260559,2,4,L|224:200,1,0.0001
136,208,260559,2,4,L|224:200,1,0.0001
136,208,260559,2,4,L|224:200,1,0.0001
136,208,260559,2,4,L|224:200,1,0.0001
136,208,260559,2,4,L|224:200,1,0.0001
136,208,260559,2,4,L|224:200,1,0.0001
136,208,260559,2,4,L|224:200,1,0.0001
136,208,260559,2,4,L|224:200,1,0.0001
136,208,260559,2,4,L|224:200,1,0.0001
136,208,260559,2,4,L|224:200,1,0.0001
136,208,260559,2,4,L|224:200,1,0.0001
136,208,260609,2,4,L|224:200,1,0.0001
136,208,260609,2,4,L|224:200,1,0.0001
136,208,260609,2,4,L|224:200,1,0.0001
136,208,260609,2,4,L|224:200,1,0.0001
136,208,260609,2,4,L|224:200,1,0.0001
136,208,260609,2,4,L|224:200,1,0.0001
136,208,260609,2,4,L|224:200,1,0.0001
136,208,260609,2,4,L|224:200,1,0.0001
136,208,260609,2,4,L|224:200,1,0.0001
136,208,260609,2,4,L|224:200,1,0.0001
136,208,260609,2,4,L|224:200,1,0.0001
136,208,260609,2,4,L|224:200,1,0.0001
136,208,260659,2,4,L|224:200,1,0.0001
136,208,260659,2,4,L|224:200,1,0.0001
136,208,260659,2,4,L|224:200,1,0.0001
136,208,260659,2,4,L|224:200,1,0.0001
136,208,260659,2,4,L|224:200,1,0.0001
136,208,260659,2,4,L|224:200,1,0.0001
136,208,260659,2,4,L|224:200,1,0.0001
136,208,260659,2,4,L|224:200,1,0.0001
136,208,260659,2,4,L|224:200,1,0.0001
136,208,260659,2,4,L|224:200,1,0.0001
136,208,260659,2,4,L|224:200,1,0.0001
136,208,260659,2,4,L|224:200,1,0.0001
136,208,260709,2,4,L|224:200,1,0.0001
136,208,260709,2,4,L|224:200,1,0.0001
136,208,260709,2,4,L|224:200,1,0.0001
136,208,260709,2,4,L|224:200,1,0.0001
136,208,260709,2,4,L|224:200,1,0.0001
136,208,260709,2,4,L|224:200,1,0.0001
136,208,260709,2,4,L|224:200,1,0.0001
136,208,260709,2,4,L|224:200,1,0.0001
136,208,260709,2,4,L|224:200,1,0.0001
136,208,260709,2,4,L|224:200,1,0.0001
136,208,260709,2,4,L|224:200,1,0.0001
136,208,260709,2,4,L|224:200,1,0.0001
136,208,260759,2,4,L|224:200,1,0.0001
136,208,260759,2,4,L|224:200,1,0.0001
136,208,260759,2,4,L|224:200,1,0.0001
136,208,260759,2,4,L|224:200,1,0.0001
136,208,260759,2,4,L|224:200,1,0.0001
136,208,260759,2,4,L|224:200,1,0.0001
136,208,260759,2,4,L|224:200,1,0.0001
136,208,260759,2,4,L|224:200,1,0.0001
136,208,260759,2,4,L|224:200,1,0.0001
136,208,260759,2,4,L|224:200,1,0.0001
136,208,260759,2,4,L|224:200,1,0.0001
136,208,260759,2,4,L|224:200,1,0.0001
136,208,260809,2,4,L|224:200,1,0.0001
136,208,260809,2,4,L|224:200,1,0.0001
136,208,260809,2,4,L|224:200,1,0.0001
136,208,260809,2,4,L|224:200,1,0.0001
136,208,260809,2,4,L|224:200,1,0.0001
136,208,260809,2,4,L|224:200,1,0.0001
136,208,260809,2,4,L|224:200,1,0.0001
136,208,260809,2,4,L|224:200,1,0.0001
136,208,260809,2,4,L|224:200,1,0.0001
136,208,260809,2,4,L|224:200,1,0.0001
136,208,260809,2,4,L|224:200,1,0.0001
136,208,260809,2,4,L|224:200,1,0.0001
136,208,260859,2,4,L|224:200,1,0.0001
136,208,260859,2,4,L|224:200,1,0.0001
136,208,260859,2,4,L|224:200,1,0.0001
136,208,260859,2,4,L|224:200,1,0.0001
136,208,260859,2,4,L|224:200,1,0.0001
136,208,260859,2,4,L|224:200,1,0.0001
136,208,260859,2,4,L|224:200,1,0.0001
136,208,260859,2,4,L|224:200,1,0.0001
136,208,260859,2,4,L|224:200,1,0.0001
136,208,260859,2,4,L|224:200,1,0.0001
136,208,260859,2,4,L|224:200,1,0.0001
136,208,260859,2,4,L|224:200,1,0.0001
136,208,260909,2,4,L|224:200,1,0.0001
136,208,260909,2,4,L|224:200,1,0.0001
136,208,260909,2,4,L|224:200,1,0.0001
136,208,260909,2,4,L|224:200,1,0.0001
136,208,260909,2,4,L|224:200,1,0.0001
136,208,260909,2,4,L|224:200,1,0.0001
136,208,260909,2,4,L|224:200,1,0.0001
136,208,260909,2,4,L|224:200,1,0.0001
136,208,260909,2,4,L|224:200,1,0.0001
136,208,260909,2,4,L|224:200,1,0.0001
136,208,260909,2,4,L|224:200,1,0.0001
136,208,260909,2,4,L|224:200,1,0.0001
256,192,261009,1,8,0:0:0:0:
256,192,261080,1,8,0:0:0:0:
256,192,261151,1,8,0:0:0:0:
256,192,261223,1,8,0:0:0:0:
256,192,261294,1,8,0:0:0:0:
256,192,261366,1,8,0:0:0:0:
256,192,261437,1,8,0:0:0:0:
256,192,261509,1,8,0:0:0:0:
256,192,261580,1,4,0:0:0:0:
136,208,261625,2,4,L|224:200,1,0.0001
136,208,261625,2,4,L|224:200,1,0.0001
136,208,261625,2,4,L|224:200,1,0.0001
136,208,261625,2,4,L|224:200,1,0.0001
136,208,261625,2,4,L|224:200,1,0.0001
136,208,261625,2,4,L|224:200,1,0.0001
136,208,261625,2,4,L|224:200,1,0.0001
136,208,261625,2,4,L|224:200,1,0.0001
136,208,261625,2,4,L|224:200,1,0.0001
136,208,261625,2,4,L|224:200,1,0.0001
136,208,261625,2,4,L|224:200,1,0.0001
136,208,261625,2,4,L|224:200,1,0.0001
256,192,261670,1,8,0:0:0:0:
136,208,261716,2,4,L|224:200,1,0.0001
136,208,261716,2,4,L|224:200,1,0.0001
136,208,261716,2,4,L|224:200,1,0.0001
136,208,261716,2,4,L|224:200,1,0.0001
136,208,261716,2,4,L|224:200,1,0.0001
136,208,261716,2,4,L|224:200,1,0.0001
136,208,261716,2,4,L|224:200,1,0.0001
136,208,261716,2,4,L|224:200,1,0.0001
136,208,261716,2,4,L|224:200,1,0.0001
136,208,261716,2,4,L|224:200,1,0.0001
136,208,261716,2,4,L|224:200,1,0.0001
136,208,261716,2,4,L|224:200,1,0.0001
256,192,261761,1,8,0:0:0:0:
136,208,261807,2,4,L|224:200,1,0.0001
136,208,261807,2,4,L|224:200,1,0.0001
136,208,261807,2,4,L|224:200,1,0.0001
136,208,261807,2,4,L|224:200,1,0.0001
136,208,261807,2,4,L|224:200,1,0.0001
136,208,261807,2,4,L|224:200,1,0.0001
136,208,261807,2,4,L|224:200,1,0.0001
136,208,261807,2,4,L|224:200,1,0.0001
136,208,261807,2,4,L|224:200,1,0.0001
136,208,261807,2,4,L|224:200,1,0.0001
136,208,261807,2,4,L|224:200,1,0.0001
136,208,261807,2,4,L|224:200,1,0.0001
256,192,261852,1,8,0:0:0:0:
136,208,261920,2,4,L|224:200,1,0.0001
136,208,261920,2,4,L|224:200,1,0.0001
136,208,261920,2,4,L|224:200,1,0.0001
136,208,261920,2,4,L|224:200,1,0.0001
136,208,261920,2,4,L|224:200,1,0.0001
136,208,261920,2,4,L|224:200,1,0.0001
136,208,261920,2,4,L|224:200,1,0.0001
136,208,261920,2,4,L|224:200,1,0.0001
136,208,261920,2,4,L|224:200,1,0.0001
136,208,261920,2,4,L|224:200,1,0.0001
136,208,261920,2,4,L|224:200,1,0.0001
136,208,261920,2,4,L|224:200,1,0.0001
256,192,261989,1,0,0:0:0:0:
136,208,262057,2,4,L|224:200,1,0.0001
136,208,262057,2,4,L|224:200,1,0.0001
136,208,262057,2,4,L|224:200,1,0.0001
136,208,262057,2,4,L|224:200,1,0.0001
136,208,262057,2,4,L|224:200,1,0.0001
136,208,262057,2,4,L|224:200,1,0.0001
136,208,262057,2,4,L|224:200,1,0.0001
136,208,262057,2,4,L|224:200,1,0.0001
136,208,262057,2,4,L|224:200,1,0.0001
136,208,262057,2,4,L|224:200,1,0.0001
136,208,262057,2,4,L|224:200,1,0.0001
136,208,262057,2,4,L|224:200,1,0.0001
256,192,262125,1,8,0:0:0:0:
256,192,262258,1,0,0:0:0:0:
256,192,262325,1,0,0:0:0:0:
136,208,262347,2,4,L|224:200,1,0.0001
136,208,262347,2,4,L|224:200,1,0.0001
136,208,262347,2,4,L|224:200,1,0.0001
136,208,262347,2,4,L|224:200,1,0.0001
136,208,262347,2,4,L|224:200,1,0.0001
136,208,262347,2,4,L|224:200,1,0.0001
136,208,262347,2,4,L|224:200,1,0.0001
136,208,262347,2,4,L|224:200,1,0.0001
136,208,262347,2,4,L|224:200,1,0.0001
136,208,262347,2,4,L|224:200,1,0.0001
136,208,262347,2,4,L|224:200,1,0.0001
136,208,262347,2,4,L|224:200,1,0.0001
256,192,262391,1,8,0:0:0:0:
256,192,262425,1,8,0:0:0:0:
136,208,262480,2,4,L|224:200,1,0.0001
136,208,262480,2,4,L|224:200,1,0.0001
136,208,262480,2,4,L|224:200,1,0.0001
136,208,262480,2,4,L|224:200,1,0.0001
136,208,262480,2,4,L|224:200,1,0.0001
136,208,262480,2,4,L|224:200,1,0.0001
136,208,262480,2,4,L|224:200,1,0.0001
136,208,262480,2,4,L|224:200,1,0.0001
136,208,262480,2,4,L|224:200,1,0.0001
136,208,262480,2,4,L|224:200,1,0.0001
136,208,262480,2,4,L|224:200,1,0.0001
136,208,262480,2,4,L|224:200,1,0.0001
256,192,262525,1,8,0:0:0:0:
256,192,262558,1,8,0:0:0:0:
136,208,262613,2,4,L|224:200,1,0.0001
136,208,262613,2,4,L|224:200,1,0.0001
136,208,262613,2,4,L|224:200,1,0.0001
136,208,262613,2,4,L|224:200,1,0.0001
136,208,262613,2,4,L|224:200,1,0.0001
136,208,262613,2,4,L|224:200,1,0.0001
136,208,262613,2,4,L|224:200,1,0.0001
136,208,262613,2,4,L|224:200,1,0.0001
136,208,262613,2,4,L|224:200,1,0.0001
136,208,262613,2,4,L|224:200,1,0.0001
136,208,262613,2,4,L|224:200,1,0.0001
136,208,262613,2,4,L|224:200,1,0.0001
256,192,262658,1,4,0:0:0:0:
256,192,262788,1,8,0:0:0:0:
256,192,262853,1,8,0:0:0:0:
256,192,262918,1,0,0:0:0:0:
256,192,262984,1,0,0:0:0:0:
256,192,263049,1,8,0:0:0:0:
256,192,263179,1,8,0:0:0:0:
256,192,263306,1,8,0:0:0:0:
256,192,263370,1,8,0:0:0:0:
256,192,263434,1,0,0:0:0:0:
256,192,263498,1,8,0:0:0:0:
256,192,263561,1,0,0:0:0:0:
256,192,263689,1,0,0:0:0:0:
256,192,263754,1,0,0:0:0:0:
256,192,263819,1,0,0:0:0:0:
256,192,263887,1,8,0:0:0:0:
256,192,263955,1,0,0:0:0:0:
256,192,264038,1,0,0:0:0:0:
256,192,264121,1,8,0:0:0:0:
256,192,264209,1,0,0:0:0:0:
256,192,264297,1,8,0:0:0:0:
256,192,264404,1,8,0:0:0:0:
256,192,264511,1,0,0:0:0:0:
256,192,264618,1,8,0:0:0:0:
256,192,264725,1,8,0:0:0:0:
256,192,264875,1,0,0:0:0:0:
256,192,265025,1,8,0:0:0:0:
256,192,265191,1,8,0:0:0:0:
256,192,265358,1,4,0:0:0:0:
136,208,265408,2,4,L|224:200,1,0.0001
136,208,265408,2,4,L|224:200,1,0.0001
136,208,265408,2,4,L|224:200,1,0.0001
136,208,265408,2,4,L|224:200,1,0.0001
136,208,265408,2,4,L|224:200,1,0.0001
136,208,265408,2,4,L|224:200,1,0.0001
136,208,265408,2,4,L|224:200,1,0.0001
136,208,265408,2,4,L|224:200,1,0.0001
136,208,265408,2,4,L|224:200,1,0.0001
136,208,265408,2,4,L|224:200,1,0.0001
136,208,265408,2,4,L|224:200,1,0.0001
136,208,265408,2,4,L|224:200,1,0.0001
136,208,265429,2,4,L|224:200,1,0.0001
136,208,265429,2,4,L|224:200,1,0.0001
136,208,265429,2,4,L|224:200,1,0.0001
136,208,265429,2,4,L|224:200,1,0.0001
136,208,265429,2,4,L|224:200,1,0.0001
136,208,265429,2,4,L|224:200,1,0.0001
136,208,265429,2,4,L|224:200,1,0.0001
136,208,265429,2,4,L|224:200,1,0.0001
136,208,265429,2,4,L|224:200,1,0.0001
136,208,265429,2,4,L|224:200,1,0.0001
136,208,265429,2,4,L|224:200,1,0.0001
136,208,265429,2,4,L|224:200,1,0.0001
136,208,265458,2,4,L|224:200,1,0.0001
136,208,265458,2,4,L|224:200,1,0.0001
136,208,265458,2,4,L|224:200,1,0.0001
136,208,265458,2,4,L|224:200,1,0.0001
136,208,265458,2,4,L|224:200,1,0.0001
136,208,265458,2,4,L|224:200,1,0.0001
136,208,265458,2,4,L|224:200,1,0.0001
136,208,265458,2,4,L|224:200,1,0.0001
136,208,265458,2,4,L|224:200,1,0.0001
136,208,265458,2,4,L|224:200,1,0.0001
136,208,265458,2,4,L|224:200,1,0.0001
136,208,265458,2,4,L|224:200,1,0.0001
136,208,265479,2,4,L|224:200,1,0.0001
136,208,265479,2,4,L|224:200,1,0.0001
136,208,265479,2,4,L|224:200,1,0.0001
136,208,265479,2,4,L|224:200,1,0.0001
136,208,265479,2,4,L|224:200,1,0.0001
136,208,265479,2,4,L|224:200,1,0.0001
136,208,265479,2,4,L|224:200,1,0.0001
136,208,265479,2,4,L|224:200,1,0.0001
136,208,265479,2,4,L|224:200,1,0.0001
136,208,265479,2,4,L|224:200,1,0.0001
136,208,265479,2,4,L|224:200,1,0.0001
136,208,265479,2,4,L|224:200,1,0.0001
136,208,265508,2,4,L|224:200,1,0.0001
136,208,265508,2,4,L|224:200,1,0.0001
136,208,265508,2,4,L|224:200,1,0.0001
136,208,265508,2,4,L|224:200,1,0.0001
136,208,265508,2,4,L|224:200,1,0.0001
136,208,265508,2,4,L|224:200,1,0.0001
136,208,265508,2,4,L|224:200,1,0.0001
136,208,265508,2,4,L|224:200,1,0.0001
136,208,265508,2,4,L|224:200,1,0.0001
136,208,265508,2,4,L|224:200,1,0.0001
136,208,265508,2,4,L|224:200,1,0.0001
136,208,265508,2,4,L|224:200,1,0.0001
136,208,265529,2,4,L|224:200,1,0.0001
136,208,265529,2,4,L|224:200,1,0.0001
136,208,265529,2,4,L|224:200,1,0.0001
136,208,265529,2,4,L|224:200,1,0.0001
136,208,265529,2,4,L|224:200,1,0.0001
136,208,265529,2,4,L|224:200,1,0.0001
136,208,265529,2,4,L|224:200,1,0.0001
136,208,265529,2,4,L|224:200,1,0.0001
136,208,265529,2,4,L|224:200,1,0.0001
136,208,265529,2,4,L|224:200,1,0.0001
136,208,265529,2,4,L|224:200,1,0.0001
136,208,265529,2,4,L|224:200,1,0.0001
136,208,265558,2,4,L|224:200,1,0.0001
136,208,265558,2,4,L|224:200,1,0.0001
136,208,265558,2,4,L|224:200,1,0.0001
136,208,265558,2,4,L|224:200,1,0.0001
136,208,265558,2,4,L|224:200,1,0.0001
136,208,265558,2,4,L|224:200,1,0.0001
136,208,265558,2,4,L|224:200,1,0.0001
136,208,265558,2,4,L|224:200,1,0.0001
136,208,265558,2,4,L|224:200,1,0.0001
136,208,265558,2,4,L|224:200,1,0.0001
136,208,265558,2,4,L|224:200,1,0.0001
136,208,265558,2,4,L|224:200,1,0.0001
136,208,265579,2,4,L|224:200,1,0.0001
136,208,265579,2,4,L|224:200,1,0.0001
136,208,265579,2,4,L|224:200,1,0.0001
136,208,265579,2,4,L|224:200,1,0.0001
136,208,265579,2,4,L|224:200,1,0.0001
136,208,265579,2,4,L|224:200,1,0.0001
136,208,265579,2,4,L|224:200,1,0.0001
136,208,265579,2,4,L|224:200,1,0.0001
136,208,265579,2,4,L|224:200,1,0.0001
136,208,265579,2,4,L|224:200,1,0.0001
136,208,265579,2,4,L|224:200,1,0.0001
136,208,265579,2,4,L|224:200,1,0.0001
256,192,265658,1,8,0:0:0:0:
256,192,265758,1,0,0:0:0:0:
256,192,265858,1,8,0:0:0:0:
256,192,265958,1,8,0:0:0:0:
256,192,266058,1,0,0:0:0:0:
256,192,266158,1,0,0:0:0:0:
256,192,266258,1,8,0:0:0:0:
256,192,266558,1,12,0:0:0:0:
136,208,266610,2,4,L|224:200,1,0.0001
136,208,266610,2,4,L|224:200,1,0.0001
136,208,266610,2,4,L|224:200,1,0.0001
136,208,266610,2,4,L|224:200,1,0.0001
136,208,266610,2,4,L|224:200,1,0.0001
136,208,266610,2,4,L|224:200,1,0.0001
136,208,266610,2,4,L|224:200,1,0.0001
136,208,266610,2,4,L|224:200,1,0.0001
136,208,266610,2,4,L|224:200,1,0.0001
136,208,266610,2,4,L|224:200,1,0.0001
136,208,266610,2,4,L|224:200,1,0.0001
136,208,266610,2,4,L|224:200,1,0.0001
136,208,266634,2,4,L|224:200,1,0.0001
136,208,266634,2,4,L|224:200,1,0.0001
136,208,266634,2,4,L|224:200,1,0.0001
136,208,266634,2,4,L|224:200,1,0.0001
136,208,266634,2,4,L|224:200,1,0.0001
136,208,266634,2,4,L|224:200,1,0.0001
136,208,266634,2,4,L|224:200,1,0.0001
136,208,266634,2,4,L|224:200,1,0.0001
136,208,266634,2,4,L|224:200,1,0.0001
136,208,266634,2,4,L|224:200,1,0.0001
136,208,266634,2,4,L|224:200,1,0.0001
136,208,266634,2,4,L|224:200,1,0.0001
136,208,266663,2,4,L|224:200,1,0.0001
136,208,266663,2,4,L|224:200,1,0.0001
136,208,266663,2,4,L|224:200,1,0.0001
136,208,266663,2,4,L|224:200,1,0.0001
136,208,266663,2,4,L|224:200,1,0.0001
136,208,266663,2,4,L|224:200,1,0.0001
136,208,266663,2,4,L|224:200,1,0.0001
136,208,266663,2,4,L|224:200,1,0.0001
136,208,266663,2,4,L|224:200,1,0.0001
136,208,266663,2,4,L|224:200,1,0.0001
136,208,266663,2,4,L|224:200,1,0.0001
136,208,266663,2,4,L|224:200,1,0.0001
136,208,266687,2,4,L|224:200,1,0.0001
136,208,266687,2,4,L|224:200,1,0.0001
136,208,266687,2,4,L|224:200,1,0.0001
136,208,266687,2,4,L|224:200,1,0.0001
136,208,266687,2,4,L|224:200,1,0.0001
136,208,266687,2,4,L|224:200,1,0.0001
136,208,266687,2,4,L|224:200,1,0.0001
136,208,266687,2,4,L|224:200,1,0.0001
136,208,266687,2,4,L|224:200,1,0.0001
136,208,266687,2,4,L|224:200,1,0.0001
136,208,266687,2,4,L|224:200,1,0.0001
136,208,266687,2,4,L|224:200,1,0.0001
136,208,266715,2,4,L|224:200,1,0.0001
136,208,266715,2,4,L|224:200,1,0.0001
136,208,266715,2,4,L|224:200,1,0.0001
136,208,266715,2,4,L|224:200,1,0.0001
136,208,266715,2,4,L|224:200,1,0.0001
136,208,266715,2,4,L|224:200,1,0.0001
136,208,266715,2,4,L|224:200,1,0.0001
136,208,266715,2,4,L|224:200,1,0.0001
136,208,266715,2,4,L|224:200,1,0.0001
136,208,266715,2,4,L|224:200,1,0.0001
136,208,266715,2,4,L|224:200,1,0.0001
136,208,266715,2,4,L|224:200,1,0.0001
136,208,266739,2,4,L|224:200,1,0.0001
136,208,266739,2,4,L|224:200,1,0.0001
136,208,266739,2,4,L|224:200,1,0.0001
136,208,266739,2,4,L|224:200,1,0.0001
136,208,266739,2,4,L|224:200,1,0.0001
136,208,266739,2,4,L|224:200,1,0.0001
136,208,266739,2,4,L|224:200,1,0.0001
136,208,266739,2,4,L|224:200,1,0.0001
136,208,266739,2,4,L|224:200,1,0.0001
136,208,266739,2,4,L|224:200,1,0.0001
136,208,266739,2,4,L|224:200,1,0.0001
136,208,266739,2,4,L|224:200,1,0.0001
136,208,266768,2,4,L|224:200,1,0.0001
136,208,266768,2,4,L|224:200,1,0.0001
136,208,266768,2,4,L|224:200,1,0.0001
136,208,266768,2,4,L|224:200,1,0.0001
136,208,266768,2,4,L|224:200,1,0.0001
136,208,266768,2,4,L|224:200,1,0.0001
136,208,266768,2,4,L|224:200,1,0.0001
136,208,266768,2,4,L|224:200,1,0.0001
136,208,266768,2,4,L|224:200,1,0.0001
136,208,266768,2,4,L|224:200,1,0.0001
136,208,266768,2,4,L|224:200,1,0.0001
136,208,266768,2,4,L|224:200,1,0.0001
136,208,266792,2,4,L|224:200,1,0.0001
136,208,266792,2,4,L|224:200,1,0.0001
136,208,266792,2,4,L|224:200,1,0.0001
136,208,266792,2,4,L|224:200,1,0.0001
136,208,266792,2,4,L|224:200,1,0.0001
136,208,266792,2,4,L|224:200,1,0.0001
136,208,266792,2,4,L|224:200,1,0.0001
136,208,266792,2,4,L|224:200,1,0.0001
136,208,266792,2,4,L|224:200,1,0.0001
136,208,266792,2,4,L|224:200,1,0.0001
136,208,266792,2,4,L|224:200,1,0.0001
136,208,266792,2,4,L|224:200,1,0.0001
256,192,266873,1,8,0:0:0:0:
256,192,266979,1,0,0:0:0:0:
256,192,267084,1,8,0:0:0:0:
256,192,267189,1,8,0:0:0:0:
256,192,267294,1,8,0:0:0:0:
256,192,267400,1,0,0:0:0:0:
256,192,267505,1,8,0:0:0:0:
256,192,267821,1,4,0:0:0:0:
136,208,267879,2,4,L|224:200,1,0.0001
136,208,267879,2,4,L|224:200,1,0.0001
136,208,267879,2,4,L|224:200,1,0.0001
136,208,267879,2,4,L|224:200,1,0.0001
136,208,267879,2,4,L|224:200,1,0.0001
136,208,267879,2,4,L|224:200,1,0.0001
136,208,267879,2,4,L|224:200,1,0.0001
136,208,267879,2,4,L|224:200,1,0.0001
136,208,267879,2,4,L|224:200,1,0.0001
136,208,267879,2,4,L|224:200,1,0.0001
136,208,267879,2,4,L|224:200,1,0.0001
136,208,267879,2,4,L|224:200,1,0.0001
136,208,267910,2,4,L|224:200,1,0.0001
136,208,267910,2,4,L|224:200,1,0.0001
136,208,267910,2,4,L|224:200,1,0.0001
136,208,267910,2,4,L|224:200,1,0.0001
136,208,267910,2,4,L|224:200,1,0.0001
136,208,267910,2,4,L|224:200,1,0.0001
136,208,267910,2,4,L|224:200,1,0.0001
136,208,267910,2,4,L|224:200,1,0.0001
136,208,267910,2,4,L|224:200,1,0.0001
136,208,267910,2,4,L|224:200,1,0.0001
136,208,267910,2,4,L|224:200,1,0.0001
136,208,267910,2,4,L|224:200,1,0.0001
136,208,267938,2,4,L|224:200,1,0.0001
136,208,267938,2,4,L|224:200,1,0.0001
136,208,267938,2,4,L|224:200,1,0.0001
136,208,267938,2,4,L|224:200,1,0.0001
136,208,267938,2,4,L|224:200,1,0.0001
136,208,267938,2,4,L|224:200,1,0.0001
136,208,267938,2,4,L|224:200,1,0.0001
136,208,267938,2,4,L|224:200,1,0.0001
136,208,267938,2,4,L|224:200,1,0.0001
136,208,267938,2,4,L|224:200,1,0.0001
136,208,267938,2,4,L|224:200,1,0.0001
136,208,267938,2,4,L|224:200,1,0.0001
136,208,267963,2,4,L|224:200,1,0.0001
136,208,267963,2,4,L|224:200,1,0.0001
136,208,267963,2,4,L|224:200,1,0.0001
136,208,267963,2,4,L|224:200,1,0.0001
136,208,267963,2,4,L|224:200,1,0.0001
136,208,267963,2,4,L|224:200,1,0.0001
136,208,267963,2,4,L|224:200,1,0.0001
136,208,267963,2,4,L|224:200,1,0.0001
136,208,267963,2,4,L|224:200,1,0.0001
136,208,267963,2,4,L|224:200,1,0.0001
136,208,267963,2,4,L|224:200,1,0.0001
136,208,267963,2,4,L|224:200,1,0.0001
136,208,267997,2,4,L|224:200,1,0.0001
136,208,267997,2,4,L|224:200,1,0.0001
136,208,267997,2,4,L|224:200,1,0.0001
136,208,267997,2,4,L|224:200,1,0.0001
136,208,267997,2,4,L|224:200,1,0.0001
136,208,267997,2,4,L|224:200,1,0.0001
136,208,267997,2,4,L|224:200,1,0.0001
136,208,267997,2,4,L|224:200,1,0.0001
136,208,267997,2,4,L|224:200,1,0.0001
136,208,267997,2,4,L|224:200,1,0.0001
136,208,267997,2,4,L|224:200,1,0.0001
136,208,267997,2,4,L|224:200,1,0.0001
136,208,268015,2,4,L|224:200,1,0.0001
136,208,268015,2,4,L|224:200,1,0.0001
136,208,268015,2,4,L|224:200,1,0.0001
136,208,268015,2,4,L|224:200,1,0.0001
136,208,268015,2,4,L|224:200,1,0.0001
136,208,268015,2,4,L|224:200,1,0.0001
136,208,268015,2,4,L|224:200,1,0.0001
136,208,268015,2,4,L|224:200,1,0.0001
136,208,268015,2,4,L|224:200,1,0.0001
136,208,268015,2,4,L|224:200,1,0.0001
136,208,268015,2,4,L|224:200,1,0.0001
136,208,268015,2,4,L|224:200,1,0.0001
136,208,268056,2,4,L|224:200,1,0.0001
136,208,268056,2,4,L|224:200,1,0.0001
136,208,268056,2,4,L|224:200,1,0.0001
136,208,268056,2,4,L|224:200,1,0.0001
136,208,268056,2,4,L|224:200,1,0.0001
136,208,268056,2,4,L|224:200,1,0.0001
136,208,268056,2,4,L|224:200,1,0.0001
136,208,268056,2,4,L|224:200,1,0.0001
136,208,268056,2,4,L|224:200,1,0.0001
136,208,268056,2,4,L|224:200,1,0.0001
136,208,268056,2,4,L|224:200,1,0.0001
136,208,268056,2,4,L|224:200,1,0.0001
136,208,268068,2,4,L|224:200,1,0.0001
136,208,268068,2,4,L|224:200,1,0.0001
136,208,268068,2,4,L|224:200,1,0.0001
136,208,268068,2,4,L|224:200,1,0.0001
136,208,268068,2,4,L|224:200,1,0.0001
136,208,268068,2,4,L|224:200,1,0.0001
136,208,268068,2,4,L|224:200,1,0.0001
136,208,268068,2,4,L|224:200,1,0.0001
136,208,268068,2,4,L|224:200,1,0.0001
136,208,268068,2,4,L|224:200,1,0.0001
136,208,268068,2,4,L|224:200,1,0.0001
136,208,268068,2,4,L|224:200,1,0.0001
256,192,268173,1,8,0:0:0:0:
256,192,268290,1,0,0:0:0:0:
256,192,268409,1,8,0:0:0:0:
256,192,268526,1,0,0:0:0:0:
256,192,268651,1,0,0:0:0:0:
256,192,268776,1,0,0:0:0:0:
256,192,268901,1,8,0:0:0:0:
256,192,269276,1,12,0:0:0:0:
136,208,269342,2,4,L|224:200,1,0.0001
136,208,269342,2,4,L|224:200,1,0.0001
136,208,269342,2,4,L|224:200,1,0.0001
136,208,269342,2,4,L|224:200,1,0.0001
136,208,269342,2,4,L|224:200,1,0.0001
136,208,269342,2,4,L|224:200,1,0.0001
136,208,269342,2,4,L|224:200,1,0.0001
136,208,269342,2,4,L|224:200,1,0.0001
136,208,269342,2,4,L|224:200,1,0.0001
136,208,269342,2,4,L|224:200,1,0.0001
136,208,269342,2,4,L|224:200,1,0.0001
136,208,269342,2,4,L|224:200,1,0.0001
136,208,269366,2,4,L|224:200,1,0.0001
136,208,269366,2,4,L|224:200,1,0.0001
136,208,269366,2,4,L|224:200,1,0.0001
136,208,269366,2,4,L|224:200,1,0.0001
136,208,269366,2,4,L|224:200,1,0.0001
136,208,269366,2,4,L|224:200,1,0.0001
136,208,269366,2,4,L|224:200,1,0.0001
136,208,269366,2,4,L|224:200,1,0.0001
136,208,269366,2,4,L|224:200,1,0.0001
136,208,269366,2,4,L|224:200,1,0.0001
136,208,269366,2,4,L|224:200,1,0.0001
136,208,269366,2,4,L|224:200,1,0.0001
136,208,269409,2,4,L|224:200,1,0.0001
136,208,269409,2,4,L|224:200,1,0.0001
136,208,269409,2,4,L|224:200,1,0.0001
136,208,269409,2,4,L|224:200,1,0.0001
136,208,269409,2,4,L|224:200,1,0.0001
136,208,269409,2,4,L|224:200,1,0.0001
136,208,269409,2,4,L|224:200,1,0.0001
136,208,269409,2,4,L|224:200,1,0.0001
136,208,269409,2,4,L|224:200,1,0.0001
136,208,269409,2,4,L|224:200,1,0.0001
136,208,269409,2,4,L|224:200,1,0.0001
136,208,269409,2,4,L|224:200,1,0.0001
136,208,269433,2,4,L|224:200,1,0.0001
136,208,269433,2,4,L|224:200,1,0.0001
136,208,269433,2,4,L|224:200,1,0.0001
136,208,269433,2,4,L|224:200,1,0.0001
136,208,269433,2,4,L|224:200,1,0.0001
136,208,269433,2,4,L|224:200,1,0.0001
136,208,269433,2,4,L|224:200,1,0.0001
136,208,269433,2,4,L|224:200,1,0.0001
136,208,269433,2,4,L|224:200,1,0.0001
136,208,269433,2,4,L|224:200,1,0.0001
136,208,269433,2,4,L|224:200,1,0.0001
136,208,269433,2,4,L|224:200,1,0.0001
256,192,269476,1,0,0:0:0:0:
136,208,269542,2,4,L|224:200,1,0.0001
136,208,269542,2,4,L|224:200,1,0.0001
136,208,269542,2,4,L|224:200,1,0.0001
136,208,269542,2,4,L|224:200,1,0.0001
136,208,269542,2,4,L|224:200,1,0.0001
136,208,269542,2,4,L|224:200,1,0.0001
136,208,269542,2,4,L|224:200,1,0.0001
136,208,269542,2,4,L|224:200,1,0.0001
136,208,269542,2,4,L|224:200,1,0.0001
136,208,269542,2,4,L|224:200,1,0.0001
136,208,269542,2,4,L|224:200,1,0.0001
136,208,269542,2,4,L|224:200,1,0.0001
136,208,269592,2,4,L|224:200,1,0.0001
136,208,269592,2,4,L|224:200,1,0.0001
136,208,269592,2,4,L|224:200,1,0.0001
136,208,269592,2,4,L|224:200,1,0.0001
136,208,269592,2,4,L|224:200,1,0.0001
136,208,269592,2,4,L|224:200,1,0.0001
136,208,269592,2,4,L|224:200,1,0.0001
136,208,269592,2,4,L|224:200,1,0.0001
136,208,269592,2,4,L|224:200,1,0.0001
136,208,269592,2,4,L|224:200,1,0.0001
136,208,269592,2,4,L|224:200,1,0.0001
136,208,269592,2,4,L|224:200,1,0.0001
136,208,269609,2,4,L|224:200,1,0.0001
136,208,269609,2,4,L|224:200,1,0.0001
136,208,269609,2,4,L|224:200,1,0.0001
136,208,269609,2,4,L|224:200,1,0.0001
136,208,269609,2,4,L|224:200,1,0.0001
136,208,269609,2,4,L|224:200,1,0.0001
136,208,269609,2,4,L|224:200,1,0.0001
136,208,269609,2,4,L|224:200,1,0.0001
136,208,269609,2,4,L|224:200,1,0.0001
136,208,269609,2,4,L|224:200,1,0.0001
136,208,269609,2,4,L|224:200,1,0.0001
136,208,269609,2,4,L|224:200,1,0.0001
136,208,269659,2,4,L|224:200,1,0.0001
136,208,269659,2,4,L|224:200,1,0.0001
136,208,269659,2,4,L|224:200,1,0.0001
136,208,269659,2,4,L|224:200,1,0.0001
136,208,269659,2,4,L|224:200,1,0.0001
136,208,269659,2,4,L|224:200,1,0.0001
136,208,269659,2,4,L|224:200,1,0.0001
136,208,269659,2,4,L|224:200,1,0.0001
136,208,269659,2,4,L|224:200,1,0.0001
136,208,269659,2,4,L|224:200,1,0.0001
136,208,269659,2,4,L|224:200,1,0.0001
136,208,269659,2,4,L|224:200,1,0.0001
256,192,269676,1,8,0:0:0:0:
256,192,269818,1,0,0:0:0:0:
256,192,269966,1,8,0:0:0:0:
256,192,270120,1,8,0:0:0:0:
256,192,270245,1,8,0:0:0:0:
256,192,270307,1,8,0:0:0:0:
256,192,270370,1,0,0:0:0:0:
256,192,270432,1,0,0:0:0:0:
256,192,270495,1,0,0:0:0:0:
256,192,270557,1,0,0:0:0:0:
256,192,270620,1,8,0:0:0:0:
256,192,270745,1,0,0:0:0:0:
256,192,270870,1,8,0:0:0:0:
256,192,270995,1,0,0:0:0:0:
256,192,271120,5,12,0:0:0:0:
136,208,271161,6,4,L|224:200,1,0.0001
136,208,271161,2,4,L|224:200,1,0.0001
136,208,271161,2,4,L|224:200,1,0.0001
136,208,271161,2,4,L|224:200,1,0.0001
136,208,271161,2,4,L|224:200,1,0.0001
136,208,271161,2,4,L|224:200,1,0.0001
136,208,271161,2,4,L|224:200,1,0.0001
136,208,271161,2,4,L|224:200,1,0.0001
136,208,271161,2,4,L|224:200,1,0.0001
136,208,271161,2,4,L|224:200,1,0.0001
136,208,271161,2,4,L|224:200,1,0.0001
136,208,271161,2,4,L|224:200,1,0.0001
256,224,271185,2,4,B|256:192|256:192|-288:0|-288:0|256:192|256:192|-288:-96|-288:-96|800:-96|800:-96|800:416|800:416|-288:416|-288:416|-288:-96|-288:-96|800:-96|800:-96|256:192|256:192|800:0|800:0|256:192|256:192|-288:352|-288:352|-256:416|-256:416|256:192|256:192|96:416|96:416|-96:448|-96:448|256:192|256:192|256:-96|256:-96|32:-128|32:-128|256:192|256:192|160:-128|160:-128|256:192|256:192|-96:-96|-96:-96|256:192|256:192|352:-128|352:-128|480:-128|480:-128|256:192|256:192|640:-128|640:-128|256:192|256:192|256:416|256:416|256:192|256:192|256:192|256:192|352:448|352:448|256:192|256:192|160:448|160:448|192:448|192:448|160:448|160:448|256:192|256:192|448:448|448:448|640:448|640:448|256:192|256:192|-288:192|-288:192|256:192|256:192|-288:256|-288:256|-288:288|-288:288|-288:256|-288:256|256:192|256:192|-288:64|-288:64|-288:128|-288:128|256:192|256:192|256:192|256:192|800:64|800:64|800:128|800:128|256:192|256:192|800:320|800:320|800:256|800:256|256:192|256:192|800:192|800:192|800:416|800:416|256:192|256:192,22,23991.625
