osu file format v14

[General]
AudioFilename: audio.mp3
AudioLeadIn: 0
PreviewTime: 76700
Countdown: 0
SampleSet: Soft
StackLeniency: 0.4
Mode: 0
LetterboxInBreaks: 0
WidescreenStoryboard: 0

[Editor]
Bookmarks: 36700,68700,92700,116623,167019,242219
DistanceSpacing: 0.1
BeatDivisor: 4
GridSize: 4
TimelineZoom: 4.299998

[Metadata]
Title:Lunatic Rough Party!!
TitleUnicode:Lunatic Rough Party!!
Artist:Camellia
ArtistUnicode:かめりあ
Creator:Kami-senpai
Version:Do You Wanna Party?
Source:SOUND VOLTEX II
Tags:touhou 東方 Project sound voltex dubstep edm electronic technical
BeatmapID:1201899
BeatmapSetID:567410

[Difficulty]
HPDrainRate:5
CircleSize:4
OverallDifficulty:9
ApproachRate:10
SliderMultiplier:2
SliderTickRate:1

[Events]
//Background and Video events
0,0,"bg.jpg",0,0
//Break Periods
2,92900,94250
2,94900,96250
2,96900,98250
2,98900,100250
2,100900,102096
2,102746,103810
2,104460,105310
2,105960,106643
2,145623,147258
2,147908,149178
2,218419,225769
2,226752,227769
2,228752,229769
2,230752,231769
2,232752,233769
//Storyboard Layer 0 (Background)
//Storyboard Layer 1 (Fail)
//Storyboard Layer 2 (Pass)
//Storyboard Layer 3 (Foreground)
//Storyboard Sound Samples

[TimingPoints]
700,500,4,2,1,50,1,0
700,-142.857142857143,4,2,1,70,0,0
1200,-142.857142857143,4,2,1,40,0,0
16700,-142.857142857143,4,2,1,60,0,0
17200,-142.857142857143,4,2,1,40,0,0
28200,-125,4,2,1,50,0,0
31700,-76.9230769230769,4,2,1,50,0,0
32199,-111.111111111111,4,2,1,50,0,0
33283,-200,4,2,1,30,0,0
33450,-400,4,2,1,10,0,0
34950,-200,4,2,1,10,0,0
35200,-142.857142857143,4,2,1,30,0,0
35450,-142.857142857143,4,2,1,50,0,0
35700,-100,4,2,1,60,0,0
36700,-55.5555555555556,4,2,2,60,0,1
36783,-55.5555555555556,4,2,2,60,0,0
37200,-71.4285714285714,4,2,2,60,0,0
38200,-52.6315789473684,4,2,2,60,0,0
38366,-66.6666666666667,4,2,2,60,0,0
38450,-52.6315789473684,4,2,2,60,0,0
38700,-55.5555555555556,4,2,2,60,0,0
39491,-50,4,2,2,60,0,0
39950,-58.8235294117647,4,2,2,60,0,0
40450,-100,4,2,2,60,0,0
40700,-50,4,2,2,60,0,0
41283,-66.6666666666667,4,2,2,60,0,0
41700,-50,4,2,2,60,0,0
42366,-66.6666666666667,4,2,2,60,0,0
43116,-50,4,2,2,60,0,0
44200,-133.333333333333,4,2,2,60,0,0
44700,-55.5555555555556,4,2,2,60,0,1
44783,-55.5555555555556,4,2,2,60,0,0
45200,-76.9230769230769,4,2,2,60,0,0
46200,-50,4,2,2,60,0,0
46366,-83.3333333333333,4,2,2,60,0,0
46700,-55.5555555555556,4,2,2,60,0,0
47450,-50,4,2,2,60,0,0
47950,-55.5555555555556,4,2,2,60,0,0
48450,-50,4,2,2,60,0,0
48700,-55.5555555555556,4,2,2,60,0,0
49700,-66.6666666666667,4,2,2,60,0,0
50450,-50,4,2,2,60,0,0
51116,-50,4,2,2,60,0,0
52200,-66.6666666666667,4,2,2,60,0,0
52450,-133.333333333333,4,2,2,60,0,0
52950,-55.5555555555556,4,2,2,60,0,0
54200,-50,4,2,2,60,0,0
54700,-66.6666666666667,4,2,2,60,0,0
55450,-55.5555555555556,4,2,2,60,0,0
56200,-76.9230769230769,4,2,2,60,0,0
56450,-50,4,2,2,60,0,0
56700,-58.8235294117647,4,2,2,60,0,0
57950,-50,4,2,2,60,0,0
58200,-55.5555555555556,4,2,2,60,0,0
59033,-50,4,2,2,60,0,0
60200,-66.6666666666667,4,2,2,60,0,0
60450,-100,4,2,2,60,0,0
60700,-133.333333333333,4,2,2,60,0,0
61450,-55.5555555555556,4,2,2,60,0,1
61533,-55.5555555555556,4,2,2,60,0,0
61950,-66.6666666666667,4,2,2,60,0,0
62366,-100,4,2,2,60,0,0
62533,-58.8235294117647,4,2,2,60,0,0
62700,-50,4,2,2,60,0,0
63200,-62.5,4,2,2,60,0,0
63949,-55.5555555555556,4,2,2,60,0,0
64449,-50,4,2,2,60,0,0
64699,-100,4,2,2,60,0,0
64949,-66.6666666666667,4,2,2,60,0,0
65950,-50,4,2,2,60,0,0
66283,-66.6666666666667,4,2,2,60,0,0
66450,-50,4,2,2,60,0,0
66700,-52.6315789473684,4,2,2,60,0,0
68700,-100,4,2,1,50,0,0
76116,-83.3333333333333,4,2,1,60,0,0
76366,-83.3333333333333,4,2,2,60,0,0
76700,-62.5,4,2,2,70,0,1
84200,-50,4,2,2,70,0,0
84950,-58.8235294117647,4,2,2,70,0,1
91116,-100,4,2,2,60,0,1
91700,-52.6315789473684,4,2,2,60,0,1
92700,-52.6315789473684,4,2,1,60,0,0
94700,-100,4,2,1,40,0,0
100700,-100,4,2,2,60,0,0
102546,428.571428571429,4,2,2,60,1,0
104260,375,4,2,2,60,1,0
107093,300,4,2,2,60,1,0
108293,272.727272727273,4,2,2,60,1,0
109383,250,4,2,2,60,1,0
110383,218.181818181818,4,2,2,60,1,0
111255,196.72131147541,4,2,2,60,1,0
112041,187.5,4,2,2,60,1,0
112791,176.470588235294,4,2,2,60,1,0
113495,166.666666666667,4,2,2,60,1,0
114161,160,4,2,2,60,1,0
114801,153.846153846154,4,2,2,60,1,0
115416,151.898734177215,4,2,2,60,1,0
116023,150,4,2,2,60,1,0
116623,300,4,2,2,50,1,0
116623,-76.9230769230769,4,2,2,70,0,1
117823,-83.3333333333333,4,2,2,70,0,1
118423,-66.6666666666667,4,2,2,70,0,1
119023,-76.9230769230769,4,2,2,70,0,1
120223,-58.8235294117647,4,2,2,70,0,1
120823,-76.9230769230769,4,2,2,70,0,1
121423,-76.9230769230769,4,2,2,70,0,1
123223,-62.5,4,2,2,70,0,1
123673,-83.3333333333333,4,2,2,70,0,1
123823,-83.3333333333333,4,2,2,70,0,0
125023,-76.9230769230769,4,2,2,70,0,0
126223,-76.9230769230769,4,2,2,70,0,1
127423,-90.9090909090909,4,2,2,70,0,1
128023,-66.6666666666667,4,2,2,70,0,1
128473,-90.9090909090909,4,2,2,70,0,1
128623,-71.4285714285714,4,2,2,70,0,1
131023,-76.9230769230769,4,2,2,70,0,1
132223,-66.6666666666667,4,2,2,70,0,1
132823,-71.4285714285714,4,2,2,70,0,1
133273,-100,4,2,2,70,0,1
133423,-100,4,2,2,70,0,0
135823,-90.9090909090909,4,2,3,70,0,1
145423,571.428571428571,4,2,2,60,1,0
147708,480,4,2,2,60,1,0
149628,413.793103448276,4,2,2,60,1,0
151283,363.636363636364,4,2,2,60,1,0
152737,324.324324324324,4,2,2,60,1,0
154036,292.682926829268,4,2,2,60,1,0
155206,266.666666666667,4,2,2,60,1,0
156272,250,4,2,2,60,1,0
157272,226.415094339623,4,2,2,60,1,0
158177,210.526315789474,4,2,2,60,1,0
159019,200,4,2,2,60,1,0
164619,-100,4,2,1,40,0,0
165419,-100,4,2,10,60,0,0
166019,-100,4,2,10,40,0,0
166219,-125,4,2,1,40,0,0
166619,-62.5,4,2,1,40,0,0
167019,400,4,2,1,60,1,0
167019,-55.5555555555556,4,2,2,70,0,1
167119,-55.5555555555556,4,2,2,70,0,0
167519,-58.8235294117647,4,2,2,70,0,0
178419,-100,4,2,1,50,0,0
179019,-100,4,2,2,50,0,0
179419,-76.9230769230769,4,2,2,50,0,0
179619,-66.6666666666667,4,2,2,50,0,0
179819,-58.8235294117647,4,2,4,70,0,1
179919,-58.8235294117647,4,2,4,70,0,0
186219,-350,4,2,1,70,0,0
186619,-58.8235294117647,4,2,4,70,0,1
186719,-58.8235294117647,4,2,4,70,0,0
191019,-83.3333333333333,4,2,2,50,0,0
192619,-83.3333333333333,4,2,2,50,0,1
192719,-83.3333333333333,4,2,2,50,0,0
193019,-58.8235294117647,4,2,2,70,0,0
199019,-58.8235294117647,4,2,2,70,0,1
199119,-58.8235294117647,4,2,2,70,0,0
203819,-52.6315789473684,4,2,2,70,0,0
204619,-166.666666666667,4,2,2,70,0,0
205419,-58.8235294117647,4,2,2,70,0,1
205519,-58.8235294117647,4,2,2,70,0,0
211219,-100,4,2,2,70,0,0
211519,-50,4,2,2,70,0,0
212219,-58.8235294117647,4,2,2,70,0,1
212319,-58.8235294117647,4,2,2,70,0,0
214419,-58.8235294117647,4,2,4,70,0,0
214619,-58.8235294117647,4,2,2,70,0,0
215019,-52.6315789473684,4,2,2,70,0,0
218219,500,4,2,1,50,1,0
226219,-100,4,2,2,70,0,0
234719,-100,4,2,1,40,0,0
238219,-100,4,2,1,50,0,0
241219,-100,4,2,1,40,0,0
242219,480,4,2,1,50,1,1
242219,-52.6315789473684,4,2,2,70,0,1
243659,-50,4,2,2,70,0,1
244139,461.538461538462,4,2,2,50,1,1
244139,-52.6315789473684,4,2,2,70,0,1
244831,-58.8235294117647,4,2,2,70,0,1
245292,-62.5,4,2,2,70,0,1
245600,-55.5555555555556,4,2,2,70,0,1
245754,-50,4,2,2,70,0,1
245985,428.571428571429,4,2,2,50,1,1
245985,-55.5555555555556,4,2,2,70,0,1
246413,-66.6666666666667,4,2,2,70,0,1
246842,-55.5555555555556,4,2,2,70,0,1
247699,413.793103448276,4,2,2,70,1,1
247699,-52.6315789473684,4,2,2,70,0,1
248940,-66.6666666666667,4,2,2,70,0,1
249285,-66.6666666666667,4,2,2,70,0,0
249354,387.096774193548,4,2,1,70,1,1
249354,-52.6315789473684,4,2,2,70,0,1
249837,-58.8235294117647,4,2,2,70,0,1
250902,380.952380952381,4,2,2,70,1,1
250902,-58.8235294117647,4,2,2,70,0,1
252425,363.636363636364,4,2,2,70,1,1
252425,-62.5,4,2,2,70,0,1
253879,347.826086956522,4,2,2,70,1,1
253879,-58.8235294117647,4,2,2,70,0,1
255185,-58.8235294117647,4,2,2,70,0,0
255270,338.028169014084,4,2,2,70,1,1
255270,-71.4285714285714,4,2,2,70,0,1
255354,-71.4285714285714,4,2,3,70,0,1
256623,324.324324324324,4,2,2,70,1,1
256623,-90.9090909090909,4,2,3,70,0,1
257920,315.789473684211,4,2,2,70,1,1
257920,-66.6666666666667,4,2,3,70,0,1
259183,300,4,2,2,70,1,1
259183,-83.3333333333333,4,2,2,70,0,1
259483,-58.8235294117647,4,2,3,70,0,1
259708,-83.3333333333333,4,2,3,70,0,1
260309,-83.3333333333333,4,2,2,70,0,0
260383,292.682926829268,4,2,2,70,1,1
260383,-76.9230769230769,4,2,2,70,0,1
261553,272.727272727273,4,2,2,70,1,1
261553,-100,4,2,2,70,0,1
261689,-71.4285714285714,4,2,2,70,0,1
262098,-62.5,4,2,2,70,0,1
262643,260.869565217391,4,2,2,70,1,1
262643,-76.9230769230769,4,2,2,70,0,1
263944,333.333333333333,4,2,2,70,1,1
263944,-76.9230769230769,4,2,2,70,0,1
264277,428.571428571429,4,2,2,70,1,1
264277,-100,4,2,2,70,0,1
264705,631.578947368421,4,2,2,70,1,1
265020,666.666666666667,4,2,2,70,1,1
265353,300,4,2,2,50,1,0
266553,315.789473684211,4,2,2,50,1,0
267806,352.941176470588,4,2,2,50,1,0
269260,413.793103448276,4,2,2,50,1,0
270087,521.739130434783,4,2,1,50,1,0
270608,500,4,2,1,50,1,0
271108,-100,4,2,2,50,0,0
271233,-100,4,2,2,5,0,0

[Colours]
Combo1 : 182,52,52
Combo2 : 0,158,234
Combo3 : 227,98,179
Combo4 : 120,237,234
SliderBorder : 231,182,255

[HitObjects]
153,239,700,5,2,0:0:0:0:
420,52,1200,6,0,P|425:81|421:115,1,46.6666652425131,8|0,0:0|0:0,0:0:0:0:
363,136,1533,2,0,P|358:165|364:200,1,46.6666652425131,8|0,0:0|0:0,0:0:0:0:
427,218,1866,2,0,P|432:247|426:282,1,46.6666652425131,8|0,0:0|0:0,0:0:0:0:
373,316,2200,1,8,0:0:0:0:
126,234,2700,5,2,0:0:0:0:
386,53,3200,6,0,P|352:62|335:63,1,46.6666652425131,8|0,0:0|0:0,0:0:0:0:
299,126,3533,2,0,P|265:117|248:116,1,46.6666652425131,8|0,0:0|0:0,0:0:0:0:
222,50,3866,2,0,P|188:59|171:60,1,46.6666652425131,8|0,0:0|0:0,0:0:0:0:
123,118,4200,1,8,0:0:0:0:
153,239,4700,5,2,0:0:0:0:
420,332,5200,6,0,P|425:303|421:269,1,46.6666652425131,8|0,0:0|0:0,0:0:0:0:
363,248,5533,2,0,P|358:219|364:184,1,46.6666652425131,8|0,0:0|0:0,0:0:0:0:
427,166,5866,2,0,P|432:137|426:102,1,46.6666652425131,8|0,0:0|0:0,0:0:0:0:
373,68,6200,1,8,0:0:0:0:
126,234,6700,5,2,0:0:0:0:
126,53,7200,6,0,P|160:62|177:63,1,46.6666652425131,8|0,0:0|0:0,0:0:0:0:
213,126,7533,2,0,P|247:117|264:116,1,46.6666652425131,8|0,0:0|0:0,0:0:0:0:
290,50,7866,2,0,P|324:59|341:60,1,46.6666652425131,8|0,0:0|0:0,0:0:0:0:
389,118,8200,1,0,0:0:0:0:
325,340,8700,5,2,0:0:0:0:
454,259,9200,6,0,L|463:319,1,46.6666652425131,8|0,0:0|0:0,0:0:0:0:
385,199,9533,2,0,L|376:259,1,46.6666652425131,8|0,0:0|0:0,0:0:0:0:
451,133,9866,2,0,L|460:193,1,46.6666652425131,8|0,0:0|0:0,0:0:0:0:
383,88,10200,1,8,0:0:0:0:
205,143,10700,5,2,0:0:0:0:
353,298,11200,6,0,P|385:297|402:292,1,46.6666652425131,8|0,0:0|0:0,0:0:0:0:
267,359,11533,2,0,P|299:360|316:365,1,46.6666652425131,8|0,0:0|0:0,0:0:0:0:
196,292,11866,2,0,P|228:291|245:286,1,46.6666652425131,8|0,0:0|0:0,0:0:0:0:
148,362,12200,1,8,0:0:0:0:
78,248,12700,5,2,0:0:0:0:
454,125,13200,6,0,L|463:65,1,46.6666652425131,8|0,0:0|0:0,0:0:0:0:
385,185,13533,2,0,L|376:125,1,46.6666652425131,8|0,0:0|0:0,0:0:0:0:
451,251,13866,2,0,L|460:191,1,46.6666652425131,8|0,0:0|0:0,0:0:0:0:
383,296,14200,1,8,0:0:0:0:
352,76,14700,5,2,0:0:0:0:
121,78,15200,5,8,0:0:0:0:
110,93,15366,1,0,0:0:0:0:
103,110,15533,1,8,0:0:0:0:
98,128,15700,6,0,L|105:168,1,23.3333326212565,4|0,0:0|0:0,0:0:0:0:
172,176,15866,2,0,L|165:216,1,23.3333326212565,4|0,0:0|0:0,0:0:0:0:
89,229,16033,2,0,L|96:269,1,23.3333326212565,4|0,0:0|0:0,0:0:0:0:
163,277,16199,2,0,L|196:302,1,23.3333326212565,2|0,0:0|0:0,0:0:0:0:
266,277,16366,2,0,L|247:262,1,23.3333326212565,4|0,0:0|0:0,0:0:0:0:
349,272,16533,2,0,L|382:297,1,23.3333326212565,2|0,0:0|0:0,0:0:0:0:
425,177,16700,5,6,0:0:0:0:
227,62,17200,5,8,0:0:0:0:
213,65,17366,1,0,0:0:0:0:
199,68,17533,1,8,0:0:0:0:
185,71,17700,1,0,0:0:0:0:
171,74,17866,1,8,0:0:0:0:
157,77,18033,1,0,0:0:0:0:
143,80,18200,1,8,0:0:0:0:
64,330,18700,5,6,0:0:0:0:
431,232,19200,5,8,0:0:0:0:
408,226,19366,1,0,0:0:0:0:
384,224,19533,1,8,0:0:0:0:
360,227,19700,1,0,0:0:0:0:
337,234,19866,1,8,0:0:0:0:
316,244,20033,1,0,0:0:0:0:
298,259,20200,1,8,0:0:0:0:
400,56,20700,5,6,0:0:0:0:
57,222,21200,5,8,0:0:0:0:
81,243,21366,1,0,0:0:0:0:
105,264,21533,1,8,0:0:0:0:
129,285,21700,1,0,0:0:0:0:
155,303,21866,1,8,0:0:0:0:
180,322,22033,1,0,0:0:0:0:
205,342,22200,1,8,0:0:0:0:
105,52,22700,5,6,0:0:0:0:
430,171,23200,5,8,0:0:0:0:
397,197,23366,1,0,0:0:0:0:
357,211,23533,1,8,0:0:0:0:
314,212,23700,1,0,0:0:0:0:
273,201,23866,1,8,0:0:0:0:
240,173,24033,1,0,0:0:0:0:
218,136,24200,1,8,0:0:0:0:
424,340,24700,5,6,0:0:0:0:
16,334,25200,5,8,0:0:0:0:
33,285,25366,1,0,0:0:0:0:
50,236,25533,1,8,0:0:0:0:
68,188,25700,1,0,0:0:0:0:
87,140,25866,1,8,0:0:0:0:
107,92,26033,1,0,0:0:0:0:
129,45,26200,5,8,0:0:0:0:
149,76,26366,1,0,0:0:0:0:
179,97,26533,1,8,0:0:0:0:
215,104,26700,5,0,0:0:0:0:
283,90,26866,1,8,0:0:0:0:
211,176,27033,5,0,0:0:0:0:
323,147,27200,1,8,0:0:0:0:
205,246,27366,5,10,0:0:0:0:
251,249,27533,1,0,0:0:0:0:
289,275,27700,1,10,0:0:0:0:
302,319,27866,1,0,0:0:0:0:
283,361,28033,1,10,0:0:0:0:
236,374,28200,6,0,P|181:362|140:370,1,80,0|2,0:0|0:0,0:0:0:0:
22,363,28700,2,0,P|28:318|26:295,1,53.3333333333333,2|2,0:0|0:0,0:0:0:0:
9,241,28950,1,2,0:0:0:0:
108,125,29116,5,2,0:0:0:0:
133,134,29200,1,2,0:0:0:0:
188,235,29366,5,2,0:0:0:0:
213,243,29450,1,2,0:0:0:0:
332,132,29616,5,2,0:0:0:0:
307,124,29700,1,2,0:0:0:0:
361,253,29866,5,2,0:0:0:0:
362,279,29950,1,2,0:0:0:0:
188,235,30116,5,2,0:0:0:0:
187,209,30200,1,2,0:0:0:0:
331,106,30366,5,2,0:0:0:0:
332,132,30450,1,2,0:0:0:0:
75,208,30616,5,2,0:0:0:0:
77,181,30700,1,2,0:0:0:0:
85,150,30783,1,2,0:0:0:0:
105,122,30866,1,2,0:0:0:0:
139,100,30950,1,2,0:0:0:0:
183,90,31033,1,2,0:0:0:0:
232,100,31116,1,2,0:0:0:0:
274,137,31200,1,2,0:0:0:0:
291,192,31283,1,2,0:0:0:0:
266,250,31366,1,2,0:0:0:0:
223,302,31450,5,2,0:0:0:0:
223,302,31533,1,2,0:0:0:0:
223,302,31616,1,2,0:0:0:0:
223,302,31700,2,0,P|172:289|161:256,1,86.6666626993817,4|2,0:0|0:0,0:0:0:0:
344,244,32033,1,0,0:0:0:0:
344,244,32116,1,0,0:0:0:0:
344,244,32199,6,0,P|371:251|380:249,1,29.9999990844727,0|0,1:0|1:0,1:0:0:0:
452,275,32325,2,0,L|456:301,1,14.9999995422363,0|0,1:0|1:0,1:0:0:0:
419,306,32408,2,0,L|420:329,1,14.9999995422363,0|0,1:0|1:0,1:0:0:0:
358,348,32533,6,0,L|336:348,4,14.9999995422363,0|0|0|0|0,1:0|1:0|1:0|1:0|1:0,1:0:0:0:
268,351,32783,1,0,1:0:0:0:
248,276,32866,2,0,L|237:242,2,29.9999990844727,0|0|0,1:0|1:0|1:0,1:0:0:0:
202,91,33283,6,0,L|201:111,1,16.6666666666667,0|0,1:0|1:0,1:0:0:0:
240,136,33450,2,0,B|261:207|223:207|248:278,1,141.666666666667,0|0,1:0|1:0,1:0:0:0:
320,235,34950,6,0,L|357:227,1,33.3333333333333,2|0,0:0|0:0,0:0:0:0:
397,161,35200,2,0,L|351:152,1,46.6666652425131,2|0,0:0|0:0,0:0:0:0:
284,128,35450,1,2,0:0:0:0:
284,128,35533,1,2,0:0:0:0:
284,128,35616,1,2,0:0:0:0:
284,128,35700,5,2,0:0:0:0:
180,213,35783,1,2,0:0:0:0:
156,97,35866,2,4,P|181:75|220:52,2,66.6666666666667
86,134,36283,1,2,0:0:0:0:
86,134,36366,1,2,0:0:0:0:
86,134,36450,1,2,0:0:0:0:
17,41,36616,1,2,0:0:0:0:
17,41,36700,6,0,B|-10:140|26:232|26:232|29:180|49:157,1,239.999992675781,4|0,1:0|0:0,0:0:0:0:
114,317,37200,1,2,0:0:0:0:
123,295,37283,2,0,P|131:270|136:242,1,46.6666652425131
106,66,37450,1,0,0:0:0:0:
97,88,37533,2,0,P|89:113|84:141,1,46.6666652425131,8|0,0:0|0:0,0:0:0:0:
346,277,37866,5,2,0:0:0:0:
346,277,37950,2,0,L|378:275,2,23.3333326212565,2|0|0,0:0|0:0|0:0,0:0:0:0:
267,290,38116,1,0,0:0:0:0:
267,290,38200,2,0,B|260:265|260:265|271:252|271:252|262:241|262:241|270:231|265:210,1,63.3333316421509,2|0,0:0|0:0,0:0:0:0:
251,161,38366,2,0,L|278:156,1,25.0000009536744
254,165,38450,2,0,P|204:145|216:202,1,126.666663284302,8|0,0:0|0:0,0:0:0:0:
433,190,38700,6,0,B|447:176|447:176|427:176|427:176|445:170|445:170|427:166|427:166|443:161|443:161|429:157|429:157|436:152|436:152|445:120|435:83,1,179.999994506836,2|0,0:0|0:0,0:0:0:0:
211,34,39116,1,0,0:0:0:0:
211,34,39200,2,0,L|247:44,1,29.9999990844727,2|0,0:0|0:0,0:0:0:0:
308,67,39283,1,2,0:0:0:0:
308,67,39366,2,0,L|272:77,1,29.9999990844727,2|0,0:0|0:0,0:0:0:0:
211,107,39491,2,0,P|163:155|170:210,1,100,8|0,0:0|0:0,0:0:0:0:
309,166,39700,5,2,0:0:0:0:
234,176,39783,1,2,0:0:0:0:
161,183,39866,1,2,0:0:0:0:
88,193,39950,6,0,P|137:200|85:261,1,170.000003242493,2|0,0:0|0:0,0:0:0:0:
16,163,40283,2,0,P|26:137|32:106,1,56.6666677474976,0|2,0:0|0:0,0:0:0:0:
58,36,40450,2,0,P|60:78|71:113,1,66.6666666666667,8|0,0:0|0:0,0:0:0:0:
204,105,40700,6,0,B|285:77|284:142|324:138|396:129|395:59|395:20|353:-2|300:-10|280:25,1,333.333333333333,2|0,0:0|0:0,0:0:0:0:
234,176,41200,1,2,0:0:0:0:
253,202,41283,2,0,L|295:214,2,25.0000009536744
264,290,41450,1,2,0:0:0:0:
238,318,41533,2,0,L|213:324,2,25.0000009536744,2|0|0,0:0|0:0|0:0,0:0:0:0:
392,315,41700,6,0,B|405:261|387:214|387:214|381:233|381:233|374:246,1,133.333333333333,2|0,0:0|0:0,0:0:0:0:
475,255,41950,1,0,0:0:0:0:
475,255,42033,1,2,0:0:0:0:
475,255,42116,1,2,0:0:0:0:
475,255,42200,2,0,P|466:201|458:182,1,66.6666666666667
360,123,42366,2,0,L|389:110,1,25.0000009536744
364,128,42450,2,0,P|314:151|264:134,1,100.000003814697,8|0,0:0|0:0,0:0:0:0:
231,56,42700,5,2,0:0:0:0:
272,140,42783,1,2,0:0:0:0:
232,225,42866,1,2,0:0:0:0:
276,309,42950,1,2,0:0:0:0:
80,134,43116,6,0,P|166:119|112:187,1,200,12|0,0:0|0:0,0:0:0:0:
276,309,43450,5,2,0:0:0:0:
232,225,43534,1,2,0:0:0:0:
272,140,43617,1,2,0:0:0:0:
231,56,43700,1,2,0:0:0:0:
80,241,43866,6,0,P|166:256|112:188,1,200,12|0,0:0|0:0,0:0:0:0:
336,226,44200,6,0,L|389:214,1,50.0000019073487,8|0,0:0|0:0,0:0:0:0:
320,151,44450,2,0,L|267:139,1,50.0000019073487,8|0,0:0|0:0,0:0:0:0:
123,332,44700,6,0,B|143:277|123:226|123:226|130:224|138:228|138:228|107:198|107:198|115:202|123:201|123:201|106:140|127:78,1,299.999990844727,4|0,1:0|0:0,0:0:0:0:
219,28,45200,1,8,0:0:0:0:
248,14,45283,2,0,L|293:26,1,43.3333313496908
280,176,45450,1,0,0:0:0:0:
256,153,45533,2,0,L|251:106,1,43.3333313496908,2|2,0:0|0:0,0:0:0:0:
435,109,45866,5,2,0:0:0:0:
416,135,45950,2,0,P|425:186|407:229,1,86.6666626993817,2|2,0:0|0:0,0:0:0:0:
280,176,46200,2,0,B|306:169|306:169|332:175|332:175|369:171,1,66.6666666666667
339,300,46366,2,0,L|311:311,1,19.9999993896485,2|2,0:0|0:0,0:0:0:0:
344,304,46450,2,0,B|369:316|369:316|391:298|430:303,1,79.9999975585938,8|0,0:0|0:0,0:0:0:0:
410,375,46700,6,0,B|414:323|414:323|404:303|404:303|409:216|409:216|421:195|421:195|424:127,1,239.999992675781,2|0,0:0|0:0,0:0:0:0:
488,253,47116,1,10,0:0:0:0:
270,253,47283,1,2,0:0:0:0:
280,176,47366,1,2,0:0:0:0:
292,89,47450,6,0,L|272:249,1,133.333333333333,2|0,0:0|0:0,0:0:0:0:
185,159,47700,1,2,0:0:0:0:
280,176,47783,1,2,0:0:0:0:
378,192,47866,1,2,0:0:0:0:
512,139,47950,6,0,B|466:151|435:121|435:121|424:128|424:128|380:102|341:122,1,179.999994506836,8|0,0:0|0:0,0:0:0:0:
351,244,48283,2,0,P|371:216|378:178,1,59.9999981689454,2|2,0:0|0:0,0:0:0:0:
231,259,48450,6,0,B|249:269|249:269|262:257|262:257|301:266|325:244|325:244|343:250|343:250|356:235,1,133.333333333333,8|0,0:0|0:0,0:0:0:0:
206,187,48700,6,0,B|139:201|127:297|182:345|241:329|241:329|232:297|232:297|230:249,1,299.999990844727,2|0,0:0|0:0,0:0:0:0:
86,194,49200,1,8,0:0:0:0:
56,201,49283,2,0,L|23:216,1,29.9999990844727,2|0,0:0|0:0,0:0:0:0:
230,258,49450,1,2,0:0:0:0:
260,265,49533,2,0,L|293:280,1,29.9999990844727,2|0,0:0|0:0,0:0:0:0:
108,340,49700,6,0,P|110:298|103:246,1,75.0000028610231,2|0,0:0|0:0,0:0:0:0:
163,210,49866,2,0,P|161:168|168:116,1,75.0000028610231,2|0,0:0|0:0,0:0:0:0:
90,111,50033,2,0,P|92:69|85:17,1,75.0000028610231,2|0,0:0|0:0,0:0:0:0:
160,17,50200,5,2,0:0:0:0:
228,66,50283,1,2,0:0:0:0:
312,66,50366,1,2,0:0:0:0:
379,21,50450,6,0,B|316:65|316:65|253:66,1,133.333333333333,8|0,0:0|0:0,0:0:0:0:
168,127,50700,5,2,0:0:0:0:
168,127,50783,1,2,0:0:0:0:
163,210,50866,1,2,0:0:0:0:
163,210,50950,1,2,0:0:0:0:
374,202,51116,6,0,B|400:192|417:189|417:189|351:180|298:160|298:160|308:175|318:190,1,200,12|0,0:0|0:0,0:0:0:0:
329,273,51450,5,2,0:0:0:0:
329,273,51533,1,2,0:0:0:0:
240,287,51616,1,2,0:0:0:0:
240,287,51700,1,2,0:0:0:0:
89,115,51866,6,0,B|63:105|46:102|46:102|112:93|164:73|164:73|155:88|145:103,1,200,12|0,0:0|0:0,0:0:0:0:
83,192,52200,6,0,L|71:294,1,100.000003814697,8|0,0:0|0:0,0:0:0:0:
142,310,52450,6,0,L|144:367,1,50.0000019073487,8|0,0:0|0:0,0:0:0:0:
63,361,52700,6,0,L|60:381,4,12.5000004768372
139,230,52950,6,0,B|201:217|209:281|260:284|260:284|255:263|258:238,1,179.999994506836,4|0,1:0|0:0,0:0:0:0:
426,73,53366,1,0,0:0:0:0:
399,89,53450,2,0,L|365:91,1,29.9999990844727,8|0,0:0|0:0,0:0:0:0:
184,45,53616,1,2,0:0:0:0:
184,45,53700,5,2,0:0:0:0:
230,106,53783,1,2,0:0:0:0:
223,189,53866,1,2,0:0:0:0:
277,268,53950,1,2,0:0:0:0:
225,362,54033,2,0,P|166:368|148:360,1,59.9999981689454
21,165,54200,6,0,P|62:183|114:171,1,100,8|0,0:0|0:0,0:0:0:0:
122,233,54366,2,0,P|74:220|28:238,1,100,8|0,0:0|0:0,0:0:0:0:
25,282,54533,2,0,P|70:300|118:287,1,100,8|0,0:0|0:0,0:0:0:0:
201,275,54700,6,0,B|231:193|172:195|208:125,1,150.000005722046,2|0,0:0|0:0,0:0:0:0:
273,167,55033,1,0,0:0:0:0:
336,118,55116,2,0,L|325:62,1,50.0000019073487,0|8,0:0|0:0,0:0:0:0:
139,16,55283,5,2,0:0:0:0:
209,62,55366,1,2,0:0:0:0:
293,48,55450,2,0,P|217:72|185:106,1,119.999996337891,2|0,0:0|0:0,0:0:0:0:
159,200,55700,5,2,0:0:0:0:
273,167,55783,1,2,0:0:0:0:
387,133,55866,1,2,0:0:0:0:
359,250,55950,6,0,B|304:256|304:256|339:244|356:206,1,119.999996337891,8|0,0:0|0:0,0:0:0:0:
380,322,56200,2,0,L|294:332,1,86.6666626993817
273,167,56450,6,0,B|259:194|259:194|282:192|282:192|256:227|266:275,1,133.333333333333,8|0,0:0|0:0,0:0:0:0:
359,250,56700,6,0,B|318:253|318:253|306:260|306:260|250:262|250:262|238:273|238:273|184:275,1,170.000003242493,2|0,0:0|0:0,0:0:0:0:
112,282,57033,1,2,0:0:0:0:
112,282,57116,1,2,0:0:0:0:
85,209,57200,5,8,0:0:0:0:
211,155,57283,2,0,P|196:174|180:156,1,56.6666677474976
176,71,57450,1,0,0:0:0:0:
148,155,57533,2,0,P|163:174|179:155,1,56.6666677474976
61,64,57700,5,2,0:0:0:0:
59,137,57783,1,2,0:0:0:0:
57,213,57866,1,2,0:0:0:0:
146,261,57950,2,0,B|139:246|139:246|149:243|149:243|139:232|139:232|149:223|149:223|140:208|140:208|152:194|152:194|142:170|142:170|154:129,1,133.333333333333,2|0,0:0|0:0,0:0:0:0:
232,83,58200,6,0,L|326:84,1,89.9999972534181,8|0,0:0|0:0,0:0:0:0:
279,156,58366,2,0,L|373:157,1,89.9999972534181,8|0,0:0|0:0,0:0:0:0:
329,229,58533,2,0,L|423:230,1,89.9999972534181,8|0,0:0|0:0,0:0:0:0:
366,308,58700,5,2,0:0:0:0:
441,327,58783,1,2,0:0:0:0:
387,383,58866,1,2,0:0:0:0:
366,308,58950,1,2,0:0:0:0:
148,85,59116,6,0,B|155:135|139:169|139:169|155:164|155:164|140:218|146:261,1,200,12|0,0:0|0:0,0:0:0:0:
252,230,59450,5,2,0:0:0:0:
289,162,59533,1,2,0:0:0:0:
329,229,59616,1,2,0:0:0:0:
252,230,59700,1,2,0:0:0:0:
297,35,59866,6,0,B|347:42|381:26|381:26|376:42|376:42|430:27|473:33,1,200,12|0,0:0|0:0,0:0:0:0:
437,122,60200,6,0,P|439:165|460:219,1,100.000003814697,8|0,0:0|0:0,0:0:0:0:
400,204,60450,6,0,P|402:238|394:269,1,66.6666666666667,8|0,0:0|0:0,0:0:0:0:
450,260,60700,6,0,P|453:297|464:323,1,62.5000023841859,8|0,0:0|0:0,0:0:0:0:
397,359,61200,5,8,0:0:0:0:
153,67,61450,6,0,B|138:113|150:157|150:157|201:148|201:148|168:117,1,179.999994506836,4|0,1:0|0:0,0:0:0:0:
130,289,61866,1,2,0:0:0:0:
130,289,61950,2,0,P|161:300|187:296,1,50.0000019073487,2|0,0:0|0:0,0:0:0:0:
254,239,62116,2,0,P|285:228|311:232,1,50.0000019073487
369,301,62283,1,0,0:0:0:0:
369,301,62366,6,0,B|379:278|379:278|378:240,1,50,8|0,0:0|0:0,0:0:0:0:
376,182,62533,2,0,B|378:237|378:237|418:264,1,85.0000016212464
451,181,62700,6,0,B|291:178|291:178|336:152,1,200,2|0,0:0|0:0,0:0:0:0:
390,98,63033,1,2,0:0:0:0:
390,98,63116,1,2,0:0:0:0:
323,50,63200,6,0,B|306:57|306:57|262:53,1,53.3333333333333,8|0,0:0|0:0,0:0:0:0:
191,22,63366,1,2,0:0:0:0:
191,22,63450,2,0,B|192:68|192:68|203:64|203:64|205:120,1,106.666666666667,2|0,0:0|0:0,0:0:0:0:
172,213,63700,5,2,0:0:0:0:
254,177,63783,1,2,0:0:0:0:
344,180,63866,1,2,0:0:0:0:
424,221,63949,6,0,B|407:207|407:207|403:222|387:235|387:235|425:263|425:263|455:267|455:267|476:296|508:308,1,179.999994506836,2|0,0:0|0:0,0:0:0:0:
411,341,64283,1,2,0:0:0:0:
333,341,64366,1,2,0:0:0:0:
255,338,64449,6,0,P|240:289|225:342,1,133.333333333333,8|0,0:0|0:0,0:0:0:0:
333,341,64699,6,0,P|336:310|326:273,1,66.6666666666667,2|0,0:0|0:0,0:0:0:0:
213,225,64949,2,0,P|185:233|168:250,2,50.0000019073487,2|0|0,0:0|0:0|0:0,0:0:0:0:
326,218,65199,5,8,0:0:0:0:
411,153,65283,2,0,B|415:126|415:126|391:129,1,50.0000019073487
326,218,65450,1,2,0:0:0:0:
241,147,65533,2,0,B|237:120|237:120|261:123,1,50.0000019073487,2|0,0:0|0:0,0:0:0:0:
326,218,65700,5,2,0:0:0:0:
399,229,65783,1,2,0:0:0:0:
472,241,65866,1,2,0:0:0:0:
426,305,65950,6,0,B|422:324|422:324|409:299|409:299|412:323|412:323|398:307|398:307|397:326|397:326|380:317|380:317|373:334|373:334|341:328|348:351|307:353,1,200,8|0,0:0|0:0,0:0:0:0:
214,353,66283,2,0,B|206:335|206:335|213:321|203:289,1,50.0000019073487
173,242,66450,2,0,B|198:262|198:262|219:245|219:245|306:244,1,133.333333333333,8|0,0:0|0:0,0:0:0:0:
148,165,66700,6,0,P|94:227|146:318,1,189.999994926453,10|0,0:0|0:0,0:0:0:0:
462,86,67200,6,0,B|387:87|387:87|382:97|382:97|379:78|379:78|374:88|374:88|293:89,1,189.999994926453,10|0,0:0|0:0,0:0:0:0:
355,345,67658,6,0,B|375:311|421:319|421:319|420:278|420:278|466:282|483:237,1,189.999994926453,10|4,0:0|1:0,0:0:0:0:
81,90,68200,6,0,P|86:126|163:135,1,126.666663284302,8|0,0:0|0:0,0:0:0:0:
264,157,68450,2,0,P|322:148|345:202,1,126.666663284302,8|0,0:0|0:0,0:0:0:0:
256,296,68700,6,0,P|223:298|167:294,1,66.6666666666667,8|0,0:0|0:0,0:0:0:0:
120,285,68950,1,8,0:0:0:0:
162,135,69116,1,0,0:0:0:0:
162,135,69200,2,0,P|165:174|174:204,1,66.6666666666667,8|0,0:0|0:0,0:0:0:0:
251,222,69450,2,0,P|291:215|325:215,1,66.6666666666667,8|0,0:0|0:0,0:0:0:0:
385,241,69700,6,0,P|360:214|375:192,1,66.6666666666667,8|0,0:0|0:0,0:0:0:0:
426,142,69950,1,8,0:0:0:0:
442,302,70116,1,0,0:0:0:0:
442,302,70200,2,0,P|396:321|363:314,1,66.6666666666667,8|0,0:0|0:0,0:0:0:0:
341,307,70450,1,8,0:0:0:0:
301,299,70533,1,0,0:0:0:0:
261,303,70616,1,0,0:0:0:0:
223,318,70700,5,8,0:0:0:0:
112,357,70866,1,0,0:0:0:0:
112,357,70950,2,0,P|119:318|119:290,1,66.6666666666667,8|0,0:0|0:0,0:0:0:0:
63,246,71200,2,0,P|61:210|66:175,1,66.6666666666667,8|0,0:0|0:0,0:0:0:0:
133,150,71450,2,0,L|168:162,2,33.3333333333333,10|2|2,0:0|0:0|0:0,0:0:0:0:
75,101,71700,6,0,P|24:113|-9:154,1,100,8|8,0:0|0:0,0:0:0:0:
174,221,72116,1,2,0:0:0:0:
174,221,72200,2,0,L|247:208,1,66.6666666666667,10|0,0:0|0:0,0:0:0:0:
282,144,72450,2,0,L|355:157,1,66.6666666666667,10|0,0:0|0:0,0:0:0:0:
419,273,72700,6,0,P|407:234|407:199,1,66.6666666666667,10|0,0:0|0:0,0:0:0:0:
456,152,72950,2,0,B|468:131|468:131|465:87,1,66.6666666666667,10|0,0:0|0:0,0:0:0:0:
416,32,73200,1,10,0:0:0:0:
280,15,73366,1,0,0:0:0:0:
280,15,73450,2,0,L|227:0,2,33.3333333333333,10|0|0,0:0|0:0|0:0,0:0:0:0:
333,66,73700,2,0,B|332:96|332:96|336:110|336:110|335:146,1,66.6666666666667,10|0,0:0|0:0,0:0:0:0:
334,204,73950,1,10,0:0:0:0:
174,155,74116,1,0,0:0:0:0:
174,155,74200,6,0,L|130:154,2,33.3333333333333,10|0|0,0:0|0:0|0:0,0:0:0:0:
226,225,74450,2,0,L|270:224,2,33.3333333333333,10|0|0,0:0|0:0|0:0,0:0:0:0:
141,237,74700,5,2,0:0:0:0:
122,256,74783,1,2,0:0:0:0:
115,281,74866,1,2,0:0:0:0:
117,307,74950,1,2,0:0:0:0:
128,330,75033,1,2,0:0:0:0:
149,346,75116,1,2,0:0:0:0:
175,349,75200,5,2,0:0:0:0:
210,330,75283,1,2,0:0:0:0:
249,322,75366,1,2,0:0:0:0:
289,326,75450,1,2,0:0:0:0:
327,334,75533,1,2,0:0:0:0:
362,352,75616,1,2,0:0:0:0:
408,356,75700,5,2,0:0:0:0:
226,113,76033,1,8,0:0:0:0:
210,103,76116,2,8,L|167:114,2,39.9999987792969
303,132,76366,1,0,0:0:0:0:
303,168,76450,1,8,0:0:0:0:
305,204,76533,1,0,0:0:0:0:
305,240,76616,1,0,0:0:0:0:
305,284,76700,6,0,P|246:288|198:258,1,106.666666666667,10|0,1:0|0:0,0:0:0:0:
94,58,76950,2,0,L|205:24,1,106.666666666667,10|0,0:0|0:0,0:0:0:0:
392,97,77200,2,0,L|392:206,1,106.666666666667,2|0,0:0|0:0,0:0:0:0:
119,144,77450,2,0,P|166:120|218:125,1,106.666666666667,10|0,0:0|0:0,0:0:0:0:
74,305,77700,6,0,B|61:268|61:268|59:193,1,106.666666666667,2|0,0:0|0:0,0:0:0:0:
304,273,77950,2,0,L|191:293,1,106.666666666667,10|0,0:0|0:0,0:0:0:0:
392,203,78200,2,0,L|392:97,1,106.666666666667,2|0,0:0|0:0,0:0:0:0:
192,11,78450,2,0,L|297:29,1,106.666666666667,10|0,0:0|0:0,0:0:0:0:
414,4,78700,5,2,0:0:0:0:
150,212,78866,1,0,0:0:0:0:
150,212,78950,2,0,P|102:166|106:104,1,106.666666666667,10|0,0:0|0:0,0:0:0:0:
286,218,79200,2,0,L|392:203,1,106.666666666667,2|0,0:0|0:0,0:0:0:0:
192,11,79450,2,0,P|197:66|198:124,1,106.666666666667,10|0,0:0|0:0,0:0:0:0:
6,172,79700,6,0,P|51:135|111:131,1,106.666666666667,2|0,0:0|0:0,0:0:0:0:
150,212,79950,1,10,0:0:0:0:
309,297,80116,1,0,0:0:0:0:
309,297,80200,6,0,L|370:207,1,106.666666666667,2|0,0:0|0:0,0:0:0:0:
247,65,80450,1,10,0:0:0:0:
264,142,80533,1,0,0:0:0:0:
286,218,80616,1,0,0:0:0:0:
309,297,80700,5,10,1:0:0:0:
352,59,80866,1,0,0:0:0:0:
352,59,80950,2,0,P|283:68|233:62,1,106.666666666667,10|0,0:0|0:0,0:0:0:0:
24,134,81200,2,0,P|93:125|143:131,1,106.666666666667,2|0,0:0|0:0,0:0:0:0:
286,218,81450,2,0,B|330:223|330:223|354:215|354:215|412:219,1,106.666666666667,10|0,0:0|0:0,0:0:0:0:
222,154,81700,6,0,P|195:213|204:256,1,106.666666666667,2|0,0:0|0:0,0:0:0:0:
278,307,81950,1,10,0:0:0:0:
391,68,82116,1,0,0:0:0:0:
391,68,82200,5,2,0:0:0:0:
311,65,82283,1,0,0:0:0:0:
231,62,82366,1,0,0:0:0:0:
150,60,82450,2,0,L|138:172,1,106.666666666667,10|0,0:0|0:0,0:0:0:0:
98,321,82700,6,0,B|153:307|152:342|205:325,1,106.666666666667,2|0,0:0|0:0,0:0:0:0:
278,307,82950,1,10,0:0:0:0:
100,214,83116,1,0,0:0:0:0:
100,214,83200,2,0,P|96:276|99:340,1,106.666666666667,2|0,0:0|0:0,0:0:0:0:
183,259,83450,2,0,P|184:220|184:195,2,53.3333333333333,10|0|0,0:0|0:0|0:0,0:0:0:0:
16,255,83700,5,2,0:0:0:0:
17,223,83783,1,0,0:0:0:0:
21,191,83866,1,0,0:0:0:0:
27,159,83950,1,10,0:0:0:0:
35,128,84033,5,0,0:0:0:0:
109,130,84116,1,0,0:0:0:0:
182,133,84200,6,0,B|200:192|166:201|191:266,2,133.333333333333,2|2|2,0:0|0:0|0:0,0:0:0:0:
182,133,84950,6,0,P|248:144|309:138,1,113.333335494995,10|0,1:0|0:0,0:0:0:0:
441,102,85200,2,0,P|441:181|446:228,1,113.333335494995,2|0,0:0|0:0,0:0:0:0:
298,322,85450,2,0,P|267:274|277:216,1,113.333335494995,10|0,0:0|0:0,0:0:0:0:
445,216,85700,6,0,B|422:246|422:246|328:262,1,113.333335494995,2|0,0:0|0:0,0:0:0:0:
182,265,85950,2,0,B|122:254|122:254|60:255,1,113.333335494995,10|0,0:0|0:0,0:0:0:0:
0,307,86200,1,2,0:0:0:0:
222,72,86366,1,0,0:0:0:0:
222,72,86450,2,0,P|219:131|254:169,1,113.333335494995,10|0,0:0|0:0,0:0:0:0:
149,34,86700,6,0,L|35:41,1,113.333335494995,2|0,0:0|0:0,0:0:0:0:
288,105,86950,2,0,L|435:115,1,113.333335494995,10|0,0:0|0:0,0:0:0:0:
149,130,87200,2,0,P|150:189|139:252,1,113.333335494995,2|0,0:0|0:0,0:0:0:0:
257,353,87450,2,0,P|248:297|250:241,1,113.333335494995,10|0,0:0|0:0,0:0:0:0:
353,22,87700,6,0,P|324:85|266:108,1,113.333335494995,2|0,0:0|0:0,0:0:0:0:
149,130,87950,1,10,0:0:0:0:
402,104,88116,1,0,0:0:0:0:
402,104,88200,5,2,0:0:0:0:
427,178,88283,1,0,0:0:0:0:
463,248,88366,1,0,0:0:0:0:
493,321,88450,2,0,L|561:327,2,56.6666677474976,10|0|0,0:0|0:0|0:0,0:0:0:0:
413,312,88700,6,0,P|336:319|279:341,1,113.333335494995,10|0,1:0|0:0,0:0:0:0:
178,211,88950,2,0,P|210:140|219:80,1,113.333335494995,10|0,0:0|0:0,0:0:0:0:
403,78,89200,2,0,P|447:141|495:179,1,113.333335494995,2|0,0:0|0:0,0:0:0:0:
279,261,89450,2,0,L|176:210,1,113.333335494995,10|0,0:0|0:0,0:0:0:0:
13,122,89700,6,0,P|70:120|108:52,1,113.333335494995,2|0,0:0|0:0,0:0:0:0:
37,53,89950,1,10,0:0:0:0:
24,263,90116,1,0,0:0:0:0:
76,316,90200,2,0,P|134:307|199:312,1,113.333335494995,2|0,0:0|0:0,0:0:0:0:
375,219,90450,2,0,P|352:150|352:88,1,113.333335494995,10|0,0:0|0:0,0:0:0:0:
372,29,90700,5,2,0:0:0:0:
164,131,90866,1,0,0:0:0:0:
164,131,90950,1,10,0:0:0:0:
301,152,91116,1,0,0:0:0:0:
301,152,91200,1,2,0:0:0:0:
215,218,91366,1,0,0:0:0:0:
215,218,91450,2,0,L|212:264,2,33.3333333333333,10|0|0,0:0|0:0|0:0,0:0:0:0:
230,80,91700,6,0,L|236:6,1,63.3333316421509,2|0,0:0|0:0,0:0:0:0:
340,200,91866,6,0,L|416:205,1,63.3333316421509,2|0,0:0|0:0,0:0:0:0:
215,295,92033,6,0,L|208:363,1,63.3333316421509,2|0,0:0|0:0,0:0:0:0:
19,167,92200,5,10,0:0:0:0:
90,141,92283,1,8,0:0:0:0:
161,164,92366,1,2,0:0:0:0:
215,218,92450,1,2,0:0:0:0:
286,243,92533,1,2,0:0:0:0:
361,234,92616,1,2,0:0:0:0:
417,182,92700,5,6,0:0:0:0:
177,161,94700,5,8,0:0:0:0:
312,258,96700,5,8,0:0:0:0:
316,120,98700,5,8,0:0:0:0:
81,265,100700,5,6,0:0:0:0:
429,277,102546,5,6,0:0:0:0:
106,83,104260,5,6,0:0:0:0:
387,68,105760,5,6,0:0:0:0:
241,337,107093,5,6,0:0:0:0:
281,186,107393,1,0,0:0:0:0:
89,266,107693,5,2,0:0:0:0:
202,165,107993,1,0,0:0:0:0:
260,23,108293,5,6,0:0:0:0:
281,186,108565,1,0,0:0:0:0:
439,17,108838,5,2,0:0:0:0:
360,149,109111,1,0,0:0:0:0:
170,110,109383,5,6,0:0:0:0:
16,190,109633,1,0,0:0:0:0:
238,249,109883,5,2,0:0:0:0:
78,250,110133,1,0,0:0:0:0:
311,39,110383,5,6,0:0:0:0:
334,202,110601,1,0,0:0:0:0:
162,49,110819,5,2,0:0:0:0:
254,187,111037,1,0,0:0:0:0:
79,303,111255,5,6,0:0:0:0:
120,185,111451,1,2,0:0:0:0:
216,323,111648,1,2,0:0:0:0:
254,187,111845,1,2,0:0:0:0:
148,88,112041,5,2,0:0:0:0:
293,271,112228,1,2,0:0:0:0:
296,95,112416,1,2,0:0:0:0:
120,185,112603,1,2,0:0:0:0:
371,177,112791,5,2,0:0:0:0:
201,337,112967,1,2,0:0:0:0:
39,151,113143,1,2,0:0:0:0:
282,230,113320,1,2,0:0:0:0:
171,56,113495,5,2,0:0:0:0:
91,295,113661,1,2,0:0:0:0:
24,40,113828,1,2,0:0:0:0:
312,120,113995,1,2,0:0:0:0:
51,212,114161,5,2,0:0:0:0:
91,193,114241,1,2,0:0:0:0:
134,203,114321,1,2,0:0:0:0:
164,235,114401,1,2,0:0:0:0:
181,271,114481,1,2,0:0:0:0:
209,298,114561,1,2,0:0:0:0:
246,312,114641,1,2,0:0:0:0:
285,311,114721,1,2,0:0:0:0:
324,299,114801,5,2,0:0:0:0:
350,269,114877,1,2,0:0:0:0:
345,229,114954,1,2,0:0:0:0:
312,205,115031,1,2,0:0:0:0:
272,202,115108,1,2,0:0:0:0:
239,178,115185,1,2,0:0:0:0:
228,139,115262,1,2,0:0:0:0:
248,104,115339,1,2,0:0:0:0:
287,96,115416,5,2,0:0:0:0:
332,116,115491,1,2,0:0:0:0:
348,163,115567,1,2,0:0:0:0:
334,211,115643,1,2,0:0:0:0:
288,230,115719,1,2,0:0:0:0:
238,239,115795,1,2,0:0:0:0:
188,232,115871,1,2,0:0:0:0:
149,200,115947,1,2,0:0:0:0:
133,151,116023,5,2,0:0:0:0:
367,296,116173,1,2,0:0:0:0:
160,43,116323,1,8,0:0:0:0:
84,269,116473,1,2,0:0:0:0:
322,26,116623,6,0,B|376:105|331:176|331:176|388:141|388:141|320:245|394:342,1,389.999982147218,4|0,1:0|0:0,0:0:0:0:
262,104,117223,5,8,0:0:0:0:
242,107,117298,1,0,0:0:0:0:
222,111,117373,1,0,0:0:0:0:
202,114,117448,1,0,0:0:0:0:
182,117,117523,1,0,0:0:0:0:
163,121,117598,1,0,0:0:0:0:
143,124,117673,1,0,0:0:0:0:
123,127,117748,1,0,0:0:0:0:
101,132,117823,6,0,P|94:171|102:196,1,59.9999981689454,2|0,0:0|0:0,0:0:0:0:
275,257,117973,2,0,P|244:231|219:225,1,59.9999981689454
83,336,118123,2,0,P|120:322|137:303,1,59.9999981689454,2|0,0:0|0:0,0:0:0:0:
222,111,118273,2,0,P|184:124|167:143,1,59.9999981689454,2|0,0:0|0:0,0:0:0:0:
229,319,118423,6,0,B|267:344|327:339|349:283|349:283|344:313|344:313|373:274|373:274|372:303|372:303|402:254,1,300.000011444092,8|0,0:0|0:0,0:0:0:0:
277,185,118873,2,0,P|266:225|283:268,1,75.0000028610231
426,64,119023,6,0,B|393:84|393:84|359:41|359:41|309:95|236:60|236:60|222:110|222:110|161:91,1,324.999985122681,6|0,0:0|0:0,0:0:0:0:
60,287,119623,5,8,0:0:0:0:
89,312,119698,1,0,0:0:0:0:
127,320,119773,1,0,0:0:0:0:
165,312,119848,1,0,0:0:0:0:
194,286,119923,1,0,0:0:0:0:
202,247,119998,1,0,0:0:0:0:
190,209,120073,1,2,0:0:0:0:
162,181,120148,1,0,0:0:0:0:
125,173,120223,6,0,P|65:198|64:297,1,170.000003242493,2|0,0:0|0:0,0:0:0:0:
194,286,120423,2,0,P|201:223|118:172,1,170.000003242493,2|0,0:0|0:0,0:0:0:0:
60,292,120623,2,0,P|114:329|199:282,1,170.000003242493,2|0,0:0|0:0,0:0:0:0:
284,139,120823,6,0,P|316:134|353:140,1,64.9999970245363,2|0,0:0|0:0,0:0:0:0:
115,243,120973,1,2,0:0:0:0:
216,41,121123,1,8,0:0:0:0:
305,304,121273,1,2,0:0:0:0:
104,97,121423,6,0,B|59:118|25:148|24:240|109:264|164:231|164:231|198:182|174:145|144:136|119:172|108:181,1,389.999982147218,6|0,0:0|0:0,0:0:0:0:
290,239,122023,5,8,0:0:0:0:
320,215,122098,1,0,0:0:0:0:
347,243,122173,1,0,0:0:0:0:
374,215,122248,1,0,0:0:0:0:
399,244,122323,1,0,0:0:0:0:
423,213,122398,1,0,0:0:0:0:
446,244,122473,1,0,0:0:0:0:
469,212,122548,1,0,0:0:0:0:
491,243,122623,6,0,L|495:293,1,43.3333313496908,2|0,0:0|0:0,0:0:0:0:
421,287,122723,2,0,L|425:337,1,43.3333313496908,2|0,0:0|0:0,0:0:0:0:
346,323,122823,2,0,P|300:304|249:333,1,86.6666626993817,2|0,0:0|0:0,0:0:0:0:
135,363,123073,1,2,0:0:0:0:
174,54,123223,6,0,B|173:95|205:122|205:122|179:125|159:106|159:106|174:153|184:184|184:184|162:175|142:157|142:157|143:186|164:220,1,320,8|0,0:0|0:0,0:0:0:0:
309,47,123673,2,0,P|275:47|247:60,1,59.9999981689454
258,180,123823,5,6,0:0:0:0:
429,102,123973,1,2,0:0:0:0:
429,102,124048,2,0,P|424:166|444:226,1,119.999996337891,2|0,0:0|0:0,0:0:0:0:
505,288,124273,1,8,0:0:0:0:
199,349,124423,5,8,0:0:0:0:
355,184,124573,1,2,0:0:0:0:
122,115,124723,1,8,0:0:0:0:
361,192,124873,1,2,0:0:0:0:
53,255,125023,6,0,B|91:266|91:266|196:245,1,129.999994049073,2|0,0:0|0:0,0:0:0:0:
240,145,125248,2,0,B|285:134|285:134|391:154,1,129.999994049073,2|0,0:0|0:0,0:0:0:0:
418,264,125473,2,0,B|452:265|452:265|493:248,1,64.9999970245363,2|0,0:0|0:0,0:0:0:0:
422,98,125623,5,8,0:0:0:0:
267,311,125773,1,2,0:0:0:0:
102,90,125923,1,8,0:0:0:0:
419,83,126073,1,2,0:0:0:0:
134,336,126223,6,0,B|121:227|166:135|166:135|159:196|212:232|245:214|280:177|259:130|212:142,1,389.999982147218,6|0,1:0|0:0,0:0:0:0:
44,261,126823,5,8,0:0:0:0:
95,265,126898,1,0,0:0:0:0:
146,270,126973,1,0,0:0:0:0:
197,275,127048,1,0,0:0:0:0:
248,280,127123,1,0,0:0:0:0:
299,282,127198,1,0,0:0:0:0:
350,286,127273,1,0,0:0:0:0:
401,290,127348,1,0,0:0:0:0:
452,292,127423,6,0,L|445:215,1,55.0000016784668,2|0,0:0|0:0,0:0:0:0:
363,35,127573,2,0,L|356:112,1,55.0000016784668
248,280,127723,2,0,L|314:265,1,55.0000016784668
508,134,127873,2,0,L|442:119,1,55.0000016784668,2|0,0:0|0:0,0:0:0:0:
232,115,128023,6,0,B|141:124|97:116|132:52|189:37|225:178|78:234,1,300.000011444092,8|0,0:0|0:0,0:0:0:0:
71,75,128473,2,0,P|91:42|119:23,1,55.0000016784668
306,113,128623,6,0,B|312:176|239:197|239:197|280:210|280:210|196:248|221:348|276:372|336:368|394:288,1,419.999987182618,6|0,0:0|0:0,0:0:0:0:
35,346,129223,5,8,0:0:0:0:
71,325,129298,1,0,0:0:0:0:
112,318,129373,1,0,0:0:0:0:
153,320,129448,1,0,0:0:0:0:
193,331,129523,1,0,0:0:0:0:
234,326,129598,1,0,0:0:0:0:
272,308,129673,1,2,0:0:0:0:
303,280,129748,1,0,0:0:0:0:
318,240,129823,6,0,P|283:174|217:170,1,139.999995727539,2|0,0:0|0:0,0:0:0:0:
153,320,130023,2,0,B|204:314|204:314|252:225,1,139.999995727539,2|0,0:0|0:0,0:0:0:0:
91,215,130223,2,0,B|119:284|52:287|95:367,1,139.999995727539,2|0,0:0|0:0,0:0:0:0:
27,246,130423,5,8,0:0:0:0:
288,175,130573,1,2,0:0:0:0:
102,78,130723,1,2,0:0:0:0:
199,342,130873,1,2,0:0:0:0:
365,172,131023,6,0,P|223:129|308:252,1,389.999982147218,6|0,0:0|0:0,0:0:0:0:
478,90,131623,5,8,0:0:0:0:
430,110,131698,1,0,0:0:0:0:
383,132,131773,1,0,0:0:0:0:
336,154,131848,1,0,0:0:0:0:
288,175,131923,1,0,0:0:0:0:
240,195,131998,1,0,0:0:0:0:
192,216,132073,1,0,0:0:0:0:
151,236,132148,1,0,0:0:0:0:
103,258,132223,6,0,L|82:205,1,50.0000019073487,2|0,0:0|0:0,0:0:0:0:
169,282,132323,2,0,L|151:236,1,50.0000019073487,2|0,0:0|0:0,0:0:0:0:
192,216,132423,2,0,L|153:117,1,100.000003814697,2|0,0:0|0:0,0:0:0:0:
34,95,132673,1,2,0:0:0:0:
288,175,132823,6,0,B|321:146|314:96|314:96|370:185|350:286,1,279.999991455078,8|0,0:0|0:0,0:0:0:0:
193,136,133273,2,0,P|219:119|255:111,1,50
457,244,133423,5,6,0:0:0:0:
244,351,133573,1,2,0:0:0:0:
347,150,133723,1,2,0:0:0:0:
397,378,133873,1,2,0:0:0:0:
160,201,134023,5,8,0:0:0:0:
463,327,134173,1,2,0:0:0:0:
282,78,134323,1,8,0:0:0:0:
180,377,134473,1,2,0:0:0:0:
49,177,134623,5,6,0:0:0:0:
93,145,134698,1,2,0:0:0:0:
147,138,134773,1,2,0:0:0:0:
195,163,134848,1,2,0:0:0:0:
214,214,134923,1,2,0:0:0:0:
241,261,134998,1,2,0:0:0:0:
291,281,135073,1,2,0:0:0:0:
345,278,135148,1,2,0:0:0:0:
377,240,135223,5,2,0:0:0:0:
390,181,135298,1,2,0:0:0:0:
362,127,135373,1,2,0:0:0:0:
303,114,135448,1,2,0:0:0:0:
247,137,135523,1,2,0:0:0:0:
233,195,135598,1,2,0:0:0:0:
265,245,135673,1,2,0:0:0:0:
321,265,135748,1,2,0:0:0:0:
386,255,135823,6,0,P|462:243|504:319,1,165.000005035401,6|0,0:0|0:0,0:0:0:0:
472,372,136123,1,10,1:0:0:0:
233,346,136273,1,0,0:0:0:0:
362,53,136423,1,0,0:0:0:0:
392,85,136498,1,0,0:0:0:0:
410,125,136573,1,2,0:0:0:0:
407,168,136648,1,0,0:0:0:0:
383,205,136723,1,10,1:0:0:0:
367,246,136798,1,0,0:0:0:0:
368,289,136873,1,0,0:0:0:0:
386,328,136948,1,0,0:0:0:0:
420,354,137023,6,0,P|451:354|484:347,1,55.0000016784668,2|0,0:0|0:0,0:0:0:0:
204,207,137173,2,0,P|173:207|140:214,1,55.0000016784668
300,294,137323,2,0,L|312:360,1,55.0000016784668,10|0,1:0|0:0,0:0:0:0:
219,84,137473,2,0,L|228:29,1,55.0000016784668
407,168,137623,5,2,0:0:0:0:
108,128,137773,1,2,0:0:0:0:
324,218,137923,1,10,1:0:0:0:
43,45,138073,1,0,0:0:0:0:
43,45,138148,1,0,0:0:0:0:
43,45,138223,6,0,P|32:131|43:227,1,165.000005035401,6|0,0:0|0:0,0:0:0:0:
66,276,138523,1,10,1:0:0:0:
295,179,138673,1,0,0:0:0:0:
139,108,138823,1,2,0:0:0:0:
141,129,138898,1,0,0:0:0:0:
141,150,138973,1,2,0:0:0:0:
142,171,139048,1,0,0:0:0:0:
143,192,139123,1,10,1:0:0:0:
143,214,139198,1,0,0:0:0:0:
143,235,139273,1,0,0:0:0:0:
143,256,139348,1,0,0:0:0:0:
143,277,139423,6,0,P|193:307|288:269,1,165.000005035401,2|0,0:0|0:0,0:0:0:0:
218,62,139723,2,0,B|220:175|220:175|211:194|211:194|220:212|220:212|210:237,1,165.000005035401,10|0,1:0|0:0,0:0:0:0:
286,271,140023,2,0,P|315:277|357:274,1,55.0000016784668,2|0,0:0|0:0,0:0:0:0:
418,160,140173,2,0,L|410:93,1,55.0000016784668,2|0,0:0|0:0,0:0:0:0:
218,62,140323,2,0,P|212:97|211:121,1,55.0000016784668,10|0,1:0|0:0,0:0:0:0:
234,252,140473,2,0,P|259:264|286:271,1,55.0000016784668
485,171,140623,6,0,P|405:185|307:164,1,165.000005035401,6|0,0:0|0:0,0:0:0:0:
258,128,140923,1,10,1:0:0:0:
407,36,141073,1,0,0:0:0:0:
125,217,141223,1,0,0:0:0:0:
151,197,141298,1,0,0:0:0:0:
179,179,141373,1,2,0:0:0:0:
206,161,141448,1,0,0:0:0:0:
233,143,141523,1,10,1:0:0:0:
258,128,141598,1,0,0:0:0:0:
286,110,141673,1,0,0:0:0:0:
313,91,141748,1,0,0:0:0:0:
341,74,141823,5,2,0:0:0:0:
92,61,141973,1,0,0:0:0:0:
92,61,142048,1,0,0:0:0:0:
92,61,142123,2,0,P|91:137|86:189,1,110.000003356934,10|0,1:0|0:0,0:0:0:0:
93,339,142423,2,0,P|129:288|203:352,1,165.000005035401,2|0,0:0|0:0,0:0:0:0:
268,369,142723,1,10,1:0:0:0:
384,168,142873,1,0,0:0:0:0:
153,181,143023,5,2,0:0:0:0:
296,9,143173,1,2,0:0:0:0:
334,287,143323,1,8,1:0:0:0:
71,203,143473,1,2,0:0:0:0:
383,43,143623,5,2,0:0:0:0:
109,276,143773,1,2,0:0:0:0:
414,276,143923,1,2,0:0:0:0:
143,50,144073,1,8,1:0:0:0:
178,329,144223,5,2,0:0:0:0:
141,352,144298,1,2,0:0:0:0:
97,360,144373,1,2,0:0:0:0:
55,345,144448,1,2,0:0:0:0:
28,310,144523,1,2,0:0:0:0:
21,266,144598,1,2,0:0:0:0:
36,224,144673,1,2,0:0:0:0:
71,197,144748,1,2,0:0:0:0:
114,191,144823,5,2,0:0:0:0:
169,215,144898,1,2,0:0:0:0:
228,205,144973,1,2,0:0:0:0:
260,153,145048,1,2,0:0:0:0:
251,93,145123,1,2,0:0:0:0:
205,52,145198,1,2,0:0:0:0:
144,49,145273,1,2,0:0:0:0:
95,85,145348,1,2,0:0:0:0:
86,144,145423,5,6,0:0:0:0:
417,308,147708,5,10,0:0:0:0:
77,315,149628,5,10,0:0:0:0:
87,298,150041,1,2,0:0:0:0:
97,281,150455,1,2,0:0:0:0:
107,263,150869,1,2,0:0:0:0:
307,62,151283,5,10,0:0:0:0:
316,79,151646,1,2,0:0:0:0:
326,96,152010,1,2,0:0:0:0:
335,113,152373,1,2,0:0:0:0:
66,182,152737,5,10,0:0:0:0:
140,210,152899,1,2,0:0:0:0:
213,242,153061,1,2,0:0:0:0:
286,272,153223,1,2,0:0:0:0:
411,77,153385,5,10,0:0:0:0:
334,99,153547,1,2,0:0:0:0:
257,123,153709,1,2,0:0:0:0:
181,149,153872,1,2,0:0:0:0:
313,326,154036,5,10,0:0:0:0:
378,264,154182,1,2,0:0:0:0:
385,174,154328,1,2,0:0:0:0:
334,99,154475,1,2,0:0:0:0:
84,234,154621,5,10,0:0:0:0:
159,282,154767,1,2,0:0:0:0:
249,276,154914,1,2,0:0:0:0:
311,211,155060,1,2,0:0:0:0:
228,111,155206,5,10,0:0:0:0:
165,47,155340,1,2,0:0:0:0:
101,111,155473,1,2,0:0:0:0:
165,175,155606,1,2,0:0:0:0:
211,67,155739,5,10,0:0:0:0:
121,64,155873,1,2,0:0:0:0:
118,154,156006,1,2,0:0:0:0:
208,157,156139,1,2,0:0:0:0:
351,76,156272,5,10,0:0:0:0:
381,160,156397,1,2,0:0:0:0:
363,248,156522,1,2,0:0:0:0:
397,331,156647,1,2,0:0:0:0:
457,264,156772,5,10,0:0:0:0:
363,248,156897,1,2,0:0:0:0:
286,295,157022,1,2,0:0:0:0:
197,278,157147,1,2,0:0:0:0:
64,171,157272,5,10,0:0:0:0:
146,136,157385,1,2,0:0:0:0:
229,103,157498,1,2,0:0:0:0:
312,70,157611,1,2,0:0:0:0:
299,163,157724,5,10,0:0:0:0:
216,196,157837,1,2,0:0:0:0:
133,229,157950,1,2,0:0:0:0:
51,264,158063,1,2,0:0:0:0:
109,44,158177,5,10,0:0:0:0:
142,127,158282,1,2,0:0:0:0:
173,211,158387,1,2,0:0:0:0:
209,293,158492,1,2,0:0:0:0:
152,372,158598,5,10,0:0:0:0:
116,290,158703,1,2,0:0:0:0:
85,206,158808,1,2,0:0:0:0:
52,123,158913,1,2,0:0:0:0:
204,61,159019,5,10,0:0:0:0:
273,100,159119,1,2,0:0:0:0:
302,174,159219,1,2,0:0:0:0:
278,250,159319,1,2,0:0:0:0:
221,192,159419,5,10,0:0:0:0:
302,174,159519,1,2,0:0:0:0:
358,231,159619,1,2,0:0:0:0:
337,308,159719,1,2,0:0:0:0:
184,278,159819,5,10,0:0:0:0:
125,223,159919,1,2,0:0:0:0:
135,143,160019,1,2,0:0:0:0:
201,98,160119,1,2,0:0:0:0:
213,177,160219,5,10,0:0:0:0:
135,143,160319,1,2,0:0:0:0:
128,63,160419,1,2,0:0:0:0:
194,18,160519,1,2,0:0:0:0:
386,159,160619,5,10,0:0:0:0:
379,238,160719,1,2,0:0:0:0:
320,292,160819,1,2,0:0:0:0:
242,310,160919,1,2,0:0:0:0:
164,288,161019,1,10,0:0:0:0:
115,224,161119,1,2,0:0:0:0:
116,144,161219,1,2,0:0:0:0:
161,77,161319,1,2,0:0:0:0:
236,50,161419,5,10,0:0:0:0:
313,70,161519,1,2,0:0:0:0:
375,119,161619,1,2,0:0:0:0:
396,195,161719,1,2,0:0:0:0:
369,270,161819,1,10,0:0:0:0:
303,315,161919,1,2,0:0:0:0:
223,319,162019,1,2,0:0:0:0:
150,285,162119,1,2,0:0:0:0:
110,215,162219,5,10,0:0:0:0:
125,136,162319,1,2,0:0:0:0:
175,74,162419,1,2,0:0:0:0:
250,47,162519,1,2,0:0:0:0:
326,69,162619,1,10,0:0:0:0:
385,122,162719,1,2,0:0:0:0:
396,201,162819,1,2,0:0:0:0:
368,276,162919,1,2,0:0:0:0:
295,309,163019,5,10,0:0:0:0:
215,312,163119,1,2,0:0:0:0:
146,270,163219,1,2,0:0:0:0:
116,195,163319,1,2,0:0:0:0:
131,116,163419,1,10,0:0:0:0:
191,63,163519,1,2,0:0:0:0:
270,55,163619,1,2,0:0:0:0:
347,76,163719,1,2,0:0:0:0:
391,142,163819,5,10,0:0:0:0:
393,221,163919,1,2,0:0:0:0:
352,289,164019,1,2,0:0:0:0:
276,315,164119,1,2,0:0:0:0:
196,306,164219,1,10,0:0:0:0:
135,253,164319,1,2,0:0:0:0:
122,174,164419,1,2,0:0:0:0:
159,103,164519,1,2,0:0:0:0:
229,62,164619,5,10,0:0:0:0:
299,62,164719,1,2,0:0:0:0:
350,92,164819,1,2,0:0:0:0:
380,131,164919,1,2,0:0:0:0:
395,168,165019,1,10,0:0:0:0:
397,197,165119,1,2,0:0:0:0:
394,216,165219,1,2,0:0:0:0:
393,225,165319,1,2,0:0:0:0:
378,256,165419,5,10,0:0:0:0:
173,100,166019,6,0,L|173:46,1,50
244,101,166119,2,0,L|244:47,1,50
178,175,166219,6,0,P|216:232|245:172,1,160
98,204,166619,6,0,P|190:302|322:200,1,320
204,7,167019,6,0,B|204:57|189:101|189:101|227:76|227:76|199:188|215:240,1,269.999991760254,6|0,0:0|0:0,0:0:0:0:
233,284,167419,1,8,0:0:0:0:
328,236,167519,2,0,P|368:237|417:245,1,85.0000016212464
318,347,167719,2,0,L|212:365,1,85.0000016212464,0|2,0:0|0:0,0:0:0:0:
152,308,167919,2,0,L|46:290,1,85.0000016212464
160,384,168119,1,0,0:0:0:0:
234,361,168219,6,0,L|234:172,1,170.000003242493,8|0,0:0|0:0,0:0:0:0:
154,117,168519,1,0,0:0:0:0:
154,117,168619,6,0,P|216:173|300:151,1,170.000003242493,2|2,0:0|0:0,0:0:0:0:
237,89,168919,1,0,0:0:0:0:
237,89,169019,2,0,B|222:148|222:148|181:206|181:206|159:288,1,170.000003242493,8|0,0:0|0:0,0:0:0:0:
295,265,169319,1,0,0:0:0:0:
295,265,169419,2,0,L|326:167,1,85.0000016212464,2|0,0:0|0:0,0:0:0:0:
379,76,169619,2,0,L|410:174,1,85.0000016212464,0|2,0:0|0:0,0:0:0:0:
433,254,169819,5,8,0:0:0:0:
409,326,169919,1,0,0:0:0:0:
340,359,170019,1,0,0:0:0:0:
265,340,170119,1,0,0:0:0:0:
221,277,170219,6,0,B|181:248|181:248|213:230|216:211|216:211|171:200|162:155,2,170.000003242493,2|2|8,0:0|0:0|0:0,0:0:0:0:
233,137,170719,1,0,0:0:0:0:
233,137,170819,2,0,P|201:103|135:101,1,85.0000016212464
86,198,171019,2,0,L|174:165,1,85.0000016212464,2|0,0:0|0:0,0:0:0:0:
29,58,171219,2,0,L|13:150,1,85.0000016212464
31,282,171419,2,0,B|123:334|116:251|215:301,1,170.000003242493,8|0,0:0|0:0,0:0:0:0:
194,291,171719,1,0,0:0:0:0:
322,304,171819,5,2,0:0:0:0:
393,344,171919,1,0,0:0:0:0:
326,307,172019,2,0,L|329:216,1,85.0000016212464,2|0,0:0|0:0,0:0:0:0:
406,90,172219,2,0,P|387:127|341:153,1,85.0000016212464,8|0,0:0|0:0,0:0:0:0:
114,93,172519,5,0,0:0:0:0:
114,93,172619,2,0,B|142:67|142:67|205:56,1,85.0000016212464,2|0,0:0|0:0,0:0:0:0:
151,172,172819,2,0,L|45:160,1,85.0000016212464,0|2,0:0|0:0,0:0:0:0:
238,129,173019,1,8,0:0:0:0:
255,203,173119,1,0,0:0:0:0:
228,274,173219,1,0,0:0:0:0:
254,345,173319,1,0,0:0:0:0:
407,265,173419,6,0,B|356:287|356:287|312:269|312:269|268:287|268:287|216:269|216:269|159:296|159:296,1,255.000004863739,2|0,0:0|0:0,0:0:0:0:
76,343,173819,2,0,L|71:246,1,85.0000016212464,8|0,0:0|0:0,0:0:0:0:
155,87,174019,2,0,L|150:184,1,85.0000016212464
26,179,174219,5,2,0:0:0:0:
150,171,174319,1,0,0:0:0:0:
269,164,174419,1,0,0:0:0:0:
387,159,174519,1,0,0:0:0:0:
327,55,174619,6,0,B|315:80|263:92|263:92|327:94|342:157,1,170.000003242493,8|0,0:0|0:0,0:0:0:0:
329,237,174919,1,0,0:0:0:0:
184,234,175019,5,2,0:0:0:0:
269,164,175119,1,0,0:0:0:0:
272,287,175219,2,0,L|200:345,1,85.0000016212464,2|0,0:0|0:0,0:0:0:0:
100,249,175419,2,0,P|149:243|198:227,1,85.0000016212464,8|0,0:0|0:0,0:0:0:0:
59,47,175719,5,0,0:0:0:0:
59,47,175819,2,0,L|42:144,1,85.0000016212464,2|0,0:0|0:0,0:0:0:0:
168,149,176019,2,0,L|185:246,1,85.0000016212464,0|2,0:0|0:0,0:0:0:0:
136,67,176219,5,8,0:0:0:0:
234,94,176319,1,0,0:0:0:0:
298,173,176419,1,0,0:0:0:0:
400,167,176519,1,0,0:0:0:0:
342,75,176619,6,0,L|341:-9,1,85.0000016212464,2|0,0:0|0:0,0:0:0:0:
349,265,176819,2,0,L|350:349,1,85.0000016212464,2|0,0:0|0:0,0:0:0:0:
178,328,177019,1,8,0:0:0:0:
265,272,177119,1,0,0:0:0:0:
350,344,177219,2,0,L|438:350,1,85.0000016212464
461,217,177419,5,2,0:0:0:0:
349,265,177519,1,0,0:0:0:0:
468,220,177619,2,0,L|373:146,1,85.0000016212464
185,114,177819,6,0,P|184:194|251:133,1,170.000003242493,8|0,0:0|0:0,0:0:0:0:
86,40,178219,5,2,0:0:0:0:
98,263,178419,5,8,0:0:0:0:
98,263,178519,2,0,L|210:247,1,100,8|8,0:0|0:0,0:0:0:0:
243,309,178819,2,0,L|355:325,1,100,8|8,0:0|0:0,0:0:0:0:
429,338,179119,5,8,0:0:0:0:
429,338,179219,1,8,0:0:0:0:
429,338,179319,1,8,0:0:0:0:
429,338,179419,2,0,L|448:265,1,64.9999970245363,8|2,0:0|0:0,0:0:0:0:
364,247,179619,2,0,L|347:170,1,75.0000028610231,8|2,0:0|0:0,0:0:0:0:
396,96,179819,6,0,B|364:129|364:129|337:115|337:115|288:145|223:110,1,170.000003242493,6|8,0:0|0:0,0:0:0:0:
202,43,180119,1,0,0:0:0:0:
202,43,180219,2,0,P|252:36|300:48,1,85.0000016212464,6|0,0:0|0:0,0:0:0:0:
162,120,180419,2,0,L|66:114,1,85.0000016212464,8|0,0:0|0:0,0:0:0:0:
15,221,180619,1,6,0:0:0:0:
97,329,180719,1,0,0:0:0:0:
99,193,180819,1,8,0:0:0:0:
18,302,180919,1,0,0:0:0:0:
148,264,181019,2,0,L|236:285,1,85.0000016212464,6|0,0:0|0:0,0:0:0:0:
359,213,181219,2,0,L|444:207,1,85.0000016212464,8|0,0:0|0:0,0:0:0:0:
321,305,181419,5,6,0:0:0:0:
271,210,181519,1,0,0:0:0:0:
315,315,181619,1,8,0:0:0:0:
418,295,181719,1,0,0:0:0:0:
310,326,181819,2,0,L|223:329,1,85.0000016212464,6|0,0:0|0:0,0:0:0:0:
417,168,182019,2,0,L|501:165,1,85.0000016212464,8|0,0:0|0:0,0:0:0:0:
234,237,182219,6,0,B|199:200|217:157|217:157,1,85.0000016212464,2|0,0:0|0:0,0:0:0:0:
376,83,182419,1,8,0:0:0:0:
290,185,182519,1,0,0:0:0:0:
142,193,182619,2,0,L|40:163,1,85.0000016212464,2|0,0:0|0:0,0:0:0:0:
280,100,182819,2,0,L|292:203,1,85.0000016212464,8|0,0:0|0:0,0:0:0:0:
218,319,183019,6,0,L|172:319,6,42.5000008106232,2|0|0|0|8|0|0,0:0|0:0|0:0|0:0|0:0|0:0|0:0,0:0:0:0:
360,263,183419,2,0,L|238:268,1,85.0000016212464,2|0,0:0|0:0,0:0:0:0:
480,355,183619,2,0,L|358:350,1,85.0000016212464,8|0,0:0|0:0,0:0:0:0:
257,191,183819,5,2,0:0:0:0:
371,245,183919,1,0,0:0:0:0:
266,311,184019,1,8,0:0:0:0:
263,195,184119,1,0,0:0:0:0:
425,323,184219,2,0,L|307:326,1,85.0000016212464,2|0,0:0|0:0,0:0:0:0:
424,161,184419,2,0,L|426:260,1,85.0000016212464,8|0,0:0|0:0,0:0:0:0:
204,267,184619,5,2,0:0:0:0:
306,254,184719,1,0,0:0:0:0:
210,270,184819,2,0,P|192:227|180:168,1,85.0000016212464,8|0,0:0|0:0,0:0:0:0:
241,60,185019,2,0,B|228:87|221:117|221:117|161:93|117:138,1,170.000003242493,2|8,0:0|0:0,0:0:0:0:
127,270,185319,1,0,0:0:0:0:
127,270,185419,6,0,P|185:277|221:263,1,85.0000016212464,2|0,0:0|0:0,0:0:0:0:
345,194,185619,2,0,P|287:187|251:201,1,85.0000016212464,8|0,0:0|0:0,0:0:0:0:
340,310,185819,2,0,L|427:323,1,85.0000016212464,2|0,0:0|0:0,0:0:0:0:
168,155,186019,2,0,L|83:167,1,85.0000016212464,8|0,0:0|0:0,0:0:0:0:
255,275,186219,6,0,P|256:303|253:326,1,50
299,346,186619,6,0,P|296:292|308:213,1,85.0000016212464,2|0,0:0|0:0,0:0:0:0:
334,106,186819,1,8,0:0:0:0:
413,154,186919,1,0,0:0:0:0:
327,191,187019,2,0,L|234:167,1,85.0000016212464,2|0,0:0|0:0,0:0:0:0:
96,113,187219,1,8,0:0:0:0:
171,57,187319,2,0,L|176:151,1,85.0000016212464,0|2,0:0|0:0,0:0:0:0:
169,299,187519,1,0,0:0:0:0:
103,240,187619,2,0,L|192:210,1,85.0000016212464,8|0,0:0|0:0,0:0:0:0:
281,189,187819,6,0,P|283:233|263:279,1,85.0000016212464,2|0,0:0|0:0,0:0:0:0:
40,162,188019,1,8,0:0:0:0:
157,155,188119,1,0,0:0:0:0:
103,240,188219,2,0,L|104:343,1,85.0000016212464,2|0,0:0|0:0,0:0:0:0:
212,232,188419,2,0,P|250:197|294:190,1,85.0000016212464,8|0,0:0|0:0,0:0:0:0:
413,241,188619,5,2,0:0:0:0:
284,272,188719,1,0,0:0:0:0:
418,246,188819,2,0,L|417:142,1,85.0000016212464,8|0,0:0|0:0,0:0:0:0:
325,60,189019,1,2,0:0:0:0:
170,126,189119,1,0,0:0:0:0:
272,124,189219,1,8,0:0:0:0:
117,63,189319,1,0,0:0:0:0:
83,281,189419,6,0,P|117:272|153:190,1,127.50000243187,2|0,0:0|0:0,0:0:0:0:
228,246,189619,2,0,P|172:273|157:333,1,127.50000243187,2|0,0:0|0:0,0:0:0:0:
87,355,189819,1,10,0:0:0:0:
220,170,189919,1,0,0:0:0:0:
232,321,190019,1,8,0:0:0:0:
81,205,190119,1,0,0:0:0:0:
294,370,190219,6,0,L|424:355,1,127.50000243187,2|0,0:0|0:0,0:0:0:0:
354,312,190419,2,0,L|484:327,1,127.50000243187,2|0,0:0|0:0,0:0:0:0:
420,257,190619,1,10,0:0:0:0:
319,170,190719,1,0,0:0:0:0:
479,164,190819,2,0,L|508:199,2,42.5000008106232,8|8|8,0:0|0:0|0:0,0:0:0:0:
452,96,191019,5,2,0:0:0:0:
345,23,191219,1,2,0:0:0:0:
345,23,191319,1,0,0:0:0:0:
345,23,191419,2,0,L|270:43,1,59.9999981689454,8|0,0:0|0:0,0:0:0:0:
176,76,191619,2,0,L|251:96,1,59.9999981689454,8|0,0:0|0:0,0:0:0:0:
358,122,191819,5,2,0:0:0:0:
326,286,191919,1,0,0:0:0:0:
191,184,192019,1,0,0:0:0:0:
340,209,192119,5,2,0:0:0:0:
255,236,192219,1,0,0:0:0:0:
274,148,192319,1,0,0:0:0:0:
402,275,192419,5,2,0:0:0:0:
182,261,192519,1,0,0:0:0:0:
358,122,192619,6,0,L|406:128,7,29.9999990844727,6|0|0|0|8|0|0|0,1:0|0:0|0:0|0:0|0:0|0:0|0:0|0:0,0:0:0:0:
458,180,193019,6,0,L|286:162,1,170.000003242493,2|8,0:0|0:0,0:0:0:0:
191,184,193319,1,0,0:0:0:0:
191,184,193419,2,0,L|227:268,1,85.0000016212464,2|0,0:0|0:0,0:0:0:0:
386,328,193619,2,0,P|412:304|431:257,1,85.0000016212464,8|0,0:0|0:0,0:0:0:0:
358,122,193819,5,2,0:0:0:0:
258,142,193919,1,0,0:0:0:0:
161,109,194019,1,8,0:0:0:0:
62,137,194119,1,0,0:0:0:0:
63,274,194219,5,2,0:0:0:0:
135,208,194319,1,0,0:0:0:0:
173,303,194419,2,0,P|224:322|267:318,1,85.0000016212464,8|0,0:0|0:0,0:0:0:0:
338,279,194619,1,2,0:0:0:0:
228,247,194719,1,0,0:0:0:0:
228,247,194819,2,0,L|218:348,1,85.0000016212464,8|0,0:0|0:0,0:0:0:0:
337,381,195019,5,2,0:0:0:0:
338,279,195119,1,0,0:0:0:0:
339,177,195219,1,8,0:0:0:0:
341,75,195319,1,0,0:0:0:0:
254,123,195419,5,2,0:0:0:0:
426,234,195519,1,0,0:0:0:0:
275,333,195619,1,8,0:0:0:0:
337,381,195719,1,0,0:0:0:0:
426,234,195819,6,0,B|388:244|388:244|322:232,1,85.0000016212464,6|0,0:0|0:0,0:0:0:0:
208,191,196019,2,0,P|227:146|264:117,1,85.0000016212464,8|0,0:0|0:0,0:0:0:0:
343,235,196219,1,2,0:0:0:0:
244,327,196319,1,0,0:0:0:0:
113,267,196419,1,8,0:0:0:0:
121,136,196519,1,0,0:0:0:0:
343,235,196619,6,0,L|244:250,1,85.0000016212464,2|0,0:0|0:0,0:0:0:0:
121,136,196819,2,0,L|205:148,1,85.0000016212464,8|0,0:0|0:0,0:0:0:0:
320,126,197019,1,2,0:0:0:0:
411,80,197119,1,0,0:0:0:0:
489,145,197219,1,8,0:0:0:0:
454,241,197319,1,0,0:0:0:0:
343,235,197419,5,2,0:0:0:0:
404,172,197519,1,0,0:0:0:0:
347,240,197619,2,0,L|240:242,1,85.0000016212464,8|0,0:0|0:0,0:0:0:0:
121,136,197819,1,2,0:0:0:0:
178,220,197919,1,0,0:0:0:0:
148,317,198019,1,8,0:0:0:0:
49,344,198119,1,0,0:0:0:0:
61,218,198219,5,2,0:0:0:0:
178,220,198319,1,0,0:0:0:0:
297,222,198419,1,8,0:0:0:0:
416,222,198519,1,0,0:0:0:0:
339,259,198619,5,2,0:0:0:0:
236,189,198719,1,0,0:0:0:0:
130,249,198819,1,8,0:0:0:0:
29,182,198919,1,0,0:0:0:0:
146,54,199019,6,0,B|153:123|153:123|169:155|169:155|179:235,1,170.000003242493,6|8,1:0|0:0,0:0:0:0:
117,270,199319,1,0,0:0:0:0:
117,270,199419,2,0,P|59:264|18:272,1,85.0000016212464,2|0,0:0|0:0,0:0:0:0:
167,356,199619,2,0,P|199:328|215:284,1,85.0000016212464,8|0,0:0|0:0,0:0:0:0:
170,168,199819,5,2,0:0:0:0:
266,221,199919,1,0,0:0:0:0:
376,219,200019,1,8,0:0:0:0:
460,147,200119,1,0,0:0:0:0:
357,124,200219,5,2,0:0:0:0:
376,219,200319,1,0,0:0:0:0:
433,298,200419,1,8,0:0:0:0:
355,337,200519,1,0,0:0:0:0:
135,282,200619,6,0,P|210:209|278:229,1,170.000003242493,2|8,0:0|0:0,0:0:0:0:
226,303,200919,1,0,0:0:0:0:
135,282,201019,2,0,L|36:308,1,85.0000016212464,2|0,0:0|0:0,0:0:0:0:
230,209,201219,2,0,L|131:183,1,85.0000016212464,8|0,0:0|0:0,0:0:0:0:
47,260,201419,1,2,0:0:0:0:
135,282,201519,1,0,0:0:0:0:
226,303,201619,1,8,0:0:0:0:
312,329,201719,1,0,0:0:0:0:
195,123,201819,5,2,0:0:0:0:
230,209,201919,1,0,0:0:0:0:
226,303,202019,1,8,0:0:0:0:
250,383,202119,1,0,0:0:0:0:
430,297,202219,6,0,B|447:264|428:223|428:223|445:231|445:231|420:190|433:152,1,170.000003242493,6|8,0:0|0:0,0:0:0:0:
506,180,202519,1,0,0:0:0:0:
361,266,202619,2,0,P|320:254|291:218,1,85.0000016212464,2|0,0:0|0:0,0:0:0:0:
344,49,202819,2,0,B|365:87|365:87|365:142,1,85.0000016212464,8|0,0:0|0:0,0:0:0:0:
217,56,203019,5,2,0:0:0:0:
281,108,203119,1,0,0:0:0:0:
226,172,203219,1,8,0:0:0:0:
161,118,203319,1,0,0:0:0:0:
281,108,203419,5,2,0:0:0:0:
308,189,203519,1,0,0:0:0:0:
260,267,203619,1,8,0:0:0:0:
334,314,203719,1,0,0:0:0:0:
124,241,203819,6,0,P|93:318|174:328,1,189.999994926453,6|0,1:0|0:0,0:0:0:0:
366,72,204219,6,0,P|448:82|417:159,1,189.999994926453,6|0,1:0|0:0,0:0:0:0:
112,136,204619,6,0,P|122:84|166:97,1,104.999996795654,4|0,1:0|0:0,0:0:0:0:
219,161,205019,5,2,0:0:0:0:
221,184,205119,1,2,0:0:0:0:
222,207,205219,1,2,0:0:0:0:
225,230,205319,1,2,0:0:0:0:
227,255,205419,6,0,B|285:289|343:245|343:245|314:277|306:312,2,170.000003242493,6|8|2,0:0|0:0|0:0,0:0:0:0:
269,108,205919,1,0,0:0:0:0:
269,108,206019,2,0,L|279:211,1,85.0000016212464,8|0,0:0|0:0,0:0:0:0:
131,298,206219,2,0,P|91:268|80:227,1,85.0000016212464,2|0,0:0|0:0,0:0:0:0:
187,94,206419,2,0,L|177:197,1,85.0000016212464,8|0,0:0|0:0,0:0:0:0:
131,298,206619,1,2,0:0:0:0:
208,350,206719,1,0,0:0:0:0:
298,326,206819,1,8,0:0:0:0:
383,364,206919,1,0,0:0:0:0:
447,210,207019,6,0,B|527:232|514:300|514:300|489:271|431:276,1,170.000003242493,2|8,0:0|0:0,0:0:0:0:
332,229,207319,1,0,0:0:0:0:
332,229,207419,2,0,P|334:177|354:142,1,85.0000016212464,2|0,0:0|0:0,0:0:0:0:
505,69,207619,2,0,P|458:93|418:93,1,85.0000016212464,8|0,0:0|0:0,0:0:0:0:
235,114,207819,1,2,0:0:0:0:
218,34,207919,1,0,0:0:0:0:
299,59,208019,1,8,0:0:0:0:
313,145,208119,1,0,0:0:0:0:
251,195,208219,5,2,0:0:0:0:
188,253,208319,1,0,0:0:0:0:
170,173,208419,1,8,0:0:0:0:
146,92,208519,1,0,0:0:0:0:
33,192,208619,6,0,B|102:227|102:227|131:226|131:226|208:263,1,170.000003242493,6|8,0:0|0:0,0:0:0:0:
250,359,208919,1,0,0:0:0:0:
250,359,209019,2,0,L|136:311,1,85.0000016212464,2|0,0:0|0:0,0:0:0:0:
285,255,209219,2,0,L|363:287,1,85.0000016212464,8|0,0:0|0:0,0:0:0:0:
188,253,209419,1,2,0:0:0:0:
297,181,209519,1,0,0:0:0:0:
363,287,209619,1,8,0:0:0:0:
469,225,209719,1,0,0:0:0:0:
412,91,209819,5,2,0:0:0:0:
312,69,209919,1,0,0:0:0:0:
211,52,210019,1,8,0:0:0:0:
110,35,210119,1,0,0:0:0:0:
30,137,210219,6,0,P|52:175|31:285,1,127.50000243187,2|0,0:0|0:0,0:0:0:0:
48,256,210419,2,0,P|89:233|146:244,1,85.0000016212464,8|0,0:0|0:0,0:0:0:0:
186,375,210619,1,2,0:0:0:0:
104,300,210719,1,0,0:0:0:0:
122,191,210819,1,8,0:0:0:0:
225,153,210919,1,0,0:0:0:0:
367,256,211019,5,2,0:0:0:0:
247,267,211119,1,2,0:0:0:0:
373,260,211219,2,0,L|378:154,1,100,12|0,0:0|0:0,0:0:0:0:
330,94,211519,6,0,L|321:319,1,200,8|0,0:0|0:0,0:0:0:0:
225,152,211819,5,4,1:0:0:0:
452,166,212019,1,2,0:0:0:0:
327,346,212219,6,0,B|303:324|273:327|273:327|223:372|155:333,1,170.000003242493,6|8,0:0|0:0,0:0:0:0:
153,207,212519,1,0,0:0:0:0:
153,207,212619,2,0,P|200:244|215:289,1,85.0000016212464,2|0,0:0|0:0,0:0:0:0:
60,217,212819,2,0,L|73:100,1,85.0000016212464,8|0,0:0|0:0,0:0:0:0:
168,107,213019,1,2,0:0:0:0:
127,283,213119,1,0,0:0:0:0:
173,112,213219,2,0,L|275:113,1,85.0000016212464,8|0,0:0|0:0,0:0:0:0:
407,186,213419,5,2,0:0:0:0:
321,221,213519,1,0,0:0:0:0:
285,134,213619,1,8,0:0:0:0:
380,101,213719,1,0,0:0:0:0:
379,280,213819,2,0,P|337:302|280:293,1,85.0000016212464,2|0,0:0|0:0,0:0:0:0:
230,206,214019,1,8,0:0:0:0:
285,134,214119,1,0,0:0:0:0:
321,221,214219,5,2,0:0:0:0:
39,167,214419,1,8,2:0:0:0:
39,167,214519,1,8,2:0:0:0:
105,114,214619,6,0,P|122:146|140:69,1,170.000003242493,4|0,1:0|0:0,0:0:0:0:
149,327,215019,6,0,L|266:345,1,94.9999974632264,6|2,0:0|0:0,0:0:0:0:
366,341,215219,1,2,0:0:0:0:
452,253,215319,1,2,0:0:0:0:
332,128,215419,2,0,P|316:176|330:227,1,94.9999974632264,2|2,0:0|0:0,0:0:0:0:
452,253,215619,1,2,0:0:0:0:
469,130,215719,1,2,0:0:0:0:
358,34,215819,5,2,0:0:0:0:
272,118,215919,1,2,0:0:0:0:
391,155,216019,1,2,0:0:0:0:
362,39,216119,1,2,0:0:0:0:
271,45,216219,5,2,0:0:0:0:
332,128,216319,1,2,0:0:0:0:
342,226,216419,1,2,0:0:0:0:
303,305,216519,1,2,0:0:0:0:
148,236,216619,5,2,0:0:0:0:
261,191,216719,1,2,0:0:0:0:
303,305,216819,1,2,0:0:0:0:
190,349,216919,1,2,0:0:0:0:
80,320,217019,5,2,0:0:0:0:
148,236,217119,1,2,0:0:0:0:
149,128,217219,1,2,0:0:0:0:
76,52,217319,1,2,0:0:0:0:
54,197,217419,5,2,0:0:0:0:
148,236,217519,1,2,0:0:0:0:
226,171,217619,1,2,0:0:0:0:
326,226,217719,1,2,0:0:0:0:
265,315,217819,5,2,0:0:0:0:
231,173,217919,1,2,0:0:0:0:
368,139,218019,1,2,0:0:0:0:
404,281,218119,1,2,0:0:0:0:
148,236,218219,5,6,0:0:0:0:
120,91,226219,6,0,P|116:154|118:247,1,133.333333333333,6|0,0:0|0:0,0:0:0:0:
442,61,228219,6,0,P|365:57|285:63,1,133.333333333333,6|0,0:0|0:0,0:0:0:0:
427,349,230219,6,0,P|431:286|430:194,1,133.333333333333,6|0,0:0|0:0,0:0:0:0:
70,323,232219,6,0,P|147:327|229:321,1,133.333333333333,6|0,0:0|0:0,0:0:0:0:
255,192,234219,6,0,P|174:193|110:187,1,133.333333333333,6|0,0:0|0:0,0:0:0:0:
49,140,234719,5,8,0:0:0:0:
40,101,234885,1,0,0:0:0:0:
55,64,235052,1,8,0:0:0:0:
91,47,235219,1,0,0:0:0:0:
130,52,235385,1,8,0:0:0:0:
159,78,235552,1,0,0:0:0:0:
177,113,235719,5,8,0:0:0:0:
215,138,235885,1,0,0:0:0:0:
261,143,236052,1,8,0:0:0:0:
306,133,236219,5,10,0:0:0:0:
310,47,236385,1,0,0:0:0:0:
348,140,236552,5,10,0:0:0:0:
390,37,236719,1,0,0:0:0:0:
384,167,236885,5,10,0:0:0:0:
478,97,237052,1,0,0:0:0:0:
501,137,237219,5,10,0:0:0:0:
501,183,237385,1,2,0:0:0:0:
445,256,237552,1,10,0:0:0:0:
381,234,237719,1,10,0:0:0:0:
320,261,237885,1,10,0:0:0:0:
304,325,238052,1,0,0:0:0:0:
343,378,238219,5,10,0:0:0:0:
161,316,238385,1,2,0:0:0:0:
161,282,238469,1,2,0:0:0:0:
280,162,238635,5,2,0:0:0:0:
280,196,238719,1,2,0:0:0:0:
108,185,238885,5,2,0:0:0:0:
139,172,238969,1,2,0:0:0:0:
305,265,239135,5,2,0:0:0:0:
274,278,239219,1,2,0:0:0:0:
193,102,239385,5,2,0:0:0:0:
201,69,239469,1,2,0:0:0:0:
357,150,239635,5,2,0:0:0:0:
365,183,239719,1,2,0:0:0:0:
201,281,239885,5,2,0:0:0:0:
182,252,239969,1,2,0:0:0:0:
342,358,240135,5,2,0:0:0:0:
361,329,240219,1,2,0:0:0:0:
372,280,240302,1,2,0:0:0:0:
348,235,240385,1,2,0:0:0:0:
304,216,240469,1,2,0:0:0:0:
257,220,240552,1,2,0:0:0:0:
224,253,240635,1,2,0:0:0:0:
213,298,240719,5,2,0:0:0:0:
189,345,240802,1,2,0:0:0:0:
137,355,240885,1,2,0:0:0:0:
86,328,240969,1,2,0:0:0:0:
65,271,241052,1,2,0:0:0:0:
91,213,241135,1,2,0:0:0:0:
153,199,241219,6,0,L|220:212,1,50,4|0,0:0|0:0,0:0:0:0:
311,156,241469,6,0,L|237:169,1,50,2|0,0:0|0:0,0:0:0:0:
195,132,241719,6,0,L|180:74,1,50,2|0,0:0|0:0,0:0:0:0:
271,235,241969,6,0,L|285:294,1,50,2|0,0:0|0:0,0:0:0:0:
130,269,242219,6,0,B|150:219|135:166|135:166|171:221|252:217|286:153|260:109|248:85,1,316.666658210755,6|0,1:0|0:0,0:0:0:0:
120,160,242699,1,8,0:0:0:0:
136,140,242779,2,0,P|171:127|205:137,1,63.3333316421509
360,240,242939,1,0,0:0:0:0:
344,260,243019,2,0,P|309:273|275:263,1,63.3333316421509,2|0,0:0|0:0,0:0:0:0:
302,57,243339,5,2,0:0:0:0:
324,69,243419,2,0,L|362:62,2,31.6666658210755,2|0|0,0:0|0:0|0:0,0:0:0:0:
282,141,243579,1,2,0:0:0:0:
264,153,243659,2,0,P|244:186|286:203,1,66.6666666666667,2|0,0:0|0:0,0:0:0:0:
332,197,243819,5,2,0:0:0:0:
263,154,243899,2,0,B|235:151|206:167|206:167|213:149|213:149|184:168|138:157,1,133.333333333333,8|0,0:0|0:0,0:0:0:0:
168,45,244139,6,0,B|174:136|174:136|190:156|190:156|193:238|193:238|181:262|181:262|185:354,1,316.666658210755,6|0,0:0|0:0,0:0:0:0:
106,306,244600,1,2,0:0:0:0:
258,283,244677,2,0,L|263:360,1,63.3333316421509,2|0,0:0|0:0,0:0:0:0:
349,307,244831,6,0,B|345:260|345:260|333:231|333:231|330:173,1,113.333335494995,2|0,0:0|0:0,0:0:0:0:
413,210,245062,5,2,0:0:0:0:
331,196,245139,1,2,0:0:0:0:
247,190,245215,1,2,0:0:0:0:
187,123,245292,6,0,P|228:199|166:259,1,160,8|2,0:0|0:0,0:0:0:0:
99,194,245600,2,0,P|146:188|175:191,1,59.9999981689454,2|0,0:0|0:0,0:0:0:0:
60,256,245754,6,0,P|25:192|63:131,1,133.333333333333,10|0,0:0|0:0,0:0:0:0:
187,123,245985,6,0,B|236:133|236:133|278:116|278:116|319:130|319:130|362:115|362:115|406:128|406:128|446:115|446:115|492:128,1,299.999990844727,6|0,0:0|0:0,0:0:0:0:
451,189,246413,1,2,0:0:0:0:
368,191,246485,2,0,L|433:205,1,50.0000019073487,2|0,0:0|0:0,0:0:0:0:
317,55,246627,1,2,0:0:0:0:
232,62,246699,2,0,L|295:40,1,50.0000019073487,2|0,0:0|0:0,0:0:0:0:
280,190,246842,6,0,B|241:214|206:207|206:207|227:233|227:233|190:231|160:258,1,179.999994506836,10|2,0:0|0:0,0:0:0:0:
203,361,247127,2,0,P|218:328|212:300,1,59.9999981689454,2|0,0:0|0:0,0:0:0:0:
139,320,247270,1,2,0:0:0:0:
227,136,247413,5,2,0:0:0:0:
295,266,247485,2,0,P|348:231|352:160,1,119.999996337891,8|0,0:0|0:0,0:0:0:0:
146,137,247699,5,2,0:0:0:0:
146,220,247767,1,2,0:0:0:0:
227,224,247836,1,2,0:0:0:0:
227,136,247905,1,2,0:0:0:0:
33,342,248043,6,0,B|178:340|178:340|101:300,1,189.999994926453,12|0,0:0|0:0,0:0:0:0:
146,220,248319,5,2,0:0:0:0:
146,137,248387,1,2,0:0:0:0:
227,136,248456,1,2,0:0:0:0:
227,224,248525,1,2,0:0:0:0:
33,42,248664,6,0,B|178:44|178:44|101:84,1,189.999994926453,12|0,0:0|0:0,0:0:0:0:
46,218,248940,6,0,L|156:220,1,100.000003814697,8|0,0:0|0:0,0:0:0:0:
326,137,249147,2,0,L|226:135,1,100.000003814697,8|0,0:0|0:0,0:0:0:0:
313,295,249354,6,0,B|351:318|351:318|353:268|431:239|463:291,2,189.999994926453,6|2|8,1:0|0:0|0:0,0:0:0:0:
216,308,249837,1,0,0:0:0:0:
216,308,249934,2,0,L|143:234,1,85.0000016212464
116,140,250128,2,0,P|175:134|210:119,1,85.0000016212464,2|0,0:0|0:0,0:0:0:0:
360,149,250321,2,0,P|301:155|266:170,1,85.0000016212464
216,308,250515,6,0,B|183:276|183:276|156:269|156:269|77:193,1,170.000003242493,8|0,0:0|0:0,0:0:0:0:
144,345,250805,1,0,0:0:0:0:
144,345,250902,6,0,P|159:253|230:226,1,170.000003242493,6|0,0:0|0:0,0:0:0:0:
298,303,251187,1,2,0:0:0:0:
298,303,251282,2,0,B|261:315|261:315|215:307,1,85.0000016212464,8|0,0:0|0:0,0:0:0:0:
201,147,251473,2,0,L|312:145,1,85.0000016212464
440,206,251663,5,2,0:0:0:0:
358,235,251759,1,0,0:0:0:0:
275,216,251854,1,2,0:0:0:0:
192,236,251949,1,0,0:0:0:0:
300,303,252044,6,0,B|336:217|271:211|302:124,1,170.000003242493,8|0,0:0|0:0,0:0:0:0:
374,96,252330,1,0,0:0:0:0:
193,62,252425,6,0,P|143:115|209:143,2,160,6|8|8,0:0|0:0|0:0,0:0:0:0:
297,137,252879,1,0,0:0:0:0:
297,137,252970,2,0,L|298:242,1,80,2|0,0:0|0:0,0:0:0:0:
182,323,253152,2,0,L|275:270,1,80,8|0,0:0|0:0,0:0:0:0:
410,331,253334,2,0,L|317:278,1,80
192,236,253515,6,0,B|151:206|118:256|57:229|101:159|135:192,1,160,2|0,0:0|0:0,0:0:0:0:
62,283,253788,1,0,0:0:0:0:
62,283,253879,6,0,P|23:222|61:127,1,170.000003242493,8|0,0:0|0:0,0:0:0:0:
131,41,254139,1,2,0:0:0:0:
218,102,254226,2,0,B|298:132|301:73|387:109,1,170.000003242493,2|0,0:0|0:0,0:0:0:0:
213,345,254574,6,0,P|186:281|191:246,1,85.0000016212464,8|0,0:0|0:0,0:0:0:0:
278,198,254748,1,2,0:0:0:0:
359,223,254835,1,2,0:0:0:0:
441,202,254922,2,0,B|446:251|424:278|424:278|447:284|447:284|427:328|449:376,1,170.000003242493,8|0,0:0|0:0,0:0:0:0:
175,218,255270,6,0,B|218:203|218:203|259:218|259:218|295:205|295:205|334:214|334:214|369:202|369:202|405:213|405:213|447:199,2,279.999991455078,6|10|2,1:0|1:0|0:0,0:0:0:0:
100,258,256030,1,0,0:0:0:0:
100,236,256115,1,2,0:0:0:0:
100,215,256199,1,0,0:0:0:0:
100,193,256284,1,10,1:0:0:0:
99,172,256368,1,0,0:0:0:0:
99,150,256453,1,0,0:0:0:0:
100,129,256537,1,0,0:0:0:0:
100,111,256623,6,0,P|147:112|170:107,1,55.0000016784668,2|0,0:0|0:0,0:0:0:0:
364,160,256785,2,0,P|317:159|294:164,1,55.0000016784668,2|0,0:0|0:0,0:0:0:0:
194,221,256947,2,0,P|191:254|195:288,1,55.0000016784668,10|0,1:0|0:0,0:0:0:0:
273,57,257109,2,0,P|276:24|272:-10,1,55.0000016784668
169,110,257271,5,2,0:0:0:0:
311,271,257433,1,2,0:0:0:0:
448,87,257595,2,0,L|378:95,1,55.0000016784668,10|0,1:0|0:0,0:0:0:0:
248,227,257758,2,0,L|178:219,1,55.0000016784668
78,106,257920,6,0,B|68:68|92:44|143:32|207:65|167:130|148:155|131:160|106:186|108:226|130:266,1,300.000011444092,6|10,0:0|1:0,0:0:0:0:
157,351,258393,1,0,0:0:0:0:
400,206,258551,5,2,0:0:0:0:
371,214,258630,1,0,0:0:0:0:
341,209,258709,1,2,0:0:0:0:
311,216,258788,1,0,0:0:0:0:
281,210,258867,1,10,1:0:0:0:
252,219,258946,1,0,0:0:0:0:
222,211,259025,1,0,0:0:0:0:
193,220,259104,1,0,0:0:0:0:
168,212,259183,6,0,P|238:213|276:113,1,179.999994506836,2|0,0:0|0:0,0:0:0:0:
200,137,259483,6,0,B|207:181|207:181|196:217|196:217|216:248|216:248|222:318,1,170.000003242493,10|0,1:0|0:0,0:0:0:0:
162,353,259708,1,0,0:0:0:0:
162,353,259783,2,0,P|110:357|91:354,1,59.9999981689454,2|0,0:0|0:0,0:0:0:0:
278,215,259933,2,0,P|330:211|349:214,1,59.9999981689454,2|0,0:0|0:0,0:0:0:0:
148,279,260083,1,10,1:0:0:0:
277,347,260233,1,0,0:0:0:0:
406,126,260383,6,0,P|313:178|474:286,1,389.999982147218,6|0,1:0|0:0,0:0:0:0:
397,223,260968,5,8,0:0:0:0:
351,225,261041,1,0,0:0:0:0:
305,226,261114,1,0,0:0:0:0:
259,227,261187,1,0,0:0:0:0:
213,228,261261,1,0,0:0:0:0:
167,229,261334,1,0,0:0:0:0:
121,230,261407,1,0,0:0:0:0:
75,231,261480,1,0,0:0:0:0:
37,231,261553,6,0,P|36:277|39:300,1,50,2|0,0:0|0:0,0:0:0:0:
109,138,261689,2,0,P|108:104|116:60,1,69.9999978637696
149,308,261825,2,0,P|148:342|156:386,1,69.9999978637696,2|0,0:0|0:0,0:0:0:0:
221,135,261962,2,0,P|220:101|228:57,1,69.9999978637696,2|0,0:0|0:0,0:0:0:0:
307,359,262098,6,0,P|387:290|291:230,1,240,8|0,0:0|0:0,0:0:0:0:
317,292,262371,1,0,0:0:0:0:
446,209,262507,2,0,P|421:176|375:144,1,80,2|0,0:0|0:0,0:0:0:0:
221,135,262643,5,6,0:0:0:0:
317,292,262773,1,2,0:0:0:0:
331,80,262903,1,2,0:0:0:0:
149,233,263034,1,2,0:0:0:0:
152,67,263164,5,10,0:0:0:0:
243,266,263295,1,2,0:0:0:0:
420,119,263425,1,2,0:0:0:0:
138,149,263556,1,2,0:0:0:0:
217,357,263686,5,2,0:0:0:0:
275,356,263751,1,2,0:0:0:0:
324,325,263816,1,2,0:0:0:0:
347,270,263882,1,2,0:0:0:0:
341,217,263944,6,0,P|326:184|292:157,1,64.9999970245363,6|2,0:0|0:0,0:0:0:0:
138,149,264110,1,0,0:0:0:0:
87,162,264194,1,0,0:0:0:0:
53,154,264277,5,2,0:0:0:0:
28,116,264384,1,2,0:0:0:0:
35,71,264491,1,2,0:0:0:0:
72,46,264598,1,2,0:0:0:0:
102,42,264705,5,2,0:0:0:0:
131,46,264862,1,2,0:0:0:0:
147,54,265020,5,2,0:0:0:0:
159,62,265186,1,2,0:0:0:0:
165,70,265353,5,6,0:0:0:0:
118,333,266553,5,6,0:0:0:0:
465,97,267806,5,6,0:0:0:0:
385,103,268158,1,2,0:0:0:0:
305,108,268511,1,2,0:0:0:0:
224,113,268864,1,2,0:0:0:0:
133,338,269260,5,6,0:0:0:0:
212,327,269466,1,2,0:0:0:0:
246,254,269673,1,2,0:0:0:0:
206,184,269880,1,2,0:0:0:0:
137,162,270087,6,0,L|73:167,1,50,4|2,0:0|0:0,0:0:0:0:
11,223,270347,2,0,L|63:234,1,50,4|2,0:0|0:0,0:0:0:0:
133,265,270608,5,4,0:0:0:0:
177,269,270733,1,2,0:0:0:0:
216,332,270858,5,4,0:0:0:0:
246,328,270983,1,2,0:0:0:0:
312,372,271108,5,14,0:0:0:0:
256,192,271233,12,0,276108,0:0:0:0:
