osu file format v14

[General]
AudioFilename: audio.mp3
AudioLeadIn: 0
PreviewTime: 196657
Countdown: 0
SampleSet: Soft
StackLeniency: 0.7
Mode: 3
LetterboxInBreaks: 0
SpecialStyle: 0
WidescreenStoryboard: 1

[Editor]
Bookmarks: 1365,7639,20188,32737,46070,58619,83717,108815,121364,146462,171560,184893,197442,209991,222540,231951,244500,263324,272736,285285
DistanceSpacing: 1.3
BeatDivisor: 6
GridSize: 8
TimelineZoom: 2.899999

[Metadata]
Title:Luin of Celtchar
TitleUnicode:Lúin øf Celtchaя
Artist:Camellia
ArtistUnicode:かめりあ
Creator:_Stan
Version:Massacred
Source:osu!
Tags:famoss cametek ctcd-19 blackmagik blazing featured artist fa mg mapper's guild tokyo bigsight 南ア28 instrumental electronic masaya oya comiket96 c96 blackmagik blazing かめるかめりあ kamelcamellia
BeatmapID:2879332
BeatmapSetID:1281422

[Difficulty]
HPDrainRate:8
CircleSize:7
OverallDifficulty:8
ApproachRate:5
SliderMultiplier:1.4
SliderTickRate:1

[Events]
//Background and Video events
0,0,"bg.jpg",0,0
//Break Periods
//Storyboard Layer 0 (Background)
//Storyboard Layer 1 (Fail)
//Storyboard Layer 2 (Pass)
//Storyboard Layer 3 (Foreground)
//Storyboard Layer 4 (Overlay)
//Storyboard Sound Samples
Sample,32040,0,"kick.wav",35
Sample,40776,0,"LR_Drum Kick Low.wav",50
Sample,52344,0,"push_scratch.wav",70
Sample,57834,0,"ready_Edit.wav",100
Sample,96658,0,"Percussion Hey sound.wav",100
Sample,111952,0,"push_scratch.wav",70
Sample,120579,0,"ready_Edit.wav",100
Sample,144697,0,"cymbal.wav",70
Sample,146462,0,"push_scratch.wav",70
Sample,158226,0,"clap02.wav",50
Sample,191167,0,"push_scratch.wav",70
Sample,196657,0,"ready_Edit.wav",100
Sample,238226,0,"push_scratch.wav",70
Sample,279402,0,"push_scratch.wav",70
Sample,285677,0,"Percussion Hey sound.wav",100
Sample,295089,0,"CLAP_.wav",70
Sample,295873,0,"CLAP_.wav",70
Sample,304108,0,"push_scratch.wav",70
Sample,305677,0,"push_scratch.wav",70

[TimingPoints]
1365,392.156862745098,4,2,1,40,1,0
1365,-105.263157894737,4,2,1,40,0,0
20188,-104.166666666667,4,2,1,70,0,0
23325,-103.092783505155,4,2,1,70,0,0
26463,-102.040816326531,4,2,1,70,0,0
29600,-101.010101010101,4,2,1,70,0,0
32737,-58.8235294117647,4,2,1,70,0,0
32811,-90.9090909090909,4,2,1,70,0,0
32884,-142.857142857143,4,2,1,70,0,0
32958,-200,4,2,1,70,0,0
33031,-100,4,2,1,70,0,0
33521,-58.8235294117647,4,2,1,70,0,0
33570,-90.9090909090909,4,2,1,70,0,0
33619,-142.857142857143,4,2,1,70,0,0
33668,-200,4,2,1,70,0,0
33717,-100,4,2,1,70,0,0
33815,-58.8235294117647,4,2,1,70,0,0
33864,-90.9090909090909,4,2,1,70,0,0
33913,-142.857142857143,4,2,1,70,0,0
33962,-200,4,2,1,70,0,0
34011,-100,4,2,1,70,0,0
34110,-76.9230769230769,4,2,1,70,0,0
34159,-90.9090909090909,4,2,1,70,0,0
34208,-111.111111111111,4,2,1,70,0,0
34257,-142.857142857143,4,2,1,70,0,0
34306,-100,4,2,1,70,0,0
35090,-58.8235294117647,4,2,1,70,0,0
35139,-90.9090909090909,4,2,1,70,0,0
35188,-142.857142857143,4,2,1,70,0,0
35237,-200,4,2,1,70,0,0
35286,-100,4,2,1,70,0,0
35384,-58.8235294117647,4,2,1,70,0,0
35433,-90.9090909090909,4,2,1,70,0,0
35482,-142.857142857143,4,2,1,70,0,0
35531,-200,4,2,1,70,0,0
35580,-100,4,2,1,70,0,0
35678,-76.9230769230769,4,2,1,70,0,0
35727,-90.9090909090909,4,2,1,70,0,0
35776,-111.111111111111,4,2,1,70,0,0
35825,-142.857142857143,4,2,1,70,0,0
35874,-100,4,2,1,70,0,0
36659,-58.8235294117647,4,2,1,70,0,0
36708,-90.909090909091,4,2,1,70,0,0
36757,-142.857142857143,4,2,1,70,0,0
36806,-200,4,2,1,70,0,0
36855,-100,4,2,1,70,0,0
36953,-58.8235294117647,4,2,1,70,0,0
37002,-90.909090909091,4,2,1,70,0,0
37051,-142.857142857143,4,2,1,70,0,0
37100,-200,4,2,1,70,0,0
37149,-100,4,2,1,70,0,0
37247,-76.923076923077,4,2,1,70,0,0
37296,-90.9090909090908,4,2,1,70,0,0
37345,-111.111111111111,4,2,1,70,0,0
37394,-142.857142857143,4,2,1,70,0,0
37443,-100,4,2,1,70,0,0
39012,-58.8235294117647,4,2,1,70,0,0
39061,-90.909090909091,4,2,1,70,0,0
39110,-142.857142857143,4,2,1,70,0,0
39159,-200,4,2,1,70,0,0
39208,-100,4,2,1,70,0,0
39796,-58.8235294117647,4,2,1,70,0,0
39845,-90.909090909091,4,2,1,70,0,0
39894,-142.857142857143,4,2,1,70,0,0
39943,-200,4,2,1,70,0,0
39992,-100,4,2,1,70,0,0
40090,-58.8235294117647,4,2,1,70,0,0
40139,-90.909090909091,4,2,1,70,0,0
40188,-142.857142857143,4,2,1,70,0,0
40237,-200,4,2,1,70,0,0
40286,-100,4,2,1,70,0,0
40385,-76.9230769230769,4,2,1,70,0,0
40434,-90.909090909091,4,2,1,70,0,0
40483,-111.111111111111,4,2,1,70,0,0
40532,-142.857142857143,4,2,1,70,0,0
40581,-100,4,2,1,70,0,0
41365,-58.8235294117647,4,2,1,70,0,0
41414,-90.9090909090909,4,2,1,70,0,0
41463,-142.857142857143,4,2,1,70,0,0
41512,-200,4,2,1,70,0,0
41561,-100,4,2,1,70,0,0
41659,-58.8235294117647,4,2,1,70,0,0
41708,-90.9090909090909,4,2,1,70,0,0
41757,-142.857142857143,4,2,1,70,0,0
41806,-200,4,2,1,70,0,0
41855,-100,4,2,1,70,0,0
41954,-76.9230769230769,4,2,1,70,0,0
42003,-90.9090909090909,4,2,1,70,0,0
42052,-111.111111111111,4,2,1,70,0,0
42101,-142.857142857143,4,2,1,70,0,0
42150,-100,4,2,1,70,0,0
42933,-58.8235294117647,4,2,1,70,0,0
42982,-90.9090909090909,4,2,1,70,0,0
43031,-142.857142857143,4,2,1,70,0,0
43080,-200,4,2,1,70,0,0
43129,-100,4,2,1,70,0,0
43227,-58.8235294117647,4,2,1,70,0,0
43276,-90.9090909090909,4,2,1,70,0,0
43325,-142.857142857143,4,2,1,70,0,0
43374,-200,4,2,1,70,0,0
43423,-100,4,2,1,70,0,0
43521,-111.111111111111,4,2,1,70,0,0
43914,-109.89010989011,4,2,1,70,0,0
44110,-108.695652173913,4,2,1,70,0,0
44306,-107.52688172043,4,2,1,70,0,0
44502,-106.382978723404,4,2,1,70,0,0
44698,-105.263157894737,4,2,1,70,0,0
44894,-104.166666666667,4,2,1,70,0,0
45090,-103.092783505155,4,2,1,70,0,0
45286,-102.040816326531,4,2,1,70,0,0
45482,-101.010101010101,4,2,1,70,0,0
45678,-100,4,2,1,70,0,0
45874,-76.9230769230769,4,2,1,70,0,0
45899,-142.857142857143,4,2,1,70,0,0
45923,-250,4,2,1,70,0,0
45972,-125,4,2,1,70,0,0
46020,-55.5555555555556,4,2,1,70,0,0
46070,392.156862745098,4,2,1,70,1,0
46070,-100,4,2,1,70,0,0
48815,-500,4,2,1,70,0,0
48839,-55.5555555555556,4,2,1,70,0,0
48864,-500,4,2,1,70,0,0
48888,-55.5555555555556,4,2,1,70,0,0
48913,-500,4,2,1,70,0,0
48937,-55.5555555555556,4,2,1,70,0,0
48962,-500,4,2,1,70,0,0
48986,-55.5555555555556,4,2,1,70,0,0
49011,-500,4,2,1,70,0,0
49035,-55.5555555555556,4,2,1,70,0,0
49060,-500,4,2,1,70,0,0
49084,-55.5555555555556,4,2,1,70,0,0
49109,-500,4,2,1,70,0,0
49133,-55.5555555555556,4,2,1,70,0,0
49158,-500,4,2,1,70,0,0
49182,-55.5555555555556,4,2,1,70,0,0
49207,-100,4,2,1,70,0,0
51560,-71.4285714285714,4,2,1,70,0,0
51609,-90.9090909090909,4,2,1,70,0,0
51658,-111.111111111111,4,2,1,70,0,0
51707,-166.666666666667,4,2,1,70,0,0
51756,-100,4,2,1,70,0,0
51854,-71.4285714285714,4,2,1,70,0,0
51903,-90.9090909090909,4,2,1,70,0,0
51952,-111.111111111111,4,2,1,70,0,0
52001,-166.666666666667,4,2,1,70,0,0
52050,-100,4,2,1,70,0,0
52148,-83.3333333333333,4,2,1,70,0,0
52197,-125,4,2,1,70,0,0
52246,-111.111111111111,4,2,1,70,0,0
52295,-90.9090909090909,4,2,1,70,0,0
52344,-100,4,2,1,70,0,0
58520,-142.857142857143,4,2,1,70,0,0
58570,-76.9230769230769,4,2,1,70,0,0
58619,-71.4285714285714,4,2,1,70,0,0
58692,-83.3333333333333,4,2,1,70,0,0
58766,-125,4,2,1,70,0,0
58839,-166.666666666667,4,2,1,70,0,0
58913,-100,4,2,1,70,0,0
63324,-166.666666666667,4,2,1,70,0,0
63398,-125,4,2,1,70,0,0
63471,-83.3333333333333,4,2,1,70,0,0
63545,-71.4285714285714,4,2,1,70,0,0
63619,-166.666666666667,4,2,1,70,0,0
63692,-125,4,2,1,70,0,0
63766,-83.3333333333333,4,2,1,70,0,0
63839,-71.4285714285714,4,2,1,70,0,0
63913,-100,4,2,1,70,0,0
64109,-166.666666666667,4,2,1,70,0,0
64158,-125,4,2,1,70,0,0
64207,-83.3333333333333,4,2,1,70,0,0
64256,-71.4285714285714,4,2,1,70,0,0
64305,-80,4,2,1,70,0,0
64354,-133.333333333333,4,2,1,70,0,0
64403,-166.666666666667,4,2,1,70,0,0
64452,-125,4,2,1,70,0,0
64501,-83.3333333333333,4,2,1,70,0,0
64550,-71.4285714285714,4,2,1,70,0,0
64599,-100,4,2,1,70,0,0
64893,-71.4285714285714,4,2,1,70,0,0
64967,-83.3333333333333,4,2,1,70,0,0
65040,-125,4,2,1,70,0,0
65114,-166.666666666667,4,2,1,70,0,0
65187,-100,4,2,1,70,0,0
68815,-166.666666666667,4,2,1,70,0,0
68864,-125,4,2,1,70,0,0
68913,-83.3333333333333,4,2,1,70,0,0
68962,-71.4285714285714,4,2,1,70,0,0
69011,-80,4,2,1,70,0,0
69060,-133.333333333333,4,2,1,70,0,0
69109,-166.666666666667,4,2,1,70,0,0
69158,-125,4,2,1,70,0,0
69207,-83.3333333333333,4,2,1,70,0,0
69256,-71.4285714285714,4,2,1,70,0,0
69305,-80,4,2,1,70,0,0
69354,-133.333333333333,4,2,1,70,0,0
69403,-142.857142857143,4,2,1,70,0,0
69452,-76.9230769230769,4,2,1,70,0,0
69501,-100,4,2,1,70,0,0
71364,-153.846153846154,4,2,1,70,0,0
71462,-90.9090909090909,4,2,1,70,0,0
71511,-62.5,4,2,1,70,0,0
71560,-100,4,2,1,70,0,0
74501,-153.846153846154,4,2,1,70,0,0
74599,-90.9090909090909,4,2,1,70,0,0
74648,-62.5,4,2,1,70,0,0
74697,-100,4,2,1,70,0,0
75873,-166.666666666667,4,2,1,70,0,0
75947,-125,4,2,1,70,0,0
76020,-83.3333333333333,4,2,1,70,0,0
76094,-71.4285714285714,4,2,1,70,0,0
76168,-166.666666666667,4,2,1,70,0,0
76241,-125,4,2,1,70,0,0
76315,-83.3333333333333,4,2,1,70,0,0
76388,-71.4285714285714,4,2,1,70,0,0
76462,-100,4,2,1,70,0,0
76658,-166.666666666667,4,2,1,70,0,0
76707,-125,4,2,1,70,0,0
76756,-83.3333333333333,4,2,1,70,0,0
76805,-71.4285714285714,4,2,1,70,0,0
76854,-80,4,2,1,70,0,0
76903,-133.333333333333,4,2,1,70,0,0
76952,-166.666666666667,4,2,1,70,0,0
77001,-125,4,2,1,70,0,0
77050,-83.3333333333333,4,2,1,70,0,0
77099,-71.4285714285714,4,2,1,70,0,0
77148,-100,4,2,1,70,0,0
83324,-71.4285714285714,4,2,1,70,0,0
83422,-83.3333333333333,4,2,1,70,0,0
83520,-125,4,2,1,70,0,0
83619,-166.666666666667,4,2,1,70,0,0
83717,-100,4,2,1,70,0,0
96266,-101.010101010101,4,2,1,70,0,0
96364,-102.040816326531,4,2,1,70,0,0
96462,-103.092783505155,4,2,1,70,0,0
96560,-104.166666666667,4,2,1,70,0,0
96658,-105.263157894737,4,2,1,70,0,0
107246,-104.166666666667,4,2,1,70,0,0
107638,-103.092783505155,4,2,1,70,0,0
108030,-102.040816326531,4,2,1,70,0,0
108422,-101.010101010101,4,2,1,70,0,0
108520,-96.1538461538461,4,2,1,70,0,0
108619,-92.5925925925926,4,2,1,70,0,0
108668,-90.9090909090909,4,2,1,70,0,0
108717,-86.9565217391304,4,2,1,70,0,0
108766,-83.3333333333333,4,2,1,70,0,0
108815,-105.263157894737,4,2,1,70,0,0
111560,-222.222222222222,4,2,1,70,0,0
111584,-68.9655172413793,4,2,1,70,0,0
111609,-222.222222222222,4,2,1,70,0,0
111633,-68.9655172413793,4,2,1,70,0,0
111658,-222.222222222222,4,2,1,70,0,0
111682,-68.9655172413793,4,2,1,70,0,0
111707,-222.222222222222,4,2,1,70,0,0
111731,-68.9655172413793,4,2,1,70,0,0
111756,-222.222222222222,4,2,1,70,0,0
111780,-68.9655172413793,4,2,1,70,0,0
111805,-222.222222222222,4,2,1,70,0,0
111829,-68.9655172413793,4,2,1,70,0,0
111854,-222.222222222222,4,2,1,70,0,0
111878,-68.9655172413793,4,2,1,70,0,0
111903,-222.222222222222,4,2,1,70,0,0
111927,-68.9655172413793,4,2,1,70,0,0
111952,-104.166666666667,4,2,1,70,0,0
114305,-73.5294117647059,4,2,1,70,0,0
114354,-94.3396226415094,4,2,1,70,0,0
114403,-116.279069767442,4,2,1,70,0,0
114452,-178.571428571429,4,2,1,70,0,0
114501,-104.166666666667,4,2,1,70,0,0
114599,-73.5294117647059,4,2,1,70,0,0
114648,-94.3396226415094,4,2,1,70,0,0
114697,-116.279069767442,4,2,1,70,0,0
114746,-178.571428571429,4,2,1,70,0,0
114795,-107.52688172043,4,2,1,70,0,0
114893,-88.4955752212389,4,2,1,70,0,0
114942,-136.986301369863,4,2,1,70,0,0
114991,-120.481927710843,4,2,1,70,0,0
115040,-97.0873786407767,4,2,1,70,0,0
115089,-103.092783505155,4,2,1,70,0,0
116266,-175.438596491228,4,2,1,70,0,0
116290,-72.992700729927,4,2,1,70,0,0
116315,-175.438596491228,4,2,1,70,0,0
116339,-72.992700729927,4,2,1,70,0,0
116364,-175.438596491228,4,2,1,70,0,0
116388,-72.992700729927,4,2,1,70,0,0
116413,-175.438596491228,4,2,1,70,0,0
116437,-72.992700729927,4,2,1,70,0,0
116462,-175.438596491228,4,2,1,70,0,0
116486,-72.992700729927,4,2,1,70,0,0
116511,-175.438596491228,4,2,1,70,0,0
116535,-72.992700729927,4,2,1,70,0,0
116560,-175.438596491228,4,2,1,70,0,0
116584,-72.992700729927,4,2,1,70,0,0
116609,-175.438596491228,4,2,1,70,0,0
116633,-72.992700729927,4,2,1,70,0,0
116658,-102.040816326531,4,2,1,70,0,0
117834,-263.157894736842,4,2,1,70,0,0
117859,-63.2911392405063,4,2,1,70,0,0
117908,-263.157894736842,4,2,1,70,0,0
117932,-208.333333333333,4,2,1,70,0,0
117957,-67.5675675675676,4,2,1,70,0,0
118006,-208.333333333333,4,2,1,70,0,0
118030,-172.413793103448,4,2,1,70,0,0
118055,-72.463768115942,4,2,1,70,0,0
118104,-172.413793103448,4,2,1,70,0,0
118128,-147.058823529412,4,2,1,70,0,0
118153,-78.125,4,2,1,70,0,0
118202,-147.058823529412,4,2,1,70,0,0
118226,-101.010101010101,4,2,1,70,0,0
119795,-100,4,2,1,70,0,0
121168,-166.666666666667,4,2,1,70,0,0
121266,-71.4285714285714,4,2,1,70,0,0
121364,-100,4,2,1,70,0,0
140481,-166.666666666667,4,2,1,70,0,0
140530,-125,4,2,1,70,0,0
140579,-83.3333333333333,4,2,1,70,0,0
140628,-71.4285714285714,4,2,1,70,0,0
140677,-80,4,2,1,70,0,0
140726,-133.333333333333,4,2,1,70,0,0
140775,-166.666666666667,4,2,1,70,0,0
140824,-125,4,2,1,70,0,0
140873,-83.3333333333334,4,2,1,70,0,0
140922,-62.5,4,2,1,70,0,0
140971,-80,4,2,1,70,0,0
141020,-133.333333333333,4,2,1,70,0,0
141070,-100,4,2,1,70,0,0
141168,-166.666666666667,4,2,1,70,0,0
141217,-125,4,2,1,70,0,0
141266,-83.3333333333333,4,2,1,70,0,0
141315,-71.4285714285714,4,2,1,70,0,0
141364,-100,4,2,1,70,0,0
141658,-166.666666666667,4,2,1,70,0,0
141707,-125,4,2,1,70,0,0
141756,-83.3333333333333,4,2,1,70,0,0
141805,-71.4285714285714,4,2,1,70,0,0
141854,-166.666666666667,4,2,1,70,0,0
141903,-125,4,2,1,70,0,0
141952,-83.3333333333333,4,2,1,70,0,0
142001,-71.4285714285714,4,2,1,70,0,0
142050,-100,4,2,1,70,0,0
142148,-62.5,4,2,1,70,0,0
142197,-83.3333333333333,4,2,1,70,0,0
142246,-125,4,2,1,70,0,0
142295,-250,4,2,1,70,0,0
142344,-133.333333333333,4,2,1,70,0,0
142393,-80,4,2,1,70,0,0
142442,-100,4,2,1,70,0,0
145677,-212.765957446809,4,2,1,70,0,0
145726,-68.0272108843537,4,2,1,70,0,0
145775,-212.765957446809,4,2,1,70,0,0
145824,-68.0272108843537,4,2,1,70,0,0
145873,-175.438596491228,4,2,1,70,0,0
145922,-72.992700729927,4,2,1,70,0,0
145971,-175.438596491228,4,2,1,70,0,0
146020,-72.992700729927,4,2,1,70,0,0
146070,-149.253731343284,4,2,1,70,0,0
146119,-78.7401574803149,4,2,1,70,0,0
146168,-149.253731343284,4,2,1,70,0,0
146217,-83.3333333333333,4,2,1,70,0,0
146266,-129.87012987013,4,2,1,70,0,0
146315,-85.4700854700855,4,2,1,70,0,0
146364,-142.857142857143,4,2,1,70,0,0
146413,-85.4700854700855,4,2,1,70,0,0
146462,-105.263157894737,4,2,1,70,0,0
159011,-104.166666666667,4,2,1,70,0,0
162148,-103.092783505155,4,2,1,70,0,0
165285,-102.040816326531,4,2,1,70,0,0
168422,-101.010101010101,4,2,1,70,0,0
171560,-58.8235294117647,4,2,1,70,0,0
171634,-90.9090909090909,4,2,1,70,0,0
171707,-142.857142857143,4,2,1,70,0,0
171781,-200,4,2,1,70,0,0
171854,-100,4,2,1,70,0,0
172344,-58.8235294117647,4,2,1,70,0,0
172393,-90.9090909090909,4,2,1,70,0,0
172442,-142.857142857143,4,2,1,70,0,0
172491,-200,4,2,1,70,0,0
172540,-100,4,2,1,70,0,0
172638,-58.8235294117647,4,2,1,70,0,0
172687,-90.9090909090909,4,2,1,70,0,0
172736,-142.857142857143,4,2,1,70,0,0
172785,-200,4,2,1,70,0,0
172834,-100,4,2,1,70,0,0
172933,-76.9230769230769,4,2,1,70,0,0
172982,-90.9090909090909,4,2,1,70,0,0
173031,-111.111111111111,4,2,1,70,0,0
173080,-142.857142857143,4,2,1,70,0,0
173129,-100,4,2,1,70,0,0
173913,-58.8235294117647,4,2,1,70,0,0
173962,-90.9090909090909,4,2,1,70,0,0
174011,-142.857142857143,4,2,1,70,0,0
174060,-200,4,2,1,70,0,0
174109,-100,4,2,1,70,0,0
174207,-58.8235294117647,4,2,1,70,0,0
174256,-90.9090909090909,4,2,1,70,0,0
174305,-142.857142857143,4,2,1,70,0,0
174354,-200,4,2,1,70,0,0
174403,-100,4,2,1,70,0,0
174501,-76.9230769230769,4,2,1,70,0,0
174550,-90.9090909090909,4,2,1,70,0,0
174599,-111.111111111111,4,2,1,70,0,0
174648,-142.857142857143,4,2,1,70,0,0
174697,-100,4,2,1,70,0,0
175482,-58.8235294117647,4,2,1,70,0,0
175531,-90.909090909091,4,2,1,70,0,0
175580,-142.857142857143,4,2,1,70,0,0
175629,-200,4,2,1,70,0,0
175678,-100,4,2,1,70,0,0
175776,-58.8235294117647,4,2,1,70,0,0
175825,-90.909090909091,4,2,1,70,0,0
175874,-142.857142857143,4,2,1,70,0,0
175923,-200,4,2,1,70,0,0
175972,-100,4,2,1,70,0,0
176070,-76.923076923077,4,2,1,70,0,0
176119,-90.9090909090908,4,2,1,70,0,0
176168,-111.111111111111,4,2,1,70,0,0
176217,-142.857142857143,4,2,1,70,0,0
176266,-100,4,2,1,70,0,0
177835,-58.8235294117647,4,2,1,70,0,0
177884,-90.909090909091,4,2,1,70,0,0
177933,-142.857142857143,4,2,1,70,0,0
177982,-200,4,2,1,70,0,0
178031,-100,4,2,1,70,0,0
178619,-58.8235294117647,4,2,1,70,0,0
178668,-90.909090909091,4,2,1,70,0,0
178717,-142.857142857143,4,2,1,70,0,0
178766,-200,4,2,1,70,0,0
178815,-100,4,2,1,70,0,0
178913,-58.8235294117647,4,2,1,70,0,0
178962,-90.909090909091,4,2,1,70,0,0
179011,-142.857142857143,4,2,1,70,0,0
179060,-200,4,2,1,70,0,0
179109,-100,4,2,1,70,0,0
179208,-76.9230769230769,4,2,1,70,0,0
179257,-90.909090909091,4,2,1,70,0,0
179306,-111.111111111111,4,2,1,70,0,0
179355,-142.857142857143,4,2,1,70,0,0
179404,-100,4,2,1,70,0,0
180188,-58.8235294117647,4,2,1,70,0,0
180237,-90.9090909090909,4,2,1,70,0,0
180286,-142.857142857143,4,2,1,70,0,0
180335,-200,4,2,1,70,0,0
180384,-100,4,2,1,70,0,0
180482,-58.8235294117647,4,2,1,70,0,0
180531,-90.9090909090909,4,2,1,70,0,0
180580,-142.857142857143,4,2,1,70,0,0
180629,-200,4,2,1,70,0,0
180678,-100,4,2,1,70,0,0
180777,-76.9230769230769,4,2,1,70,0,0
180826,-90.9090909090909,4,2,1,70,0,0
180875,-111.111111111111,4,2,1,70,0,0
180924,-142.857142857143,4,2,1,70,0,0
180973,-100,4,2,1,70,0,0
181756,-58.8235294117647,4,2,1,70,0,0
181805,-90.9090909090909,4,2,1,70,0,0
181854,-142.857142857143,4,2,1,70,0,0
181903,-200,4,2,1,70,0,0
181952,-100,4,2,1,70,0,0
182050,-58.8235294117647,4,2,1,70,0,0
182099,-90.9090909090909,4,2,1,70,0,0
182148,-142.857142857143,4,2,1,70,0,0
182197,-200,4,2,1,70,0,0
182246,-100,4,2,1,70,0,0
182344,-111.111111111111,4,2,1,70,0,0
182737,-109.89010989011,4,2,1,70,0,0
182933,-108.695652173913,4,2,1,70,0,0
183129,-107.52688172043,4,2,1,70,0,0
183325,-106.382978723404,4,2,1,70,0,0
183521,-105.263157894737,4,2,1,70,0,0
183717,-104.166666666667,4,2,1,70,0,0
183913,-103.092783505155,4,2,1,70,0,0
184109,-102.040816326531,4,2,1,70,0,0
184305,-101.010101010101,4,2,1,70,0,0
184501,-100,4,2,1,70,0,0
184697,-76.9230769230769,4,2,1,70,0,0
184722,-142.857142857143,4,2,1,70,0,0
184746,-250,4,2,1,70,0,0
184795,-125,4,2,1,70,0,0
184843,-55.5555555555556,4,2,1,70,0,0
184893,392.156862745098,4,2,1,70,1,0
184893,-100,4,2,1,70,0,0
187638,-500,4,2,1,70,0,0
187662,-55.5555555555556,4,2,1,70,0,0
187687,-500,4,2,1,70,0,0
187711,-55.5555555555556,4,2,1,70,0,0
187736,-500,4,2,1,70,0,0
187760,-55.5555555555556,4,2,1,70,0,0
187785,-500,4,2,1,70,0,0
187809,-55.5555555555556,4,2,1,70,0,0
187834,-500,4,2,1,70,0,0
187858,-55.5555555555556,4,2,1,70,0,0
187883,-500,4,2,1,70,0,0
187907,-55.5555555555556,4,2,1,70,0,0
187932,-500,4,2,1,70,0,0
187956,-55.5555555555556,4,2,1,70,0,0
187981,-500,4,2,1,70,0,0
188005,-55.5555555555556,4,2,1,70,0,0
188030,-100,4,2,1,70,0,0
190383,-71.4285714285714,4,2,1,70,0,0
190432,-90.9090909090909,4,2,1,70,0,0
190481,-111.111111111111,4,2,1,70,0,0
190530,-166.666666666667,4,2,1,70,0,0
190579,-100,4,2,1,70,0,0
190677,-71.4285714285714,4,2,1,70,0,0
190726,-90.9090909090909,4,2,1,70,0,0
190775,-111.111111111111,4,2,1,70,0,0
190824,-166.666666666667,4,2,1,70,0,0
190873,-100,4,2,1,70,0,0
190971,-83.3333333333333,4,2,1,70,0,0
191020,-125,4,2,1,70,0,0
191069,-111.111111111111,4,2,1,70,0,0
191118,-90.9090909090909,4,2,1,70,0,0
191167,-100,4,2,1,70,0,0
197245,-166.666666666667,4,2,1,70,0,0
197343,-71.4285714285714,4,2,1,70,0,0
197442,-100,4,2,1,70,0,1
209206,-62.5,4,2,1,70,0,0
209280,-76.9230769230769,4,2,1,70,0,0
209353,-142.857142857143,4,2,1,70,0,0
209427,-250.000000000001,4,2,1,70,0,0
209500,-133.333333333333,4,2,1,70,0,0
209549,-79.9999999999999,4,2,1,70,0,0
209598,-71.4285714285714,4,2,1,70,0,0
209672,-83.3333333333333,4,2,1,70,0,0
209745,-125,4,2,1,70,0,0
209819,-166.666666666667,4,2,1,70,0,0
209893,-117.647058823529,4,2,1,70,0,0
209942,-86.9565217391304,4,2,1,70,0,0
209991,-100,4,2,1,70,0,1
211559,-100,4,2,1,70,0,0
212736,-142.857142857143,4,2,1,70,0,0
212834,-76.9230769230769,4,2,1,70,0,0
212932,-166.666666666667,4,2,1,70,0,0
213030,-71.4285714285714,4,2,1,70,0,0
213128,-100,4,2,1,70,0,1
214696,-100,4,2,1,70,0,0
216265,-142.857142857143,4,2,1,70,0,0
216363,-76.9230769230769,4,2,1,70,0,0
216461,-166.666666666667,4,2,1,70,0,0
216559,-71.4285714285714,4,2,1,70,0,0
216657,-100,4,2,1,70,0,1
221755,-100,4,2,1,70,0,0
234696,-500,4,2,1,70,0,0
234720,-55.5555555555556,4,2,1,70,0,0
234745,-500,4,2,1,70,0,0
234769,-55.5555555555556,4,2,1,70,0,0
234794,-500,4,2,1,70,0,0
234818,-55.5555555555556,4,2,1,70,0,0
234843,-500,4,2,1,70,0,0
234867,-55.5555555555556,4,2,1,70,0,0
234892,-500,4,2,1,70,0,0
234916,-55.5555555555556,4,2,1,70,0,0
234941,-500,4,2,1,70,0,0
234965,-55.5555555555556,4,2,1,70,0,0
234990,-500,4,2,1,70,0,0
235014,-55.5555555555556,4,2,1,70,0,0
235039,-500,4,2,1,70,0,0
235063,-55.5555555555556,4,2,1,70,0,0
235088,-100,4,2,1,70,0,0
237441,-71.4285714285714,4,2,1,70,0,0
237490,-90.9090909090909,4,2,1,70,0,0
237539,-111.111111111111,4,2,1,70,0,0
237588,-166.666666666667,4,2,1,70,0,0
237637,-100,4,2,1,70,0,0
237735,-71.4285714285714,4,2,1,70,0,0
237784,-90.9090909090909,4,2,1,70,0,0
237833,-111.111111111111,4,2,1,70,0,0
237882,-166.666666666667,4,2,1,70,0,0
237931,-100,4,2,1,70,0,0
238029,-83.3333333333333,4,2,1,70,0,0
238078,-125,4,2,1,70,0,0
238127,-111.111111111111,4,2,1,70,0,0
238176,-90.9090909090909,4,2,1,70,0,0
238225,-100,4,2,1,70,0,0
244500,-100,4,2,1,70,0,1
249991,-142.857142857143,4,2,1,70,0,1
250089,-76.9230769230769,4,2,1,70,0,1
250187,-166.666666666667,4,2,1,70,0,1
250285,-71.4285714285714,4,2,1,70,0,1
250383,-100,4,2,1,70,0,0
250775,-100,4,2,1,70,0,1
253912,-166.666666666667,4,2,1,70,0,1
253961,-125,4,2,1,70,0,1
254010,-83.3333333333333,4,2,1,70,0,1
254059,-71.4285714285714,4,2,1,70,0,1
254108,-166.666666666667,4,2,1,70,0,1
254157,-125,4,2,1,70,0,1
254206,-83.3333333333333,4,2,1,70,0,1
254255,-71.4285714285714,4,2,1,70,0,1
254304,-100,4,2,1,70,0,1
254696,-142.857142857143,4,2,1,70,0,1
254794,-76.9230769230769,4,2,1,70,0,1
254893,-166.666666666667,4,2,1,70,0,1
254991,-71.4285714285714,4,2,1,70,0,1
255089,-100,4,2,1,70,0,1
257049,-200,4,2,1,70,0,0
257074,-66.6666666666667,4,2,1,70,0,0
257098,-250,4,2,1,70,0,0
257123,-62.5,4,2,1,70,0,0
257147,-250,4,2,1,70,0,0
257172,-62.5,4,2,1,70,0,0
257196,-333.333333333333,4,2,1,70,0,0
257221,-58.8235294117647,4,2,1,70,0,0
257245,-333.333333333333,4,2,1,70,0,0
257278,-58.8235294117647,4,2,1,70,0,0
257311,-250,4,2,1,70,0,0
257343,-62.5,4,2,1,70,0,0
257376,-200,4,2,1,70,0,0
257409,-66.6666666666667,4,2,1,70,0,0
257442,-100,4,2,1,70,0,1
262932,-100,4,2,1,70,0,0
271265,-125,4,2,1,70,0,0
271314,-83.3333333333333,4,2,1,70,0,0
271363,-125,4,2,1,70,0,0
271412,-83.3333333333333,4,2,1,70,0,0
271461,-125,4,2,1,70,0,0
271510,-83.3333333333333,4,2,1,70,0,0
271559,-100,4,2,1,70,0,0
271657,-166.666666666667,4,2,1,70,0,0
271706,-71.4285714285714,4,2,1,70,0,0
271755,-166.666666666667,4,2,1,70,0,0
271804,-71.4285714285714,4,2,1,70,0,0
271853,-166.666666666667,4,2,1,70,0,0
271902,-71.4285714285714,4,2,1,70,0,0
271951,-100,4,2,1,70,0,0
272049,-250,4,2,1,70,0,0
272098,-62.5,4,2,1,70,0,0
272147,-250,4,2,1,70,0,0
272196,-62.5,4,2,1,70,0,0
272245,-250,4,2,1,70,0,0
272294,-62.5,4,2,1,70,0,0
272343,-200,4,2,1,70,0,0
272442,-142.857142857143,4,2,1,70,0,0
272540,-83.3333333333333,4,2,1,70,0,0
272638,-58.8235294117647,4,2,1,70,0,0
272736,-100,4,2,1,70,0,0
277442,-166.666666666667,4,2,1,70,0,0
277540,-100,4,2,1,70,0,0
277638,-71.4285714285714,4,2,1,70,0,0
277736,-142.857142857143,4,2,1,70,0,0
277834,-100,4,2,1,70,0,0
277932,-76.9230769230769,4,2,1,70,0,0
278030,-125,4,2,1,70,0,0
278128,-83.3333333333333,4,2,1,70,0,0
278226,-100,4,2,1,70,0,0
285285,-101.010101010101,4,2,1,70,0,0
285383,-102.040816326531,4,2,1,70,0,0
285481,-103.092783505155,4,2,1,70,0,0
285579,-104.166666666667,4,2,1,70,0,0
285677,-105.263157894737,4,2,1,70,0,0
285775,-106.382978723404,4,2,1,70,0,0
285873,-107.52688172043,4,2,1,70,0,0
285971,-108.695652173913,4,2,1,70,0,0
286069,-111.111111111111,4,2,1,70,0,0
288814,-249.999999999999,4,2,1,70,0,0
288839,-62.5,4,2,1,70,0,0
288863,-249.999999999999,4,2,1,70,0,0
288888,-62.5,4,2,1,70,0,0
288912,-249.999999999999,4,2,1,70,0,0
288937,-62.5,4,2,1,70,0,0
288961,-249.999999999999,4,2,1,70,0,0
288986,-62.5,4,2,1,70,0,0
289010,-249.999999999999,4,2,1,70,0,0
289035,-62.5,4,2,1,70,0,0
289059,-249.999999999999,4,2,1,70,0,0
289084,-62.5,4,2,1,70,0,0
289108,-249.999999999999,4,2,1,70,0,0
289133,-62.5,4,2,1,70,0,0
289157,-249.999999999999,4,2,1,70,0,0
289182,-62.5,4,2,1,70,0,0
289206,-107.52688172043,4,2,1,70,0,0
289598,-104.166666666667,4,2,1,70,0,0
289991,-166.666666666667,4,2,1,70,0,0
290065,-125,4,2,1,70,0,0
290138,-83.3333333333333,4,2,1,70,0,0
290212,-71.4285714285714,4,2,1,70,0,0
290286,-166.666666666667,4,2,1,70,0,0
290359,-125,4,2,1,70,0,0
290433,-83.3333333333333,4,2,1,70,0,0
290506,-71.4285714285714,4,2,1,70,0,0
290580,-100,4,2,1,70,0,0
290776,-166.666666666667,4,2,1,70,0,0
290825,-125,4,2,1,70,0,0
290874,-83.3333333333333,4,2,1,70,0,0
290923,-71.4285714285714,4,2,1,70,0,0
290972,-80,4,2,1,70,0,0
291021,-133.333333333333,4,2,1,70,0,0
291070,-166.666666666667,4,2,1,70,0,0
291119,-125,4,2,1,70,0,0
291168,-83.3333333333333,4,2,1,70,0,0
291217,-71.4285714285714,4,2,1,70,0,0
291266,-100,4,2,1,70,0,0
297834,-142.857142857143,4,2,1,70,0,0
297883,-76.9230769230769,4,2,1,70,0,0
297932,-166.666666666667,4,2,1,70,0,0
297981,-71.4285714285714,4,2,1,70,0,0
298030,-200,4,2,1,70,0,0
298079,-66.6666666666667,4,2,1,70,0,0
298128,-250,4,2,1,70,0,0
298177,-62.5,4,2,1,70,0,0
298226,-100,4,2,1,70,0,0
301167,-250,4,2,1,70,0,0
301192,-62.5,4,2,1,70,0,0
301216,-250,4,2,1,70,0,0
301241,-62.5,4,2,1,70,0,0
301265,-333.333333333333,4,2,1,70,0,0
301290,-58.8235294117647,4,2,1,70,0,0
301314,-333.333333333333,4,2,1,70,0,0
301339,-55.5555555555556,4,2,1,70,0,0
301363,-100,4,2,1,70,0,0
302540,-166.666666666667,4,2,1,70,0,0
302589,-125,4,2,1,70,0,0
302638,-83.3333333333333,4,2,1,70,0,0
302687,-71.4285714285714,4,2,1,70,0,0
302736,-80,4,2,1,70,0,0
302785,-133.333333333333,4,2,1,70,0,0
302835,-166.666666666667,4,2,1,70,0,0
302883,-125,4,2,1,70,0,0
302932,-83.3333333333333,4,2,1,70,0,0
302981,-71.4285714285714,4,2,1,70,0,0
303030,-100,4,2,1,70,0,0
303325,-166.666666666667,4,2,1,70,0,0
303374,-125,4,2,1,70,0,0
303423,-83.3333333333333,4,2,1,70,0,0
303472,-71.4285714285714,4,2,1,70,0,0
303521,-80,4,2,1,70,0,0
303570,-133.333333333333,4,2,1,70,0,0
303619,-166.666666666667,4,2,1,70,0,0
303668,-125,4,2,1,70,0,0
303717,-83.3333333333333,4,2,1,70,0,0
303766,-71.4285714285714,4,2,1,70,0,0
303815,-100,4,2,1,70,0,0
309794,-102.040816326531,4,2,1,70,0,0
309991,-104.166666666667,4,2,1,70,0,0
310187,-106.382978723404,4,2,1,70,0,0
310383,-108.695652173913,4,2,1,70,0,0
310579,-111.111111111111,4,2,1,70,0,0

[HitObjects]
36,192,1365,5,0,0:0:0:70:LR_Drum Rpd x2.wav
182,192,1365,1,0,0:0:0:70:LR_Chm Soft Whistle Echo.wav
329,192,1365,1,0,0:0:0:0:
475,192,1365,1,0,0:0:0:0:
402,192,1561,1,0,0:0:0:0:
182,192,1626,1,0,0:0:0:0:
329,192,1691,1,0,0:0:0:0:
109,192,1757,1,0,0:0:0:0:
36,192,1953,1,0,0:0:0:70:LR_Drum Rpd x2.wav
256,192,1953,1,0,0:0:0:0:
475,192,1953,1,0,0:0:0:0:
329,192,2149,1,0,0:0:0:0:
182,192,2247,1,0,0:0:0:0:
329,192,2345,1,0,0:0:0:0:
36,192,2541,1,0,0:0:0:70:LR_Drum Rpd x2.wav
256,192,2541,1,0,0:0:0:0:
475,192,2541,1,0,0:0:0:0:
182,192,2737,1,0,0:0:0:0:
256,192,2835,1,0,0:0:0:0:
36,192,2933,1,0,0:0:0:70:LR_Drum Rpd x2.wav
329,192,2933,1,0,0:0:0:0:
475,192,2933,1,0,0:0:0:0:
109,192,3129,1,0,0:0:0:0:
329,192,3195,1,0,0:0:0:0:
182,192,3260,1,0,0:0:0:0:
402,192,3325,1,0,0:0:0:0:
36,192,3521,1,0,0:0:0:70:LR_Drum Rpd x2.wav
256,192,3521,1,0,0:0:0:0:
475,192,3521,1,0,0:0:0:0:
109,192,3717,1,0,0:0:0:70:LR_Chm loong.wav
329,192,3815,1,0,0:0:0:0:
475,192,3815,1,0,0:0:0:0:
182,192,3914,1,0,0:0:0:0:
36,192,3914,1,0,0:0:0:0:
36,192,4110,1,0,0:0:0:70:LR_Drum Rpd x2.wav
256,192,4110,1,0,0:0:0:0:
475,192,4110,1,0,0:0:0:0:
256,192,4404,1,0,0:0:0:0:
36,192,4502,1,0,0:0:0:70:LR_Drum Rpd x2.wav
182,192,4502,1,0,0:0:0:70:LR_Chm Soft Whistle Echo.wav
329,192,4502,1,0,0:0:0:0:
475,192,4502,1,0,0:0:0:0:
182,192,4698,1,0,0:0:0:0:
402,192,4763,1,0,0:0:0:0:
109,192,4829,1,0,0:0:0:0:
329,192,4894,1,0,0:0:0:0:
36,192,5090,1,0,0:0:0:70:LR_Drum Rpd x2.wav
256,192,5090,1,0,0:0:0:0:
475,192,5090,1,0,0:0:0:0:
182,192,5286,1,0,0:0:0:0:
329,192,5384,1,0,0:0:0:0:
182,192,5482,1,0,0:0:0:0:
36,192,5678,1,0,0:0:0:70:LR_Drum Rpd x2.wav
256,192,5678,1,0,0:0:0:0:
475,192,5678,1,0,0:0:0:0:
329,192,5874,1,0,0:0:0:0:
256,192,5972,1,0,0:0:0:0:
36,192,6070,1,0,0:0:0:70:LR_Drum Rpd x2.wav
182,192,6070,1,0,0:0:0:0:
475,192,6070,1,0,0:0:0:0:
329,192,6266,1,0,0:0:0:0:
109,192,6332,1,0,0:0:0:0:
402,192,6397,1,0,0:0:0:0:
182,192,6463,1,0,0:0:0:0:
36,192,6659,1,0,0:0:0:70:LR_Drum Rpd x2.wav
256,192,6659,1,0,0:0:0:0:
475,192,6659,1,0,0:0:0:0:
402,192,6855,1,0,0:0:0:0:
36,192,6953,1,0,0:0:0:70:LR_Drum Rpd x2.wav
182,192,6953,1,0,0:0:0:0:
475,192,7051,1,0,0:0:0:0:
329,192,7051,1,0,0:0:0:0:
109,192,7247,1,0,0:0:0:70:LR_Drum Rpd x2.wav
256,192,7247,1,0,0:0:0:0:
402,192,7247,1,0,0:0:0:0:
36,192,7639,1,0,0:0:0:70:LR_Drum Rpd x2.wav
109,192,7639,1,0,0:0:0:70:LR_Chm Soft Whistle Echo.wav
256,192,7639,1,0,0:0:0:0:
402,192,7639,1,0,0:0:0:0:
475,192,7639,1,0,0:0:0:0:
329,192,7933,1,0,0:0:0:0:
256,192,7982,1,0,0:0:0:0:
182,192,8031,128,0,8227:0:0:0:0:
36,192,8227,1,0,0:0:0:70:LR_Drum Rpd x2.wav
402,192,8227,1,0,0:0:0:0:
475,192,8227,1,0,0:0:0:0:
256,192,8325,1,0,0:0:0:0:
109,192,8423,128,0,9012:0:0:0:0:
256,192,8717,1,0,0:0:0:0:
256,192,8815,128,0,9012:0:0:0:70:LR_Drum Rpd x2.wav
402,192,8815,1,0,0:0:0:0:
475,192,8815,1,0,0:0:0:0:
329,192,9012,1,0,0:0:0:0:
402,192,9110,1,0,0:0:0:0:
36,192,9208,1,0,0:0:0:70:LR_Drum Rpd x2.wav
182,192,9208,1,0,0:0:0:0:
475,192,9208,1,0,0:0:0:0:
256,192,9257,1,0,0:0:0:0:
329,192,9306,128,0,9502:0:0:0:0:
109,192,9502,1,0,0:0:0:0:
182,192,9551,1,0,0:0:0:0:
256,192,9600,128,0,9796:0:0:0:0:
36,192,9796,1,0,0:0:0:70:LR_Drum Rpd x2.wav
402,192,9796,1,0,0:0:0:0:
475,192,9796,1,0,0:0:0:0:
256,192,9992,1,0,0:0:0:70:LR_Chm loong.wav
109,192,10090,1,0,0:0:0:0:
329,192,10090,1,0,0:0:0:0:
402,192,10188,1,0,0:0:0:0:
182,192,10188,1,0,0:0:0:0:
256,192,10286,1,0,0:0:0:0:
36,192,10384,1,0,0:0:0:70:LR_Drum Rpd x2.wav
182,192,10384,1,0,0:0:0:0:
329,192,10384,1,0,0:0:0:0:
475,192,10384,1,0,0:0:0:0:
36,192,10776,1,0,0:0:0:70:LR_Drum Rpd x2.wav
109,192,10776,1,0,0:0:0:70:LR_Chm Soft Whistle Echo.wav
256,192,10776,1,0,0:0:0:0:
402,192,10776,1,0,0:0:0:0:
475,192,10776,1,0,0:0:0:0:
182,192,11070,1,0,0:0:0:0:
256,192,11119,1,0,0:0:0:0:
329,192,11168,128,0,11365:0:0:0:0:
36,192,11365,1,0,0:0:0:70:LR_Drum Rpd x2.wav
109,192,11365,1,0,0:0:0:0:
475,192,11365,1,0,0:0:0:0:
256,192,11463,1,0,0:0:0:0:
402,192,11561,128,0,12149:0:0:0:0:
256,192,11855,1,0,0:0:0:0:
36,192,11953,1,0,0:0:0:70:LR_Drum Rpd x2.wav
109,192,11953,1,0,0:0:0:0:
256,192,11953,128,0,12149:0:0:0:0:
182,192,12149,1,0,0:0:0:0:
109,192,12247,1,0,0:0:0:0:
36,192,12345,1,0,0:0:0:70:LR_Drum Rpd x2.wav
329,192,12345,1,0,0:0:0:0:
475,192,12345,1,0,0:0:0:0:
256,192,12394,1,0,0:0:0:0:
182,192,12443,128,0,12639:0:0:0:0:
402,192,12639,1,0,0:0:0:0:
329,192,12688,1,0,0:0:0:0:
256,192,12737,128,0,12933:0:0:0:0:
36,192,12933,1,0,0:0:0:70:LR_Drum Rpd x2.wav
109,192,12933,1,0,0:0:0:0:
475,192,12933,1,0,0:0:0:0:
402,192,13129,1,0,0:0:0:0:
329,192,13195,1,0,0:0:0:0:
36,192,13227,1,0,0:0:0:70:LR_Drum Rpd x2.wav
256,192,13260,1,0,0:0:0:0:
475,192,13325,1,0,0:0:0:0:
182,192,13325,1,0,0:0:0:0:
329,192,13423,1,0,0:0:0:0:
36,192,13521,1,0,0:0:0:70:LR_Drum Rpd x2.wav
109,192,13521,1,0,0:0:0:0:
256,192,13521,1,0,0:0:0:0:
475,192,13521,1,0,0:0:0:0:
36,192,13914,1,0,0:0:0:70:LR_Drum Rpd x2.wav
182,192,13914,1,0,0:0:0:70:LR_Chm Soft Whistle Echo.wav
329,192,13914,1,0,0:0:0:0:
402,192,13914,1,0,0:0:0:0:
475,192,13914,1,0,0:0:0:0:
109,192,14208,1,0,0:0:0:0:
182,192,14257,1,0,0:0:0:0:
256,192,14306,128,0,14502:0:0:0:0:
36,192,14502,1,0,0:0:0:70:LR_Drum Rpd x2.wav
402,192,14502,1,0,0:0:0:0:
475,192,14502,1,0,0:0:0:0:
182,192,14600,1,0,0:0:0:0:
329,192,14698,128,0,15286:0:0:0:0:
182,192,14992,1,0,0:0:0:0:
36,192,15090,1,0,0:0:0:70:LR_Drum Rpd x2.wav
182,192,15090,128,0,15286:0:0:0:0:
475,192,15090,1,0,0:0:0:0:
109,192,15286,1,0,0:0:0:0:
256,192,15384,1,0,0:0:0:0:
36,192,15482,1,0,0:0:0:70:LR_Drum Rpd x2.wav
402,192,15482,1,0,0:0:0:0:
475,192,15482,1,0,0:0:0:0:
182,192,15531,1,0,0:0:0:0:
329,192,15580,128,0,16070:0:0:0:0:
475,192,15776,1,0,0:0:0:0:
475,192,15874,128,0,16070:0:0:0:0:
36,192,16070,1,0,0:0:0:70:LR_Drum Rpd x2.wav
109,192,16070,1,0,0:0:0:0:
256,192,16070,1,0,0:0:0:0:
329,192,16168,1,0,0:0:0:0:
182,192,16217,1,0,0:0:0:0:
475,192,16266,1,0,0:0:0:70:LR_Chm loong.wav
402,192,16332,1,0,0:0:0:0:
109,192,16365,1,0,0:0:0:0:
329,192,16397,1,0,0:0:0:0:
256,192,16463,1,0,0:0:0:0:
36,192,16463,1,0,0:0:0:0:
182,192,16561,1,0,0:0:0:0:
36,192,16659,1,0,0:0:0:70:LR_Drum Rpd x2.wav
109,192,16659,1,0,0:0:0:0:
329,192,16659,1,0,0:0:0:0:
475,192,16659,1,0,0:0:0:0:
256,192,16757,1,0,0:0:0:0:
402,192,16855,1,0,0:0:0:0:
182,192,16953,1,0,0:0:0:0:
36,192,17051,1,0,0:0:0:70:LR_Drum Rpd x2.wav
109,192,17051,1,0,0:0:0:70:LR_Chm Soft Whistle Echo.wav
256,192,17051,1,0,0:0:0:0:
329,192,17051,1,0,0:0:0:0:
475,192,17051,1,0,0:0:0:0:
402,192,17345,1,0,0:0:0:0:
256,192,17394,1,0,0:0:0:0:
109,192,17443,128,0,17639:0:0:0:0:
36,192,17639,1,0,0:0:0:70:LR_Drum Rpd x2.wav
329,192,17639,1,0,0:0:0:0:
475,192,17639,1,0,0:0:0:0:
256,192,17737,1,0,0:0:0:0:
182,192,17835,128,0,18521:0:0:0:0:
329,192,18129,1,0,0:0:0:0:
36,192,18227,1,0,0:0:0:70:LR_Drum Rpd x2.wav
329,192,18227,128,0,18521:0:0:0:0:
475,192,18227,1,0,0:0:0:0:
256,192,18521,1,0,0:0:0:0:
36,192,18619,1,0,0:0:0:70:LR_Drum Rpd x2.wav
182,192,18619,128,0,19404:0:0:0:0:
402,192,18619,1,0,0:0:0:0:
475,192,18619,1,0,0:0:0:0:
329,192,18914,1,0,0:0:0:0:
329,192,19012,128,0,19404:0:0:0:0:
36,192,19208,1,0,0:0:0:70:LR_Drum Rpd x2.wav
475,192,19208,1,0,0:0:0:0:
109,192,19404,1,0,0:0:0:0:
256,192,19502,1,0,0:0:0:70:LR_Drum Rpd x2.wav
402,192,19600,1,0,0:0:0:0:
36,192,19600,128,0,19796:0:0:0:0:
182,192,19698,128,0,19796:0:0:0:0:
109,192,19796,128,0,19992:0:0:0:70:LR_Drum Rpd x2.wav
329,192,19796,1,0,0:0:0:0:
475,192,19796,1,0,0:0:0:0:
256,192,19894,128,0,19992:0:0:0:0:
182,192,19992,128,0,20188:0:0:0:0:
329,192,20090,128,0,20188:0:0:0:0:
36,192,20188,1,0,0:0:0:50:clap02.wav
256,192,20188,1,0,0:0:0:50:LR_Drum Rpd x2.wav
402,192,20188,128,0,20482:0:0:0:50:LR_Chm Soft Whistle Echo.wav
475,192,20188,1,0,0:0:0:0:
182,192,20286,1,0,0:0:0:0:
109,192,20384,1,0,0:0:0:0:
256,192,20482,1,0,0:0:0:0:
36,192,20580,1,0,0:0:0:50:clap02.wav
182,192,20580,1,0,0:0:0:30:LR_Drum Kick Low.wav
475,192,20580,128,0,20776:0:0:0:0:
329,192,20678,1,0,0:0:0:0:
109,192,20776,1,0,0:0:0:50:LR_Drum Rpd x2.wav
256,192,20776,1,0,0:0:0:0:
182,192,20874,1,0,0:0:0:0:
402,192,20874,1,0,0:0:0:0:
36,192,20972,1,0,0:0:0:50:clap02.wav
329,192,20972,1,0,0:0:0:0:
475,192,20972,128,0,21168:0:0:0:0:
256,192,21070,1,0,0:0:0:0:
182,192,21168,1,0,0:0:0:30:LR_Drum Kick Low.wav
109,192,21266,1,0,0:0:0:0:
329,192,21266,1,0,0:0:0:0:
36,192,21365,1,0,0:0:0:50:clap02.wav
329,192,21365,128,0,21561:0:0:0:50:LR_Drum Rpd x2.wav
475,192,21365,1,0,0:0:0:0:
182,192,21463,1,0,0:0:0:0:
109,192,21561,1,0,0:0:0:0:
402,192,21561,1,0,0:0:0:0:
36,192,21659,1,0,0:0:0:0:
256,192,21659,1,0,0:0:0:0:
182,192,21757,1,0,0:0:0:50:clap02.wav
329,192,21757,1,0,0:0:0:50:LR_Drum Rpd x2.wav
475,192,21757,128,0,22051:0:0:0:0:
109,192,21855,1,0,0:0:0:0:
256,192,21953,1,0,0:0:0:0:
329,192,22051,1,0,0:0:0:0:
36,192,22149,1,0,0:0:0:50:clap02.wav
182,192,22149,1,0,0:0:0:30:LR_Drum Kick Low.wav
402,192,22149,128,0,22345:0:0:0:0:
256,192,22247,1,0,0:0:0:0:
109,192,22345,1,0,0:0:0:50:LR_Drum Rpd x2.wav
475,192,22345,1,0,0:0:0:0:
329,192,22443,1,0,0:0:0:0:
256,192,22492,1,0,0:0:0:0:
182,192,22541,1,0,0:0:0:50:clap02.wav
475,192,22541,128,0,22639:0:0:0:50:LR_Chm loong.wav
36,192,22541,1,0,0:0:0:0:
256,192,22639,1,0,0:0:0:0:
329,192,22639,128,0,22737:0:0:0:0:
109,192,22737,1,0,0:0:0:30:LR_Drum Kick Low.wav
402,192,22737,128,0,22835:0:0:0:0:
182,192,22835,1,0,0:0:0:0:
256,192,22835,128,0,22933:0:0:0:0:
36,192,22933,1,0,0:0:0:50:clap02.wav
329,192,22933,1,0,0:0:0:50:LR_Drum Rpd x2.wav
475,192,22933,1,0,0:0:0:0:
109,192,23031,1,0,0:0:0:0:
329,192,23129,1,0,0:0:0:0:
182,192,23227,1,0,0:0:0:0:
36,192,23325,1,0,0:0:0:50:clap02.wav
109,192,23325,128,0,23619:0:0:0:50:LR_Drum Rpd x2.wav
256,192,23325,1,0,0:0:0:50:LR_Chm Soft Whistle Echo.wav
475,192,23325,1,0,0:0:0:0:
329,192,23423,1,0,0:0:0:0:
402,192,23521,1,0,0:0:0:0:
256,192,23619,1,0,0:0:0:0:
36,192,23717,128,0,23914:0:0:0:50:clap02.wav
329,192,23717,1,0,0:0:0:30:LR_Drum Kick Low.wav
475,192,23717,1,0,0:0:0:0:
182,192,23815,1,0,0:0:0:0:
256,192,23914,1,0,0:0:0:50:LR_Drum Rpd x2.wav
402,192,23914,1,0,0:0:0:0:
109,192,24012,1,0,0:0:0:0:
329,192,24012,1,0,0:0:0:0:
36,192,24110,128,0,24306:0:0:0:50:clap02.wav
182,192,24110,1,0,0:0:0:0:
475,192,24110,1,0,0:0:0:0:
256,192,24208,1,0,0:0:0:0:
329,192,24306,1,0,0:0:0:30:LR_Drum Kick Low.wav
182,192,24404,1,0,0:0:0:0:
402,192,24404,1,0,0:0:0:0:
36,192,24502,1,0,0:0:0:50:clap02.wav
182,192,24502,128,0,24698:0:0:0:50:LR_Drum Rpd x2.wav
475,192,24502,1,0,0:0:0:0:
329,192,24600,1,0,0:0:0:0:
109,192,24698,1,0,0:0:0:0:
402,192,24698,1,0,0:0:0:0:
256,192,24796,1,0,0:0:0:0:
475,192,24796,1,0,0:0:0:0:
36,192,24894,128,0,25188:0:0:0:50:clap02.wav
182,192,24894,1,0,0:0:0:50:LR_Drum Rpd x2.wav
329,192,24894,1,0,0:0:0:0:
402,192,24992,1,0,0:0:0:0:
256,192,25090,1,0,0:0:0:0:
329,192,25188,1,0,0:0:0:0:
109,192,25286,128,0,25482:0:0:0:50:clap02.wav
182,192,25286,1,0,0:0:0:30:LR_Drum Kick Low.wav
475,192,25286,1,0,0:0:0:0:
402,192,25384,1,0,0:0:0:0:
36,192,25482,1,0,0:0:0:50:LR_Drum Rpd x2.wav
329,192,25482,1,0,0:0:0:0:
256,192,25580,1,0,0:0:0:0:
36,192,25678,1,0,0:0:0:50:clap02.wav
182,192,25678,1,0,0:0:0:30:LR_Drum Kick Low.wav
475,192,25678,1,0,0:0:0:0:
402,192,25744,1,0,0:0:0:0:
109,192,25776,1,0,0:0:0:50:LR_Drum Rpd x2.wav
329,192,25809,1,0,0:0:0:0:
256,192,25874,1,0,0:0:0:30:LR_Drum Kick Low.wav
475,192,25874,128,0,25972:0:0:0:0:
182,192,25972,1,0,0:0:0:0:
402,192,25972,128,0,26070:0:0:0:0:
36,192,26070,1,0,0:0:0:50:clap02.wav
109,192,26070,1,0,0:0:0:50:LR_Drum Rpd x2.wav
256,192,26070,1,0,0:0:0:0:
475,192,26168,1,0,0:0:0:0:
182,192,26266,1,0,0:0:0:0:
402,192,26365,1,0,0:0:0:0:
36,192,26463,128,0,26757:0:0:0:50:clap02.wav
109,192,26463,1,0,0:0:0:30:LR_Drum Kick Low.wav
256,192,26463,1,0,0:0:0:70:LR_Chm Soft Whistle Echo.wav
475,192,26463,1,0,0:0:0:0:
329,192,26561,1,0,0:0:0:30:LR_Drum Kick Low.wav
182,192,26659,1,0,0:0:0:30:LR_Drum Kick Low.wav
402,192,26757,1,0,0:0:0:30:LR_Drum Kick Low.wav
36,192,26855,1,0,0:0:0:50:clap02.wav
256,192,26855,1,0,0:0:0:30:LR_Drum Kick Low.wav
475,192,26855,128,0,27051:0:0:0:0:
182,192,26953,1,0,0:0:0:30:LR_Drum Kick Low.wav
109,192,27051,1,0,0:0:0:30:LR_Drum Kick Low.wav
329,192,27051,1,0,0:0:0:0:
182,192,27149,1,0,0:0:0:30:LR_Drum Kick Low.wav
402,192,27149,1,0,0:0:0:0:
36,192,27247,1,0,0:0:0:50:clap02.wav
256,192,27247,1,0,0:0:0:30:LR_Drum Kick Low.wav
475,192,27247,128,0,27443:0:0:0:0:
109,192,27345,1,0,0:0:0:30:LR_Drum Kick Low.wav
329,192,27443,1,0,0:0:0:30:LR_Drum Kick Low.wav
36,192,27541,1,0,0:0:0:30:LR_Drum Kick Low.wav
182,192,27541,1,0,0:0:0:0:
36,192,27639,128,0,27835:0:0:0:50:clap02.wav
329,192,27639,1,0,0:0:0:30:LR_Drum Kick Low.wav
475,192,27639,1,0,0:0:0:0:
256,192,27737,1,0,0:0:0:30:LR_Drum Kick Low.wav
182,192,27835,1,0,0:0:0:30:LR_Drum Kick Low.wav
402,192,27835,1,0,0:0:0:0:
329,192,27900,1,0,0:0:0:0:
109,192,27933,1,0,0:0:0:30:LR_Drum Kick Low.wav
256,192,27966,1,0,0:0:0:0:
36,192,28031,1,0,0:0:0:20:kick.wav
402,192,28031,1,0,0:0:0:0:
475,192,28031,1,0,0:0:0:0:
182,192,28129,1,0,0:0:0:20:kick.wav
109,192,28227,1,0,0:0:0:20:kick.wav
329,192,28227,1,0,0:0:0:0:
256,192,28325,1,0,0:0:0:20:kick.wav
475,192,28325,1,0,0:0:0:0:
36,192,28423,1,0,0:0:0:20:kick.wav
182,192,28423,1,0,0:0:0:0:
475,192,28423,128,0,28717:0:0:0:0:
329,192,28521,1,0,0:0:0:20:kick.wav
109,192,28619,1,0,0:0:0:20:kick.wav
182,192,28619,1,0,0:0:0:0:
402,192,28717,1,0,0:0:0:20:kick.wav
36,192,28815,1,0,0:0:0:30:kick.wav
256,192,28815,1,0,0:0:0:70:LR_Chm loong.wav
329,192,28815,1,0,0:0:0:0:
475,192,28881,1,0,0:0:0:0:
182,192,28914,1,0,0:0:0:30:kick.wav
402,192,28946,1,0,0:0:0:0:
109,192,29012,1,0,0:0:0:30:kick.wav
329,192,29012,1,0,0:0:0:0:
36,192,29110,1,0,0:0:0:30:kick.wav
256,192,29110,1,0,0:0:0:0:
182,192,29208,1,0,0:0:0:30:kick.wav
402,192,29208,1,0,0:0:0:0:
475,192,29208,1,0,0:0:0:0:
109,192,29306,1,0,0:0:0:30:kick.wav
329,192,29306,1,0,0:0:0:0:
182,192,29404,1,0,0:0:0:30:kick.wav
402,192,29404,1,0,0:0:0:0:
36,192,29502,1,0,0:0:0:30:kick.wav
256,192,29502,1,0,0:0:0:0:
109,192,29600,1,0,0:0:0:40:kick.wav
402,192,29600,1,0,0:0:0:70:LR_Chm Soft Whistle Echo.wav
475,192,29600,1,0,0:0:0:0:
182,192,29698,1,0,0:0:0:40:kick.wav
329,192,29698,1,0,0:0:0:0:
36,192,29796,1,0,0:0:0:40:kick.wav
256,192,29796,1,0,0:0:0:0:
475,192,29796,1,0,0:0:0:0:
109,192,29894,1,0,0:0:0:40:kick.wav
402,192,29894,1,0,0:0:0:0:
182,192,29992,1,0,0:0:0:40:kick.wav
329,192,29992,1,0,0:0:0:0:
475,192,29992,1,0,0:0:0:0:
36,192,30090,1,0,0:0:0:40:kick.wav
109,192,30090,1,0,0:0:0:0:
256,192,30188,1,0,0:0:0:40:kick.wav
402,192,30188,1,0,0:0:0:0:
475,192,30188,1,0,0:0:0:0:
182,192,30253,1,0,0:0:0:0:
329,192,30286,1,0,0:0:0:40:kick.wav
109,192,30319,1,0,0:0:0:0:
36,192,30384,1,0,0:0:0:50:kick.wav
256,192,30384,1,0,0:0:0:0:
475,192,30384,1,0,0:0:0:0:
182,192,30482,1,0,0:0:0:50:kick.wav
329,192,30482,1,0,0:0:0:0:
36,192,30580,1,0,0:0:0:50:kick.wav
109,192,30580,1,0,0:0:0:0:
402,192,30580,1,0,0:0:0:0:
256,192,30678,1,0,0:0:0:50:kick.wav
475,192,30678,1,0,0:0:0:0:
36,192,30776,1,0,0:0:0:50:kick.wav
109,192,30776,1,0,0:0:0:0:
329,192,30776,1,0,0:0:0:0:
182,192,30874,1,0,0:0:0:50:kick.wav
402,192,30874,1,0,0:0:0:0:
36,192,30972,1,0,0:0:0:50:kick.wav
256,192,30972,1,0,0:0:0:0:
475,192,30972,1,0,0:0:0:0:
109,192,31070,1,0,0:0:0:50:kick.wav
329,192,31070,1,0,0:0:0:0:
182,192,31168,1,0,0:0:0:35:kick.wav
256,192,31168,1,0,0:0:0:0:
475,192,31168,1,0,0:0:0:0:
402,192,31217,1,0,0:0:0:35:kick.wav
36,192,31266,1,0,0:0:0:35:kick.wav
329,192,31266,1,0,0:0:0:0:
109,192,31315,1,0,0:0:0:35:kick.wav
182,192,31365,1,0,0:0:0:35:kick.wav
475,192,31365,1,0,0:0:0:0:
402,192,31414,1,0,0:0:0:35:kick.wav
36,192,31463,1,0,0:0:0:35:kick.wav
256,192,31463,1,0,0:0:0:0:
109,192,31512,1,0,0:0:0:35:kick.wav
182,192,31561,1,0,0:0:0:35:kick.wav
475,192,31561,1,0,0:0:0:0:
402,192,31610,1,0,0:0:0:35:kick.wav
36,192,31659,1,0,0:0:0:35:kick.wav
329,192,31659,1,0,0:0:0:0:
109,192,31708,1,0,0:0:0:35:kick.wav
256,192,31757,1,0,0:0:0:35:kick.wav
475,192,31757,1,0,0:0:0:0:
402,192,31806,1,0,0:0:0:35:kick.wav
36,192,31855,1,0,0:0:0:35:kick.wav
329,192,31855,1,0,0:0:0:0:
109,192,31904,1,0,0:0:0:35:kick.wav
182,192,31953,1,0,0:0:0:35:kick.wav
475,192,31953,1,0,0:0:0:0:
256,192,32002,1,0,0:0:0:35:kick.wav
36,192,32051,1,0,0:0:0:35:kick.wav
329,192,32051,1,0,0:0:0:0:
402,192,32100,1,0,0:0:0:35:kick.wav
182,192,32149,1,0,0:0:0:35:kick.wav
475,192,32149,1,0,0:0:0:0:
109,192,32198,1,0,0:0:0:35:kick.wav
36,192,32247,1,0,0:0:0:35:kick.wav
256,192,32247,1,0,0:0:0:0:
329,192,32296,1,0,0:0:0:35:kick.wav
402,192,32345,1,0,0:0:0:0:
475,192,32345,1,0,0:0:0:0:
182,192,32443,1,0,0:0:0:0:
329,192,32541,1,0,0:0:0:0:
109,192,32639,1,0,0:0:0:0:
36,192,32737,128,0,33031:0:0:0:50:kick.wav
182,192,32737,128,0,33031:0:0:0:50:cymbal_s.wav
256,192,32737,128,0,33031:0:0:0:0:
329,192,32737,128,0,33031:0:0:0:0:
475,192,32737,128,0,33031:0:0:0:0:
36,192,33129,1,0,0:0:0:70:S2.wav
256,192,33129,1,0,0:0:0:0:
109,192,33195,1,0,0:0:0:70:S2.wav
402,192,33195,1,0,0:0:0:0:
182,192,33260,1,0,0:0:0:70:LR_Drum Kick Low.wav
475,192,33260,1,0,0:0:0:0:
36,192,33325,1,0,0:0:0:0:
329,192,33325,1,0,0:0:0:0:
109,192,33391,1,0,0:0:0:70:LR_Drum Kick Low.wav
402,192,33391,1,0,0:0:0:0:
256,192,33456,1,0,0:0:0:70:S2.wav
475,192,33456,1,0,0:0:0:0:
36,192,33521,128,0,33717:0:0:0:50:kick.wav
109,192,33521,128,0,33717:0:0:0:50:cymbal_s.wav
182,192,33521,128,0,33717:0:0:0:0:
329,192,33521,128,0,33717:0:0:0:0:
402,192,33521,128,0,33717:0:0:0:0:
109,192,33815,128,0,34012:0:0:0:50:kick.wav
182,192,33815,128,0,34012:0:0:0:50:cymbal_s.wav
256,192,33815,128,0,34012:0:0:0:0:
402,192,33815,128,0,34012:0:0:0:0:
475,192,33815,128,0,34012:0:0:0:0:
36,192,34110,128,0,34306:0:0:0:50:kick.wav
182,192,34110,128,0,34306:0:0:0:50:cymbal_s.wav
256,192,34110,128,0,34306:0:0:0:0:
329,192,34110,128,0,34306:0:0:0:0:
475,192,34110,128,0,34306:0:0:0:0:
109,192,34502,1,0,0:0:0:70:LR_Drum Rpd x2.wav
329,192,34502,1,0,0:0:0:0:
402,192,34502,1,0,0:0:0:0:
182,192,34600,1,0,0:0:0:70:LR_Drum Rpd x2.wav
329,192,34600,1,0,0:0:0:0:
402,192,34600,1,0,0:0:0:0:
36,192,34698,1,0,0:0:0:70:LR_Drum Rpd x2.wav
256,192,34698,1,0,0:0:0:0:
475,192,34698,1,0,0:0:0:0:
109,192,34796,1,0,0:0:0:70:LR_Drum Kick Low.wav
329,192,34796,1,0,0:0:0:0:
182,192,34894,1,0,0:0:0:70:tom03.wav
402,192,34894,1,0,0:0:0:0:
475,192,34894,1,0,0:0:0:0:
36,192,34992,1,0,0:0:0:70:tom04.wav
256,192,34992,1,0,0:0:0:0:
109,192,35090,128,0,35286:0:0:0:50:kick.wav
182,192,35090,128,0,35286:0:0:0:50:cymbal_s.wav
329,192,35090,128,0,35286:0:0:0:0:
402,192,35090,128,0,35286:0:0:0:0:
475,192,35090,128,0,35286:0:0:0:0:
36,192,35384,128,0,35580:0:0:0:50:kick.wav
109,192,35384,128,0,35580:0:0:0:50:cymbal_s.wav
256,192,35384,128,0,35580:0:0:0:0:
329,192,35384,128,0,35580:0:0:0:0:
402,192,35384,128,0,35580:0:0:0:0:
36,192,35678,128,0,35874:0:0:0:50:kick.wav
182,192,35678,128,0,35874:0:0:0:50:cymbal_s.wav
256,192,35678,128,0,35874:0:0:0:0:
329,192,35678,128,0,35874:0:0:0:0:
475,192,35678,128,0,35874:0:0:0:0:
109,192,36070,1,0,0:0:0:70:tom01.wav
182,192,36070,1,0,0:0:0:0:
402,192,36070,1,0,0:0:0:0:
109,192,36168,1,0,0:0:0:70:tom01.wav
182,192,36168,1,0,0:0:0:0:
329,192,36168,1,0,0:0:0:0:
36,192,36266,1,0,0:0:0:70:tom02.wav
256,192,36266,1,0,0:0:0:0:
475,192,36266,1,0,0:0:0:0:
182,192,36365,1,0,0:0:0:70:tom02.wav
402,192,36365,1,0,0:0:0:0:
36,192,36463,1,0,0:0:0:70:tom03.wav
109,192,36463,1,0,0:0:0:0:
329,192,36463,1,0,0:0:0:0:
256,192,36561,1,0,0:0:0:70:tom04.wav
475,192,36561,1,0,0:0:0:0:
36,192,36659,128,0,36855:0:0:0:50:kick.wav
109,192,36659,128,0,36855:0:0:0:50:cymbal_s.wav
182,192,36659,128,0,36855:0:0:0:0:
329,192,36659,128,0,36855:0:0:0:0:
402,192,36659,128,0,36855:0:0:0:0:
109,192,36953,128,0,37149:0:0:0:50:kick.wav
182,192,36953,128,0,37149:0:0:0:50:cymbal_s.wav
256,192,36953,128,0,37149:0:0:0:0:
402,192,36953,128,0,37149:0:0:0:0:
475,192,36953,128,0,37149:0:0:0:0:
36,192,37247,128,0,37443:0:0:0:50:kick.wav
109,192,37247,128,0,37443:0:0:0:50:cymbal_s.wav
182,192,37247,128,0,37443:0:0:0:0:
329,192,37247,128,0,37443:0:0:0:0:
475,192,37247,128,0,37443:0:0:0:0:
109,192,37639,128,0,37835:0:0:0:70:LR_Drum Rpd x2.wav
256,192,37639,128,0,37835:0:0:0:0:
402,192,37639,128,0,37835:0:0:0:0:
36,192,37835,1,0,0:0:0:70:LR_Drum Rpd x2.wav
475,192,37900,1,0,0:0:0:0:
329,192,37966,1,0,0:0:0:0:
109,192,38031,128,0,38423:0:0:0:70:LR_Drum Rpd x2.wav
182,192,38031,128,0,38423:0:0:0:0:
329,192,38227,128,0,38619:0:0:0:70:LR_Drum Rpd x2.wav
402,192,38227,128,0,38619:0:0:0:0:
36,192,38423,1,0,0:0:0:70:LR_Drum Rpd x2.wav
36,192,38619,1,0,0:0:0:70:LR_Drum Rpd x2.wav
256,192,38619,1,0,0:0:0:0:
475,192,38619,1,0,0:0:0:0:
36,192,38717,1,0,0:0:0:70:LR_Drum Rpd x2.wav
256,192,38717,1,0,0:0:0:0:
182,192,38815,1,0,0:0:0:70:LR_Drum Rpd x2.wav
329,192,38815,1,0,0:0:0:0:
475,192,38815,1,0,0:0:0:0:
182,192,38914,1,0,0:0:0:70:LR_Drum Rpd x2.wav
329,192,38914,1,0,0:0:0:0:
36,192,39012,128,0,39306:0:0:0:50:kick.wav
109,192,39012,128,0,39306:0:0:0:50:cymbal_s.wav
256,192,39012,128,0,39208:0:0:0:0:
402,192,39012,128,0,39306:0:0:0:0:
475,192,39012,128,0,39306:0:0:0:0:
256,192,39306,1,0,0:0:0:70:LR_Drum Rpd x2.wav
36,192,39404,1,0,0:0:0:70:LR_Drum Rpd x2.wav
256,192,39404,1,0,0:0:0:0:
475,192,39404,1,0,0:0:0:0:
109,192,39502,1,0,0:0:0:70:LR_Drum Rpd x2.wav
329,192,39502,1,0,0:0:0:0:
36,192,39600,1,0,0:0:0:70:tom03.wav
182,192,39600,1,0,0:0:0:0:
402,192,39600,1,0,0:0:0:0:
256,192,39698,1,0,0:0:0:70:tom04.wav
475,192,39698,1,0,0:0:0:0:
36,192,39796,128,0,39992:0:0:0:50:kick.wav
109,192,39796,128,0,39992:0:0:0:50:cymbal_s.wav
182,192,39796,128,0,39992:0:0:0:0:
329,192,39796,128,0,39992:0:0:0:0:
402,192,39796,128,0,39992:0:0:0:0:
36,192,40090,128,0,40286:0:0:0:50:kick.wav
182,192,40090,128,0,40286:0:0:0:50:cymbal_s.wav
256,192,40090,128,0,40286:0:0:0:0:
329,192,40090,128,0,40286:0:0:0:0:
475,192,40090,128,0,40286:0:0:0:0:
36,192,40384,128,0,40580:0:0:0:50:kick.wav
109,192,40384,128,0,40580:0:0:0:50:cymbal_s.wav
256,192,40384,128,0,40580:0:0:0:0:
402,192,40384,128,0,40580:0:0:0:0:
475,192,40384,128,0,40580:0:0:0:0:
36,192,40776,1,0,0:0:0:50:LR_Drum Kick Low.wav
402,192,40776,1,0,0:0:0:0:
109,192,40842,1,0,0:0:0:50:LR_Drum Kick Low.wav
329,192,40842,1,0,0:0:0:0:
475,192,40907,1,0,0:0:0:50:LR_Drum Kick Low.wav
256,192,40907,1,0,0:0:0:0:
182,192,40972,1,0,0:0:0:50:LR_Drum Kick Low.wav
402,192,40972,1,0,0:0:0:0:
36,192,41038,1,0,0:0:0:50:LR_Drum Kick Low.wav
329,192,41038,1,0,0:0:0:0:
256,192,41103,1,0,0:0:0:50:LR_Drum Kick Low.wav
475,192,41103,1,0,0:0:0:0:
109,192,41168,1,0,0:0:0:50:LR_Drum Kick Low.wav
402,192,41168,1,0,0:0:0:0:
36,192,41234,1,0,0:0:0:50:LR_Drum Kick Low.wav
329,192,41234,1,0,0:0:0:0:
182,192,41299,1,0,0:0:0:50:LR_Drum Kick Low.wav
475,192,41299,1,0,0:0:0:0:
36,192,41365,128,0,41561:0:0:0:50:kick.wav
109,192,41365,128,0,41561:0:0:0:50:cymbal_s.wav
256,192,41365,128,0,41561:0:0:0:0:
329,192,41365,128,0,41561:0:0:0:0:
402,192,41365,128,0,41561:0:0:0:0:
109,192,41659,128,0,41855:0:0:0:50:kick.wav
182,192,41659,128,0,41855:0:0:0:50:cymbal_s.wav
329,192,41659,128,0,41855:0:0:0:0:
402,192,41659,128,0,41855:0:0:0:0:
475,192,41659,128,0,41855:0:0:0:0:
36,192,41953,128,0,42149:0:0:0:50:kick.wav
182,192,41953,128,0,42149:0:0:0:50:cymbal_s.wav
256,192,41953,128,0,42149:0:0:0:0:
329,192,41953,128,0,42149:0:0:0:0:
475,192,41953,128,0,42149:0:0:0:0:
36,192,42345,1,0,0:0:0:70:LR_Drum Kick Low.wav
109,192,42345,1,0,0:0:0:0:
329,192,42345,1,0,0:0:0:0:
36,192,42443,1,0,0:0:0:70:LR_Drum Kick Low.wav
109,192,42443,1,0,0:0:0:0:
256,192,42443,1,0,0:0:0:0:
182,192,42541,1,0,0:0:0:70:tom01.wav
402,192,42541,1,0,0:0:0:0:
475,192,42541,1,0,0:0:0:0:
109,192,42639,1,0,0:0:0:70:tom02.wav
329,192,42639,1,0,0:0:0:0:
36,192,42737,1,0,0:0:0:70:tom03.wav
256,192,42737,1,0,0:0:0:0:
475,192,42737,1,0,0:0:0:0:
182,192,42835,1,0,0:0:0:70:tom04.wav
329,192,42835,1,0,0:0:0:0:
36,192,42933,128,0,43129:0:0:0:50:kick.wav
109,192,42933,128,0,43129:0:0:0:50:cymbal_s.wav
256,192,42933,128,0,43129:0:0:0:0:
402,192,42933,128,0,43129:0:0:0:0:
475,192,42933,128,0,43129:0:0:0:0:
36,192,43227,128,0,43423:0:0:0:50:kick.wav
109,192,43227,128,0,43423:0:0:0:50:cymbal_s.wav
182,192,43227,128,0,43423:0:0:0:0:
329,192,43227,128,0,43423:0:0:0:0:
475,192,43227,128,0,43423:0:0:0:0:
36,192,43521,128,0,45580:0:0:0:50:kick.wav
109,192,43521,128,0,44502:0:0:0:50:cymbal_s.wav
256,192,43521,128,0,44012:0:0:0:0:
402,192,43521,1,0,0:0:0:0:
475,192,43521,1,0,0:0:0:0:
475,192,43914,1,0,0:0:0:70:LR_Drum Rpd x2.wav
329,192,44012,1,0,0:0:0:70:LR_Drum Rpd x2.wav
182,192,44110,1,0,0:0:0:70:LR_Drum Rpd x2.wav
402,192,44208,1,0,0:0:0:70:LR_Drum Rpd x2.wav
256,192,44306,1,0,0:0:0:70:LR_Drum Rpd x2.wav
329,192,44404,1,0,0:0:0:70:LR_Drum Rpd x2.wav
182,192,44502,1,0,0:0:0:70:LR_Drum Rpd x2.wav
402,192,44502,1,0,0:0:0:0:
256,192,44567,1,0,0:0:0:0:
475,192,44600,1,0,0:0:0:70:LR_Drum Rpd x2.wav
329,192,44632,1,0,0:0:0:0:
109,192,44698,1,0,0:0:0:70:LR_Drum Rpd x2.wav
182,192,44698,1,0,0:0:0:0:
256,192,44796,1,0,0:0:0:70:LR_Drum Rpd x2.wav
475,192,44796,1,0,0:0:0:0:
109,192,44894,1,0,0:0:0:70:LR_Drum Rpd x2.wav
329,192,44894,1,0,0:0:0:0:
182,192,44992,1,0,0:0:0:70:LR_Drum Rpd x2.wav
402,192,44992,1,0,0:0:0:0:
256,192,45090,1,0,0:0:0:70:LR_Drum Rpd x2.wav
475,192,45090,1,0,0:0:0:0:
109,192,45188,1,0,0:0:0:70:LR_Drum Rpd x2.wav
329,192,45188,1,0,0:0:0:0:
256,192,45286,1,0,0:0:0:70:LR_Drum Rpd x2.wav
402,192,45286,1,0,0:0:0:0:
475,192,45286,1,0,0:0:0:0:
182,192,45351,1,0,0:0:0:0:
329,192,45384,1,0,0:0:0:70:LR_Drum Rpd x2.wav
109,192,45417,1,0,0:0:0:0:
256,192,45482,1,0,0:0:0:70:LR_Drum Rpd x2.wav
475,192,45482,1,0,0:0:0:0:
182,192,45580,1,0,0:0:0:70:LR_Drum Rpd x2.wav
402,192,45580,1,0,0:0:0:0:
36,192,45678,1,0,0:0:0:50:kick.wav
109,192,45678,1,0,0:0:0:0:
329,192,45678,1,0,0:0:0:0:
475,192,45678,1,0,0:0:0:0:
256,192,45874,128,0,45923:0:0:0:0:
36,192,46070,1,0,0:0:0:50:kick.wav
109,192,46070,1,0,0:0:0:70:cymbal.wav
182,192,46070,1,0,0:0:0:70:push_scratch.wav
329,192,46070,1,0,0:0:0:0:
475,192,46070,1,0,0:0:0:0:
36,192,46168,1,0,0:0:0:50:kick.wav
109,192,46168,1,0,0:0:0:0:
256,192,46266,1,0,0:0:0:50:kick.wav
402,192,46266,1,0,0:0:0:0:
475,192,46266,1,0,0:0:0:0:
402,192,46364,1,0,0:0:0:50:kick.wav
475,192,46364,1,0,0:0:0:0:
36,192,46462,1,0,0:0:0:50:kick.wav
109,192,46462,1,0,0:0:0:100:VEC3 Snares 076.wav
329,192,46462,1,0,0:0:0:0:
36,192,46560,1,0,0:0:0:50:kick.wav
109,192,46560,1,0,0:0:0:0:
182,192,46658,1,0,0:0:0:50:kick.wav
402,192,46658,1,0,0:0:0:0:
475,192,46658,1,0,0:0:0:0:
402,192,46756,1,0,0:0:0:50:kick.wav
475,192,46756,1,0,0:0:0:0:
36,192,46854,1,0,0:0:0:50:kick.wav
109,192,46854,1,0,0:0:0:0:
256,192,46854,1,0,0:0:0:0:
36,192,46952,1,0,0:0:0:50:kick.wav
109,192,46952,1,0,0:0:0:0:
182,192,47050,1,0,0:0:0:50:kick.wav
402,192,47050,1,0,0:0:0:0:
475,192,47050,1,0,0:0:0:0:
402,192,47148,1,0,0:0:0:50:kick.wav
475,192,47148,1,0,0:0:0:0:
36,192,47246,1,0,0:0:0:50:kick.wav
109,192,47246,1,0,0:0:0:100:VEC3 Snares 076.wav
329,192,47246,1,0,0:0:0:0:
36,192,47344,1,0,0:0:0:50:kick.wav
109,192,47344,1,0,0:0:0:0:
256,192,47442,1,0,0:0:0:50:kick.wav
402,192,47442,1,0,0:0:0:0:
475,192,47442,1,0,0:0:0:0:
402,192,47540,1,0,0:0:0:50:kick.wav
475,192,47540,1,0,0:0:0:0:
36,192,47638,1,0,0:0:0:50:kick.wav
109,192,47638,1,0,0:0:0:0:
329,192,47638,1,0,0:0:0:0:
36,192,47736,1,0,0:0:0:50:kick.wav
109,192,47736,1,0,0:0:0:0:
182,192,47834,1,0,0:0:0:50:kick.wav
402,192,47834,1,0,0:0:0:0:
475,192,47834,1,0,0:0:0:0:
402,192,47932,1,0,0:0:0:50:kick.wav
475,192,47932,1,0,0:0:0:0:
36,192,48030,1,0,0:0:0:50:kick.wav
109,192,48030,1,0,0:0:0:100:VEC3 Snares 076.wav
256,192,48030,1,0,0:0:0:0:
36,192,48128,1,0,0:0:0:50:kick.wav
109,192,48128,1,0,0:0:0:0:
182,192,48226,1,0,0:0:0:50:kick.wav
402,192,48226,1,0,0:0:0:0:
475,192,48226,1,0,0:0:0:0:
402,192,48324,1,0,0:0:0:50:kick.wav
475,192,48324,1,0,0:0:0:0:
36,192,48422,1,0,0:0:0:50:kick.wav
109,192,48422,1,0,0:0:0:0:
256,192,48422,1,0,0:0:0:0:
36,192,48520,1,0,0:0:0:50:kick.wav
109,192,48520,1,0,0:0:0:0:
256,192,48619,1,0,0:0:0:50:kick.wav
402,192,48619,1,0,0:0:0:0:
475,192,48619,1,0,0:0:0:0:
402,192,48717,1,0,0:0:0:50:kick.wav
475,192,48717,1,0,0:0:0:0:
36,192,48815,128,0,49207:0:0:0:50:kick.wav
182,192,48815,1,0,0:0:0:0:
256,192,48864,1,0,0:0:0:0:
329,192,48913,1,0,0:0:0:0:
402,192,48962,1,0,0:0:0:0:
109,192,49011,1,0,0:0:0:0:
475,192,49011,128,0,49207:0:0:0:0:
182,192,49060,1,0,0:0:0:0:
256,192,49109,1,0,0:0:0:0:
329,192,49158,1,0,0:0:0:0:
109,192,49207,1,0,0:0:0:50:kick.wav
182,192,49207,1,0,0:0:0:70:cymbal.wav
402,192,49207,1,0,0:0:0:70:push_scratch.wav
109,192,49305,1,0,0:0:0:50:kick.wav
182,192,49305,1,0,0:0:0:0:
329,192,49403,1,0,0:0:0:50:kick.wav
402,192,49403,1,0,0:0:0:0:
475,192,49403,1,0,0:0:0:0:
329,192,49501,1,0,0:0:0:50:kick.wav
402,192,49501,1,0,0:0:0:0:
36,192,49599,1,0,0:0:0:50:kick.wav
109,192,49599,1,0,0:0:0:100:VEC3 Snares 076.wav
182,192,49599,1,0,0:0:0:0:
109,192,49697,1,0,0:0:0:50:kick.wav
182,192,49697,1,0,0:0:0:0:
329,192,49795,1,0,0:0:0:50:kick.wav
402,192,49795,1,0,0:0:0:0:
475,192,49795,1,0,0:0:0:0:
329,192,49893,1,0,0:0:0:50:kick.wav
402,192,49893,1,0,0:0:0:0:
36,192,49991,1,0,0:0:0:50:kick.wav
109,192,49991,1,0,0:0:0:0:
182,192,49991,1,0,0:0:0:0:
109,192,50089,1,0,0:0:0:50:kick.wav
182,192,50089,1,0,0:0:0:0:
329,192,50187,1,0,0:0:0:50:kick.wav
402,192,50187,1,0,0:0:0:0:
475,192,50187,1,0,0:0:0:0:
329,192,50285,1,0,0:0:0:50:kick.wav
402,192,50285,1,0,0:0:0:0:
36,192,50383,1,0,0:0:0:50:kick.wav
109,192,50383,1,0,0:0:0:100:VEC3 Snares 076.wav
182,192,50383,1,0,0:0:0:0:
109,192,50481,1,0,0:0:0:50:kick.wav
182,192,50481,1,0,0:0:0:0:
329,192,50579,1,0,0:0:0:50:kick.wav
402,192,50579,1,0,0:0:0:0:
475,192,50579,1,0,0:0:0:0:
329,192,50677,1,0,0:0:0:50:kick.wav
402,192,50677,1,0,0:0:0:0:
36,192,50775,1,0,0:0:0:50:kick.wav
109,192,50775,1,0,0:0:0:0:
256,192,50775,1,0,0:0:0:0:
402,192,50873,1,0,0:0:0:50:kick.wav
475,192,50873,1,0,0:0:0:0:
36,192,50971,1,0,0:0:0:50:kick.wav
182,192,50971,1,0,0:0:0:0:
329,192,50971,1,0,0:0:0:0:
36,192,51070,1,0,0:0:0:50:kick.wav
182,192,51070,1,0,0:0:0:0:
329,192,51070,1,0,0:0:0:0:
402,192,51168,1,0,0:0:0:50:kick.wav
475,192,51168,1,0,0:0:0:100:VEC3 Snares 076.wav
36,192,51266,1,0,0:0:0:50:kick.wav
109,192,51266,1,0,0:0:0:0:
256,192,51266,1,0,0:0:0:0:
36,192,51364,1,0,0:0:0:50:kick.wav
109,192,51364,1,0,0:0:0:0:
256,192,51364,1,0,0:0:0:0:
402,192,51462,1,0,0:0:0:50:kick.wav
475,192,51462,1,0,0:0:0:0:
182,192,51560,128,0,51756:0:0:0:50:kick.wav
329,192,51560,128,0,51756:0:0:0:100:BassBass_002C.wav
182,192,51854,128,0,52050:0:0:0:100:BassBass_002C.wav
329,192,51854,128,0,52050:0:0:0:0:
182,192,52148,128,0,52246:0:0:0:100:BassBass_002C.wav
329,192,52148,128,0,52246:0:0:0:0:
256,192,52344,1,0,0:0:0:70:cymbal.wav
36,192,52344,1,0,0:0:0:35:kick.wav
109,192,52393,1,0,0:0:0:35:kick.wav
182,192,52442,1,0,0:0:0:35:kick.wav
475,192,52442,1,0,0:0:0:0:
402,192,52491,1,0,0:0:0:35:kick.wav
36,192,52540,1,0,0:0:0:35:kick.wav
329,192,52540,1,0,0:0:0:0:
109,192,52589,1,0,0:0:0:35:kick.wav
182,192,52638,1,0,0:0:0:35:kick.wav
475,192,52638,1,0,0:0:0:0:
402,192,52687,1,0,0:0:0:35:kick.wav
36,192,52736,1,0,0:0:0:35:kick.wav
329,192,52736,1,0,0:0:0:0:
109,192,52785,1,0,0:0:0:35:kick.wav
182,192,52834,1,0,0:0:0:35:kick.wav
475,192,52834,1,0,0:0:0:0:
402,192,52883,1,0,0:0:0:35:kick.wav
36,192,52932,1,0,0:0:0:35:kick.wav
329,192,52932,1,0,0:0:0:0:
109,192,52981,1,0,0:0:0:35:kick.wav
182,192,53030,1,0,0:0:0:35:kick.wav
475,192,53030,1,0,0:0:0:0:
402,192,53079,1,0,0:0:0:35:kick.wav
36,192,53128,1,0,0:0:0:35:kick.wav
329,192,53128,1,0,0:0:0:0:
109,192,53177,1,0,0:0:0:35:kick.wav
182,192,53226,1,0,0:0:0:35:kick.wav
475,192,53226,1,0,0:0:0:0:
402,192,53275,1,0,0:0:0:35:kick.wav
36,192,53324,1,0,0:0:0:35:kick.wav
329,192,53324,1,0,0:0:0:0:
109,192,53373,1,0,0:0:0:35:kick.wav
182,192,53422,1,0,0:0:0:35:kick.wav
475,192,53422,1,0,0:0:0:0:
402,192,53471,1,0,0:0:0:35:kick.wav
36,192,53520,1,0,0:0:0:35:kick.wav
329,192,53520,1,0,0:0:0:0:
109,192,53570,1,0,0:0:0:35:kick.wav
256,192,53619,1,0,0:0:0:35:kick.wav
475,192,53619,1,0,0:0:0:0:
402,192,53668,1,0,0:0:0:35:kick.wav
182,192,53717,1,0,0:0:0:35:kick.wav
329,192,53717,1,0,0:0:0:0:
109,192,53766,1,0,0:0:0:35:kick.wav
36,192,53815,1,0,0:0:0:35:kick.wav
256,192,53815,1,0,0:0:0:0:
402,192,53864,1,0,0:0:0:35:kick.wav
182,192,53913,1,0,0:0:0:35:kick.wav
475,192,53913,1,0,0:0:0:0:
109,192,53962,1,0,0:0:0:35:kick.wav
36,192,54011,1,0,0:0:0:35:kick.wav
329,192,54011,1,0,0:0:0:0:
402,192,54060,1,0,0:0:0:35:kick.wav
182,192,54109,1,0,0:0:0:35:kick.wav
475,192,54109,1,0,0:0:0:0:
109,192,54158,1,0,0:0:0:35:kick.wav
36,192,54207,1,0,0:0:0:35:kick.wav
329,192,54207,1,0,0:0:0:0:
402,192,54256,1,0,0:0:0:35:kick.wav
182,192,54305,1,0,0:0:0:35:kick.wav
475,192,54305,1,0,0:0:0:0:
109,192,54354,1,0,0:0:0:35:kick.wav
36,192,54403,1,0,0:0:0:35:kick.wav
329,192,54403,1,0,0:0:0:0:
402,192,54452,1,0,0:0:0:35:kick.wav
182,192,54501,1,0,0:0:0:35:kick.wav
475,192,54501,1,0,0:0:0:0:
109,192,54550,1,0,0:0:0:35:kick.wav
36,192,54599,1,0,0:0:0:35:kick.wav
329,192,54599,1,0,0:0:0:0:
402,192,54648,1,0,0:0:0:35:kick.wav
182,192,54697,1,0,0:0:0:35:kick.wav
475,192,54697,1,0,0:0:0:0:
109,192,54746,1,0,0:0:0:35:kick.wav
36,192,54795,1,0,0:0:0:35:kick.wav
329,192,54795,1,0,0:0:0:0:
402,192,54844,1,0,0:0:0:35:kick.wav
182,192,54893,1,0,0:0:0:35:kick.wav
475,192,54893,1,0,0:0:0:0:
109,192,54942,1,0,0:0:0:35:kick.wav
36,192,54991,1,0,0:0:0:35:kick.wav
329,192,54991,1,0,0:0:0:0:
402,192,55040,1,0,0:0:0:35:kick.wav
182,192,55089,1,0,0:0:0:35:kick.wav
475,192,55089,1,0,0:0:0:0:
256,192,55138,1,0,0:0:0:35:kick.wav
36,192,55187,1,0,0:0:0:35:kick.wav
329,192,55187,1,0,0:0:0:0:
109,192,55236,1,0,0:0:0:35:kick.wav
182,192,55285,1,0,0:0:0:35:kick.wav
475,192,55285,1,0,0:0:0:0:
256,192,55334,1,0,0:0:0:35:kick.wav
36,192,55383,1,0,0:0:0:35:kick.wav
329,192,55383,1,0,0:0:0:0:
402,192,55432,1,0,0:0:0:30:kick.wav
109,192,55481,1,0,0:0:0:30:kick.wav
182,192,55506,1,0,0:0:0:30:kick.wav
256,192,55530,1,0,0:0:0:30:kick.wav
329,192,55555,1,0,0:0:0:30:kick.wav
402,192,55579,1,0,0:0:0:30:kick.wav
475,192,55604,1,0,0:0:0:30:kick.wav
36,192,55628,1,0,0:0:0:30:kick.wav
109,192,55653,1,0,0:0:0:30:kick.wav
182,192,55677,1,0,0:0:0:30:kick.wav
256,192,55677,1,0,0:0:0:0:
402,192,55873,1,0,0:0:0:30:kick.wav
329,192,55898,1,0,0:0:0:30:kick.wav
256,192,55922,1,0,0:0:0:30:kick.wav
182,192,55947,1,0,0:0:0:30:kick.wav
109,192,55971,1,0,0:0:0:30:kick.wav
36,192,55996,1,0,0:0:0:30:kick.wav
475,192,56020,1,0,0:0:0:30:kick.wav
402,192,56045,1,0,0:0:0:30:kick.wav
256,192,56070,1,0,0:0:0:30:kick.wav
329,192,56070,1,0,0:0:0:0:
182,192,56266,1,0,0:0:0:30:kick.wav
109,192,56290,1,0,0:0:0:30:kick.wav
36,192,56315,1,0,0:0:0:30:kick.wav
475,192,56339,1,0,0:0:0:30:kick.wav
402,192,56364,1,0,0:0:0:30:kick.wav
329,192,56388,1,0,0:0:0:30:kick.wav
256,192,56413,1,0,0:0:0:30:kick.wav
182,192,56437,1,0,0:0:0:30:kick.wav
36,192,56462,1,0,0:0:0:30:kick.wav
109,192,56462,1,0,0:0:0:0:
329,192,56658,1,0,0:0:0:30:kick.wav
402,192,56682,1,0,0:0:0:30:kick.wav
475,192,56707,1,0,0:0:0:30:kick.wav
36,192,56731,1,0,0:0:0:30:kick.wav
109,192,56756,1,0,0:0:0:30:kick.wav
182,192,56780,1,0,0:0:0:30:kick.wav
256,192,56805,1,0,0:0:0:30:kick.wav
329,192,56829,1,0,0:0:0:30:kick.wav
402,192,56854,1,0,0:0:0:30:kick.wav
475,192,56854,1,0,0:0:0:0:
36,192,56952,1,0,0:0:0:0:
109,192,56952,1,0,0:0:0:0:
256,192,57050,128,0,57148:0:0:0:50:kick.wav
329,192,57050,128,0,57148:0:0:0:70:cymbal.wav
475,192,57050,128,0,57148:0:0:0:0:
36,192,57148,1,0,0:0:0:50:kick.wav
109,192,57148,1,0,0:0:0:0:
182,192,57246,128,0,57344:0:0:0:50:kick.wav
256,192,57246,128,0,57344:0:0:0:0:
402,192,57246,128,0,57344:0:0:0:0:
36,192,57344,1,0,0:0:0:50:kick.wav
475,192,57344,1,0,0:0:0:0:
109,192,57442,128,0,57540:0:0:0:50:kick.wav
182,192,57442,128,0,57540:0:0:0:70:cymbal.wav
329,192,57442,128,0,57540:0:0:0:0:
402,192,57540,1,0,0:0:0:50:kick.wav
475,192,57540,1,0,0:0:0:0:
36,192,57638,128,0,57736:0:0:0:50:kick.wav
109,192,57638,128,0,57736:0:0:0:0:
256,192,57638,128,0,57736:0:0:0:0:
329,192,57736,1,0,0:0:0:50:kick.wav
475,192,57736,1,0,0:0:0:0:
109,192,57932,1,0,0:0:0:70:tom01.wav
402,192,57932,1,0,0:0:0:70:S4.wav
182,192,58030,1,0,0:0:0:70:tom02.wav
329,192,58030,1,0,0:0:0:70:S4.wav
256,192,58128,1,0,0:0:0:70:tom03.wav
182,192,58324,1,0,0:0:0:70:S4.wav
329,192,58324,1,0,0:0:0:0:
36,192,58422,1,0,0:0:0:30:electronic33.wav
329,192,58422,1,0,0:0:0:0:
475,192,58422,1,0,0:0:0:0:
182,192,58422,1,0,0:0:0:100:Go_001.wav
182,192,58619,128,0,58913:0:0:0:70:push_scratch.wav
36,192,58619,128,0,58913:0:0:0:50:kick.wav
109,192,58619,128,0,58913:0:0:0:70:cymbal.wav
256,192,58619,128,0,58913:0:0:0:0:
402,192,58619,1,0,0:0:0:0:
329,192,58913,1,0,0:0:0:0:
475,192,58913,1,0,0:0:0:0:
36,192,59011,1,0,0:0:0:50:kick.wav
109,192,59011,1,0,0:0:0:0:
256,192,59011,1,0,0:0:0:0:
182,192,59109,1,0,0:0:0:0:
402,192,59109,1,0,0:0:0:0:
475,192,59109,1,0,0:0:0:0:
182,192,59207,1,0,0:0:0:0:
402,192,59207,128,0,59305:0:0:0:0:
475,192,59207,128,0,59305:0:0:0:0:
36,192,59305,1,0,0:0:0:0:
256,192,59305,1,0,0:0:0:0:
109,192,59403,1,0,0:0:0:50:kick.wav
329,192,59403,1,0,0:0:0:0:
475,192,59403,1,0,0:0:0:0:
182,192,59501,1,0,0:0:0:0:
402,192,59501,1,0,0:0:0:0:
36,192,59599,128,0,59795:0:0:0:0:
109,192,59599,128,0,59795:0:0:0:0:
256,192,59599,1,0,0:0:0:0:
329,192,59697,1,0,0:0:0:0:
182,192,59795,1,0,0:0:0:50:kick.wav
402,192,59795,128,0,59991:0:0:0:0:
475,192,59795,128,0,59991:0:0:0:0:
109,192,59991,1,0,0:0:0:0:
329,192,59991,1,0,0:0:0:0:
36,192,60089,1,0,0:0:0:0:
256,192,60089,1,0,0:0:0:0:
182,192,60187,1,0,0:0:0:50:kick.wav
402,192,60187,128,0,60383:0:0:0:0:
475,192,60187,128,0,60383:0:0:0:0:
36,192,60383,1,0,0:0:0:0:
109,192,60383,1,0,0:0:0:0:
256,192,60383,1,0,0:0:0:0:
36,192,60481,128,0,60579:0:0:0:0:
109,192,60481,128,0,60579:0:0:0:0:
329,192,60481,1,0,0:0:0:0:
182,192,60579,1,0,0:0:0:50:kick.wav
402,192,60579,1,0,0:0:0:0:
475,192,60579,1,0,0:0:0:0:
36,192,60677,1,0,0:0:0:0:
256,192,60677,1,0,0:0:0:0:
256,192,60775,1,0,0:0:0:0:
475,192,60775,1,0,0:0:0:0:
182,192,60873,1,0,0:0:0:0:
402,192,60873,1,0,0:0:0:0:
36,192,60971,1,0,0:0:0:50:kick.wav
109,192,60971,1,0,0:0:0:0:
329,192,60971,1,0,0:0:0:0:
182,192,61168,1,0,0:0:0:0:
402,192,61168,1,0,0:0:0:0:
475,192,61168,1,0,0:0:0:0:
256,192,61266,1,0,0:0:0:0:
402,192,61266,128,0,61364:0:0:0:0:
475,192,61266,128,0,61364:0:0:0:0:
36,192,61364,1,0,0:0:0:50:kick.wav
109,192,61364,128,0,61560:0:0:0:0:
329,192,61364,1,0,0:0:0:0:
182,192,61462,128,0,61658:0:0:0:0:
402,192,61462,1,0,0:0:0:0:
256,192,61560,128,0,61756:0:0:0:0:
475,192,61560,1,0,0:0:0:0:
36,192,61658,1,0,0:0:0:0:
329,192,61658,128,0,61952:0:0:0:0:
109,192,61756,1,0,0:0:0:50:kick.wav
402,192,61756,128,0,61952:0:0:0:0:
475,192,61756,128,0,61952:0:0:0:0:
36,192,61952,1,0,0:0:0:0:
182,192,61952,1,0,0:0:0:0:
36,192,62050,1,0,0:0:0:0:
182,192,62050,1,0,0:0:0:0:
256,192,62148,1,0,0:0:0:50:kick.wav
402,192,62148,1,0,0:0:0:0:
475,192,62148,1,0,0:0:0:0:
36,192,62246,1,0,0:0:0:0:
109,192,62246,1,0,0:0:0:0:
329,192,62246,1,0,0:0:0:0:
36,192,62344,128,0,62442:0:0:0:0:
109,192,62344,128,0,62442:0:0:0:0:
329,192,62344,1,0,0:0:0:0:
182,192,62442,1,0,0:0:0:0:
402,192,62442,1,0,0:0:0:0:
36,192,62540,1,0,0:0:0:50:kick.wav
256,192,62540,1,0,0:0:0:0:
475,192,62540,1,0,0:0:0:0:
109,192,62638,1,0,0:0:0:0:
329,192,62638,1,0,0:0:0:0:
182,192,62736,1,0,0:0:0:0:
402,192,62736,128,0,62932:0:0:0:0:
475,192,62736,128,0,62932:0:0:0:0:
256,192,62834,1,0,0:0:0:0:
36,192,62932,1,0,0:0:0:50:kick.wav
109,192,62932,1,0,0:0:0:0:
329,192,62932,1,0,0:0:0:0:
256,192,63030,1,0,0:0:0:0:
475,192,63030,1,0,0:0:0:0:
182,192,63128,128,0,63324:0:0:0:0:
329,192,63128,128,0,63324:0:0:0:0:
36,192,63324,1,0,0:0:0:50:kick.wav
109,192,63324,1,0,0:0:0:50:cymbal_s.wav
256,192,63324,1,0,0:0:0:0:
402,192,63324,1,0,0:0:0:0:
475,192,63324,1,0,0:0:0:0:
109,192,63619,1,0,0:0:0:50:kick.wav
182,192,63619,1,0,0:0:0:50:cymbal_s.wav
256,192,63619,1,0,0:0:0:0:
329,192,63619,1,0,0:0:0:0:
402,192,63619,1,0,0:0:0:0:
36,192,63913,1,0,0:0:0:50:kick.wav
109,192,63913,1,0,0:0:0:50:cymbal_s.wav
256,192,63913,1,0,0:0:0:0:
402,192,63913,1,0,0:0:0:0:
475,192,63913,1,0,0:0:0:0:
36,192,64109,128,0,64305:0:0:0:50:kick.wav
109,192,64109,128,0,64305:0:0:0:50:cymbal_s.wav
182,192,64109,128,0,64305:0:0:0:0:
256,192,64109,128,0,64305:0:0:0:0:
329,192,64109,128,0,64305:0:0:0:0:
475,192,64109,128,0,64305:0:0:0:0:
36,192,64403,128,0,64599:0:0:0:50:kick.wav
182,192,64403,128,0,64599:0:0:0:50:cymbal_s.wav
256,192,64403,128,0,64599:0:0:0:0:
329,192,64403,128,0,64599:0:0:0:0:
402,192,64403,128,0,64599:0:0:0:0:
475,192,64403,128,0,64599:0:0:0:0:
182,192,64697,1,0,0:0:0:50:kick.wav
329,192,64697,1,0,0:0:0:0:
36,192,64893,128,0,65187:0:0:0:50:kick.wav
109,192,64893,128,0,65187:0:0:0:70:cymbal.wav
256,192,64893,1,0,0:0:0:70:push_scratch.wav
402,192,64893,128,0,65187:0:0:0:0:
475,192,64893,128,0,65187:0:0:0:0:
182,192,65187,1,0,0:0:0:0:
329,192,65187,1,0,0:0:0:0:
36,192,65285,1,0,0:0:0:50:kick.wav
256,192,65285,1,0,0:0:0:100:VEC3 Snares 076.wav
475,192,65285,1,0,0:0:0:0:
109,192,65383,1,0,0:0:0:0:
182,192,65383,1,0,0:0:0:0:
402,192,65383,1,0,0:0:0:0:
109,192,65481,128,0,65579:0:0:0:0:
182,192,65481,128,0,65579:0:0:0:0:
329,192,65481,1,0,0:0:0:0:
256,192,65579,1,0,0:0:0:0:
475,192,65579,1,0,0:0:0:0:
36,192,65677,1,0,0:0:0:50:kick.wav
109,192,65677,1,0,0:0:0:0:
402,192,65677,1,0,0:0:0:0:
256,192,65775,1,0,0:0:0:0:
329,192,65775,1,0,0:0:0:0:
109,192,65873,128,0,66070:0:0:0:0:
182,192,65873,128,0,66070:0:0:0:0:
475,192,65873,1,0,0:0:0:0:
256,192,65971,1,0,0:0:0:0:
36,192,66070,1,0,0:0:0:50:kick.wav
329,192,66070,128,0,66266:0:0:0:100:VEC3 Snares 076.wav
402,192,66070,128,0,66266:0:0:0:0:
182,192,66266,1,0,0:0:0:0:
475,192,66266,1,0,0:0:0:0:
109,192,66364,1,0,0:0:0:0:
329,192,66364,1,0,0:0:0:0:
36,192,66462,1,0,0:0:0:50:kick.wav
256,192,66462,1,0,0:0:0:0:
475,192,66462,1,0,0:0:0:0:
109,192,66658,1,0,0:0:0:0:
182,192,66658,1,0,0:0:0:0:
329,192,66658,1,0,0:0:0:0:
109,192,66756,128,0,66854:0:0:0:0:
182,192,66756,128,0,66854:0:0:0:0:
402,192,66756,1,0,0:0:0:0:
36,192,66854,1,0,0:0:0:50:kick.wav
256,192,66854,1,0,0:0:0:100:VEC3 Snares 076.wav
475,192,66854,1,0,0:0:0:0:
182,192,66952,1,0,0:0:0:0:
329,192,66952,1,0,0:0:0:0:
109,192,67050,1,0,0:0:0:0:
329,192,67050,1,0,0:0:0:0:
402,192,67148,1,0,0:0:0:0:
182,192,67148,1,0,0:0:0:0:
256,192,67246,1,0,0:0:0:50:kick.wav
475,192,67246,1,0,0:0:0:0:
36,192,67246,1,0,0:0:0:0:
109,192,67442,1,0,0:0:0:0:
329,192,67442,1,0,0:0:0:0:
402,192,67442,1,0,0:0:0:0:
182,192,67540,1,0,0:0:0:0:
329,192,67540,128,0,67638:0:0:0:0:
402,192,67540,128,0,67638:0:0:0:0:
36,192,67638,128,0,67932:0:0:0:50:kick.wav
256,192,67638,1,0,0:0:0:100:VEC3 Snares 076.wav
475,192,67638,1,0,0:0:0:0:
109,192,67736,128,0,67932:0:0:0:0:
329,192,67736,1,0,0:0:0:0:
256,192,67834,1,0,0:0:0:0:
475,192,67834,128,0,68030:0:0:0:0:
402,192,67900,128,0,68030:0:0:0:0:
182,192,67932,1,0,0:0:0:0:
329,192,67965,128,0,68030:0:0:0:0:
36,192,68030,128,0,68226:0:0:0:50:kick.wav
109,192,68030,128,0,68226:0:0:0:0:
182,192,68128,128,0,68226:0:0:0:0:
256,192,68128,128,0,68226:0:0:0:0:
402,192,68226,1,0,0:0:0:0:
475,192,68226,1,0,0:0:0:0:
329,192,68324,1,0,0:0:0:0:
36,192,68422,1,0,0:0:0:50:kick.wav
109,192,68422,1,0,0:0:0:100:VEC3 Snares 076.wav
256,192,68422,1,0,0:0:0:0:
475,192,68422,1,0,0:0:0:0:
182,192,68520,1,0,0:0:0:0:
402,192,68520,1,0,0:0:0:0:
36,192,68619,1,0,0:0:0:0:
256,192,68619,1,0,0:0:0:0:
109,192,68717,1,0,0:0:0:50:kick.wav
329,192,68717,1,0,0:0:0:0:
475,192,68717,1,0,0:0:0:0:
36,192,68815,128,0,69011:0:0:0:50:kick.wav
182,192,68815,128,0,69011:0:0:0:50:cymbal_s.wav
256,192,68815,128,0,69011:0:0:0:0:
402,192,68815,128,0,69011:0:0:0:0:
475,192,68815,128,0,69011:0:0:0:0:
36,192,69109,128,0,69305:0:0:0:50:kick.wav
182,192,69109,128,0,69305:0:0:0:50:cymbal_s.wav
256,192,69109,128,0,69305:0:0:0:0:
402,192,69109,128,0,69305:0:0:0:0:
475,192,69109,128,0,69305:0:0:0:0:
36,192,69403,128,0,69501:0:0:0:50:kick.wav
182,192,69403,128,0,69501:0:0:0:50:cymbal_s.wav
256,192,69403,128,0,69501:0:0:0:0:
402,192,69403,128,0,69501:0:0:0:0:
475,192,69403,128,0,69501:0:0:0:0:
36,192,69599,1,0,0:0:0:50:kick.wav
109,192,69599,1,0,0:0:0:70:cymbal.wav
256,192,69599,1,0,0:0:0:70:S7.wav
329,192,69599,1,0,0:0:0:0:
475,192,69599,1,0,0:0:0:0:
182,192,69697,1,0,0:0:0:70:S7.wav
402,192,69697,1,0,0:0:0:0:
36,192,69795,1,0,0:0:0:70:S7.wav
109,192,69795,1,0,0:0:0:0:
256,192,69795,1,0,0:0:0:0:
182,192,69893,1,0,0:0:0:70:S7.wav
329,192,69893,1,0,0:0:0:0:
475,192,69893,128,0,69942:0:0:0:0:
36,192,69991,1,0,0:0:0:70:S7.wav
256,192,69991,1,0,0:0:0:0:
109,192,70040,1,0,0:0:0:0:
182,192,70089,1,0,0:0:0:70:S7.wav
402,192,70089,1,0,0:0:0:0:
329,192,70138,1,0,0:0:0:0:
36,192,70187,1,0,0:0:0:70:S7.wav
256,192,70187,1,0,0:0:0:0:
475,192,70187,128,0,70236:0:0:0:0:
109,192,70236,1,0,0:0:0:70:S7.wav
182,192,70285,1,0,0:0:0:70:S7.wav
402,192,70285,1,0,0:0:0:0:
329,192,70334,1,0,0:0:0:70:S7.wav
36,192,70383,128,0,70677:0:0:0:70:LR_Drum Rpd x2.wav
109,192,70383,128,0,70677:0:0:0:0:
256,192,70481,128,0,70677:0:0:0:70:LR_Drum Rpd x2.wav
402,192,70579,128,0,70677:0:0:0:70:LR_Drum Kick Low.wav
475,192,70579,128,0,70677:0:0:0:0:
36,192,70775,128,0,71070:0:0:0:70:LR_Drum Rpd x2.wav
109,192,70775,128,0,71070:0:0:0:0:
256,192,70873,128,0,71070:0:0:0:70:LR_Drum Rpd x2.wav
402,192,70971,128,0,71070:0:0:0:70:LR_Drum Kick Low.wav
475,192,70971,128,0,71070:0:0:0:0:
36,192,71168,1,0,0:0:0:50:kick.wav
256,192,71168,1,0,0:0:0:0:
475,192,71168,1,0,0:0:0:0:
256,192,71364,1,0,0:0:0:0:
36,192,71560,1,0,0:0:0:50:kick.wav
109,192,71560,1,0,0:0:0:70:cymbal.wav
182,192,71560,1,0,0:0:0:70:CLAP_.wav
329,192,71560,1,0,0:0:0:100:Go_001.wav
402,192,71560,1,0,0:0:0:70:push_scratch.wav
475,192,71560,1,0,0:0:0:0:
256,192,71756,1,0,0:0:0:0:
402,192,71805,1,0,0:0:0:0:
182,192,71854,1,0,0:0:0:0:
329,192,71903,1,0,0:0:0:0:
36,192,71952,1,0,0:0:0:50:kick.wav
109,192,71952,1,0,0:0:0:0:
475,192,71952,1,0,0:0:0:0:
36,192,72050,1,0,0:0:0:0:
109,192,72050,1,0,0:0:0:0:
256,192,72148,1,0,0:0:0:0:
329,192,72148,1,0,0:0:0:0:
402,192,72148,1,0,0:0:0:0:
256,192,72246,1,0,0:0:0:0:
329,192,72246,1,0,0:0:0:0:
36,192,72344,1,0,0:0:0:50:kick.wav
109,192,72344,1,0,0:0:0:70:CLAP_.wav
182,192,72344,1,0,0:0:0:0:
475,192,72344,1,0,0:0:0:0:
109,192,72442,1,0,0:0:0:0:
182,192,72442,1,0,0:0:0:0:
329,192,72540,1,0,0:0:0:0:
402,192,72540,1,0,0:0:0:0:
475,192,72540,1,0,0:0:0:0:
329,192,72638,1,0,0:0:0:0:
402,192,72638,1,0,0:0:0:0:
36,192,72736,1,0,0:0:0:50:kick.wav
109,192,72736,1,0,0:0:0:0:
256,192,72736,1,0,0:0:0:0:
475,192,72834,1,0,0:0:0:0:
182,192,72932,1,0,0:0:0:0:
329,192,72932,1,0,0:0:0:0:
36,192,73030,128,0,73324:0:0:0:0:
402,192,73030,1,0,0:0:0:0:
109,192,73128,128,0,73324:0:0:0:50:kick.wav
256,192,73128,1,0,0:0:0:70:CLAP_.wav
475,192,73128,1,0,0:0:0:0:
182,192,73226,128,0,73324:0:0:0:0:
329,192,73324,1,0,0:0:0:0:
256,192,73373,1,0,0:0:0:0:
182,192,73422,1,0,0:0:0:0:
109,192,73471,1,0,0:0:0:0:
36,192,73520,1,0,0:0:0:50:kick.wav
402,192,73520,1,0,0:0:0:0:
475,192,73520,1,0,0:0:0:0:
402,192,73619,1,0,0:0:0:0:
475,192,73619,1,0,0:0:0:0:
109,192,73717,1,0,0:0:0:0:
182,192,73717,1,0,0:0:0:0:
256,192,73717,1,0,0:0:0:0:
182,192,73815,1,0,0:0:0:0:
256,192,73815,1,0,0:0:0:0:
36,192,73913,1,0,0:0:0:50:kick.wav
329,192,73913,1,0,0:0:0:70:CLAP_.wav
402,192,73913,1,0,0:0:0:0:
475,192,73913,1,0,0:0:0:0:
329,192,74011,1,0,0:0:0:0:
402,192,74011,1,0,0:0:0:0:
36,192,74109,1,0,0:0:0:0:
109,192,74109,1,0,0:0:0:0:
182,192,74109,1,0,0:0:0:0:
109,192,74207,1,0,0:0:0:0:
182,192,74207,1,0,0:0:0:0:
256,192,74305,1,0,0:0:0:50:kick.wav
402,192,74305,1,0,0:0:0:0:
475,192,74305,1,0,0:0:0:0:
36,192,74501,1,0,0:0:0:50:kick.wav
109,192,74501,1,0,0:0:0:0:
256,192,74501,1,0,0:0:0:0:
36,192,74697,1,0,0:0:0:50:kick.wav
109,192,74697,1,0,0:0:0:70:cymbal.wav
182,192,74697,1,0,0:0:0:70:CLAP_.wav
329,192,74697,1,0,0:0:0:0:
402,192,74697,1,0,0:0:0:0:
475,192,74697,1,0,0:0:0:0:
256,192,74893,1,0,0:0:0:0:
109,192,74942,1,0,0:0:0:0:
329,192,74991,1,0,0:0:0:0:
182,192,75040,1,0,0:0:0:0:
36,192,75089,1,0,0:0:0:50:kick.wav
402,192,75089,1,0,0:0:0:0:
475,192,75089,1,0,0:0:0:0:
402,192,75187,1,0,0:0:0:0:
475,192,75187,1,0,0:0:0:0:
36,192,75285,1,0,0:0:0:0:
182,192,75285,1,0,0:0:0:0:
329,192,75285,1,0,0:0:0:0:
182,192,75383,1,0,0:0:0:0:
329,192,75383,1,0,0:0:0:0:
36,192,75481,1,0,0:0:0:50:kick.wav
109,192,75481,1,0,0:0:0:70:CLAP_.wav
256,192,75481,1,0,0:0:0:0:
475,192,75481,1,0,0:0:0:0:
36,192,75579,1,0,0:0:0:0:
109,192,75579,1,0,0:0:0:0:
182,192,75677,1,0,0:0:0:50:kick.wav
329,192,75677,1,0,0:0:0:0:
475,192,75677,1,0,0:0:0:0:
36,192,75873,1,0,0:0:0:50:kick.wav
109,192,75873,1,0,0:0:0:50:cymbal_s.wav
256,192,75873,1,0,0:0:0:0:
402,192,75873,1,0,0:0:0:0:
475,192,75873,1,0,0:0:0:0:
109,192,76168,1,0,0:0:0:50:kick.wav
182,192,76168,1,0,0:0:0:50:cymbal_s.wav
256,192,76168,1,0,0:0:0:0:
329,192,76168,1,0,0:0:0:0:
402,192,76168,1,0,0:0:0:0:
36,192,76462,1,0,0:0:0:50:kick.wav
109,192,76462,1,0,0:0:0:50:cymbal_s.wav
256,192,76462,1,0,0:0:0:0:
402,192,76462,1,0,0:0:0:0:
475,192,76462,1,0,0:0:0:0:
36,192,76658,128,0,76854:0:0:0:50:kick.wav
109,192,76658,128,0,76854:0:0:0:50:cymbal_s.wav
182,192,76658,128,0,76854:0:0:0:0:
256,192,76658,128,0,76854:0:0:0:0:
329,192,76658,128,0,76854:0:0:0:0:
475,192,76658,128,0,76854:0:0:0:0:
36,192,76952,128,0,77148:0:0:0:50:kick.wav
182,192,76952,128,0,77148:0:0:0:50:cymbal_s.wav
256,192,76952,128,0,77148:0:0:0:0:
329,192,76952,128,0,77148:0:0:0:0:
402,192,76952,128,0,77148:0:0:0:0:
475,192,76952,128,0,77148:0:0:0:0:
182,192,77246,1,0,0:0:0:50:kick.wav
329,192,77246,1,0,0:0:0:0:
36,192,77442,128,0,78913:0:0:0:50:kick.wav
109,192,77442,1,0,0:0:0:70:cymbal.wav
256,192,77442,1,0,0:0:0:70:push_scratch.wav
402,192,77442,1,0,0:0:0:0:
475,192,77442,1,0,0:0:0:0:
329,192,77638,1,0,0:0:0:0:
402,192,77736,1,0,0:0:0:0:
109,192,77834,1,0,0:0:0:50:kick.wav
256,192,77834,1,0,0:0:0:70:CLAP_.wav
475,192,77834,1,0,0:0:0:0:
329,192,77932,1,0,0:0:0:0:
402,192,78030,1,0,0:0:0:0:
182,192,78079,1,0,0:0:0:0:
256,192,78128,1,0,0:0:0:0:
329,192,78177,1,0,0:0:0:0:
109,192,78226,1,0,0:0:0:50:kick.wav
402,192,78226,1,0,0:0:0:0:
475,192,78226,1,0,0:0:0:0:
402,192,78324,1,0,0:0:0:0:
475,192,78324,1,0,0:0:0:0:
182,192,78422,1,0,0:0:0:0:
256,192,78422,1,0,0:0:0:0:
182,192,78520,1,0,0:0:0:0:
256,192,78520,1,0,0:0:0:0:
329,192,78619,1,0,0:0:0:50:kick.wav
402,192,78619,1,0,0:0:0:70:CLAP_.wav
475,192,78619,1,0,0:0:0:0:
329,192,78717,1,0,0:0:0:0:
402,192,78717,1,0,0:0:0:0:
109,192,78815,1,0,0:0:0:0:
182,192,78815,1,0,0:0:0:0:
109,192,78913,1,0,0:0:0:0:
182,192,78913,1,0,0:0:0:0:
36,192,79011,1,0,0:0:0:50:kick.wav
256,192,79011,1,0,0:0:0:0:
402,192,79011,1,0,0:0:0:0:
475,192,79011,1,0,0:0:0:0:
329,192,79109,1,0,0:0:0:0:
182,192,79207,1,0,0:0:0:0:
402,192,79207,1,0,0:0:0:0:
36,192,79305,1,0,0:0:0:50:kick.wav
109,192,79305,1,0,0:0:0:0:
256,192,79305,1,0,0:0:0:0:
475,192,79305,1,0,0:0:0:0:
36,192,79501,1,0,0:0:0:50:kick.wav
256,192,79501,1,0,0:0:0:0:
402,192,79501,1,0,0:0:0:0:
475,192,79501,1,0,0:0:0:0:
182,192,79599,1,0,0:0:0:0:
329,192,79648,1,0,0:0:0:0:
109,192,79697,1,0,0:0:0:0:
256,192,79746,1,0,0:0:0:0:
36,192,79795,1,0,0:0:0:50:kick.wav
182,192,79795,128,0,79860:0:0:0:0:
329,192,79795,128,0,79860:0:0:0:0:
475,192,79795,1,0,0:0:0:0:
182,192,79926,128,0,79991:0:0:0:0:
329,192,79926,128,0,79991:0:0:0:0:
182,192,80056,128,0,80122:0:0:0:0:
329,192,80056,128,0,80122:0:0:0:0:
36,192,80187,128,0,80514:0:0:0:0:
182,192,80187,128,0,80253:0:0:0:0:
329,192,80187,128,0,80253:0:0:0:0:
109,192,80318,128,0,80514:0:0:0:0:
256,192,80318,128,0,80383:0:0:0:0:
402,192,80318,128,0,80383:0:0:0:0:
182,192,80449,128,0,80514:0:0:0:0:
329,192,80449,128,0,80514:0:0:0:0:
475,192,80449,128,0,80514:0:0:0:0:
36,192,80579,1,0,0:0:0:50:kick.wav
109,192,80579,1,0,0:0:0:70:cymbal.wav
256,192,80579,1,0,0:0:0:70:push_scratch.wav
402,192,80579,1,0,0:0:0:0:
475,192,80579,1,0,0:0:0:0:
182,192,80645,1,0,0:0:0:0:
329,192,80710,1,0,0:0:0:0:
109,192,80775,1,0,0:0:0:0:
256,192,80841,1,0,0:0:0:0:
402,192,80906,1,0,0:0:0:0:
36,192,80971,1,0,0:0:0:0:
182,192,80971,1,0,0:0:0:0:
329,192,81037,1,0,0:0:0:0:
475,192,81037,1,0,0:0:0:0:
109,192,81102,1,0,0:0:0:0:
256,192,81102,1,0,0:0:0:0:
402,192,81168,1,0,0:0:0:0:
475,192,81168,1,0,0:0:0:0:
182,192,81233,1,0,0:0:0:0:
329,192,81233,1,0,0:0:0:0:
36,192,81298,1,0,0:0:0:0:
109,192,81298,1,0,0:0:0:0:
256,192,81364,1,0,0:0:0:0:
475,192,81364,1,0,0:0:0:0:
182,192,81429,1,0,0:0:0:0:
402,192,81429,1,0,0:0:0:0:
109,192,81494,1,0,0:0:0:0:
329,192,81494,1,0,0:0:0:0:
256,192,81560,1,0,0:0:0:0:
475,192,81560,1,0,0:0:0:0:
182,192,81625,1,0,0:0:0:0:
402,192,81625,1,0,0:0:0:0:
109,192,81690,1,0,0:0:0:0:
329,192,81690,1,0,0:0:0:0:
36,192,81756,1,0,0:0:0:0:
256,192,81756,1,0,0:0:0:0:
109,192,81821,1,0,0:0:0:0:
329,192,81821,1,0,0:0:0:0:
182,192,81886,1,0,0:0:0:0:
402,192,81886,1,0,0:0:0:0:
36,192,81952,1,0,0:0:0:0:
256,192,81952,1,0,0:0:0:0:
109,192,82017,1,0,0:0:0:0:
329,192,82017,1,0,0:0:0:0:
182,192,82083,1,0,0:0:0:0:
402,192,82083,1,0,0:0:0:0:
36,192,82148,128,0,82442:0:0:0:50:kick.wav
256,192,82148,1,0,0:0:0:50:cymbal_s.wav
475,192,82148,128,0,82344:0:0:0:0:
329,192,82344,1,0,0:0:0:50:LR_Drum Kick Low.wav
256,192,82393,1,0,0:0:0:0:
182,192,82442,1,0,0:0:0:50:LR_Drum Kick Low.wav
109,192,82491,1,0,0:0:0:0:
36,192,82540,1,0,0:0:0:50:S2.wav
329,192,82540,1,0,0:0:0:0:
402,192,82540,1,0,0:0:0:0:
475,192,82540,1,0,0:0:0:0:
182,192,82736,1,0,0:0:0:50:LR_Drum Kick Low.wav
329,192,82834,1,0,0:0:0:50:S2.wav
402,192,82834,1,0,0:0:0:0:
475,192,82834,1,0,0:0:0:0:
36,192,82932,1,0,0:0:0:0:
109,192,82998,1,0,0:0:0:0:
329,192,83030,1,0,0:0:0:50:S2.wav
402,192,83030,1,0,0:0:0:0:
475,192,83030,1,0,0:0:0:0:
182,192,83063,1,0,0:0:0:0:
36,192,83128,1,0,0:0:0:50:LR_Drum Kick Low.wav
256,192,83128,1,0,0:0:0:0:
109,192,83226,1,0,0:0:0:50:LR_Drum Kick Low.wav
329,192,83226,1,0,0:0:0:0:
36,192,83324,1,0,0:0:0:50:S1.wav
182,192,83324,1,0,0:0:0:0:
402,192,83324,1,0,0:0:0:0:
475,192,83324,1,0,0:0:0:0:
36,192,83717,1,0,0:0:0:50:kick.wav
109,192,83717,1,0,0:0:0:70:cymbal.wav
329,192,83717,1,0,0:0:0:70:push_scratch.wav
402,192,83717,128,0,84305:0:0:0:0:
475,192,83717,1,0,0:0:0:0:
182,192,83815,1,0,0:0:0:0:
36,192,83913,1,0,0:0:0:0:
256,192,83913,1,0,0:0:0:0:
109,192,84011,1,0,0:0:0:0:
329,192,84011,1,0,0:0:0:0:
182,192,84060,1,0,0:0:0:0:
36,192,84109,1,0,0:0:0:50:kick.wav
256,192,84109,1,0,0:0:0:70:CLAP_.wav
475,192,84109,128,0,84305:0:0:0:0:
182,192,84207,1,0,0:0:0:0:
109,192,84305,1,0,0:0:0:0:
329,192,84305,1,0,0:0:0:0:
36,192,84403,1,0,0:0:0:0:
256,192,84403,1,0,0:0:0:0:
182,192,84501,1,0,0:0:0:50:kick.wav
402,192,84501,1,0,0:0:0:0:
475,192,84501,128,0,85089:0:0:0:0:
109,192,84599,1,0,0:0:0:0:
36,192,84697,1,0,0:0:0:0:
256,192,84697,1,0,0:0:0:0:
182,192,84795,1,0,0:0:0:0:
329,192,84795,1,0,0:0:0:0:
36,192,84893,1,0,0:0:0:50:kick.wav
182,192,84893,1,0,0:0:0:70:CLAP_.wav
329,192,84893,128,0,85089:0:0:0:0:
109,192,85089,1,0,0:0:0:0:
256,192,85089,1,0,0:0:0:0:
182,192,85187,1,0,0:0:0:0:
402,192,85187,1,0,0:0:0:0:
36,192,85285,128,0,85873:0:0:0:50:kick.wav
256,192,85285,1,0,0:0:0:0:
475,192,85285,1,0,0:0:0:0:
329,192,85383,1,0,0:0:0:0:
182,192,85481,1,0,0:0:0:0:
402,192,85481,1,0,0:0:0:0:
256,192,85579,1,0,0:0:0:0:
475,192,85579,1,0,0:0:0:0:
329,192,85628,1,0,0:0:0:0:
109,192,85677,128,0,85873:0:0:0:50:kick.wav
182,192,85677,1,0,0:0:0:70:CLAP_.wav
402,192,85677,1,0,0:0:0:0:
329,192,85775,1,0,0:0:0:0:
256,192,85873,1,0,0:0:0:0:
475,192,85873,1,0,0:0:0:0:
182,192,85971,1,0,0:0:0:0:
402,192,85971,1,0,0:0:0:0:
109,192,86070,128,0,86266:0:0:0:50:kick.wav
329,192,86070,1,0,0:0:0:70:LR_Chm loong.wav
475,192,86070,1,0,0:0:0:0:
36,192,86168,128,0,86266:0:0:0:0:
256,192,86168,1,0,0:0:0:0:
182,192,86266,128,0,86462:0:0:0:0:
402,192,86266,1,0,0:0:0:0:
109,192,86364,128,0,86462:0:0:0:0:
329,192,86364,1,0,0:0:0:0:
36,192,86462,1,0,0:0:0:50:kick.wav
256,192,86462,1,0,0:0:0:70:CLAP_.wav
475,192,86462,1,0,0:0:0:0:
182,192,86658,1,0,0:0:0:0:
402,192,86658,1,0,0:0:0:0:
182,192,86756,1,0,0:0:0:0:
402,192,86756,1,0,0:0:0:0:
36,192,86854,1,0,0:0:0:50:kick.wav
109,192,86854,128,0,87442:0:0:0:0:
256,192,86854,1,0,0:0:0:0:
475,192,86854,1,0,0:0:0:0:
329,192,86952,1,0,0:0:0:0:
182,192,87050,1,0,0:0:0:0:
402,192,87050,1,0,0:0:0:0:
256,192,87148,1,0,0:0:0:0:
475,192,87148,1,0,0:0:0:0:
329,192,87197,1,0,0:0:0:0:
36,192,87246,128,0,87442:0:0:0:50:kick.wav
182,192,87246,1,0,0:0:0:70:CLAP_.wav
402,192,87246,1,0,0:0:0:0:
329,192,87344,1,0,0:0:0:0:
256,192,87442,1,0,0:0:0:0:
475,192,87442,1,0,0:0:0:0:
182,192,87540,1,0,0:0:0:0:
402,192,87540,1,0,0:0:0:0:
36,192,87638,128,0,88226:0:0:0:50:kick.wav
109,192,87638,1,0,0:0:0:0:
329,192,87638,1,0,0:0:0:0:
256,192,87736,1,0,0:0:0:0:
402,192,87834,1,0,0:0:0:0:
475,192,87834,1,0,0:0:0:0:
182,192,87932,1,0,0:0:0:0:
329,192,87932,1,0,0:0:0:0:
182,192,88030,128,0,88226:0:0:0:50:kick.wav
329,192,88030,1,0,0:0:0:70:CLAP_.wav
475,192,88030,1,0,0:0:0:0:
256,192,88226,1,0,0:0:0:0:
402,192,88226,1,0,0:0:0:0:
109,192,88324,1,0,0:0:0:0:
329,192,88324,1,0,0:0:0:0:
36,192,88422,1,0,0:0:0:50:kick.wav
256,192,88422,1,0,0:0:0:0:
475,192,88422,128,0,89011:0:0:0:0:
182,192,88520,1,0,0:0:0:0:
109,192,88619,1,0,0:0:0:0:
329,192,88619,1,0,0:0:0:0:
36,192,88717,1,0,0:0:0:0:
256,192,88717,1,0,0:0:0:0:
182,192,88766,1,0,0:0:0:0:
109,192,88815,1,0,0:0:0:50:kick.wav
329,192,88815,1,0,0:0:0:70:CLAP_.wav
402,192,88815,128,0,89011:0:0:0:0:
182,192,88913,1,0,0:0:0:0:
36,192,89011,1,0,0:0:0:0:
256,192,89011,1,0,0:0:0:0:
109,192,89109,1,0,0:0:0:0:
329,192,89109,1,0,0:0:0:0:
182,192,89207,1,0,0:0:0:50:kick.wav
402,192,89207,1,0,0:0:0:0:
475,192,89207,1,0,0:0:0:0:
256,192,89272,1,0,0:0:0:0:
36,192,89305,1,0,0:0:0:0:
329,192,89337,1,0,0:0:0:0:
182,192,89403,1,0,0:0:0:0:
402,192,89403,128,0,89599:0:0:0:0:
109,192,89501,1,0,0:0:0:0:
329,192,89501,128,0,89599:0:0:0:0:
36,192,89599,1,0,0:0:0:50:kick.wav
256,192,89599,1,0,0:0:0:70:CLAP_.wav
475,192,89599,1,0,0:0:0:0:
109,192,89795,1,0,0:0:0:0:
329,192,89795,1,0,0:0:0:0:
109,192,89893,1,0,0:0:0:0:
329,192,89893,1,0,0:0:0:0:
36,192,89991,128,0,90579:0:0:0:50:kick.wav
256,192,89991,1,0,0:0:0:70:push_scratch.wav
402,192,89991,1,0,0:0:0:0:
475,192,89991,1,0,0:0:0:0:
182,192,90089,1,0,0:0:0:0:
109,192,90187,1,0,0:0:0:0:
329,192,90187,1,0,0:0:0:0:
256,192,90285,1,0,0:0:0:0:
475,192,90285,1,0,0:0:0:0:
402,192,90334,1,0,0:0:0:0:
109,192,90383,128,0,90579:0:0:0:50:kick.wav
182,192,90383,1,0,0:0:0:70:CLAP_.wav
329,192,90383,1,0,0:0:0:0:
256,192,90481,1,0,0:0:0:0:
402,192,90579,1,0,0:0:0:0:
475,192,90579,1,0,0:0:0:0:
182,192,90677,1,0,0:0:0:0:
329,192,90677,1,0,0:0:0:0:
36,192,90775,1,0,0:0:0:50:kick.wav
256,192,90775,1,0,0:0:0:0:
475,192,90775,128,0,91364:0:0:0:0:
109,192,90873,1,0,0:0:0:0:
182,192,90971,1,0,0:0:0:0:
329,192,90971,1,0,0:0:0:0:
36,192,91070,1,0,0:0:0:0:
256,192,91070,1,0,0:0:0:0:
36,192,91168,1,0,0:0:0:50:kick.wav
256,192,91168,1,0,0:0:0:70:CLAP_.wav
402,192,91168,128,0,91364:0:0:0:0:
36,192,91364,1,0,0:0:0:0:
256,192,91364,1,0,0:0:0:0:
109,192,91429,1,0,0:0:0:0:
329,192,91462,1,0,0:0:0:0:
182,192,91494,1,0,0:0:0:0:
36,192,91560,128,0,92148:0:0:0:50:kick.wav
256,192,91560,1,0,0:0:0:0:
402,192,91560,1,0,0:0:0:0:
182,192,91658,1,0,0:0:0:0:
329,192,91756,1,0,0:0:0:0:
475,192,91756,1,0,0:0:0:0:
109,192,91854,1,0,0:0:0:0:
256,192,91854,1,0,0:0:0:0:
109,192,91952,128,0,92148:0:0:0:50:kick.wav
256,192,91952,1,0,0:0:0:70:CLAP_.wav
402,192,91952,1,0,0:0:0:0:
182,192,92050,1,0,0:0:0:0:
329,192,92148,1,0,0:0:0:0:
475,192,92148,1,0,0:0:0:0:
36,192,92246,1,0,0:0:0:0:
256,192,92246,1,0,0:0:0:0:
109,192,92295,1,0,0:0:0:0:
182,192,92344,1,0,0:0:0:50:kick.wav
402,192,92344,1,0,0:0:0:70:LR_Chm loong.wav
475,192,92344,1,0,0:0:0:0:
329,192,92409,1,0,0:0:0:0:
36,192,92442,1,0,0:0:0:0:
256,192,92475,1,0,0:0:0:0:
182,192,92540,128,0,92736:0:0:0:0:
402,192,92540,1,0,0:0:0:0:
109,192,92638,128,0,92736:0:0:0:0:
329,192,92638,1,0,0:0:0:0:
36,192,92736,1,0,0:0:0:50:kick.wav
256,192,92736,128,0,92932:0:0:0:70:CLAP_.wav
475,192,92736,1,0,0:0:0:0:
182,192,92834,128,0,92932:0:0:0:0:
402,192,92834,1,0,0:0:0:0:
109,192,92932,1,0,0:0:0:0:
329,192,92932,128,0,93128:0:0:0:0:
256,192,93030,128,0,93128:0:0:0:0:
475,192,93030,1,0,0:0:0:0:
36,192,93128,128,0,93717:0:0:0:50:kick.wav
109,192,93128,1,0,0:0:0:0:
182,192,93128,1,0,0:0:0:0:
402,192,93128,1,0,0:0:0:0:
329,192,93226,1,0,0:0:0:0:
182,192,93324,1,0,0:0:0:0:
475,192,93324,1,0,0:0:0:0:
109,192,93422,1,0,0:0:0:0:
329,192,93422,1,0,0:0:0:0:
256,192,93471,1,0,0:0:0:0:
182,192,93520,1,0,0:0:0:50:kick.wav
402,192,93520,1,0,0:0:0:70:CLAP_.wav
475,192,93520,128,0,93717:0:0:0:0:
256,192,93619,1,0,0:0:0:0:
109,192,93717,1,0,0:0:0:0:
329,192,93717,1,0,0:0:0:0:
182,192,93815,1,0,0:0:0:0:
402,192,93815,1,0,0:0:0:0:
36,192,93913,128,0,94501:0:0:0:50:kick.wav
256,192,93913,1,0,0:0:0:0:
475,192,93913,1,0,0:0:0:0:
329,192,94011,1,0,0:0:0:0:
109,192,94109,1,0,0:0:0:0:
182,192,94109,1,0,0:0:0:0:
329,192,94207,1,0,0:0:0:0:
475,192,94207,1,0,0:0:0:0:
109,192,94305,1,0,0:0:0:50:kick.wav
329,192,94305,1,0,0:0:0:70:CLAP_.wav
475,192,94305,128,0,94501:0:0:0:0:
182,192,94403,1,0,0:0:0:0:
256,192,94501,1,0,0:0:0:0:
402,192,94501,1,0,0:0:0:0:
182,192,94599,1,0,0:0:0:0:
329,192,94599,1,0,0:0:0:0:
36,192,94697,1,0,0:0:0:50:kick.wav
109,192,94697,1,0,0:0:0:0:
256,192,94697,1,0,0:0:0:0:
329,192,94795,1,0,0:0:0:50:kick.wav
402,192,94795,1,0,0:0:0:0:
475,192,94795,1,0,0:0:0:0:
36,192,94893,1,0,0:0:0:50:kick.wav
109,192,94893,1,0,0:0:0:0:
182,192,94893,1,0,0:0:0:0:
256,192,94991,1,0,0:0:0:50:kick.wav
329,192,94991,1,0,0:0:0:0:
402,192,94991,1,0,0:0:0:0:
36,192,95089,1,0,0:0:0:50:kick.wav
109,192,95089,1,0,0:0:0:70:CLAP_.wav
475,192,95089,1,0,0:0:0:0:
182,192,95187,1,0,0:0:0:50:kick.wav
256,192,95187,1,0,0:0:0:0:
329,192,95187,1,0,0:0:0:0:
36,192,95285,1,0,0:0:0:50:kick.wav
475,192,95285,1,0,0:0:0:0:
109,192,95334,1,0,0:0:0:0:
402,192,95334,1,0,0:0:0:0:
182,192,95383,1,0,0:0:0:50:kick.wav
329,192,95383,1,0,0:0:0:0:
256,192,95432,1,0,0:0:0:0:
36,192,95481,1,0,0:0:0:100:electronic13_short.wav
109,192,95481,1,0,0:0:0:0:
402,192,95481,1,0,0:0:0:0:
475,192,95481,1,0,0:0:0:0:
182,192,95677,1,0,0:0:0:0:
329,192,95677,1,0,0:0:0:0:
36,192,95775,1,0,0:0:0:100:electronic13_short.wav
182,192,95775,1,0,0:0:0:0:
329,192,95775,1,0,0:0:0:0:
475,192,95775,1,0,0:0:0:0:
36,192,95971,1,0,0:0:0:100:electronic13_short.wav
182,192,95971,1,0,0:0:0:0:
329,192,95971,1,0,0:0:0:0:
475,192,95971,1,0,0:0:0:0:
36,192,96070,1,0,0:0:0:100:electronic13_short.wav
182,192,96070,1,0,0:0:0:0:
329,192,96070,1,0,0:0:0:0:
475,192,96070,1,0,0:0:0:0:
109,192,96168,1,0,0:0:0:50:kick.wav
256,192,96217,1,0,0:0:0:0:
36,192,96266,128,0,96952:0:0:0:50:kick.wav
182,192,96266,128,0,96952:0:0:0:70:push_scratch.wav
329,192,96266,128,0,96658:0:0:0:0:
402,192,96266,128,0,96682:0:0:0:0:
475,192,96266,128,0,96707:0:0:0:0:
36,192,97050,1,0,0:0:0:100:electronic13_short.wav
182,192,97050,1,0,0:0:0:0:
256,192,97050,1,0,0:0:0:0:
329,192,97050,1,0,0:0:0:0:
402,192,97050,1,0,0:0:0:0:
475,192,97050,1,0,0:0:0:0:
182,192,97246,1,0,0:0:0:0:
329,192,97246,1,0,0:0:0:0:
36,192,97442,1,0,0:0:0:50:kick.wav
109,192,97442,1,0,0:0:0:70:cymbal.wav
182,192,97442,1,0,0:0:0:100:Percussion Hey sound.wav
329,192,97442,128,0,97785:0:0:0:0:
402,192,97442,128,0,97785:0:0:0:0:
475,192,97442,128,0,97785:0:0:0:0:
329,192,97834,128,0,97981:0:0:0:0:
402,192,97859,128,0,97981:0:0:0:0:
475,192,97883,128,0,97981:0:0:0:0:
329,192,98030,128,0,98177:0:0:0:0:
402,192,98055,128,0,98177:0:0:0:0:
475,192,98079,128,0,98177:0:0:0:0:
36,192,98226,1,0,0:0:0:50:kick.wav
182,192,98226,1,0,0:0:0:100:Percussion Hey sound.wav
329,192,98226,128,0,98373:0:0:0:0:
402,192,98251,128,0,98373:0:0:0:0:
475,192,98275,128,0,98373:0:0:0:0:
329,192,98422,128,0,98570:0:0:0:0:
402,192,98447,128,0,98570:0:0:0:0:
475,192,98471,128,0,98570:0:0:0:0:
36,192,98619,1,0,0:0:0:100:electronic13_short.wav
109,192,98619,1,0,0:0:0:0:
182,192,98619,1,0,0:0:0:0:
256,192,98619,1,0,0:0:0:0:
329,192,98619,128,0,98766:0:0:0:0:
402,192,98643,128,0,98766:0:0:0:0:
475,192,98668,128,0,98766:0:0:0:0:
36,192,98815,1,0,0:0:0:50:kick.wav
182,192,98815,1,0,0:0:0:0:
329,192,98815,128,0,98962:0:0:0:0:
402,192,98839,128,0,98962:0:0:0:0:
475,192,98864,128,0,98962:0:0:0:0:
36,192,99011,128,0,99403:0:0:0:100:Percussion Hey sound.wav
109,192,99011,128,0,99403:0:0:0:0:
256,192,99011,1,0,0:0:0:0:
402,192,99109,1,0,0:0:0:50:kick.wav
475,192,99109,1,0,0:0:0:0:
182,192,99207,1,0,0:0:0:0:
329,192,99305,1,0,0:0:0:0:
256,192,99403,1,0,0:0:0:50:kick.wav
402,192,99403,1,0,0:0:0:0:
475,192,99403,1,0,0:0:0:0:
182,192,99599,1,0,0:0:0:0:
329,192,99599,1,0,0:0:0:0:
182,192,99697,1,0,0:0:0:0:
329,192,99697,1,0,0:0:0:0:
36,192,99795,1,0,0:0:0:100:Percussion Hey sound.wav
109,192,99795,1,0,0:0:0:0:
402,192,99795,1,0,0:0:0:0:
475,192,99795,1,0,0:0:0:0:
109,192,99991,1,0,0:0:0:0:
402,192,99991,1,0,0:0:0:0:
36,192,100187,1,0,0:0:0:100:electronic13_short.wav
182,192,100187,1,0,0:0:0:0:
256,192,100187,1,0,0:0:0:0:
329,192,100187,1,0,0:0:0:0:
475,192,100187,1,0,0:0:0:0:
36,192,100579,128,0,100922:0:0:0:50:kick.wav
109,192,100579,128,0,100922:0:0:0:100:Percussion Hey sound.wav
182,192,100579,128,0,100922:0:0:0:0:
329,192,100579,1,0,0:0:0:0:
475,192,100579,1,0,0:0:0:0:
182,192,100971,128,0,101119:0:0:0:0:
109,192,100996,128,0,101119:0:0:0:0:
36,192,101020,128,0,101119:0:0:0:0:
182,192,101168,128,0,101315:0:0:0:0:
109,192,101192,128,0,101315:0:0:0:0:
36,192,101217,128,0,101315:0:0:0:0:
182,192,101364,128,0,101511:0:0:0:50:kick.wav
329,192,101364,1,0,0:0:0:100:Percussion Hey sound.wav
475,192,101364,1,0,0:0:0:0:
109,192,101388,128,0,101511:0:0:0:0:
36,192,101413,128,0,101511:0:0:0:0:
182,192,101560,128,0,101707:0:0:0:0:
109,192,101584,128,0,101707:0:0:0:0:
36,192,101609,128,0,101707:0:0:0:0:
182,192,101756,128,0,101903:0:0:0:100:electronic13_short.wav
256,192,101756,1,0,0:0:0:0:
329,192,101756,1,0,0:0:0:0:
402,192,101756,1,0,0:0:0:0:
475,192,101756,1,0,0:0:0:0:
109,192,101780,128,0,101903:0:0:0:0:
36,192,101805,128,0,101903:0:0:0:0:
182,192,101952,128,0,102099:0:0:0:50:kick.wav
329,192,101952,1,0,0:0:0:0:
475,192,101952,1,0,0:0:0:0:
109,192,101976,128,0,102099:0:0:0:0:
36,192,102001,128,0,102099:0:0:0:0:
256,192,102148,1,0,0:0:0:50:kick.wav
402,192,102148,128,0,102540:0:0:0:100:Percussion Hey sound.wav
475,192,102148,128,0,102540:0:0:0:0:
182,192,102344,1,0,0:0:0:0:
36,192,102393,1,0,0:0:0:0:
256,192,102442,1,0,0:0:0:0:
109,192,102491,1,0,0:0:0:0:
36,192,102540,1,0,0:0:0:50:kick.wav
182,192,102540,1,0,0:0:0:70:push_scratch.wav
329,192,102540,1,0,0:0:0:0:
402,192,102736,1,0,0:0:0:0:
256,192,102834,1,0,0:0:0:0:
109,192,102932,1,0,0:0:0:100:Percussion Hey sound.wav
256,192,103128,1,0,0:0:0:0:
256,192,103226,1,0,0:0:0:0:
36,192,103324,1,0,0:0:0:100:electronic13_short.wav
182,192,103324,1,0,0:0:0:0:
329,192,103324,1,0,0:0:0:0:
475,192,103324,1,0,0:0:0:0:
182,192,103520,1,0,0:0:0:0:
329,192,103520,1,0,0:0:0:0:
36,192,103717,1,0,0:0:0:50:kick.wav
182,192,103717,128,0,104060:0:0:0:70:cymbal.wav
256,192,103717,128,0,104060:0:0:0:100:Percussion Hey sound.wav
329,192,103717,128,0,104060:0:0:0:0:
475,192,103717,1,0,0:0:0:0:
182,192,104109,128,0,104256:0:0:0:0:
256,192,104133,128,0,104256:0:0:0:0:
329,192,104158,128,0,104256:0:0:0:0:
182,192,104305,128,0,104452:0:0:0:0:
256,192,104329,128,0,104452:0:0:0:0:
329,192,104354,128,0,104452:0:0:0:0:
36,192,104501,1,0,0:0:0:50:kick.wav
182,192,104501,128,0,104648:0:0:0:100:Percussion Hey sound.wav
475,192,104501,1,0,0:0:0:0:
256,192,104525,128,0,104648:0:0:0:0:
329,192,104550,128,0,104648:0:0:0:0:
182,192,104697,128,0,104844:0:0:0:0:
256,192,104721,128,0,104844:0:0:0:0:
329,192,104746,128,0,104844:0:0:0:0:
36,192,104893,1,0,0:0:0:100:electronic13_short.wav
109,192,104893,1,0,0:0:0:0:
182,192,104893,128,0,105040:0:0:0:0:
402,192,104893,1,0,0:0:0:0:
475,192,104893,1,0,0:0:0:0:
256,192,104918,128,0,105040:0:0:0:0:
329,192,104942,128,0,105040:0:0:0:0:
36,192,105089,1,0,0:0:0:50:kick.wav
182,192,105089,128,0,105236:0:0:0:0:
475,192,105089,1,0,0:0:0:0:
256,192,105114,128,0,105236:0:0:0:0:
329,192,105138,128,0,105236:0:0:0:0:
36,192,105285,128,0,105677:0:0:0:100:Percussion Hey sound.wav
256,192,105285,1,0,0:0:0:0:
475,192,105285,128,0,105677:0:0:0:0:
109,192,105383,1,0,0:0:0:50:kick.wav
402,192,105383,1,0,0:0:0:0:
329,192,105481,1,0,0:0:0:0:
182,192,105579,1,0,0:0:0:0:
109,192,105677,1,0,0:0:0:50:kick.wav
256,192,105677,1,0,0:0:0:0:
402,192,105677,1,0,0:0:0:0:
182,192,105873,1,0,0:0:0:0:
329,192,105873,1,0,0:0:0:0:
182,192,105971,1,0,0:0:0:0:
329,192,105971,1,0,0:0:0:0:
36,192,106070,1,0,0:0:0:100:Percussion Hey sound.wav
109,192,106070,1,0,0:0:0:0:
402,192,106070,1,0,0:0:0:0:
475,192,106070,1,0,0:0:0:0:
109,192,106266,1,0,0:0:0:0:
402,192,106266,1,0,0:0:0:0:
36,192,106462,1,0,0:0:0:100:electronic13_short.wav
182,192,106462,1,0,0:0:0:0:
329,192,106462,1,0,0:0:0:0:
475,192,106462,1,0,0:0:0:0:
36,192,106854,1,0,0:0:0:50:kick.wav
182,192,106854,128,0,107148:0:0:0:100:Percussion Hey sound.wav
256,192,106854,128,0,107148:0:0:0:0:
329,192,106854,128,0,107148:0:0:0:0:
475,192,106854,1,0,0:0:0:0:
36,192,107246,1,0,0:0:0:50:kick.wav
109,192,107246,1,0,0:0:0:100:Percussion Hey sound.wav
256,192,107246,1,0,0:0:0:0:
329,192,107344,1,0,0:0:0:50:kick.wav
475,192,107344,1,0,0:0:0:0:
36,192,107442,1,0,0:0:0:50:kick.wav
182,192,107442,1,0,0:0:0:0:
256,192,107540,1,0,0:0:0:50:kick.wav
475,192,107540,1,0,0:0:0:0:
36,192,107638,1,0,0:0:0:50:kick.wav
109,192,107638,1,0,0:0:0:100:Percussion Hey sound.wav
329,192,107638,1,0,0:0:0:0:
182,192,107703,1,0,0:0:0:0:
402,192,107736,1,0,0:0:0:50:kick.wav
475,192,107736,1,0,0:0:0:0:
256,192,107769,1,0,0:0:0:0:
36,192,107834,1,0,0:0:0:50:kick.wav
109,192,107834,1,0,0:0:0:0:
329,192,107834,1,0,0:0:0:0:
182,192,107900,1,0,0:0:0:0:
402,192,107932,1,0,0:0:0:50:kick.wav
475,192,107932,1,0,0:0:0:0:
256,192,107965,1,0,0:0:0:0:
36,192,108030,1,0,0:0:0:35:kick.wav
109,192,108030,1,0,0:0:0:100:electronic13_short.wav
329,192,108030,1,0,0:0:0:100:Percussion Hey sound.wav
402,192,108079,1,0,0:0:0:35:kick.wav
475,192,108079,1,0,0:0:0:0:
182,192,108128,1,0,0:0:0:35:kick.wav
256,192,108128,1,0,0:0:0:0:
36,192,108177,1,0,0:0:0:35:kick.wav
109,192,108177,1,0,0:0:0:0:
402,192,108226,1,0,0:0:0:35:kick.wav
475,192,108226,1,0,0:0:0:0:
256,192,108275,1,0,0:0:0:35:kick.wav
329,192,108275,1,0,0:0:0:0:
36,192,108324,1,0,0:0:0:35:kick.wav
109,192,108324,1,0,0:0:0:0:
402,192,108373,1,0,0:0:0:35:kick.wav
475,192,108373,1,0,0:0:0:0:
182,192,108422,128,0,108815:0:0:0:0:
329,192,108619,128,0,108668:0:0:0:0:
36,192,108815,1,0,0:0:0:50:kick.wav
256,192,108815,1,0,0:0:0:70:cymbal.wav
402,192,108815,1,0,0:0:0:70:push_scratch.wav
475,192,108815,1,0,0:0:0:0:
256,192,109011,1,0,0:0:0:0:
36,192,109207,1,0,0:0:0:50:kick.wav
182,192,109207,1,0,0:0:0:0:
475,192,109403,1,0,0:0:0:0:
36,192,109599,1,0,0:0:0:50:kick.wav
256,192,109599,1,0,0:0:0:0:
256,192,109795,1,0,0:0:0:0:
36,192,109991,1,0,0:0:0:50:kick.wav
182,192,109991,1,0,0:0:0:0:
475,192,110187,1,0,0:0:0:0:
36,192,110383,1,0,0:0:0:50:kick.wav
256,192,110383,1,0,0:0:0:0:
256,192,110579,1,0,0:0:0:0:
36,192,110775,1,0,0:0:0:50:kick.wav
182,192,110775,1,0,0:0:0:0:
475,192,110971,1,0,0:0:0:0:
36,192,111168,1,0,0:0:0:50:kick.wav
256,192,111168,1,0,0:0:0:70:LR_Chm loong.wav
256,192,111364,1,0,0:0:0:0:
36,192,111560,128,0,111952:0:0:0:50:kick.wav
182,192,111560,128,0,111952:0:0:0:0:
475,192,111756,128,0,111821:0:0:0:0:
109,192,111952,1,0,0:0:0:50:kick.wav
329,192,111952,1,0,0:0:0:70:cymbal.wav
475,192,111952,1,0,0:0:0:0:
329,192,112148,1,0,0:0:0:0:
109,192,112344,1,0,0:0:0:50:kick.wav
256,192,112344,1,0,0:0:0:0:
475,192,112540,1,0,0:0:0:0:
109,192,112736,1,0,0:0:0:50:kick.wav
329,192,112736,1,0,0:0:0:0:
329,192,112932,1,0,0:0:0:0:
109,192,113128,1,0,0:0:0:50:kick.wav
256,192,113128,1,0,0:0:0:0:
475,192,113324,1,0,0:0:0:0:
109,192,113520,1,0,0:0:0:50:kick.wav
329,192,113520,1,0,0:0:0:0:
402,192,113717,1,0,0:0:0:0:
402,192,113815,1,0,0:0:0:0:
109,192,113913,1,0,0:0:0:50:kick.wav
256,192,113913,1,0,0:0:0:0:
475,192,114011,1,0,0:0:0:0:
475,192,114109,1,0,0:0:0:0:
36,192,114305,128,0,114501:0:0:0:50:kick.wav
182,192,114305,128,0,114501:0:0:0:0:
36,192,114599,128,0,114795:0:0:0:0:
182,192,114599,128,0,114795:0:0:0:0:
36,192,114893,128,0,115089:0:0:0:0:
182,192,114893,128,0,115089:0:0:0:0:
109,192,115089,1,0,0:0:0:50:kick.wav
329,192,115089,1,0,0:0:0:70:cymbal.wav
475,192,115089,1,0,0:0:0:70:push_scratch.wav
36,192,115187,1,0,0:0:0:50:kick.wav
329,192,115187,1,0,0:0:0:0:
182,192,115285,1,0,0:0:0:50:kick.wav
402,192,115285,1,0,0:0:0:0:
109,192,115383,1,0,0:0:0:50:kick.wav
402,192,115383,1,0,0:0:0:0:
36,192,115481,1,0,0:0:0:50:kick.wav
256,192,115481,1,0,0:0:0:0:
256,192,115579,1,0,0:0:0:50:kick.wav
475,192,115579,1,0,0:0:0:0:
109,192,115677,1,0,0:0:0:50:kick.wav
329,192,115677,1,0,0:0:0:0:
36,192,115775,1,0,0:0:0:50:kick.wav
329,192,115775,1,0,0:0:0:0:
182,192,115873,1,0,0:0:0:50:kick.wav
402,192,115873,1,0,0:0:0:0:
182,192,115971,1,0,0:0:0:50:kick.wav
475,192,115971,1,0,0:0:0:0:
36,192,116070,1,0,0:0:0:50:kick.wav
256,192,116070,1,0,0:0:0:0:
109,192,116168,1,0,0:0:0:50:kick.wav
256,192,116168,1,0,0:0:0:0:
182,192,116266,1,0,0:0:0:50:kick.wav
329,192,116266,128,0,116658:0:0:0:0:
475,192,116266,128,0,116658:0:0:0:0:
36,192,116658,1,0,0:0:0:50:kick.wav
182,192,116658,1,0,0:0:0:70:cymbal.wav
402,192,116658,1,0,0:0:0:70:push_scratch.wav
182,192,116756,1,0,0:0:0:50:kick.wav
475,192,116756,1,0,0:0:0:0:
109,192,116854,1,0,0:0:0:50:kick.wav
329,192,116854,1,0,0:0:0:0:
109,192,116952,1,0,0:0:0:50:kick.wav
402,192,116952,1,0,0:0:0:0:
256,192,117050,1,0,0:0:0:50:kick.wav
475,192,117050,1,0,0:0:0:0:
36,192,117148,1,0,0:0:0:50:kick.wav
256,192,117148,1,0,0:0:0:0:
182,192,117246,1,0,0:0:0:50:kick.wav
402,192,117246,1,0,0:0:0:0:
182,192,117344,1,0,0:0:0:50:kick.wav
475,192,117344,1,0,0:0:0:0:
109,192,117442,1,0,0:0:0:50:kick.wav
329,192,117442,1,0,0:0:0:0:
36,192,117540,1,0,0:0:0:50:kick.wav
329,192,117540,1,0,0:0:0:0:
256,192,117638,1,0,0:0:0:50:kick.wav
475,192,117638,1,0,0:0:0:0:
36,192,117736,1,0,0:0:0:50:kick.wav
256,192,117736,1,0,0:0:0:0:
402,192,117834,128,0,117883:0:0:0:0:
109,192,117932,128,0,117981:0:0:0:0:
402,192,118030,128,0,118079:0:0:0:0:
109,192,118128,128,0,118177:0:0:0:0:
256,192,118226,1,0,0:0:0:70:S3.wav
329,192,118226,1,0,0:0:0:70:LR4_BassLineLDRN.wav
475,192,118226,1,0,0:0:0:0:
256,192,118324,1,0,0:0:0:70:S3.wav
329,192,118324,1,0,0:0:0:0:
475,192,118324,1,0,0:0:0:0:
36,192,118422,1,0,0:0:0:0:
182,192,118619,1,0,0:0:0:70:S3.wav
256,192,118619,1,0,0:0:0:0:
402,192,118619,1,0,0:0:0:0:
182,192,118717,1,0,0:0:0:70:S3.wav
256,192,118717,1,0,0:0:0:0:
402,192,118717,1,0,0:0:0:0:
36,192,118815,1,0,0:0:0:0:
109,192,119011,1,0,0:0:0:70:S3.wav
182,192,119011,1,0,0:0:0:0:
329,192,119011,1,0,0:0:0:0:
109,192,119109,1,0,0:0:0:70:S3.wav
182,192,119109,1,0,0:0:0:0:
329,192,119109,1,0,0:0:0:0:
475,192,119207,1,0,0:0:0:0:
36,192,119403,1,0,0:0:0:70:S3.wav
109,192,119403,1,0,0:0:0:0:
256,192,119403,1,0,0:0:0:0:
36,192,119501,1,0,0:0:0:70:S3.wav
109,192,119501,1,0,0:0:0:0:
256,192,119501,1,0,0:0:0:0:
402,192,119599,1,0,0:0:0:0:
475,192,119599,1,0,0:0:0:0:
36,192,119697,1,0,0:0:0:0:
182,192,119697,1,0,0:0:0:0:
329,192,119795,128,0,119942:0:0:0:0:
475,192,119795,128,0,120579:0:0:0:0:
182,192,119991,128,0,120138:0:0:0:0:
329,192,119991,128,0,120138:0:0:0:0:
36,192,120187,128,0,120579:0:0:0:0:
182,192,120187,128,0,120579:0:0:0:0:
329,192,120187,128,0,120579:0:0:0:0:
109,192,120677,1,0,0:0:0:70:tom01.wav
402,192,120677,1,0,0:0:0:70:S4.wav
182,192,120775,1,0,0:0:0:70:tom02.wav
329,192,120775,1,0,0:0:0:70:S4.wav
256,192,120873,1,0,0:0:0:70:tom03.wav
182,192,121070,1,0,0:0:0:70:S4.wav
329,192,121070,1,0,0:0:0:0:
36,192,121168,1,0,0:0:0:70:electronic33.wav
182,192,121168,1,0,0:0:0:100:Go_001.wav
329,192,121168,1,0,0:0:0:0:
475,192,121168,1,0,0:0:0:0:
36,192,121364,1,0,0:0:0:50:kick.wav
109,192,121364,1,0,0:0:0:70:cymbal.wav
256,192,121364,1,0,0:0:0:0:
402,192,121364,1,0,0:0:0:0:
475,192,121364,1,0,0:0:0:0:
182,192,121560,128,0,121756:0:0:0:0:
329,192,121560,128,0,121756:0:0:0:0:
36,192,121756,1,0,0:0:0:50:kick.wav
109,192,121756,1,0,0:0:0:0:
475,192,121756,1,0,0:0:0:0:
256,192,121854,128,0,122001:0:0:0:0:
402,192,121854,128,0,122001:0:0:0:0:
182,192,122050,1,0,0:0:0:0:
329,192,122099,1,0,0:0:0:0:
36,192,122148,1,0,0:0:0:50:kick.wav
109,192,122148,1,0,0:0:0:0:
475,192,122148,1,0,0:0:0:0:
256,192,122246,128,0,122442:0:0:0:0:
402,192,122344,128,0,122442:0:0:0:0:
475,192,122344,128,0,122442:0:0:0:0:
36,192,122442,1,0,0:0:0:0:
182,192,122442,1,0,0:0:0:0:
36,192,122540,1,0,0:0:0:50:kick.wav
182,192,122540,1,0,0:0:0:0:
329,192,122540,1,0,0:0:0:0:
256,192,122638,128,0,122932:0:0:0:0:
36,192,122736,128,0,122932:0:0:0:0:
109,192,122736,128,0,122932:0:0:0:0:
329,192,122932,1,0,0:0:0:50:kick.wav
402,192,122932,1,0,0:0:0:0:
475,192,122932,1,0,0:0:0:0:
182,192,123128,128,0,123324:0:0:0:0:
329,192,123128,128,0,123324:0:0:0:0:
36,192,123324,1,0,0:0:0:50:kick.wav
109,192,123324,1,0,0:0:0:0:
475,192,123324,1,0,0:0:0:0:
182,192,123422,1,0,0:0:0:0:
329,192,123422,1,0,0:0:0:0:
256,192,123520,128,0,123619:0:0:0:0:
402,192,123520,128,0,123619:0:0:0:0:
36,192,123619,1,0,0:0:0:0:
109,192,123668,1,0,0:0:0:0:
182,192,123717,1,0,0:0:0:50:kick.wav
329,192,123717,1,0,0:0:0:0:
475,192,123717,1,0,0:0:0:0:
36,192,123782,1,0,0:0:0:0:
256,192,123880,1,0,0:0:0:0:
329,192,124011,1,0,0:0:0:0:
182,192,124060,1,0,0:0:0:0:
36,192,124109,1,0,0:0:0:50:kick.wav
402,192,124109,1,0,0:0:0:0:
475,192,124109,1,0,0:0:0:0:
402,192,124207,128,0,124501:0:0:0:0:
475,192,124207,128,0,124501:0:0:0:0:
109,192,124305,1,0,0:0:0:0:
256,192,124305,1,0,0:0:0:0:
109,192,124403,128,0,124501:0:0:0:0:
256,192,124403,128,0,124501:0:0:0:0:
36,192,124501,1,0,0:0:0:50:kick.wav
182,192,124501,1,0,0:0:0:0:
329,192,124501,1,0,0:0:0:0:
402,192,124599,128,0,124893:0:0:0:0:
475,192,124599,128,0,124893:0:0:0:0:
109,192,124893,1,0,0:0:0:0:
36,192,124893,1,0,0:0:0:0:
329,192,124942,1,0,0:0:0:0:
182,192,124991,1,0,0:0:0:0:
402,192,125040,1,0,0:0:0:0:
256,192,125089,1,0,0:0:0:0:
475,192,125138,1,0,0:0:0:0:
329,192,125187,1,0,0:0:0:0:
182,192,125236,1,0,0:0:0:0:
36,192,125285,1,0,0:0:0:0:
475,192,125383,1,0,0:0:0:50:kick.wav
256,192,125383,1,0,0:0:0:0:
402,192,125383,1,0,0:0:0:0:
475,192,125481,128,0,125677:0:0:0:0:
402,192,125481,128,0,125677:0:0:0:0:
256,192,125579,128,0,125677:0:0:0:0:
182,192,125677,1,0,0:0:0:50:kick.wav
109,192,125677,1,0,0:0:0:0:
36,192,125677,1,0,0:0:0:0:
329,192,125775,1,0,0:0:0:0:
402,192,125824,1,0,0:0:0:0:
475,192,125873,1,0,0:0:0:50:kick.wav
182,192,125873,1,0,0:0:0:0:
36,192,125873,1,0,0:0:0:0:
329,192,125971,1,0,0:0:0:0:
36,192,126070,1,0,0:0:0:50:kick.wav
109,192,126070,1,0,0:0:0:0:
256,192,126070,1,0,0:0:0:0:
329,192,126168,128,0,126266:0:0:0:0:
475,192,126168,128,0,126266:0:0:0:0:
109,192,126266,128,0,126462:0:0:0:0:
182,192,126266,128,0,126462:0:0:0:0:
329,192,126364,128,0,126462:0:0:0:0:
475,192,126364,128,0,126462:0:0:0:0:
36,192,126462,1,0,0:0:0:50:kick.wav
256,192,126462,1,0,0:0:0:0:
402,192,126462,1,0,0:0:0:0:
182,192,126560,1,0,0:0:0:0:
329,192,126560,1,0,0:0:0:0:
36,192,126723,1,0,0:0:0:0:
256,192,126723,1,0,0:0:0:0:
109,192,126788,1,0,0:0:0:0:
329,192,126788,1,0,0:0:0:0:
182,192,126854,1,0,0:0:0:50:kick.wav
402,192,126854,1,0,0:0:0:0:
475,192,126854,1,0,0:0:0:0:
256,192,126985,1,0,0:0:0:0:
329,192,126985,1,0,0:0:0:0:
36,192,127050,128,0,127148:0:0:0:0:
109,192,127050,128,0,127148:0:0:0:0:
402,192,127148,128,0,127442:0:0:0:50:kick.wav
475,192,127148,128,0,127442:0:0:0:0:
36,192,127246,128,0,127442:0:0:0:0:
109,192,127246,128,0,127442:0:0:0:0:
256,192,127344,128,0,127442:0:0:0:0:
329,192,127442,1,0,0:0:0:0:
182,192,127491,1,0,0:0:0:0:
402,192,127540,1,0,0:0:0:0:
256,192,127589,1,0,0:0:0:0:
36,192,127638,1,0,0:0:0:50:kick.wav
109,192,127638,1,0,0:0:0:70:cymbal.wav
182,192,127638,1,0,0:0:0:0:
329,192,127638,1,0,0:0:0:0:
475,192,127638,1,0,0:0:0:0:
182,192,127834,128,0,128030:0:0:0:0:
329,192,127834,128,0,128030:0:0:0:0:
36,192,128030,1,0,0:0:0:50:kick.wav
109,192,128030,1,0,0:0:0:0:
475,192,128030,1,0,0:0:0:0:
256,192,128128,1,0,0:0:0:0:
329,192,128161,128,0,128422:0:0:0:0:
402,192,128161,128,0,128422:0:0:0:0:
109,192,128292,128,0,128422:0:0:0:0:
182,192,128292,128,0,128422:0:0:0:0:
36,192,128422,1,0,0:0:0:50:kick.wav
256,192,128422,1,0,0:0:0:0:
475,192,128422,1,0,0:0:0:0:
182,192,128619,128,0,128668:0:0:0:0:
329,192,128619,128,0,128668:0:0:0:0:
109,192,128717,128,0,128815:0:0:0:0:
402,192,128717,128,0,128815:0:0:0:0:
256,192,128913,128,0,128962:0:0:0:0:
36,192,129109,1,0,0:0:0:50:kick.wav
182,192,129109,1,0,0:0:0:0:
329,192,129109,1,0,0:0:0:0:
182,192,129305,1,0,0:0:0:50:kick.wav
329,192,129305,1,0,0:0:0:0:
475,192,129305,1,0,0:0:0:0:
36,192,129501,1,0,0:0:0:50:kick.wav
256,192,129501,1,0,0:0:0:0:
109,192,129550,1,0,0:0:0:50:kick.wav
329,192,129550,1,0,0:0:0:0:
182,192,129599,1,0,0:0:0:50:kick.wav
402,192,129599,1,0,0:0:0:0:
475,192,129599,1,0,0:0:0:0:
36,192,129697,128,0,129893:0:0:0:0:
109,192,129697,128,0,129893:0:0:0:0:
329,192,129893,1,0,0:0:0:0:
402,192,129942,1,0,0:0:0:0:
36,192,129991,1,0,0:0:0:50:kick.wav
256,192,129991,1,0,0:0:0:0:
475,192,129991,1,0,0:0:0:0:
109,192,130089,128,0,130285:0:0:0:0:
182,192,130089,128,0,130285:0:0:0:0:
329,192,130187,128,0,130285:0:0:0:0:
402,192,130187,128,0,130285:0:0:0:0:
256,192,130285,1,0,0:0:0:0:
36,192,130334,1,0,0:0:0:0:
182,192,130383,1,0,0:0:0:50:kick.wav
402,192,130383,1,0,0:0:0:0:
475,192,130383,1,0,0:0:0:0:
109,192,130481,1,0,0:0:0:0:
329,192,130481,1,0,0:0:0:0:
256,192,130579,128,0,130775:0:0:0:0:
36,192,130579,128,0,130775:0:0:0:0:
182,192,130775,1,0,0:0:0:50:kick.wav
402,192,130775,1,0,0:0:0:0:
475,192,130775,1,0,0:0:0:0:
109,192,130873,128,0,131168:0:0:0:0:
329,192,130873,128,0,131168:0:0:0:0:
36,192,131168,1,0,0:0:0:50:kick.wav
256,192,131168,1,0,0:0:0:0:
475,192,131168,1,0,0:0:0:0:
402,192,131217,1,0,0:0:0:0:
182,192,131266,1,0,0:0:0:0:
329,192,131315,1,0,0:0:0:0:
109,192,131364,1,0,0:0:0:0:
256,192,131413,1,0,0:0:0:0:
36,192,131462,1,0,0:0:0:0:
182,192,131511,1,0,0:0:0:0:
329,192,131560,1,0,0:0:0:50:kick.wav
402,192,131560,1,0,0:0:0:0:
475,192,131560,1,0,0:0:0:0:
109,192,131658,128,0,131854:0:0:0:0:
182,192,131658,128,0,131854:0:0:0:0:
329,192,131756,128,0,131854:0:0:0:0:
402,192,131756,128,0,131854:0:0:0:0:
36,192,131854,1,0,0:0:0:50:kick.wav
256,192,131854,1,0,0:0:0:0:
475,192,131854,1,0,0:0:0:0:
182,192,131952,1,0,0:0:0:0:
329,192,132017,1,0,0:0:0:0:
109,192,132050,1,0,0:0:0:0:
402,192,132083,1,0,0:0:0:0:
182,192,132099,1,0,0:0:0:0:
36,192,132148,1,0,0:0:0:50:kick.wav
256,192,132148,128,0,132213:0:0:0:0:
475,192,132148,1,0,0:0:0:0:
109,192,132213,1,0,0:0:0:0:
329,192,132213,128,0,132279:0:0:0:0:
182,192,132279,1,0,0:0:0:0:
402,192,132279,128,0,132344:0:0:0:0:
36,192,132344,128,0,133815:0:0:0:70:LR4_BassLineLDRN.wav
256,192,132344,1,0,0:0:0:0:
475,192,132344,1,0,0:0:0:0:
402,192,132540,1,0,0:0:0:0:
256,192,132638,1,0,0:0:0:0:
109,192,132736,128,0,133815:0:0:0:0:
329,192,133030,1,0,0:0:0:70:LR_Drum Rpd x2.wav
256,192,133079,1,0,0:0:0:0:
182,192,133128,128,0,133815:0:0:0:70:LR_Drum Rpd x2.wav
402,192,133128,1,0,0:0:0:0:
475,192,133128,1,0,0:0:0:0:
402,192,133226,1,0,0:0:0:70:LR_Drum Rpd x2.wav
475,192,133226,1,0,0:0:0:0:
402,192,133422,1,0,0:0:0:70:LR_Drum Rpd x2.wav
475,192,133422,1,0,0:0:0:0:
256,192,133520,128,0,133815:0:0:0:70:LR_Drum Rpd x2.wav
402,192,133619,1,0,0:0:0:70:LR_Drum Rpd x2.wav
475,192,133619,1,0,0:0:0:0:
329,192,133815,1,0,0:0:0:0:
402,192,133815,1,0,0:0:0:0:
36,192,133913,1,0,0:0:0:50:kick.wav
109,192,133913,1,0,0:0:0:70:cymbal.wav
256,192,133913,1,0,0:0:0:70:push_scratch.wav
475,192,133913,1,0,0:0:0:0:
182,192,134109,128,0,134305:0:0:0:0:
329,192,134109,128,0,134305:0:0:0:0:
36,192,134305,1,0,0:0:0:50:kick.wav
256,192,134305,1,0,0:0:0:70:CLAP_.wav
402,192,134305,1,0,0:0:0:0:
475,192,134305,1,0,0:0:0:0:
109,192,134403,128,0,134550:0:0:0:0:
256,192,134403,128,0,134550:0:0:0:0:
329,192,134599,1,0,0:0:0:0:
182,192,134648,1,0,0:0:0:0:
36,192,134697,1,0,0:0:0:50:kick.wav
402,192,134697,1,0,0:0:0:0:
475,192,134697,1,0,0:0:0:0:
256,192,134795,128,0,134991:0:0:0:0:
36,192,134893,128,0,134991:0:0:0:0:
109,192,134893,128,0,134991:0:0:0:0:
329,192,134991,1,0,0:0:0:0:
475,192,134991,1,0,0:0:0:0:
36,192,135089,1,0,0:0:0:50:kick.wav
182,192,135089,1,0,0:0:0:70:CLAP_.wav
329,192,135089,1,0,0:0:0:0:
475,192,135089,1,0,0:0:0:0:
256,192,135187,128,0,135481:0:0:0:0:
402,192,135285,128,0,135481:0:0:0:0:
475,192,135285,128,0,135481:0:0:0:0:
36,192,135481,1,0,0:0:0:50:kick.wav
109,192,135481,1,0,0:0:0:0:
182,192,135481,1,0,0:0:0:0:
182,192,135677,128,0,135873:0:0:0:0:
329,192,135677,128,0,135873:0:0:0:0:
36,192,135873,1,0,0:0:0:50:kick.wav
109,192,135873,1,0,0:0:0:70:CLAP_.wav
256,192,135873,1,0,0:0:0:0:
475,192,135873,1,0,0:0:0:0:
182,192,135971,1,0,0:0:0:0:
329,192,135971,1,0,0:0:0:0:
256,192,136070,128,0,136168:0:0:0:0:
402,192,136070,128,0,136168:0:0:0:0:
36,192,136168,1,0,0:0:0:0:
109,192,136217,1,0,0:0:0:0:
182,192,136266,1,0,0:0:0:50:kick.wav
329,192,136266,1,0,0:0:0:0:
475,192,136266,1,0,0:0:0:0:
36,192,136331,1,0,0:0:0:0:
402,192,136429,1,0,0:0:0:0:
182,192,136560,1,0,0:0:0:0:
256,192,136609,1,0,0:0:0:0:
36,192,136658,1,0,0:0:0:50:kick.wav
109,192,136658,1,0,0:0:0:70:CLAP_.wav
329,192,136658,1,0,0:0:0:0:
475,192,136658,1,0,0:0:0:0:
36,192,136756,128,0,137050:0:0:0:0:
109,192,136756,128,0,137050:0:0:0:0:
256,192,136854,1,0,0:0:0:0:
402,192,136854,1,0,0:0:0:0:
256,192,136952,128,0,137050:0:0:0:0:
402,192,136952,128,0,137050:0:0:0:0:
182,192,137050,1,0,0:0:0:50:kick.wav
329,192,137050,1,0,0:0:0:0:
475,192,137050,1,0,0:0:0:0:
36,192,137148,1,0,0:0:0:0:
109,192,137148,1,0,0:0:0:0:
182,192,137246,1,0,0:0:0:50:kick.wav
329,192,137246,1,0,0:0:0:0:
475,192,137246,1,0,0:0:0:0:
36,192,137442,128,0,137540:0:0:0:50:kick.wav
329,192,137442,1,0,0:0:0:70:cymbal.wav
402,192,137442,128,0,137834:0:0:0:70:CLAP_.wav
475,192,137442,128,0,137834:0:0:0:0:
109,192,137491,128,0,137589:0:0:0:0:
182,192,137540,128,0,137638:0:0:0:0:
256,192,137589,128,0,137687:0:0:0:0:
36,192,137638,128,0,137834:0:0:0:0:
109,192,137687,128,0,137834:0:0:0:0:
182,192,137736,128,0,137834:0:0:0:0:
256,192,137785,128,0,137834:0:0:0:0:
109,192,137932,1,0,0:0:0:50:kick.wav
329,192,137932,1,0,0:0:0:0:
475,192,137932,1,0,0:0:0:0:
36,192,138030,128,0,138128:0:0:0:0:
182,192,138030,128,0,138128:0:0:0:0:
329,192,138128,128,0,138226:0:0:0:0:
475,192,138128,128,0,138226:0:0:0:0:
36,192,138226,1,0,0:0:0:50:kick.wav
109,192,138226,1,0,0:0:0:70:CLAP_.wav
256,192,138226,1,0,0:0:0:0:
329,192,138324,1,0,0:0:0:0:
402,192,138373,1,0,0:0:0:0:
36,192,138422,1,0,0:0:0:50:kick.wav
182,192,138422,1,0,0:0:0:0:
475,192,138422,1,0,0:0:0:0:
329,192,138520,1,0,0:0:0:0:
36,192,138619,1,0,0:0:0:50:kick.wav
256,192,138619,1,0,0:0:0:0:
475,192,138619,1,0,0:0:0:0:
109,192,138717,128,0,138815:0:0:0:0:
182,192,138717,128,0,138815:0:0:0:0:
329,192,138815,128,0,139011:0:0:0:0:
402,192,138815,128,0,139011:0:0:0:0:
109,192,138913,128,0,139011:0:0:0:0:
182,192,138913,128,0,139011:0:0:0:0:
36,192,139011,1,0,0:0:0:50:kick.wav
256,192,139011,1,0,0:0:0:70:CLAP_.wav
475,192,139011,1,0,0:0:0:0:
182,192,139109,1,0,0:0:0:0:
402,192,139109,1,0,0:0:0:0:
109,192,139272,1,0,0:0:0:0:
329,192,139272,1,0,0:0:0:0:
182,192,139337,1,0,0:0:0:0:
402,192,139337,1,0,0:0:0:0:
36,192,139403,1,0,0:0:0:50:kick.wav
256,192,139403,1,0,0:0:0:50:cymbal_s.wav
329,192,139403,1,0,0:0:0:0:
475,192,139403,1,0,0:0:0:0:
109,192,139534,1,0,0:0:0:0:
182,192,139534,1,0,0:0:0:0:
402,192,139599,128,0,139697:0:0:0:0:
475,192,139599,128,0,139697:0:0:0:0:
36,192,139697,1,0,0:0:0:50:kick.wav
109,192,139697,1,0,0:0:0:50:cymbal_s.wav
256,192,139697,1,0,0:0:0:70:CLAP_.wav
329,192,139697,1,0,0:0:0:0:
182,192,139795,1,0,0:0:0:0:
402,192,139795,1,0,0:0:0:0:
256,192,139893,1,0,0:0:0:0:
475,192,139893,1,0,0:0:0:0:
36,192,139991,128,0,140187:0:0:0:0:
182,192,140040,128,0,140187:0:0:0:0:
329,192,140089,128,0,140187:0:0:0:0:
475,192,140138,128,0,140187:0:0:0:0:
36,192,140285,128,0,140383:0:0:0:50:kick.wav
109,192,140285,128,0,140383:0:0:0:50:cymbal_s.wav
256,192,140285,128,0,140383:0:0:0:0:
402,192,140285,128,0,140383:0:0:0:0:
475,192,140285,128,0,140383:0:0:0:0:
36,192,140481,128,0,140677:0:0:0:50:kick.wav
182,192,140481,128,0,140677:0:0:0:0:
256,192,140481,128,0,140677:0:0:0:0:
329,192,140481,128,0,140677:0:0:0:0:
475,192,140481,128,0,140677:0:0:0:0:
36,192,140775,128,0,141070:0:0:0:50:kick.wav
109,192,140775,128,0,141070:0:0:0:50:cymbal_s.wav
182,192,140775,1,0,0:0:0:0:
329,192,140775,1,0,0:0:0:0:
402,192,140775,128,0,141070:0:0:0:0:
475,192,140775,128,0,141070:0:0:0:0:
256,192,140971,128,0,141070:0:0:0:0:
36,192,141168,128,0,141364:0:0:0:50:kick.wav
182,192,141168,128,0,141364:0:0:0:50:cymbal_s.wav
256,192,141168,128,0,141364:0:0:0:70:CLAP_.wav
329,192,141168,128,0,141364:0:0:0:0:
475,192,141168,128,0,141364:0:0:0:0:
109,192,141437,128,0,141486:0:0:0:0:
402,192,141462,128,0,141511:0:0:0:0:
36,192,141658,1,0,0:0:0:50:kick.wav
182,192,141658,1,0,0:0:0:50:cymbal_s.wav
256,192,141658,1,0,0:0:0:0:
329,192,141658,1,0,0:0:0:0:
475,192,141658,1,0,0:0:0:0:
36,192,141854,1,0,0:0:0:50:kick.wav
109,192,141854,1,0,0:0:0:50:cymbal_s.wav
256,192,141854,1,0,0:0:0:0:
402,192,141854,1,0,0:0:0:0:
475,192,141854,1,0,0:0:0:0:
182,192,142050,1,0,0:0:0:50:kick.wav
329,192,142099,1,0,0:0:0:50:kick.wav
36,192,142148,128,0,142344:0:0:0:50:kick.wav
109,192,142148,128,0,142344:0:0:0:70:cymbal.wav
256,192,142148,128,0,142344:0:0:0:50:h03.wav
402,192,142148,128,0,142344:0:0:0:0:
475,192,142148,128,0,142344:0:0:0:0:
182,192,142442,1,0,0:0:0:0:
109,192,142491,1,0,0:0:0:0:
36,192,142540,1,0,0:0:0:100:electronic13_short.wav
329,192,142540,1,0,0:0:0:0:
475,192,142540,1,0,0:0:0:0:
256,192,142736,1,0,0:0:0:0:
109,192,142834,1,0,0:0:0:100:electronic13_short.wav
256,192,142834,1,0,0:0:0:0:
402,192,142834,1,0,0:0:0:0:
36,192,143030,1,0,0:0:0:100:electronic13_short.wav
182,192,143030,1,0,0:0:0:0:
329,192,143030,1,0,0:0:0:0:
475,192,143030,1,0,0:0:0:0:
36,192,143128,1,0,0:0:0:100:electronic13_short.wav
182,192,143128,1,0,0:0:0:0:
329,192,143128,1,0,0:0:0:0:
475,192,143128,1,0,0:0:0:0:
109,192,143324,1,0,0:0:0:50:kick.wav
182,192,143324,1,0,0:0:0:50:cymbal_s.wav
256,192,143324,1,0,0:0:0:0:
109,192,143422,1,0,0:0:0:50:kick.wav
182,192,143422,1,0,0:0:0:50:cymbal_s.wav
256,192,143422,1,0,0:0:0:0:
402,192,143520,1,0,0:0:0:50:kick.wav
475,192,143520,1,0,0:0:0:70:cymbal.wav
182,192,143717,1,0,0:0:0:50:kick.wav
256,192,143717,1,0,0:0:0:50:cymbal_s.wav
329,192,143717,1,0,0:0:0:0:
182,192,143815,1,0,0:0:0:50:kick.wav
256,192,143815,1,0,0:0:0:50:cymbal_s.wav
329,192,143815,1,0,0:0:0:0:
36,192,143913,1,0,0:0:0:50:kick.wav
475,192,143913,1,0,0:0:0:70:cymbal.wav
256,192,144109,1,0,0:0:0:50:kick.wav
329,192,144109,1,0,0:0:0:50:cymbal_s.wav
402,192,144109,1,0,0:0:0:0:
256,192,144207,1,0,0:0:0:50:kick.wav
329,192,144207,1,0,0:0:0:50:cymbal_s.wav
402,192,144207,1,0,0:0:0:0:
36,192,144305,128,0,144893:0:0:0:50:kick.wav
109,192,144305,128,0,144893:0:0:0:70:cymbal.wav
329,192,144501,1,0,0:0:0:50:kick.wav
402,192,144501,1,0,0:0:0:50:cymbal_s.wav
475,192,144501,1,0,0:0:0:0:
329,192,144599,1,0,0:0:0:50:kick.wav
402,192,144599,1,0,0:0:0:50:cymbal_s.wav
475,192,144599,1,0,0:0:0:0:
256,192,144697,128,0,144893:0:0:0:50:kick.wav
182,192,144893,128,0,145089:0:0:0:50:kick.wav
329,192,144893,128,0,144991:0:0:0:0:
402,192,144893,128,0,145187:0:0:0:0:
475,192,144893,128,0,145383:0:0:0:0:
36,192,144991,128,0,145677:0:0:0:0:
256,192,145089,128,0,145285:0:0:0:0:
109,192,145187,128,0,145677:0:0:0:0:
329,192,145285,128,0,145481:0:0:0:0:
182,192,145383,128,0,145677:0:0:0:0:
402,192,145481,128,0,145677:0:0:0:0:
256,192,145579,128,0,145677:0:0:0:0:
329,192,145677,1,0,0:0:0:50:LR_Drum Kick Low.wav
475,192,145677,1,0,0:0:0:0:
329,192,145775,1,0,0:0:0:50:LR_Drum Kick Low.wav
475,192,145775,1,0,0:0:0:0:
36,192,145873,1,0,0:0:0:50:S2.wav
182,192,145873,1,0,0:0:0:0:
36,192,145971,1,0,0:0:0:50:LR_Drum Kick Low.wav
182,192,145971,1,0,0:0:0:0:
329,192,146070,1,0,0:0:0:50:LR_Drum Kick Low.wav
402,192,146070,1,0,0:0:0:0:
329,192,146168,1,0,0:0:0:50:LR_Drum Kick Low.wav
402,192,146168,1,0,0:0:0:0:
109,192,146266,1,0,0:0:0:50:LR_Drum Kick Low.wav
182,192,146266,1,0,0:0:0:0:
109,192,146364,1,0,0:0:0:50:LR_Drum Kick Low.wav
182,192,146364,1,0,0:0:0:0:
36,192,146462,1,0,0:0:0:70:cymbal.wav
329,192,146462,1,0,0:0:0:70:LR4_BassLineLDRN.wav
475,192,146462,1,0,0:0:0:70:LR_Chm Soft Whistle Echo.wav
256,192,146511,1,0,0:0:0:0:
182,192,146560,1,0,0:0:0:0:
402,192,146756,1,0,0:0:0:0:
329,192,146805,1,0,0:0:0:0:
256,192,146854,1,0,0:0:0:50:clap02.wav
475,192,147050,1,0,0:0:0:0:
402,192,147148,1,0,0:0:0:0:
36,192,147246,1,0,0:0:0:0:
182,192,147295,1,0,0:0:0:0:
329,192,147344,1,0,0:0:0:0:
109,192,147540,1,0,0:0:0:0:
109,192,147638,1,0,0:0:0:50:clap02.wav
475,192,147834,1,0,0:0:0:0:
36,192,147932,1,0,0:0:0:0:
402,192,148030,1,0,0:0:0:0:
329,192,148079,1,0,0:0:0:0:
256,192,148128,1,0,0:0:0:0:
329,192,148324,1,0,0:0:0:0:
256,192,148373,1,0,0:0:0:0:
182,192,148422,1,0,0:0:0:50:clap02.wav
36,192,148619,1,0,0:0:0:0:
475,192,148815,1,0,0:0:0:70:LR_Chm loong.wav
329,192,148913,1,0,0:0:0:0:
182,192,149011,1,0,0:0:0:0:
329,192,149109,1,0,0:0:0:0:
109,192,149207,1,0,0:0:0:50:clap02.wav
256,192,149256,1,0,0:0:0:0:
402,192,149305,128,0,149599:0:0:0:0:
36,192,149599,1,0,0:0:0:70:LR_Chm Soft Whistle Echo.wav
329,192,149599,1,0,0:0:0:0:
475,192,149599,1,0,0:0:0:0:
256,192,149648,1,0,0:0:0:0:
182,192,149697,1,0,0:0:0:0:
402,192,149893,1,0,0:0:0:0:
329,192,149942,1,0,0:0:0:0:
256,192,149991,1,0,0:0:0:50:clap02.wav
475,192,150187,1,0,0:0:0:0:
402,192,150285,1,0,0:0:0:0:
36,192,150383,1,0,0:0:0:0:
182,192,150432,1,0,0:0:0:0:
329,192,150481,1,0,0:0:0:0:
109,192,150677,1,0,0:0:0:0:
109,192,150775,1,0,0:0:0:50:clap02.wav
475,192,150971,1,0,0:0:0:0:
36,192,151070,1,0,0:0:0:0:
402,192,151168,1,0,0:0:0:0:
329,192,151217,1,0,0:0:0:0:
256,192,151266,1,0,0:0:0:0:
329,192,151462,1,0,0:0:0:0:
256,192,151511,1,0,0:0:0:0:
182,192,151560,1,0,0:0:0:50:clap02.wav
36,192,151756,1,0,0:0:0:0:
402,192,151952,1,0,0:0:0:50:clap02.wav
182,192,152017,1,0,0:0:0:0:
329,192,152083,1,0,0:0:0:0:
109,192,152148,1,0,0:0:0:0:
256,192,152246,1,0,0:0:0:0:
36,192,152344,1,0,0:0:0:50:clap02.wav
182,192,152393,1,0,0:0:0:0:
329,192,152442,128,0,152736:0:0:0:0:
36,192,152736,1,0,0:0:0:70:LR_Chm Soft Whistle Echo.wav
402,192,152736,1,0,0:0:0:0:
475,192,152736,1,0,0:0:0:0:
109,192,152785,1,0,0:0:0:0:
182,192,152834,1,0,0:0:0:0:
402,192,153030,1,0,0:0:0:0:
329,192,153079,1,0,0:0:0:0:
256,192,153128,1,0,0:0:0:50:clap02.wav
36,192,153324,1,0,0:0:0:0:
182,192,153422,1,0,0:0:0:0:
402,192,153520,1,0,0:0:0:0:
256,192,153570,1,0,0:0:0:0:
109,192,153619,1,0,0:0:0:0:
329,192,153815,1,0,0:0:0:0:
329,192,153913,1,0,0:0:0:50:clap02.wav
109,192,154109,1,0,0:0:0:0:
256,192,154207,1,0,0:0:0:0:
475,192,154305,1,0,0:0:0:0:
329,192,154354,1,0,0:0:0:0:
182,192,154403,1,0,0:0:0:0:
402,192,154599,1,0,0:0:0:0:
402,192,154697,1,0,0:0:0:50:clap02.wav
36,192,154991,1,0,0:0:0:0:
182,192,155040,1,0,0:0:0:0:
475,192,155089,1,0,0:0:0:70:LR_Chm loong.wav
402,192,155154,1,0,0:0:0:0:
329,192,155220,1,0,0:0:0:0:
256,192,155285,1,0,0:0:0:0:
402,192,155383,1,0,0:0:0:0:
182,192,155481,1,0,0:0:0:50:clap02.wav
329,192,155579,1,0,0:0:0:0:
109,192,155677,1,0,0:0:0:0:
256,192,155775,1,0,0:0:0:0:
36,192,155873,1,0,0:0:0:70:LR_Chm Soft Whistle Echo.wav
402,192,155873,1,0,0:0:0:0:
475,192,155873,1,0,0:0:0:0:
182,192,155922,1,0,0:0:0:0:
329,192,155971,1,0,0:0:0:0:
109,192,156168,1,0,0:0:0:0:
256,192,156217,1,0,0:0:0:0:
402,192,156266,1,0,0:0:0:50:clap02.wav
475,192,156462,1,0,0:0:0:0:
36,192,156560,1,0,0:0:0:0:
402,192,156658,1,0,0:0:0:0:
256,192,156707,1,0,0:0:0:0:
109,192,156756,1,0,0:0:0:0:
329,192,156952,1,0,0:0:0:0:
329,192,157050,128,0,157344:0:0:0:50:clap02.wav
182,192,157344,1,0,0:0:0:0:
36,192,157442,1,0,0:0:0:0:
402,192,157442,1,0,0:0:0:0:
475,192,157442,1,0,0:0:0:0:
256,192,157491,1,0,0:0:0:0:
109,192,157540,1,0,0:0:0:0:
329,192,157736,1,0,0:0:0:0:
329,192,157834,128,0,158422:0:0:0:50:clap02.wav
182,192,158422,1,0,0:0:0:0:
36,192,158520,1,0,0:0:0:0:
256,192,158619,1,0,0:0:0:50:clap02.wav
109,192,158717,1,0,0:0:0:0:
329,192,158815,1,0,0:0:0:0:
182,192,158913,1,0,0:0:0:0:
36,192,159011,1,0,0:0:0:50:LR_Drum Rpd x2.wav
109,192,159011,128,0,159305:0:0:0:50:LR_Chm Soft Whistle Echo.wav
256,192,159011,1,0,0:0:0:0:
475,192,159011,1,0,0:0:0:0:
329,192,159109,1,0,0:0:0:0:
402,192,159207,1,0,0:0:0:0:
256,192,159305,1,0,0:0:0:0:
36,192,159403,128,0,159599:0:0:0:50:clap02.wav
329,192,159403,1,0,0:0:0:0:
475,192,159403,1,0,0:0:0:0:
182,192,159501,1,0,0:0:0:0:
256,192,159599,1,0,0:0:0:50:LR_Drum Rpd x2.wav
402,192,159599,1,0,0:0:0:0:
109,192,159697,1,0,0:0:0:0:
329,192,159697,1,0,0:0:0:0:
36,192,159795,128,0,159991:0:0:0:0:
182,192,159795,1,0,0:0:0:0:
475,192,159795,1,0,0:0:0:0:
256,192,159893,1,0,0:0:0:0:
329,192,159991,1,0,0:0:0:0:
182,192,160089,1,0,0:0:0:0:
402,192,160089,1,0,0:0:0:0:
36,192,160187,1,0,0:0:0:50:clap02.wav
182,192,160187,128,0,160383:0:0:0:50:LR_Drum Rpd x2.wav
475,192,160187,1,0,0:0:0:0:
329,192,160285,1,0,0:0:0:0:
109,192,160383,1,0,0:0:0:0:
402,192,160383,1,0,0:0:0:0:
256,192,160481,1,0,0:0:0:0:
475,192,160481,1,0,0:0:0:0:
36,192,160579,128,0,160873:0:0:0:50:LR_Drum Rpd x2.wav
182,192,160579,1,0,0:0:0:0:
329,192,160579,1,0,0:0:0:0:
402,192,160677,1,0,0:0:0:0:
256,192,160775,1,0,0:0:0:0:
182,192,160873,1,0,0:0:0:0:
109,192,160971,128,0,161168:0:0:0:50:clap02.wav
329,192,160971,1,0,0:0:0:0:
475,192,160971,1,0,0:0:0:0:
256,192,161070,1,0,0:0:0:0:
36,192,161168,1,0,0:0:0:50:LR_Drum Rpd x2.wav
402,192,161168,1,0,0:0:0:0:
182,192,161266,1,0,0:0:0:0:
256,192,161315,1,0,0:0:0:0:
36,192,161364,128,0,161462:0:0:0:0:
329,192,161364,1,0,0:0:0:0:
109,192,161462,128,0,161560:0:0:0:0:
475,192,161462,1,0,0:0:0:0:
182,192,161560,128,0,161658:0:0:0:0:
329,192,161560,1,0,0:0:0:0:
36,192,161658,128,0,161756:0:0:0:0:
402,192,161658,1,0,0:0:0:0:
109,192,161756,1,0,0:0:0:50:clap02.wav
256,192,161756,1,0,0:0:0:50:LR_Drum Rpd x2.wav
475,192,161756,1,0,0:0:0:0:
329,192,161854,1,0,0:0:0:0:
182,192,161952,1,0,0:0:0:0:
329,192,162050,1,0,0:0:0:0:
36,192,162148,1,0,0:0:0:50:LR_Drum Rpd x2.wav
256,192,162148,1,0,0:0:0:50:LR_Chm Soft Whistle Echo.wav
402,192,162148,128,0,162442:0:0:0:0:
475,192,162148,1,0,0:0:0:0:
182,192,162246,1,0,0:0:0:0:
109,192,162344,1,0,0:0:0:0:
256,192,162442,1,0,0:0:0:0:
36,192,162540,1,0,0:0:0:50:clap02.wav
182,192,162540,1,0,0:0:0:0:
475,192,162540,128,0,162736:0:0:0:0:
329,192,162638,1,0,0:0:0:0:
109,192,162736,1,0,0:0:0:50:LR_Drum Rpd x2.wav
256,192,162736,1,0,0:0:0:0:
182,192,162834,1,0,0:0:0:0:
402,192,162834,1,0,0:0:0:0:
36,192,162932,1,0,0:0:0:0:
329,192,162932,1,0,0:0:0:0:
475,192,162932,128,0,163128:0:0:0:0:
256,192,163030,1,0,0:0:0:0:
182,192,163128,1,0,0:0:0:0:
109,192,163226,1,0,0:0:0:0:
329,192,163226,1,0,0:0:0:0:
36,192,163324,1,0,0:0:0:50:clap02.wav
329,192,163324,128,0,163520:0:0:0:50:LR_Drum Rpd x2.wav
475,192,163324,1,0,0:0:0:0:
182,192,163422,1,0,0:0:0:0:
109,192,163520,1,0,0:0:0:0:
402,192,163520,1,0,0:0:0:0:
36,192,163619,1,0,0:0:0:0:
256,192,163619,1,0,0:0:0:0:
182,192,163717,1,0,0:0:0:50:LR_Drum Rpd x2.wav
329,192,163717,1,0,0:0:0:0:
475,192,163717,128,0,164011:0:0:0:0:
109,192,163815,1,0,0:0:0:0:
256,192,163913,1,0,0:0:0:0:
182,192,164011,1,0,0:0:0:0:
36,192,164109,1,0,0:0:0:50:clap02.wav
329,192,164109,1,0,0:0:0:0:
402,192,164109,128,0,164305:0:0:0:0:
109,192,164207,1,0,0:0:0:0:
182,192,164305,1,0,0:0:0:50:LR_Drum Rpd x2.wav
475,192,164305,1,0,0:0:0:0:
256,192,164403,1,0,0:0:0:0:
36,192,164501,1,0,0:0:0:50:clap02.wav
109,192,164501,1,0,0:0:0:0:
329,192,164501,1,0,0:0:0:0:
402,192,164566,1,0,0:0:0:0:
182,192,164599,1,0,0:0:0:0:
475,192,164632,1,0,0:0:0:0:
36,192,164697,1,0,0:0:0:0:
256,192,164697,128,0,164795:0:0:0:0:
109,192,164795,1,0,0:0:0:0:
329,192,164795,128,0,164893:0:0:0:0:
182,192,164893,1,0,0:0:0:50:clap02.wav
402,192,164893,1,0,0:0:0:50:LR_Drum Rpd x2.wav
475,192,164893,1,0,0:0:0:0:
36,192,164991,1,0,0:0:0:0:
256,192,165089,1,0,0:0:0:0:
109,192,165187,1,0,0:0:0:0:
36,192,165285,1,0,0:0:0:30:LR_Drum Kick Low.wav
329,192,165285,1,0,0:0:0:70:LR_Chm Soft Whistle Echo.wav
402,192,165285,1,0,0:0:0:0:
475,192,165285,128,0,165579:0:0:0:0:
182,192,165383,1,0,0:0:0:30:LR_Drum Kick Low.wav
329,192,165481,1,0,0:0:0:30:LR_Drum Kick Low.wav
109,192,165579,1,0,0:0:0:30:LR_Drum Kick Low.wav
36,192,165677,128,0,165873:0:0:0:50:clap02.wav
256,192,165677,1,0,0:0:0:30:LR_Drum Kick Low.wav
475,192,165677,1,0,0:0:0:0:
329,192,165775,1,0,0:0:0:30:LR_Drum Kick Low.wav
182,192,165873,1,0,0:0:0:30:LR_Drum Kick Low.wav
402,192,165873,1,0,0:0:0:0:
109,192,165971,1,0,0:0:0:30:LR_Drum Kick Low.wav
329,192,165971,1,0,0:0:0:0:
36,192,166070,128,0,166266:0:0:0:30:LR_Drum Kick Low.wav
256,192,166070,1,0,0:0:0:0:
475,192,166070,1,0,0:0:0:0:
402,192,166168,1,0,0:0:0:30:LR_Drum Kick Low.wav
182,192,166266,1,0,0:0:0:30:LR_Drum Kick Low.wav
329,192,166364,1,0,0:0:0:30:LR_Drum Kick Low.wav
475,192,166364,1,0,0:0:0:0:
36,192,166462,1,0,0:0:0:50:clap02.wav
182,192,166462,1,0,0:0:0:30:LR_Drum Kick Low.wav
475,192,166462,128,0,166658:0:0:0:0:
256,192,166560,1,0,0:0:0:30:LR_Drum Kick Low.wav
109,192,166658,1,0,0:0:0:30:LR_Drum Kick Low.wav
329,192,166658,1,0,0:0:0:0:
182,192,166723,1,0,0:0:0:0:
402,192,166756,1,0,0:0:0:30:LR_Drum Kick Low.wav
256,192,166788,1,0,0:0:0:0:
36,192,166854,1,0,0:0:0:20:kick.wav
109,192,166854,1,0,0:0:0:0:
475,192,166854,1,0,0:0:0:0:
329,192,166952,1,0,0:0:0:20:kick.wav
182,192,167050,1,0,0:0:0:20:kick.wav
402,192,167050,1,0,0:0:0:0:
36,192,167148,1,0,0:0:0:20:kick.wav
256,192,167148,1,0,0:0:0:0:
36,192,167246,128,0,167540:0:0:0:20:kick.wav
329,192,167246,1,0,0:0:0:0:
475,192,167246,1,0,0:0:0:0:
182,192,167344,1,0,0:0:0:20:kick.wav
329,192,167442,1,0,0:0:0:20:kick.wav
402,192,167442,1,0,0:0:0:0:
109,192,167540,1,0,0:0:0:20:kick.wav
182,192,167638,1,0,0:0:0:30:kick.wav
256,192,167638,1,0,0:0:0:70:LR_Chm loong.wav
475,192,167638,1,0,0:0:0:0:
36,192,167703,1,0,0:0:0:0:
329,192,167736,1,0,0:0:0:30:kick.wav
109,192,167769,1,0,0:0:0:0:
182,192,167834,1,0,0:0:0:30:kick.wav
402,192,167834,1,0,0:0:0:0:
256,192,167932,1,0,0:0:0:30:kick.wav
475,192,167932,1,0,0:0:0:0:
36,192,168030,1,0,0:0:0:30:kick.wav
109,192,168030,1,0,0:0:0:0:
329,192,168030,1,0,0:0:0:0:
182,192,168128,1,0,0:0:0:30:kick.wav
402,192,168128,1,0,0:0:0:0:
109,192,168226,1,0,0:0:0:30:kick.wav
329,192,168226,1,0,0:0:0:0:
256,192,168324,1,0,0:0:0:30:kick.wav
475,192,168324,1,0,0:0:0:0:
36,192,168422,1,0,0:0:0:40:kick.wav
109,192,168422,1,0,0:0:0:70:LR_Chm Soft Whistle Echo.wav
402,192,168422,1,0,0:0:0:0:
182,192,168520,1,0,0:0:0:40:kick.wav
329,192,168520,1,0,0:0:0:0:
36,192,168619,1,0,0:0:0:40:kick.wav
256,192,168619,1,0,0:0:0:0:
475,192,168619,1,0,0:0:0:0:
109,192,168717,1,0,0:0:0:40:kick.wav
402,192,168717,1,0,0:0:0:0:
36,192,168815,1,0,0:0:0:40:kick.wav
182,192,168815,1,0,0:0:0:0:
329,192,168815,1,0,0:0:0:0:
402,192,168913,1,0,0:0:0:40:kick.wav
475,192,168913,1,0,0:0:0:0:
36,192,169011,1,0,0:0:0:40:kick.wav
109,192,169011,1,0,0:0:0:0:
256,192,169011,1,0,0:0:0:0:
329,192,169076,1,0,0:0:0:0:
182,192,169109,1,0,0:0:0:40:kick.wav
402,192,169141,1,0,0:0:0:0:
36,192,169207,1,0,0:0:0:50:kick.wav
256,192,169207,1,0,0:0:0:0:
475,192,169207,1,0,0:0:0:0:
182,192,169305,1,0,0:0:0:50:kick.wav
329,192,169305,1,0,0:0:0:0:
109,192,169403,1,0,0:0:0:50:kick.wav
402,192,169403,1,0,0:0:0:0:
475,192,169403,1,0,0:0:0:0:
36,192,169501,1,0,0:0:0:50:kick.wav
256,192,169501,1,0,0:0:0:0:
182,192,169599,1,0,0:0:0:50:kick.wav
402,192,169599,1,0,0:0:0:0:
475,192,169599,1,0,0:0:0:0:
109,192,169697,1,0,0:0:0:50:kick.wav
329,192,169697,1,0,0:0:0:0:
36,192,169795,1,0,0:0:0:50:kick.wav
256,192,169795,1,0,0:0:0:0:
475,192,169795,1,0,0:0:0:0:
182,192,169893,1,0,0:0:0:50:kick.wav
402,192,169893,1,0,0:0:0:0:
36,192,169991,1,0,0:0:0:35:kick.wav
109,192,169991,1,0,0:0:0:0:
329,192,169991,1,0,0:0:0:0:
402,192,170040,1,0,0:0:0:35:kick.wav
182,192,170089,1,0,0:0:0:35:kick.wav
475,192,170089,1,0,0:0:0:0:
109,192,170138,1,0,0:0:0:35:kick.wav
36,192,170187,1,0,0:0:0:35:kick.wav
256,192,170187,1,0,0:0:0:0:
402,192,170236,1,0,0:0:0:35:kick.wav
182,192,170285,1,0,0:0:0:35:kick.wav
475,192,170285,1,0,0:0:0:0:
109,192,170334,1,0,0:0:0:35:kick.wav
36,192,170383,1,0,0:0:0:35:kick.wav
329,192,170383,1,0,0:0:0:0:
402,192,170432,1,0,0:0:0:35:kick.wav
256,192,170481,1,0,0:0:0:35:kick.wav
475,192,170481,1,0,0:0:0:0:
109,192,170530,1,0,0:0:0:35:kick.wav
36,192,170579,1,0,0:0:0:35:kick.wav
329,192,170579,1,0,0:0:0:0:
402,192,170628,1,0,0:0:0:35:kick.wav
182,192,170677,1,0,0:0:0:35:kick.wav
475,192,170677,1,0,0:0:0:0:
109,192,170726,1,0,0:0:0:35:kick.wav
36,192,170775,1,0,0:0:0:35:kick.wav
329,192,170775,1,0,0:0:0:0:
256,192,170824,1,0,0:0:0:35:kick.wav
182,192,170873,1,0,0:0:0:35:kick.wav
475,192,170873,1,0,0:0:0:0:
402,192,170922,1,0,0:0:0:35:kick.wav
36,192,170971,1,0,0:0:0:35:kick.wav
329,192,170971,1,0,0:0:0:0:
109,192,171020,1,0,0:0:0:35:kick.wav
182,192,171070,1,0,0:0:0:35:kick.wav
475,192,171070,1,0,0:0:0:0:
402,192,171119,1,0,0:0:0:35:kick.wav
36,192,171168,1,0,0:0:0:0:
256,192,171168,1,0,0:0:0:0:
329,192,171266,1,0,0:0:0:0:
182,192,171364,1,0,0:0:0:0:
329,192,171462,1,0,0:0:0:0:
36,192,171560,128,0,171854:0:0:0:50:kick.wav
109,192,171560,128,0,171854:0:0:0:50:cymbal_s.wav
256,192,171560,128,0,171854:0:0:0:0:
402,192,171560,128,0,171854:0:0:0:0:
475,192,171560,128,0,171854:0:0:0:0:
256,192,171952,1,0,0:0:0:70:S2.wav
475,192,171952,1,0,0:0:0:0:
109,192,172017,1,0,0:0:0:70:S2.wav
402,192,172017,1,0,0:0:0:0:
36,192,172083,1,0,0:0:0:70:LR_Drum Kick Low.wav
329,192,172083,1,0,0:0:0:0:
182,192,172148,1,0,0:0:0:0:
475,192,172148,1,0,0:0:0:0:
109,192,172213,1,0,0:0:0:70:LR_Drum Kick Low.wav
402,192,172213,1,0,0:0:0:0:
36,192,172279,1,0,0:0:0:70:S2.wav
256,192,172279,1,0,0:0:0:0:
109,192,172344,128,0,172540:0:0:0:50:kick.wav
182,192,172344,128,0,172540:0:0:0:50:cymbal_s.wav
329,192,172344,128,0,172540:0:0:0:0:
402,192,172344,128,0,172540:0:0:0:0:
475,192,172344,128,0,172540:0:0:0:0:
36,192,172638,128,0,172834:0:0:0:50:kick.wav
109,192,172638,128,0,172834:0:0:0:50:cymbal_s.wav
256,192,172638,128,0,172834:0:0:0:0:
329,192,172638,128,0,172834:0:0:0:0:
402,192,172638,128,0,172834:0:0:0:0:
36,192,172932,128,0,173128:0:0:0:50:kick.wav
182,192,172932,128,0,173128:0:0:0:50:cymbal_s.wav
256,192,172932,128,0,173128:0:0:0:0:
329,192,172932,128,0,173128:0:0:0:0:
475,192,172932,128,0,173128:0:0:0:0:
109,192,173324,1,0,0:0:0:70:LR_Drum Rpd x2.wav
182,192,173324,1,0,0:0:0:0:
402,192,173324,1,0,0:0:0:0:
109,192,173422,1,0,0:0:0:70:LR_Drum Rpd x2.wav
182,192,173422,1,0,0:0:0:0:
329,192,173422,1,0,0:0:0:0:
36,192,173520,1,0,0:0:0:70:LR_Drum Rpd x2.wav
256,192,173520,1,0,0:0:0:0:
475,192,173520,1,0,0:0:0:0:
182,192,173619,1,0,0:0:0:70:LR_Drum Kick Low.wav
402,192,173619,1,0,0:0:0:0:
36,192,173717,1,0,0:0:0:70:tom03.wav
109,192,173717,1,0,0:0:0:0:
329,192,173717,1,0,0:0:0:0:
256,192,173815,1,0,0:0:0:70:tom04.wav
475,192,173815,1,0,0:0:0:0:
36,192,173913,128,0,174109:0:0:0:50:kick.wav
109,192,173913,128,0,174109:0:0:0:50:cymbal_s.wav
182,192,173913,128,0,174109:0:0:0:0:
329,192,173913,128,0,174109:0:0:0:0:
402,192,173913,128,0,174109:0:0:0:0:
109,192,174207,128,0,174403:0:0:0:50:kick.wav
182,192,174207,128,0,174403:0:0:0:50:cymbal_s.wav
256,192,174207,128,0,174403:0:0:0:0:
402,192,174207,128,0,174403:0:0:0:0:
475,192,174207,128,0,174403:0:0:0:0:
36,192,174501,128,0,174697:0:0:0:50:kick.wav
182,192,174501,128,0,174697:0:0:0:50:cymbal_s.wav
256,192,174501,128,0,174697:0:0:0:0:
329,192,174501,128,0,174697:0:0:0:0:
475,192,174501,128,0,174697:0:0:0:0:
109,192,174893,1,0,0:0:0:70:tom01.wav
329,192,174893,1,0,0:0:0:0:
402,192,174893,1,0,0:0:0:0:
182,192,174991,1,0,0:0:0:70:tom01.wav
329,192,174991,1,0,0:0:0:0:
402,192,174991,1,0,0:0:0:0:
36,192,175089,1,0,0:0:0:70:tom02.wav
256,192,175089,1,0,0:0:0:0:
475,192,175089,1,0,0:0:0:0:
109,192,175187,1,0,0:0:0:70:tom02.wav
329,192,175187,1,0,0:0:0:0:
182,192,175285,1,0,0:0:0:70:tom03.wav
402,192,175285,1,0,0:0:0:0:
475,192,175285,1,0,0:0:0:0:
36,192,175383,1,0,0:0:0:70:tom04.wav
256,192,175383,1,0,0:0:0:0:
109,192,175481,128,0,175677:0:0:0:50:kick.wav
182,192,175481,128,0,175677:0:0:0:50:cymbal_s.wav
329,192,175481,128,0,175677:0:0:0:0:
402,192,175481,128,0,175677:0:0:0:0:
475,192,175481,128,0,175677:0:0:0:0:
36,192,175775,128,0,175971:0:0:0:50:kick.wav
109,192,175775,128,0,175971:0:0:0:50:cymbal_s.wav
256,192,175775,128,0,175971:0:0:0:0:
329,192,175775,128,0,175971:0:0:0:0:
402,192,175775,128,0,175971:0:0:0:0:
36,192,176070,128,0,176266:0:0:0:50:kick.wav
182,192,176070,128,0,176266:0:0:0:50:cymbal_s.wav
329,192,176070,128,0,176266:0:0:0:0:
402,192,176070,128,0,176266:0:0:0:0:
475,192,176070,128,0,176266:0:0:0:0:
109,192,176462,128,0,176658:0:0:0:70:LR_Drum Rpd x2.wav
256,192,176462,128,0,176658:0:0:0:0:
402,192,176462,128,0,176658:0:0:0:0:
475,192,176658,1,0,0:0:0:70:LR_Drum Rpd x2.wav
36,192,176723,1,0,0:0:0:0:
182,192,176788,1,0,0:0:0:0:
329,192,176854,128,0,177246:0:0:0:70:LR_Drum Rpd x2.wav
402,192,176854,128,0,177246:0:0:0:0:
109,192,177050,128,0,177442:0:0:0:70:LR_Drum Rpd x2.wav
182,192,177050,128,0,177442:0:0:0:0:
475,192,177246,1,0,0:0:0:70:LR_Drum Rpd x2.wav
36,192,177442,1,0,0:0:0:70:LR_Drum Rpd x2.wav
256,192,177442,1,0,0:0:0:0:
475,192,177442,1,0,0:0:0:0:
256,192,177540,1,0,0:0:0:70:LR_Drum Rpd x2.wav
475,192,177540,1,0,0:0:0:0:
36,192,177638,1,0,0:0:0:70:LR_Drum Rpd x2.wav
182,192,177638,1,0,0:0:0:0:
329,192,177638,1,0,0:0:0:0:
182,192,177736,1,0,0:0:0:70:LR_Drum Rpd x2.wav
329,192,177736,1,0,0:0:0:0:
36,192,177834,128,0,178128:0:0:0:50:kick.wav
109,192,177834,128,0,178128:0:0:0:50:cymbal_s.wav
256,192,177834,128,0,178030:0:0:0:0:
402,192,177834,128,0,178128:0:0:0:0:
475,192,177834,128,0,178128:0:0:0:0:
256,192,178128,1,0,0:0:0:70:LR_Drum Rpd x2.wav
36,192,178226,1,0,0:0:0:70:LR_Drum Rpd x2.wav
256,192,178226,1,0,0:0:0:0:
475,192,178226,1,0,0:0:0:0:
182,192,178324,1,0,0:0:0:70:LR_Drum Rpd x2.wav
402,192,178324,1,0,0:0:0:0:
109,192,178422,1,0,0:0:0:70:tom03.wav
329,192,178422,1,0,0:0:0:0:
475,192,178422,1,0,0:0:0:0:
36,192,178520,1,0,0:0:0:70:tom04.wav
256,192,178520,1,0,0:0:0:0:
109,192,178619,128,0,178815:0:0:0:50:kick.wav
182,192,178619,128,0,178815:0:0:0:50:cymbal_s.wav
329,192,178619,128,0,178815:0:0:0:0:
402,192,178619,128,0,178815:0:0:0:0:
475,192,178619,128,0,178815:0:0:0:0:
36,192,178913,128,0,179109:0:0:0:50:kick.wav
182,192,178913,128,0,179109:0:0:0:50:cymbal_s.wav
256,192,178913,128,0,179109:0:0:0:0:
329,192,178913,128,0,179109:0:0:0:0:
475,192,178913,128,0,179109:0:0:0:0:
36,192,179207,128,0,179403:0:0:0:50:kick.wav
109,192,179207,128,0,179403:0:0:0:50:cymbal_s.wav
256,192,179207,128,0,179403:0:0:0:0:
402,192,179207,128,0,179403:0:0:0:0:
475,192,179207,128,0,179403:0:0:0:0:
109,192,179599,1,0,0:0:0:50:LR_Drum Kick Low.wav
475,192,179599,1,0,0:0:0:0:
182,192,179664,1,0,0:0:0:50:LR_Drum Kick Low.wav
402,192,179664,1,0,0:0:0:0:
36,192,179730,1,0,0:0:0:50:LR_Drum Kick Low.wav
256,192,179730,1,0,0:0:0:0:
109,192,179795,1,0,0:0:0:50:LR_Drum Kick Low.wav
329,192,179795,1,0,0:0:0:0:
182,192,179860,1,0,0:0:0:50:LR_Drum Kick Low.wav
475,192,179860,1,0,0:0:0:0:
36,192,179926,1,0,0:0:0:50:LR_Drum Kick Low.wav
256,192,179926,1,0,0:0:0:0:
109,192,179991,1,0,0:0:0:50:LR_Drum Kick Low.wav
402,192,179991,1,0,0:0:0:0:
182,192,180056,1,0,0:0:0:50:LR_Drum Kick Low.wav
475,192,180056,1,0,0:0:0:0:
36,192,180122,1,0,0:0:0:50:LR_Drum Kick Low.wav
329,192,180122,1,0,0:0:0:0:
109,192,180187,128,0,180383:0:0:0:50:kick.wav
182,192,180187,128,0,180383:0:0:0:50:cymbal_s.wav
256,192,180187,128,0,180383:0:0:0:0:
402,192,180187,128,0,180383:0:0:0:0:
475,192,180187,128,0,180383:0:0:0:0:
36,192,180481,128,0,180677:0:0:0:50:kick.wav
109,192,180481,128,0,180677:0:0:0:50:cymbal_s.wav
182,192,180481,128,0,180677:0:0:0:0:
329,192,180481,128,0,180677:0:0:0:0:
402,192,180481,128,0,180677:0:0:0:0:
36,192,180775,128,0,180971:0:0:0:50:kick.wav
182,192,180775,128,0,180971:0:0:0:50:cymbal_s.wav
256,192,180775,128,0,180971:0:0:0:0:
329,192,180775,128,0,180971:0:0:0:0:
475,192,180775,128,0,180971:0:0:0:0:
182,192,181168,1,0,0:0:0:70:LR_Drum Kick Low.wav
402,192,181168,1,0,0:0:0:0:
475,192,181168,1,0,0:0:0:0:
256,192,181266,1,0,0:0:0:70:LR_Drum Kick Low.wav
402,192,181266,1,0,0:0:0:0:
475,192,181266,1,0,0:0:0:0:
36,192,181364,1,0,0:0:0:70:tom01.wav
109,192,181364,1,0,0:0:0:0:
329,192,181364,1,0,0:0:0:0:
182,192,181462,1,0,0:0:0:70:tom02.wav
402,192,181462,1,0,0:0:0:0:
36,192,181560,1,0,0:0:0:70:tom03.wav
256,192,181560,1,0,0:0:0:0:
475,192,181560,1,0,0:0:0:0:
182,192,181658,1,0,0:0:0:70:tom04.wav
329,192,181658,1,0,0:0:0:0:
36,192,181756,128,0,181952:0:0:0:50:kick.wav
109,192,181756,128,0,181952:0:0:0:50:cymbal_s.wav
256,192,181756,128,0,181952:0:0:0:0:
402,192,181756,128,0,181952:0:0:0:0:
475,192,181756,128,0,181952:0:0:0:0:
36,192,182050,128,0,182246:0:0:0:50:kick.wav
182,192,182050,128,0,182246:0:0:0:50:cymbal_s.wav
329,192,182050,128,0,182246:0:0:0:0:
402,192,182050,128,0,182246:0:0:0:0:
475,192,182050,128,0,182246:0:0:0:0:
36,192,182344,1,0,0:0:0:50:kick.wav
109,192,182344,1,0,0:0:0:50:cymbal_s.wav
256,192,182344,128,0,182834:0:0:0:0:
402,192,182344,128,0,183324:0:0:0:0:
475,192,182344,128,0,184403:0:0:0:0:
36,192,182736,1,0,0:0:0:70:LR_Drum Rpd x2.wav
182,192,182834,1,0,0:0:0:70:LR_Drum Rpd x2.wav
329,192,182932,1,0,0:0:0:70:LR_Drum Rpd x2.wav
109,192,183030,1,0,0:0:0:70:LR_Drum Rpd x2.wav
256,192,183128,1,0,0:0:0:70:LR_Drum Rpd x2.wav
182,192,183226,1,0,0:0:0:70:LR_Drum Rpd x2.wav
109,192,183324,1,0,0:0:0:70:LR_Drum Rpd x2.wav
329,192,183324,1,0,0:0:0:0:
256,192,183390,1,0,0:0:0:0:
36,192,183422,1,0,0:0:0:70:LR_Drum Rpd x2.wav
182,192,183455,1,0,0:0:0:0:
329,192,183520,1,0,0:0:0:70:LR_Drum Rpd x2.wav
402,192,183520,1,0,0:0:0:0:
36,192,183619,1,0,0:0:0:70:LR_Drum Rpd x2.wav
256,192,183619,1,0,0:0:0:0:
182,192,183717,1,0,0:0:0:70:LR_Drum Rpd x2.wav
402,192,183717,1,0,0:0:0:0:
109,192,183815,1,0,0:0:0:70:LR_Drum Rpd x2.wav
329,192,183815,1,0,0:0:0:0:
36,192,183913,1,0,0:0:0:70:LR_Drum Rpd x2.wav
256,192,183913,1,0,0:0:0:0:
182,192,184011,1,0,0:0:0:70:LR_Drum Rpd x2.wav
402,192,184011,1,0,0:0:0:0:
36,192,184109,1,0,0:0:0:70:LR_Drum Rpd x2.wav
109,192,184109,1,0,0:0:0:0:
256,192,184109,1,0,0:0:0:0:
329,192,184174,1,0,0:0:0:0:
182,192,184207,1,0,0:0:0:70:LR_Drum Rpd x2.wav
402,192,184239,1,0,0:0:0:0:
36,192,184305,1,0,0:0:0:70:LR_Drum Rpd x2.wav
256,192,184305,1,0,0:0:0:0:
109,192,184403,1,0,0:0:0:70:LR_Drum Rpd x2.wav
329,192,184403,1,0,0:0:0:0:
36,192,184501,1,0,0:0:0:50:kick.wav
182,192,184501,1,0,0:0:0:0:
402,192,184501,1,0,0:0:0:0:
475,192,184501,1,0,0:0:0:0:
256,192,184697,128,0,184746:0:0:0:0:
36,192,184893,1,0,0:0:0:50:kick.wav
109,192,184893,1,0,0:0:0:70:cymbal.wav
182,192,184893,1,0,0:0:0:70:push_scratch.wav
329,192,184991,1,0,0:0:0:50:kick.wav
402,192,184991,1,0,0:0:0:0:
475,192,184991,1,0,0:0:0:0:
109,192,185089,1,0,0:0:0:50:kick.wav
182,192,185089,1,0,0:0:0:0:
256,192,185089,1,0,0:0:0:0:
36,192,185187,1,0,0:0:0:50:kick.wav
402,192,185187,1,0,0:0:0:0:
475,192,185187,1,0,0:0:0:0:
182,192,185285,1,0,0:0:0:50:kick.wav
329,192,185285,1,0,0:0:0:100:VEC3 Snares 076.wav
109,192,185383,1,0,0:0:0:50:kick.wav
256,192,185383,1,0,0:0:0:0:
475,192,185383,1,0,0:0:0:0:
36,192,185481,1,0,0:0:0:50:kick.wav
182,192,185481,1,0,0:0:0:0:
402,192,185481,1,0,0:0:0:0:
109,192,185579,1,0,0:0:0:50:kick.wav
329,192,185579,1,0,0:0:0:0:
475,192,185579,1,0,0:0:0:0:
36,192,185677,1,0,0:0:0:50:kick.wav
256,192,185677,1,0,0:0:0:0:
182,192,185775,1,0,0:0:0:50:kick.wav
402,192,185775,1,0,0:0:0:0:
475,192,185775,1,0,0:0:0:0:
36,192,185873,1,0,0:0:0:50:kick.wav
109,192,185873,1,0,0:0:0:0:
329,192,185873,1,0,0:0:0:0:
256,192,185971,1,0,0:0:0:50:kick.wav
475,192,185971,1,0,0:0:0:0:
109,192,186069,1,0,0:0:0:50:kick.wav
182,192,186069,1,0,0:0:0:100:VEC3 Snares 076.wav
402,192,186069,1,0,0:0:0:0:
36,192,186167,1,0,0:0:0:50:kick.wav
329,192,186167,1,0,0:0:0:0:
182,192,186265,1,0,0:0:0:50:kick.wav
256,192,186265,1,0,0:0:0:0:
475,192,186265,1,0,0:0:0:0:
109,192,186363,1,0,0:0:0:50:kick.wav
402,192,186363,1,0,0:0:0:0:
256,192,186461,1,0,0:0:0:50:kick.wav
329,192,186461,1,0,0:0:0:0:
475,192,186461,1,0,0:0:0:0:
36,192,186559,1,0,0:0:0:50:kick.wav
109,192,186559,1,0,0:0:0:0:
182,192,186559,1,0,0:0:0:0:
256,192,186657,1,0,0:0:0:50:kick.wav
329,192,186657,1,0,0:0:0:0:
402,192,186657,1,0,0:0:0:0:
36,192,186755,1,0,0:0:0:50:kick.wav
109,192,186755,1,0,0:0:0:0:
475,192,186755,1,0,0:0:0:0:
182,192,186853,1,0,0:0:0:50:kick.wav
329,192,186853,1,0,0:0:0:100:VEC3 Snares 076.wav
36,192,186951,1,0,0:0:0:50:kick.wav
256,192,186951,1,0,0:0:0:0:
402,192,186951,1,0,0:0:0:0:
109,192,187049,1,0,0:0:0:50:kick.wav
329,192,187049,1,0,0:0:0:0:
475,192,187049,1,0,0:0:0:0:
36,192,187147,1,0,0:0:0:50:kick.wav
182,192,187147,1,0,0:0:0:0:
402,192,187147,1,0,0:0:0:0:
256,192,187245,1,0,0:0:0:50:kick.wav
475,192,187245,1,0,0:0:0:0:
36,192,187343,1,0,0:0:0:50:kick.wav
109,192,187343,1,0,0:0:0:0:
329,192,187343,1,0,0:0:0:0:
182,192,187442,1,0,0:0:0:50:kick.wav
402,192,187442,1,0,0:0:0:0:
475,192,187442,1,0,0:0:0:0:
36,192,187540,1,0,0:0:0:50:kick.wav
256,192,187540,1,0,0:0:0:0:
109,192,187638,1,0,0:0:0:50:kick.wav
475,192,187638,128,0,188030:0:0:0:0:
182,192,187687,1,0,0:0:0:0:
256,192,187736,1,0,0:0:0:0:
329,192,187785,1,0,0:0:0:0:
36,192,187834,1,0,0:0:0:0:
402,192,187834,128,0,188030:0:0:0:0:
109,192,187883,1,0,0:0:0:0:
182,192,187932,1,0,0:0:0:0:
256,192,187981,1,0,0:0:0:0:
36,192,188030,1,0,0:0:0:50:kick.wav
109,192,188030,1,0,0:0:0:70:cymbal.wav
329,192,188030,1,0,0:0:0:70:push_scratch.wav
182,192,188128,1,0,0:0:0:50:kick.wav
402,192,188128,1,0,0:0:0:0:
475,192,188128,1,0,0:0:0:0:
36,192,188226,1,0,0:0:0:50:kick.wav
256,192,188226,1,0,0:0:0:0:
329,192,188226,1,0,0:0:0:0:
109,192,188324,1,0,0:0:0:50:kick.wav
402,192,188324,1,0,0:0:0:0:
475,192,188324,1,0,0:0:0:0:
182,192,188422,1,0,0:0:0:50:kick.wav
329,192,188422,1,0,0:0:0:100:VEC3 Snares 076.wav
36,192,188520,1,0,0:0:0:50:kick.wav
256,192,188520,1,0,0:0:0:0:
402,192,188520,1,0,0:0:0:0:
109,192,188618,1,0,0:0:0:50:kick.wav
329,192,188618,1,0,0:0:0:0:
475,192,188618,1,0,0:0:0:0:
36,192,188716,1,0,0:0:0:50:kick.wav
182,192,188716,1,0,0:0:0:0:
402,192,188716,1,0,0:0:0:0:
256,192,188814,1,0,0:0:0:50:kick.wav
475,192,188814,1,0,0:0:0:0:
36,192,188912,1,0,0:0:0:50:kick.wav
109,192,188912,1,0,0:0:0:0:
329,192,188912,1,0,0:0:0:0:
182,192,189010,1,0,0:0:0:50:kick.wav
402,192,189010,1,0,0:0:0:0:
475,192,189010,1,0,0:0:0:0:
36,192,189108,1,0,0:0:0:50:kick.wav
256,192,189108,1,0,0:0:0:0:
109,192,189206,1,0,0:0:0:50:kick.wav
329,192,189206,1,0,0:0:0:100:VEC3 Snares 076.wav
402,192,189206,1,0,0:0:0:0:
182,192,189304,1,0,0:0:0:50:kick.wav
475,192,189304,1,0,0:0:0:0:
36,192,189402,1,0,0:0:0:50:kick.wav
256,192,189402,1,0,0:0:0:0:
329,192,189402,1,0,0:0:0:0:
109,192,189500,1,0,0:0:0:50:kick.wav
402,192,189500,1,0,0:0:0:0:
182,192,189598,1,0,0:0:0:50:kick.wav
256,192,189598,1,0,0:0:0:0:
475,192,189598,1,0,0:0:0:0:
36,192,189696,1,0,0:0:0:50:kick.wav
109,192,189696,1,0,0:0:0:0:
329,192,189696,1,0,0:0:0:0:
182,192,189794,1,0,0:0:0:50:kick.wav
402,192,189794,1,0,0:0:0:0:
475,192,189794,1,0,0:0:0:0:
36,192,189893,1,0,0:0:0:50:kick.wav
109,192,189893,1,0,0:0:0:0:
329,192,189893,1,0,0:0:0:0:
256,192,189991,1,0,0:0:0:50:kick.wav
475,192,189991,1,0,0:0:0:100:VEC3 Snares 076.wav
36,192,190089,1,0,0:0:0:50:kick.wav
182,192,190089,1,0,0:0:0:0:
329,192,190089,1,0,0:0:0:0:
109,192,190187,1,0,0:0:0:50:kick.wav
256,192,190187,1,0,0:0:0:0:
402,192,190187,1,0,0:0:0:0:
182,192,190285,1,0,0:0:0:50:kick.wav
329,192,190285,1,0,0:0:0:0:
475,192,190285,1,0,0:0:0:0:
109,192,190383,128,0,190579:0:0:0:50:kick.wav
402,192,190383,128,0,190579:0:0:0:100:BassBass_002C.wav
109,192,190677,128,0,190873:0:0:0:100:BassBass_002C.wav
402,192,190677,128,0,190873:0:0:0:0:
109,192,190971,128,0,191069:0:0:0:100:BassBass_002C.wav
402,192,190971,128,0,191069:0:0:0:0:
256,192,191167,1,0,0:0:0:35:kick.wav
475,192,191167,1,0,0:0:0:70:cymbal.wav
182,192,191216,1,0,0:0:0:35:kick.wav
109,192,191265,1,0,0:0:0:35:kick.wav
329,192,191265,1,0,0:0:0:0:
36,192,191314,1,0,0:0:0:35:kick.wav
256,192,191363,1,0,0:0:0:35:kick.wav
475,192,191363,1,0,0:0:0:0:
182,192,191412,1,0,0:0:0:35:kick.wav
109,192,191461,1,0,0:0:0:35:kick.wav
329,192,191461,1,0,0:0:0:0:
36,192,191510,1,0,0:0:0:35:kick.wav
256,192,191559,1,0,0:0:0:35:kick.wav
475,192,191559,1,0,0:0:0:0:
182,192,191608,1,0,0:0:0:35:kick.wav
109,192,191657,1,0,0:0:0:35:kick.wav
329,192,191657,1,0,0:0:0:0:
36,192,191706,1,0,0:0:0:35:kick.wav
256,192,191755,1,0,0:0:0:35:kick.wav
475,192,191755,1,0,0:0:0:0:
402,192,191804,1,0,0:0:0:35:kick.wav
182,192,191853,1,0,0:0:0:35:kick.wav
329,192,191853,1,0,0:0:0:0:
109,192,191902,1,0,0:0:0:35:kick.wav
36,192,191951,1,0,0:0:0:35:kick.wav
256,192,191951,1,0,0:0:0:0:
329,192,192000,1,0,0:0:0:35:kick.wav
182,192,192049,1,0,0:0:0:35:kick.wav
402,192,192049,1,0,0:0:0:0:
475,192,192098,1,0,0:0:0:35:kick.wav
36,192,192147,1,0,0:0:0:35:kick.wav
256,192,192147,1,0,0:0:0:0:
329,192,192196,1,0,0:0:0:35:kick.wav
182,192,192245,1,0,0:0:0:35:kick.wav
402,192,192245,1,0,0:0:0:0:
475,192,192294,1,0,0:0:0:35:kick.wav
36,192,192343,1,0,0:0:0:35:kick.wav
256,192,192343,1,0,0:0:0:0:
329,192,192393,1,0,0:0:0:35:kick.wav
182,192,192442,1,0,0:0:0:35:kick.wav
402,192,192442,1,0,0:0:0:0:
475,192,192491,1,0,0:0:0:35:kick.wav
36,192,192540,1,0,0:0:0:35:kick.wav
256,192,192540,1,0,0:0:0:0:
329,192,192589,1,0,0:0:0:35:kick.wav
182,192,192638,1,0,0:0:0:35:kick.wav
402,192,192638,1,0,0:0:0:0:
475,192,192687,1,0,0:0:0:35:kick.wav
36,192,192736,1,0,0:0:0:35:kick.wav
329,192,192736,1,0,0:0:0:0:
109,192,192785,1,0,0:0:0:35:kick.wav
182,192,192834,1,0,0:0:0:35:kick.wav
402,192,192834,1,0,0:0:0:0:
256,192,192883,1,0,0:0:0:35:kick.wav
36,192,192932,1,0,0:0:0:35:kick.wav
475,192,192932,1,0,0:0:0:0:
109,192,192981,1,0,0:0:0:35:kick.wav
182,192,193030,1,0,0:0:0:35:kick.wav
402,192,193030,1,0,0:0:0:0:
256,192,193079,1,0,0:0:0:35:kick.wav
36,192,193128,1,0,0:0:0:35:kick.wav
329,192,193128,1,0,0:0:0:0:
109,192,193177,1,0,0:0:0:35:kick.wav
182,192,193226,1,0,0:0:0:35:kick.wav
475,192,193226,1,0,0:0:0:0:
256,192,193275,1,0,0:0:0:35:kick.wav
36,192,193324,1,0,0:0:0:35:kick.wav
402,192,193324,1,0,0:0:0:0:
109,192,193373,1,0,0:0:0:35:kick.wav
182,192,193422,1,0,0:0:0:35:kick.wav
329,192,193422,1,0,0:0:0:0:
256,192,193471,1,0,0:0:0:35:kick.wav
36,192,193520,1,0,0:0:0:35:kick.wav
475,192,193520,1,0,0:0:0:0:
402,192,193569,1,0,0:0:0:35:kick.wav
109,192,193618,1,0,0:0:0:35:kick.wav
329,192,193618,1,0,0:0:0:0:
256,192,193667,1,0,0:0:0:35:kick.wav
182,192,193716,1,0,0:0:0:35:kick.wav
475,192,193716,1,0,0:0:0:0:
402,192,193765,1,0,0:0:0:35:kick.wav
36,192,193814,1,0,0:0:0:35:kick.wav
329,192,193814,1,0,0:0:0:0:
256,192,193863,1,0,0:0:0:35:kick.wav
182,192,193912,1,0,0:0:0:35:kick.wav
475,192,193912,1,0,0:0:0:0:
402,192,193961,1,0,0:0:0:35:kick.wav
36,192,194010,1,0,0:0:0:35:kick.wav
329,192,194010,1,0,0:0:0:0:
256,192,194059,1,0,0:0:0:35:kick.wav
109,192,194108,1,0,0:0:0:35:kick.wav
475,192,194108,1,0,0:0:0:0:
402,192,194157,1,0,0:0:0:35:kick.wav
182,192,194206,1,0,0:0:0:35:kick.wav
329,192,194206,1,0,0:0:0:0:
256,192,194255,1,0,0:0:0:35:kick.wav
36,192,194304,1,0,0:0:0:30:kick.wav
109,192,194329,1,0,0:0:0:30:kick.wav
182,192,194353,1,0,0:0:0:30:kick.wav
475,192,194378,1,0,0:0:0:30:kick.wav
402,192,194402,1,0,0:0:0:30:kick.wav
329,192,194427,1,0,0:0:0:30:kick.wav
256,192,194451,1,0,0:0:0:30:kick.wav
182,192,194476,1,0,0:0:0:30:kick.wav
36,192,194500,1,0,0:0:0:30:kick.wav
109,192,194500,1,0,0:0:0:0:
475,192,194696,1,0,0:0:0:30:kick.wav
402,192,194721,1,0,0:0:0:30:kick.wav
329,192,194745,1,0,0:0:0:30:kick.wav
36,192,194770,1,0,0:0:0:30:kick.wav
109,192,194794,1,0,0:0:0:30:kick.wav
182,192,194819,1,0,0:0:0:30:kick.wav
256,192,194843,1,0,0:0:0:30:kick.wav
329,192,194868,1,0,0:0:0:30:kick.wav
402,192,194893,1,0,0:0:0:30:kick.wav
475,192,194893,1,0,0:0:0:0:
182,192,195089,1,0,0:0:0:30:kick.wav
109,192,195113,1,0,0:0:0:30:kick.wav
36,192,195138,1,0,0:0:0:30:kick.wav
475,192,195162,1,0,0:0:0:30:kick.wav
402,192,195187,1,0,0:0:0:30:kick.wav
329,192,195211,1,0,0:0:0:30:kick.wav
256,192,195236,1,0,0:0:0:30:kick.wav
182,192,195260,1,0,0:0:0:30:kick.wav
36,192,195285,1,0,0:0:0:30:kick.wav
109,192,195285,1,0,0:0:0:0:
329,192,195481,1,0,0:0:0:30:kick.wav
402,192,195505,1,0,0:0:0:30:kick.wav
475,192,195530,1,0,0:0:0:30:kick.wav
36,192,195554,1,0,0:0:0:30:kick.wav
109,192,195579,1,0,0:0:0:30:kick.wav
182,192,195603,1,0,0:0:0:30:kick.wav
256,192,195628,1,0,0:0:0:30:kick.wav
329,192,195652,1,0,0:0:0:30:kick.wav
402,192,195677,1,0,0:0:0:30:kick.wav
475,192,195677,1,0,0:0:0:0:
36,192,195775,1,0,0:0:0:0:
109,192,195775,1,0,0:0:0:0:
329,192,195873,128,0,195971:0:0:0:50:kick.wav
402,192,195873,128,0,195971:0:0:0:70:cymbal.wav
475,192,195873,128,0,195971:0:0:0:0:
36,192,195971,1,0,0:0:0:50:kick.wav
182,192,195971,1,0,0:0:0:0:
256,192,196069,128,0,196167:0:0:0:50:kick.wav
329,192,196069,128,0,196167:0:0:0:0:
402,192,196069,128,0,196167:0:0:0:0:
109,192,196167,1,0,0:0:0:50:kick.wav
475,192,196167,1,0,0:0:0:0:
182,192,196265,128,0,196363:0:0:0:50:kick.wav
256,192,196265,128,0,196363:0:0:0:70:cymbal.wav
329,192,196265,128,0,196363:0:0:0:0:
36,192,196363,1,0,0:0:0:50:kick.wav
402,192,196363,1,0,0:0:0:0:
109,192,196461,128,0,196559:0:0:0:50:kick.wav
182,192,196461,128,0,196559:0:0:0:0:
256,192,196461,128,0,196559:0:0:0:0:
329,192,196559,1,0,0:0:0:50:kick.wav
475,192,196559,1,0,0:0:0:0:
109,192,196755,1,0,0:0:0:70:tom01.wav
402,192,196755,1,0,0:0:0:70:S4.wav
182,192,196853,1,0,0:0:0:70:tom02.wav
329,192,196853,1,0,0:0:0:70:S4.wav
256,192,196951,1,0,0:0:0:70:tom03.wav
182,192,197147,1,0,0:0:0:70:S4.wav
329,192,197147,1,0,0:0:0:0:
109,192,197245,1,0,0:0:0:50:electronic33.wav
182,192,197245,1,0,0:0:0:100:Go_001.wav
329,192,197245,1,0,0:0:0:0:
402,192,197245,1,0,0:0:0:0:
36,192,197442,1,0,0:0:0:50:kick.wav
182,192,197442,1,0,0:0:0:70:cymbal.wav
256,192,197442,1,0,0:0:0:70:push_scratch.wav
402,192,197442,1,0,0:0:0:0:
475,192,197442,1,0,0:0:0:0:
109,192,197540,1,0,0:0:0:0:
329,192,197540,1,0,0:0:0:0:
36,192,197638,1,0,0:0:0:0:
182,192,197638,1,0,0:0:0:0:
402,192,197638,1,0,0:0:0:0:
256,192,197736,1,0,0:0:0:0:
475,192,197736,1,0,0:0:0:0:
36,192,197834,1,0,0:0:0:50:kick.wav
109,192,197834,1,0,0:0:0:70:CLAP_.wav
329,192,197834,1,0,0:0:0:0:
402,192,197834,1,0,0:0:0:0:
182,192,197932,1,0,0:0:0:0:
475,192,197932,1,0,0:0:0:0:
36,192,198030,1,0,0:0:0:0:
256,192,198030,1,0,0:0:0:0:
402,192,198030,1,0,0:0:0:0:
109,192,198128,1,0,0:0:0:0:
329,192,198128,1,0,0:0:0:0:
182,192,198226,1,0,0:0:0:50:kick.wav
402,192,198226,128,0,198324:0:0:0:0:
475,192,198226,128,0,198324:0:0:0:0:
256,192,198324,1,0,0:0:0:0:
109,192,198422,1,0,0:0:0:0:
329,192,198422,128,0,198520:0:0:0:0:
402,192,198422,128,0,198520:0:0:0:0:
182,192,198520,1,0,0:0:0:0:
36,192,198618,1,0,0:0:0:50:kick.wav
256,192,198618,128,0,198716:0:0:0:70:CLAP_.wav
329,192,198618,128,0,198716:0:0:0:0:
475,192,198618,1,0,0:0:0:0:
109,192,198716,1,0,0:0:0:0:
182,192,198814,128,0,198912:0:0:0:0:
256,192,198814,128,0,198912:0:0:0:0:
402,192,198814,1,0,0:0:0:0:
36,192,198912,1,0,0:0:0:0:
109,192,199010,1,0,0:0:0:50:kick.wav
329,192,199010,1,0,0:0:0:0:
475,192,199010,1,0,0:0:0:0:
182,192,199108,1,0,0:0:0:0:
402,192,199108,1,0,0:0:0:0:
36,192,199206,1,0,0:0:0:0:
256,192,199206,1,0,0:0:0:0:
475,192,199206,1,0,0:0:0:0:
182,192,199304,1,0,0:0:0:0:
329,192,199304,1,0,0:0:0:0:
36,192,199402,1,0,0:0:0:50:kick.wav
109,192,199402,1,0,0:0:0:70:CLAP_.wav
402,192,199402,1,0,0:0:0:0:
475,192,199402,1,0,0:0:0:0:
256,192,199500,1,0,0:0:0:0:
329,192,199500,1,0,0:0:0:0:
109,192,199598,1,0,0:0:0:0:
182,192,199598,1,0,0:0:0:0:
475,192,199598,1,0,0:0:0:0:
329,192,199696,1,0,0:0:0:0:
402,192,199696,1,0,0:0:0:0:
36,192,199794,1,0,0:0:0:50:kick.wav
182,192,199794,128,0,199893:0:0:0:0:
256,192,199794,128,0,199893:0:0:0:0:
475,192,199893,1,0,0:0:0:0:
109,192,199991,1,0,0:0:0:0:
329,192,199991,128,0,200089:0:0:0:0:
402,192,199991,128,0,200089:0:0:0:0:
182,192,200089,1,0,0:0:0:0:
36,192,200187,128,0,200285:0:0:0:50:kick.wav
109,192,200187,128,0,200285:0:0:0:70:CLAP_.wav
256,192,200187,1,0,0:0:0:0:
475,192,200187,1,0,0:0:0:0:
402,192,200285,1,0,0:0:0:0:
109,192,200383,128,0,200481:0:0:0:0:
182,192,200383,128,0,200481:0:0:0:0:
329,192,200383,1,0,0:0:0:0:
475,192,200481,1,0,0:0:0:0:
36,192,200579,1,0,0:0:0:50:kick.wav
256,192,200579,1,0,0:0:0:0:
402,192,200579,1,0,0:0:0:0:
109,192,200677,1,0,0:0:0:0:
329,192,200677,1,0,0:0:0:0:
36,192,200775,1,0,0:0:0:0:
182,192,200775,1,0,0:0:0:0:
402,192,200775,1,0,0:0:0:0:
256,192,200873,1,0,0:0:0:0:
475,192,200873,1,0,0:0:0:0:
36,192,200971,1,0,0:0:0:50:kick.wav
109,192,200971,1,0,0:0:0:70:CLAP_.wav
329,192,200971,1,0,0:0:0:0:
402,192,200971,1,0,0:0:0:0:
182,192,201069,1,0,0:0:0:0:
475,192,201069,1,0,0:0:0:0:
109,192,201167,1,0,0:0:0:0:
256,192,201167,1,0,0:0:0:0:
402,192,201167,1,0,0:0:0:0:
36,192,201265,1,0,0:0:0:0:
329,192,201265,1,0,0:0:0:0:
182,192,201363,1,0,0:0:0:50:kick.wav
402,192,201363,128,0,201461:0:0:0:0:
475,192,201363,128,0,201461:0:0:0:0:
256,192,201461,1,0,0:0:0:0:
109,192,201559,1,0,0:0:0:0:
329,192,201559,128,0,201657:0:0:0:0:
402,192,201559,128,0,201657:0:0:0:0:
182,192,201657,1,0,0:0:0:0:
36,192,201755,1,0,0:0:0:50:kick.wav
256,192,201755,128,0,201853:0:0:0:70:CLAP_.wav
329,192,201755,128,0,201853:0:0:0:0:
475,192,201755,1,0,0:0:0:0:
109,192,201853,1,0,0:0:0:0:
182,192,201951,128,0,202049:0:0:0:0:
256,192,201951,128,0,202049:0:0:0:0:
402,192,201951,1,0,0:0:0:0:
36,192,202049,1,0,0:0:0:0:
109,192,202147,1,0,0:0:0:50:kick.wav
329,192,202147,1,0,0:0:0:0:
475,192,202147,1,0,0:0:0:0:
182,192,202245,1,0,0:0:0:0:
402,192,202245,1,0,0:0:0:0:
36,192,202343,1,0,0:0:0:0:
256,192,202343,1,0,0:0:0:0:
475,192,202343,1,0,0:0:0:0:
109,192,202442,1,0,0:0:0:0:
329,192,202442,1,0,0:0:0:0:
36,192,202540,1,0,0:0:0:50:kick.wav
182,192,202540,1,0,0:0:0:70:CLAP_.wav
402,192,202540,1,0,0:0:0:0:
475,192,202540,1,0,0:0:0:0:
256,192,202638,1,0,0:0:0:0:
329,192,202638,1,0,0:0:0:0:
36,192,202736,1,0,0:0:0:0:
109,192,202736,1,0,0:0:0:0:
182,192,202736,1,0,0:0:0:0:
402,192,202834,128,0,203030:0:0:0:0:
475,192,202834,128,0,203030:0:0:0:0:
36,192,202932,1,0,0:0:0:50:kick.wav
109,192,202932,1,0,0:0:0:0:
256,192,202932,1,0,0:0:0:0:
182,192,203030,1,0,0:0:0:0:
329,192,203030,1,0,0:0:0:0:
36,192,203128,1,0,0:0:0:0:
256,192,203128,1,0,0:0:0:0:
475,192,203128,1,0,0:0:0:0:
182,192,203226,1,0,0:0:0:50:kick.wav
329,192,203226,1,0,0:0:0:0:
36,192,203324,1,0,0:0:0:50:kick.wav
182,192,203324,1,0,0:0:0:70:CLAP_.wav
329,192,203324,1,0,0:0:0:0:
475,192,203324,1,0,0:0:0:0:
36,192,203520,1,0,0:0:0:50:kick.wav
182,192,203520,1,0,0:0:0:0:
402,192,203520,1,0,0:0:0:0:
109,192,203618,1,0,0:0:0:50:kick.wav
256,192,203618,1,0,0:0:0:0:
182,192,203716,1,0,0:0:0:50:kick.wav
329,192,203716,1,0,0:0:0:70:cymbal.wav
475,192,203716,1,0,0:0:0:70:push_scratch.wav
36,192,203814,1,0,0:0:0:0:
182,192,203912,1,0,0:0:0:50:kick.wav
329,192,203912,1,0,0:0:0:0:
475,192,203912,1,0,0:0:0:0:
36,192,204010,1,0,0:0:0:0:
109,192,204108,1,0,0:0:0:50:kick.wav
256,192,204108,1,0,0:0:0:70:CLAP_.wav
329,192,204108,1,0,0:0:0:0:
475,192,204108,1,0,0:0:0:0:
182,192,204206,1,0,0:0:0:0:
402,192,204206,1,0,0:0:0:0:
36,192,204304,1,0,0:0:0:0:
256,192,204304,1,0,0:0:0:0:
475,192,204304,1,0,0:0:0:0:
109,192,204402,1,0,0:0:0:0:
329,192,204402,1,0,0:0:0:0:
182,192,204500,1,0,0:0:0:50:kick.wav
402,192,204500,128,0,204598:0:0:0:0:
475,192,204500,128,0,204598:0:0:0:0:
256,192,204598,1,0,0:0:0:0:
109,192,204696,1,0,0:0:0:0:
329,192,204696,128,0,204794:0:0:0:0:
402,192,204696,128,0,204794:0:0:0:0:
182,192,204794,1,0,0:0:0:0:
36,192,204893,1,0,0:0:0:50:kick.wav
256,192,204893,128,0,204991:0:0:0:70:CLAP_.wav
329,192,204893,128,0,204991:0:0:0:0:
475,192,204893,1,0,0:0:0:0:
109,192,204991,1,0,0:0:0:0:
182,192,205089,128,0,205187:0:0:0:0:
256,192,205089,128,0,205187:0:0:0:0:
402,192,205089,1,0,0:0:0:0:
36,192,205187,1,0,0:0:0:0:
109,192,205285,1,0,0:0:0:50:kick.wav
329,192,205285,1,0,0:0:0:0:
475,192,205285,1,0,0:0:0:0:
182,192,205383,1,0,0:0:0:0:
402,192,205383,1,0,0:0:0:0:
36,192,205481,1,0,0:0:0:0:
256,192,205481,1,0,0:0:0:0:
475,192,205481,1,0,0:0:0:0:
109,192,205579,1,0,0:0:0:0:
329,192,205579,1,0,0:0:0:0:
36,192,205677,1,0,0:0:0:50:kick.wav
182,192,205677,1,0,0:0:0:70:CLAP_.wav
402,192,205677,1,0,0:0:0:0:
475,192,205677,1,0,0:0:0:0:
109,192,205775,1,0,0:0:0:0:
256,192,205775,1,0,0:0:0:0:
329,192,205873,1,0,0:0:0:0:
402,192,205873,1,0,0:0:0:0:
475,192,205873,1,0,0:0:0:0:
36,192,205971,128,0,206167:0:0:0:50:kick.wav
109,192,205971,128,0,206167:0:0:0:0:
182,192,205971,1,0,0:0:0:0:
256,192,206167,1,0,0:0:0:50:kick.wav
402,192,206167,1,0,0:0:0:0:
475,192,206167,1,0,0:0:0:0:
36,192,206265,1,0,0:0:0:0:
109,192,206265,1,0,0:0:0:0:
256,192,206363,1,0,0:0:0:50:kick.wav
402,192,206363,1,0,0:0:0:0:
475,192,206363,1,0,0:0:0:0:
109,192,206461,1,0,0:0:0:50:kick.wav
256,192,206461,1,0,0:0:0:70:CLAP_.wav
402,192,206461,1,0,0:0:0:0:
475,192,206461,1,0,0:0:0:0:
36,192,206559,1,0,0:0:0:50:kick.wav
182,192,206559,1,0,0:0:0:0:
329,192,206559,1,0,0:0:0:0:
256,192,206657,1,0,0:0:0:50:kick.wav
475,192,206657,1,0,0:0:0:0:
182,192,206706,1,0,0:0:0:50:kick.wav
402,192,206706,1,0,0:0:0:0:
109,192,206755,1,0,0:0:0:50:kick.wav
329,192,206755,1,0,0:0:0:0:
36,192,206804,1,0,0:0:0:50:kick.wav
256,192,206804,1,0,0:0:0:0:
182,192,206853,1,0,0:0:0:50:kick.wav
402,192,206853,1,0,0:0:0:0:
475,192,206853,1,0,0:0:0:0:
109,192,207147,1,0,0:0:0:50:kick.wav
256,192,207147,1,0,0:0:0:0:
402,192,207147,1,0,0:0:0:0:
109,192,207245,1,0,0:0:0:50:kick.wav
256,192,207245,1,0,0:0:0:0:
402,192,207245,1,0,0:0:0:0:
475,192,207245,1,0,0:0:0:0:
36,192,207343,1,0,0:0:0:0:
182,192,207343,1,0,0:0:0:0:
329,192,207540,1,0,0:0:0:0:
475,192,207540,1,0,0:0:0:0:
36,192,207638,1,0,0:0:0:50:kick.wav
109,192,207638,1,0,0:0:0:50:cymbal_s.wav
182,192,207638,1,0,0:0:0:0:
329,192,207638,1,0,0:0:0:0:
475,192,207638,1,0,0:0:0:0:
256,192,207834,1,0,0:0:0:0:
402,192,207834,1,0,0:0:0:0:
36,192,207932,1,0,0:0:0:50:kick.wav
109,192,207932,1,0,0:0:0:50:cymbal_s.wav
256,192,207932,1,0,0:0:0:0:
402,192,207932,1,0,0:0:0:0:
475,192,207932,1,0,0:0:0:0:
182,192,208128,1,0,0:0:0:0:
329,192,208128,1,0,0:0:0:0:
36,192,208226,1,0,0:0:0:50:kick.wav
182,192,208226,1,0,0:0:0:50:cymbal_s.wav
329,192,208226,1,0,0:0:0:0:
402,192,208226,1,0,0:0:0:0:
475,192,208226,1,0,0:0:0:0:
109,192,208324,1,0,0:0:0:0:
256,192,208324,1,0,0:0:0:0:
36,192,208422,1,0,0:0:0:50:kick.wav
182,192,208422,1,0,0:0:0:70:cymbal.wav
402,192,208422,1,0,0:0:0:0:
256,192,208520,1,0,0:0:0:0:
475,192,208520,1,0,0:0:0:0:
109,192,208618,1,0,0:0:0:0:
329,192,208618,1,0,0:0:0:0:
182,192,208716,1,0,0:0:0:50:kick.wav
402,192,208716,1,0,0:0:0:0:
475,192,208716,1,0,0:0:0:0:
36,192,208814,1,0,0:0:0:50:kick.wav
256,192,208814,1,0,0:0:0:0:
109,192,208863,1,0,0:0:0:50:kick.wav
329,192,208863,1,0,0:0:0:0:
182,192,208912,1,0,0:0:0:50:kick.wav
402,192,208912,1,0,0:0:0:0:
256,192,208961,1,0,0:0:0:50:kick.wav
475,192,208961,1,0,0:0:0:0:
36,192,209010,1,0,0:0:0:50:kick.wav
109,192,209010,1,0,0:0:0:0:
329,192,209010,1,0,0:0:0:0:
182,192,209108,1,0,0:0:0:50:kick.wav
402,192,209108,1,0,0:0:0:0:
36,192,209206,128,0,209500:0:0:0:50:kick.wav
109,192,209206,128,0,209500:0:0:0:50:cymbal_s.wav
256,192,209206,128,0,209500:0:0:0:0:
329,192,209206,128,0,209500:0:0:0:0:
475,192,209206,128,0,209500:0:0:0:0:
36,192,209598,128,0,209893:0:0:0:50:kick.wav
182,192,209598,128,0,209893:0:0:0:50:cymbal_s.wav
256,192,209598,128,0,209893:0:0:0:0:
402,192,209598,128,0,209893:0:0:0:0:
475,192,209598,128,0,209893:0:0:0:0:
36,192,209991,128,0,211069:0:0:0:50:kick.wav
109,192,209991,1,0,0:0:0:70:cymbal.wav
256,192,209991,1,0,0:0:0:70:push_scratch.wav
329,192,209991,1,0,0:0:0:0:
475,192,209991,1,0,0:0:0:0:
182,192,210089,1,0,0:0:0:0:
402,192,210089,1,0,0:0:0:0:
256,192,210187,1,0,0:0:0:0:
475,192,210187,1,0,0:0:0:0:
109,192,210285,1,0,0:0:0:0:
329,192,210285,1,0,0:0:0:0:
182,192,210383,1,0,0:0:0:50:kick.wav
402,192,210383,1,0,0:0:0:70:CLAP_.wav
475,192,210383,1,0,0:0:0:0:
256,192,210481,1,0,0:0:0:0:
329,192,210481,1,0,0:0:0:0:
109,192,210579,1,0,0:0:0:0:
182,192,210579,1,0,0:0:0:0:
329,192,210677,1,0,0:0:0:0:
402,192,210677,1,0,0:0:0:0:
182,192,210775,1,0,0:0:0:50:kick.wav
256,192,210775,1,0,0:0:0:0:
475,192,210775,1,0,0:0:0:0:
109,192,210873,1,0,0:0:0:0:
402,192,210873,1,0,0:0:0:0:
256,192,210971,1,0,0:0:0:0:
329,192,210971,1,0,0:0:0:0:
182,192,211069,1,0,0:0:0:0:
402,192,211069,1,0,0:0:0:0:
36,192,211167,128,0,211461:0:0:0:50:kick.wav
109,192,211167,1,0,0:0:0:70:CLAP_.wav
329,192,211167,1,0,0:0:0:0:
475,192,211167,1,0,0:0:0:0:
256,192,211265,1,0,0:0:0:0:
402,192,211265,1,0,0:0:0:0:
182,192,211363,1,0,0:0:0:0:
329,192,211363,1,0,0:0:0:0:
182,192,211461,1,0,0:0:0:0:
329,192,211461,1,0,0:0:0:0:
36,192,211559,1,0,0:0:0:50:kick.wav
109,192,211559,1,0,0:0:0:70:cymbal.wav
256,192,211559,1,0,0:0:0:0:
402,192,211559,1,0,0:0:0:0:
475,192,211559,1,0,0:0:0:0:
182,192,211657,1,0,0:0:0:0:
329,192,211657,1,0,0:0:0:0:
256,192,211755,1,0,0:0:0:0:
36,192,211853,1,0,0:0:0:50:kick.wav
109,192,211853,1,0,0:0:0:0:
402,192,211853,1,0,0:0:0:0:
475,192,211853,1,0,0:0:0:0:
256,192,212049,1,0,0:0:0:0:
36,192,212147,1,0,0:0:0:50:kick.wav
109,192,212147,1,0,0:0:0:0:
402,192,212147,1,0,0:0:0:0:
475,192,212147,1,0,0:0:0:0:
256,192,212245,1,0,0:0:0:0:
109,192,212442,1,0,0:0:0:50:kick.wav
182,192,212442,1,0,0:0:0:0:
329,192,212442,1,0,0:0:0:0:
402,192,212442,1,0,0:0:0:0:
109,192,212540,1,0,0:0:0:50:kick.wav
182,192,212540,1,0,0:0:0:0:
329,192,212540,1,0,0:0:0:0:
402,192,212540,1,0,0:0:0:0:
36,192,212736,1,0,0:0:0:50:kick.wav
109,192,212736,1,0,0:0:0:0:
256,192,212736,1,0,0:0:0:0:
402,192,212736,1,0,0:0:0:0:
475,192,212736,1,0,0:0:0:0:
36,192,212932,1,0,0:0:0:50:kick.wav
182,192,212932,1,0,0:0:0:0:
329,192,212932,1,0,0:0:0:0:
475,192,212932,1,0,0:0:0:0:
109,192,213128,1,0,0:0:0:50:kick.wav
182,192,213128,1,0,0:0:0:70:cymbal.wav
329,192,213128,1,0,0:0:0:0:
402,192,213128,1,0,0:0:0:0:
475,192,213128,128,0,214206:0:0:0:0:
36,192,213226,1,0,0:0:0:0:
256,192,213226,1,0,0:0:0:0:
182,192,213324,1,0,0:0:0:0:
402,192,213324,1,0,0:0:0:0:
109,192,213422,1,0,0:0:0:0:
329,192,213422,1,0,0:0:0:0:
36,192,213520,1,0,0:0:0:50:kick.wav
256,192,213520,1,0,0:0:0:70:CLAP_.wav
402,192,213520,1,0,0:0:0:0:
109,192,213618,1,0,0:0:0:0:
182,192,213618,1,0,0:0:0:0:
256,192,213716,1,0,0:0:0:0:
329,192,213716,1,0,0:0:0:0:
36,192,213814,1,0,0:0:0:0:
109,192,213814,1,0,0:0:0:0:
182,192,213912,1,0,0:0:0:50:kick.wav
256,192,213912,1,0,0:0:0:0:
402,192,213912,1,0,0:0:0:0:
36,192,214010,1,0,0:0:0:0:
329,192,214010,1,0,0:0:0:0:
109,192,214108,1,0,0:0:0:0:
182,192,214108,1,0,0:0:0:0:
256,192,214206,1,0,0:0:0:0:
402,192,214206,1,0,0:0:0:0:
36,192,214304,1,0,0:0:0:50:kick.wav
109,192,214304,1,0,0:0:0:70:CLAP_.wav
329,192,214304,1,0,0:0:0:0:
475,192,214304,128,0,214598:0:0:0:0:
182,192,214402,1,0,0:0:0:0:
256,192,214402,1,0,0:0:0:0:
36,192,214500,1,0,0:0:0:50:kick.wav
109,192,214500,1,0,0:0:0:0:
402,192,214500,1,0,0:0:0:0:
256,192,214598,1,0,0:0:0:0:
329,192,214598,1,0,0:0:0:0:
36,192,214696,1,0,0:0:0:50:kick.wav
182,192,214696,1,0,0:0:0:50:cymbal_s.wav
402,192,214745,1,0,0:0:0:0:
475,192,214745,1,0,0:0:0:50:kick.wav
109,192,214794,1,0,0:0:0:50:kick.wav
256,192,214794,1,0,0:0:0:50:cymbal_s.wav
402,192,214843,1,0,0:0:0:0:
475,192,214843,1,0,0:0:0:50:kick.wav
182,192,214893,1,0,0:0:0:50:kick.wav
329,192,214893,1,0,0:0:0:50:cymbal_s.wav
109,192,215089,1,0,0:0:0:50:kick.wav
256,192,215089,1,0,0:0:0:50:cymbal_s.wav
402,192,215089,1,0,0:0:0:0:
109,192,215187,1,0,0:0:0:50:kick.wav
256,192,215187,1,0,0:0:0:50:cymbal_s.wav
402,192,215187,1,0,0:0:0:0:
109,192,215383,1,0,0:0:0:50:kick.wav
256,192,215383,1,0,0:0:0:50:cymbal_s.wav
402,192,215383,1,0,0:0:0:0:
36,192,215579,1,0,0:0:0:50:kick.wav
182,192,215579,1,0,0:0:0:50:cymbal_s.wav
329,192,215579,1,0,0:0:0:0:
182,192,215677,1,0,0:0:0:50:kick.wav
329,192,215677,1,0,0:0:0:50:cymbal_s.wav
475,192,215677,1,0,0:0:0:0:
36,192,215775,1,0,0:0:0:50:kick.wav
109,192,215775,1,0,0:0:0:50:cymbal_s.wav
256,192,215775,1,0,0:0:0:0:
182,192,215873,1,0,0:0:0:50:kick.wav
402,192,215873,1,0,0:0:0:50:cymbal_s.wav
475,192,215873,1,0,0:0:0:0:
36,192,215971,1,0,0:0:0:50:kick.wav
109,192,215971,1,0,0:0:0:0:
329,192,215971,1,0,0:0:0:0:
256,192,216069,1,0,0:0:0:50:kick.wav
402,192,216069,1,0,0:0:0:0:
475,192,216069,1,0,0:0:0:0:
36,192,216167,1,0,0:0:0:50:kick.wav
182,192,216167,1,0,0:0:0:0:
329,192,216167,1,0,0:0:0:0:
109,192,216265,1,0,0:0:0:50:kick.wav
256,192,216265,1,0,0:0:0:0:
402,192,216265,1,0,0:0:0:0:
109,192,216461,1,0,0:0:0:50:kick.wav
256,192,216461,1,0,0:0:0:0:
402,192,216461,1,0,0:0:0:0:
36,192,216657,1,0,0:0:0:50:kick.wav
182,192,216657,1,0,0:0:0:70:cymbal.wav
256,192,216657,1,0,0:0:0:70:CLAP_.wav
329,192,216657,1,0,0:0:0:100:Go_001.wav
475,192,216657,1,0,0:0:0:70:push_scratch.wav
109,192,216755,1,0,0:0:0:0:
402,192,216755,1,0,0:0:0:0:
36,192,216853,1,0,0:0:0:0:
256,192,216853,1,0,0:0:0:0:
475,192,216853,1,0,0:0:0:0:
182,192,216951,1,0,0:0:0:0:
329,192,216951,1,0,0:0:0:0:
36,192,217049,1,0,0:0:0:50:kick.wav
256,192,217049,128,0,217147:0:0:0:0:
402,192,217049,128,0,217147:0:0:0:0:
109,192,217147,1,0,0:0:0:0:
182,192,217245,128,0,217343:0:0:0:0:
329,192,217245,128,0,217343:0:0:0:0:
475,192,217245,1,0,0:0:0:0:
36,192,217343,1,0,0:0:0:0:
109,192,217442,128,0,217540:0:0:0:50:kick.wav
256,192,217442,128,0,217540:0:0:0:70:CLAP_.wav
402,192,217442,1,0,0:0:0:0:
475,192,217442,1,0,0:0:0:0:
329,192,217540,1,0,0:0:0:0:
36,192,217638,128,0,217736:0:0:0:0:
182,192,217638,128,0,217736:0:0:0:0:
256,192,217638,1,0,0:0:0:0:
402,192,217736,1,0,0:0:0:0:
109,192,217834,1,0,0:0:0:50:kick.wav
329,192,217834,1,0,0:0:0:0:
475,192,217834,1,0,0:0:0:0:
36,192,217932,1,0,0:0:0:0:
256,192,217932,1,0,0:0:0:0:
182,192,218030,1,0,0:0:0:0:
402,192,218030,1,0,0:0:0:0:
475,192,218030,1,0,0:0:0:0:
109,192,218128,1,0,0:0:0:0:
329,192,218128,1,0,0:0:0:0:
36,192,218226,1,0,0:0:0:50:kick.wav
182,192,218226,1,0,0:0:0:70:CLAP_.wav
256,192,218226,1,0,0:0:0:0:
475,192,218226,1,0,0:0:0:0:
329,192,218324,1,0,0:0:0:0:
402,192,218324,1,0,0:0:0:0:
36,192,218422,1,0,0:0:0:0:
109,192,218422,1,0,0:0:0:0:
182,192,218422,1,0,0:0:0:0:
256,192,218520,1,0,0:0:0:0:
475,192,218520,1,0,0:0:0:0:
36,192,218618,128,0,218716:0:0:0:50:kick.wav
182,192,218618,128,0,218716:0:0:0:0:
402,192,218618,1,0,0:0:0:0:
329,192,218716,1,0,0:0:0:0:
109,192,218814,128,0,218912:0:0:0:0:
256,192,218814,128,0,218912:0:0:0:0:
475,192,218814,1,0,0:0:0:0:
402,192,218912,1,0,0:0:0:0:
36,192,219010,1,0,0:0:0:50:kick.wav
182,192,219010,128,0,219108:0:0:0:70:CLAP_.wav
329,192,219010,128,0,219108:0:0:0:0:
475,192,219010,1,0,0:0:0:0:
109,192,219108,1,0,0:0:0:0:
182,192,219206,1,0,0:0:0:0:
256,192,219206,128,0,219304:0:0:0:0:
402,192,219206,128,0,219304:0:0:0:0:
36,192,219304,1,0,0:0:0:0:
109,192,219402,1,0,0:0:0:50:kick.wav
182,192,219402,1,0,0:0:0:70:cymbal.wav
329,192,219402,1,0,0:0:0:70:push_scratch.wav
402,192,219402,1,0,0:0:0:0:
475,192,219402,1,0,0:0:0:0:
109,192,219696,1,0,0:0:0:50:kick.wav
182,192,219696,1,0,0:0:0:50:cymbal_s.wav
329,192,219696,1,0,0:0:0:0:
402,192,219696,1,0,0:0:0:0:
475,192,219696,1,0,0:0:0:0:
36,192,219893,1,0,0:0:0:50:kick.wav
256,192,219893,1,0,0:0:0:0:
109,192,219942,1,0,0:0:0:50:kick.wav
329,192,219942,1,0,0:0:0:0:
182,192,219991,1,0,0:0:0:50:kick.wav
402,192,219991,1,0,0:0:0:50:cymbal_s.wav
475,192,219991,1,0,0:0:0:0:
36,192,220089,1,0,0:0:0:50:kick.wav
109,192,220089,1,0,0:0:0:50:cymbal_s.wav
256,192,220089,1,0,0:0:0:0:
182,192,220187,1,0,0:0:0:50:kick.wav
329,192,220187,1,0,0:0:0:50:cymbal_s.wav
475,192,220187,1,0,0:0:0:0:
36,192,220285,1,0,0:0:0:50:kick.wav
109,192,220285,1,0,0:0:0:50:cymbal_s.wav
256,192,220285,1,0,0:0:0:0:
402,192,220285,1,0,0:0:0:0:
475,192,220285,1,0,0:0:0:0:
36,192,220481,1,0,0:0:0:50:kick.wav
109,192,220481,1,0,0:0:0:50:cymbal_s.wav
256,192,220481,1,0,0:0:0:0:
402,192,220481,1,0,0:0:0:0:
475,192,220481,1,0,0:0:0:0:
182,192,220677,1,0,0:0:0:50:kick.wav
329,192,220677,1,0,0:0:0:0:
109,192,220726,1,0,0:0:0:50:kick.wav
402,192,220726,1,0,0:0:0:0:
36,192,220775,1,0,0:0:0:50:kick.wav
256,192,220775,1,0,0:0:0:50:cymbal_s.wav
475,192,220775,1,0,0:0:0:0:
182,192,220873,1,0,0:0:0:50:kick.wav
329,192,220873,1,0,0:0:0:50:cymbal_s.wav
402,192,220873,1,0,0:0:0:0:
36,192,220971,1,0,0:0:0:50:kick.wav
109,192,220971,1,0,0:0:0:50:cymbal_s.wav
256,192,220971,1,0,0:0:0:0:
475,192,221036,1,0,0:0:0:0:
402,192,221036,1,0,0:0:0:50:kick.wav
36,192,221102,1,0,0:0:0:50:kick.wav
109,192,221102,1,0,0:0:0:50:cymbal_s.wav
256,192,221102,1,0,0:0:0:0:
36,192,221232,1,0,0:0:0:50:kick.wav
109,192,221232,1,0,0:0:0:50:cymbal_s.wav
256,192,221232,1,0,0:0:0:0:
182,192,221363,1,0,0:0:0:50:kick.wav
329,192,221363,1,0,0:0:0:50:cymbal_s.wav
402,192,221363,1,0,0:0:0:0:
475,192,221363,1,0,0:0:0:0:
36,192,221428,1,0,0:0:0:50:kick.wav
109,192,221428,1,0,0:0:0:0:
182,192,221494,1,0,0:0:0:50:kick.wav
329,192,221494,1,0,0:0:0:50:cymbal_s.wav
402,192,221494,1,0,0:0:0:0:
182,192,221625,1,0,0:0:0:50:kick.wav
329,192,221625,1,0,0:0:0:50:cymbal_s.wav
402,192,221625,1,0,0:0:0:0:
36,192,221755,1,0,0:0:0:50:kick.wav
329,192,221755,128,0,222442:0:0:0:0:
475,192,221755,128,0,222442:0:0:0:0:
109,192,222049,1,0,0:0:0:0:
256,192,222098,1,0,0:0:0:0:
36,192,222147,128,0,222442:0:0:0:0:
182,192,222147,128,0,222442:0:0:0:0:
36,192,222540,1,0,0:0:0:50:kick.wav
109,192,222540,1,0,0:0:0:70:cymbal.wav
256,192,222540,1,0,0:0:0:70:push_scratch.wav
402,192,222540,1,0,0:0:0:0:
475,192,222540,128,0,223716:0:0:0:0:
329,192,222638,1,0,0:0:0:0:
36,192,222736,128,0,222932:0:0:0:0:
182,192,222736,1,0,0:0:0:0:
256,192,222834,1,0,0:0:0:0:
109,192,222932,1,0,0:0:0:50:kick.wav
329,192,222932,1,0,0:0:0:70:CLAP_.wav
402,192,222932,1,0,0:0:0:0:
182,192,223030,1,0,0:0:0:0:
36,192,223128,1,0,0:0:0:0:
256,192,223128,1,0,0:0:0:0:
36,192,223226,1,0,0:0:0:0:
256,192,223226,1,0,0:0:0:0:
109,192,223324,1,0,0:0:0:50:kick.wav
329,192,223324,1,0,0:0:0:0:
402,192,223324,1,0,0:0:0:0:
182,192,223422,1,0,0:0:0:0:
36,192,223520,128,0,223716:0:0:0:0:
256,192,223520,1,0,0:0:0:0:
329,192,223618,1,0,0:0:0:0:
109,192,223716,1,0,0:0:0:50:kick.wav
182,192,223716,1,0,0:0:0:70:CLAP_.wav
402,192,223716,128,0,224010:0:0:0:0:
256,192,223814,1,0,0:0:0:0:
36,192,223912,1,0,0:0:0:0:
109,192,223912,1,0,0:0:0:0:
182,192,224010,1,0,0:0:0:0:
475,192,224010,1,0,0:0:0:0:
256,192,224059,1,0,0:0:0:0:
36,192,224108,128,0,224304:0:0:0:50:kick.wav
109,192,224108,1,0,0:0:0:0:
329,192,224108,1,0,0:0:0:0:
402,192,224206,1,0,0:0:0:0:
475,192,224304,128,0,224500:0:0:0:0:
256,192,224304,1,0,0:0:0:0:
109,192,224353,1,0,0:0:0:0:
329,192,224402,1,0,0:0:0:0:
36,192,224500,128,0,224696:0:0:0:50:kick.wav
182,192,224500,1,0,0:0:0:70:CLAP_.wav
402,192,224500,1,0,0:0:0:0:
256,192,224598,1,0,0:0:0:0:
329,192,224696,1,0,0:0:0:0:
402,192,224696,1,0,0:0:0:0:
182,192,224745,1,0,0:0:0:0:
329,192,224794,1,0,0:0:0:0:
402,192,224794,1,0,0:0:0:0:
36,192,224893,128,0,225187:0:0:0:50:kick.wav
256,192,224893,1,0,0:0:0:70:LR_Chm loong.wav
475,192,224893,1,0,0:0:0:0:
329,192,224991,1,0,0:0:0:0:
109,192,225089,128,0,225187:0:0:0:0:
182,192,225089,128,0,225187:0:0:0:0:
402,192,225089,1,0,0:0:0:0:
329,192,225187,1,0,0:0:0:0:
36,192,225285,1,0,0:0:0:50:kick.wav
256,192,225285,1,0,0:0:0:70:CLAP_.wav
475,192,225285,128,0,225579:0:0:0:0:
182,192,225383,1,0,0:0:0:0:
109,192,225481,1,0,0:0:0:0:
329,192,225481,128,0,225579:0:0:0:0:
402,192,225481,128,0,225579:0:0:0:0:
182,192,225579,1,0,0:0:0:0:
36,192,225677,128,0,226853:0:0:0:50:kick.wav
256,192,225677,1,0,0:0:0:0:
475,192,225677,1,0,0:0:0:0:
329,192,225775,1,0,0:0:0:0:
182,192,225873,1,0,0:0:0:0:
475,192,225873,128,0,226069:0:0:0:0:
256,192,225971,1,0,0:0:0:0:
109,192,226069,1,0,0:0:0:50:kick.wav
329,192,226069,1,0,0:0:0:70:CLAP_.wav
402,192,226069,1,0,0:0:0:0:
182,192,226167,1,0,0:0:0:0:
256,192,226265,1,0,0:0:0:0:
475,192,226265,1,0,0:0:0:0:
256,192,226363,1,0,0:0:0:0:
475,192,226363,1,0,0:0:0:0:
109,192,226461,1,0,0:0:0:50:kick.wav
182,192,226461,1,0,0:0:0:0:
402,192,226461,1,0,0:0:0:0:
329,192,226559,1,0,0:0:0:0:
256,192,226657,1,0,0:0:0:0:
475,192,226657,128,0,226853:0:0:0:0:
182,192,226755,1,0,0:0:0:0:
109,192,226853,128,0,227147:0:0:0:50:kick.wav
329,192,226853,1,0,0:0:0:70:CLAP_.wav
402,192,226853,1,0,0:0:0:0:
256,192,226951,1,0,0:0:0:0:
402,192,227049,1,0,0:0:0:0:
475,192,227049,1,0,0:0:0:0:
36,192,227147,1,0,0:0:0:0:
329,192,227147,1,0,0:0:0:0:
256,192,227196,1,0,0:0:0:0:
182,192,227245,1,0,0:0:0:50:kick.wav
402,192,227245,1,0,0:0:0:0:
475,192,227245,128,0,227442:0:0:0:0:
36,192,227343,1,0,0:0:0:0:
109,192,227442,128,0,227638:0:0:0:0:
256,192,227442,1,0,0:0:0:0:
329,192,227491,1,0,0:0:0:0:
402,192,227540,1,0,0:0:0:0:
36,192,227638,1,0,0:0:0:50:kick.wav
182,192,227638,1,0,0:0:0:70:CLAP_.wav
475,192,227638,128,0,227834:0:0:0:0:
329,192,227736,1,0,0:0:0:0:
109,192,227834,1,0,0:0:0:0:
256,192,227834,1,0,0:0:0:0:
109,192,227932,1,0,0:0:0:0:
256,192,227932,1,0,0:0:0:0:
36,192,228030,1,0,0:0:0:50:kick.wav
402,192,228030,1,0,0:0:0:0:
475,192,228030,1,0,0:0:0:0:
329,192,228128,1,0,0:0:0:0:
36,192,228226,128,0,228716:0:0:0:0:
109,192,228226,128,0,228716:0:0:0:0:
182,192,228226,1,0,0:0:0:0:
256,192,228422,1,0,0:0:0:70:CLAP_.wav
402,192,228422,128,0,228716:0:0:0:70:LR4_BassLineLDRN.wav
475,192,228422,128,0,228716:0:0:0:0:
182,192,228618,128,0,228716:0:0:0:0:
329,192,228618,128,0,228716:0:0:0:0:
36,192,228814,1,0,0:0:0:50:kick.wav
109,192,228814,1,0,0:0:0:70:cymbal.wav
256,192,228814,1,0,0:0:0:70:push_scratch.wav
402,192,228814,1,0,0:0:0:0:
475,192,228814,1,0,0:0:0:0:
182,192,228912,1,0,0:0:0:0:
329,192,228912,1,0,0:0:0:0:
36,192,229010,1,0,0:0:0:70:LR_Drum Rpd x2.wav
256,192,229010,1,0,0:0:0:0:
475,192,229010,1,0,0:0:0:0:
182,192,229108,1,0,0:0:0:0:
402,192,229108,1,0,0:0:0:0:
36,192,229206,1,0,0:0:0:50:kick.wav
109,192,229206,1,0,0:0:0:70:CLAP_.wav
329,192,229206,1,0,0:0:0:0:
475,192,229206,1,0,0:0:0:0:
256,192,229304,1,0,0:0:0:0:
402,192,229304,1,0,0:0:0:0:
109,192,229402,1,0,0:0:0:70:LR_Drum Rpd x2.wav
182,192,229402,1,0,0:0:0:0:
329,192,229402,1,0,0:0:0:0:
256,192,229500,1,0,0:0:0:0:
475,192,229500,1,0,0:0:0:0:
36,192,229598,1,0,0:0:0:50:kick.wav
109,192,229598,1,0,0:0:0:0:
402,192,229598,1,0,0:0:0:0:
182,192,229696,1,0,0:0:0:0:
329,192,229696,1,0,0:0:0:0:
36,192,229794,1,0,0:0:0:70:LR_Drum Rpd x2.wav
256,192,229794,1,0,0:0:0:0:
475,192,229794,1,0,0:0:0:0:
109,192,229893,1,0,0:0:0:0:
329,192,229893,1,0,0:0:0:0:
36,192,229991,1,0,0:0:0:50:kick.wav
182,192,229991,1,0,0:0:0:70:CLAP_.wav
402,192,229991,1,0,0:0:0:0:
475,192,229991,1,0,0:0:0:0:
256,192,230089,1,0,0:0:0:0:
36,192,230187,1,0,0:0:0:70:LR_Drum Rpd x2.wav
109,192,230187,1,0,0:0:0:0:
329,192,230187,1,0,0:0:0:0:
182,192,230285,1,0,0:0:0:50:kick.wav
256,192,230285,1,0,0:0:0:0:
402,192,230285,1,0,0:0:0:0:
475,192,230285,1,0,0:0:0:0:
109,192,230481,1,0,0:0:0:50:kick.wav
182,192,230481,1,0,0:0:0:0:
329,192,230481,1,0,0:0:0:0:
402,192,230481,1,0,0:0:0:0:
36,192,230677,1,0,0:0:0:50:kick.wav
109,192,230677,1,0,0:0:0:0:
256,192,230677,1,0,0:0:0:0:
329,192,230677,1,0,0:0:0:0:
182,192,230775,1,0,0:0:0:50:kick.wav
402,192,230775,1,0,0:0:0:70:CLAP_.wav
475,192,230775,1,0,0:0:0:0:
36,192,230873,1,0,0:0:0:50:kick.wav
109,192,230873,1,0,0:0:0:0:
329,192,230873,1,0,0:0:0:0:
256,192,230971,1,0,0:0:0:50:kick.wav
475,192,230971,1,0,0:0:0:70:LR_Drum Rpd x2.wav
182,192,231020,1,0,0:0:0:50:kick.wav
402,192,231020,1,0,0:0:0:0:
109,192,231069,1,0,0:0:0:50:kick.wav
329,192,231069,1,0,0:0:0:0:
36,192,231118,1,0,0:0:0:50:kick.wav
256,192,231118,1,0,0:0:0:0:
182,192,231167,1,0,0:0:0:70:LR_Drum Rpd x2.wav
475,192,231167,128,0,231853:0:0:0:50:kick.wav
109,192,231265,1,0,0:0:0:70:LR_Drum Rpd x2.wav
402,192,231363,128,0,231853:0:0:0:0:
109,192,231461,1,0,0:0:0:70:LR_Drum Rpd x2.wav
329,192,231559,128,0,231853:0:0:0:0:
109,192,231657,1,0,0:0:0:70:LR_Drum Rpd x2.wav
36,192,231755,128,0,231853:0:0:0:70:LR_Drum Rpd x2.wav
182,192,231755,128,0,231853:0:0:0:0:
36,192,231951,1,0,0:0:0:50:kick.wav
182,192,231951,1,0,0:0:0:70:cymbal.wav
329,192,231951,1,0,0:0:0:70:push_scratch.wav
402,192,231951,1,0,0:0:0:0:
475,192,231951,1,0,0:0:0:0:
402,192,232049,1,0,0:0:0:50:kick.wav
475,192,232049,1,0,0:0:0:0:
36,192,232147,1,0,0:0:0:50:kick.wav
109,192,232147,1,0,0:0:0:0:
256,192,232147,1,0,0:0:0:0:
36,192,232245,1,0,0:0:0:50:kick.wav
109,192,232245,1,0,0:0:0:0:
182,192,232343,1,0,0:0:0:50:kick.wav
402,192,232343,1,0,0:0:0:100:VEC3 Snares 076.wav
475,192,232343,1,0,0:0:0:0:
402,192,232442,1,0,0:0:0:50:kick.wav
475,192,232442,1,0,0:0:0:0:
36,192,232540,1,0,0:0:0:50:kick.wav
109,192,232540,1,0,0:0:0:0:
329,192,232540,1,0,0:0:0:0:
36,192,232638,1,0,0:0:0:50:kick.wav
109,192,232638,1,0,0:0:0:0:
256,192,232736,1,0,0:0:0:50:kick.wav
402,192,232736,1,0,0:0:0:0:
475,192,232736,1,0,0:0:0:0:
402,192,232834,1,0,0:0:0:50:kick.wav
475,192,232834,1,0,0:0:0:0:
36,192,232932,1,0,0:0:0:50:kick.wav
109,192,232932,1,0,0:0:0:0:
329,192,232932,1,0,0:0:0:0:
36,192,233030,1,0,0:0:0:50:kick.wav
109,192,233030,1,0,0:0:0:0:
182,192,233128,1,0,0:0:0:50:kick.wav
402,192,233128,1,0,0:0:0:100:VEC3 Snares 076.wav
475,192,233128,1,0,0:0:0:0:
402,192,233226,1,0,0:0:0:50:kick.wav
475,192,233226,1,0,0:0:0:0:
36,192,233324,1,0,0:0:0:50:kick.wav
109,192,233324,1,0,0:0:0:0:
256,192,233324,1,0,0:0:0:0:
36,192,233422,1,0,0:0:0:50:kick.wav
109,192,233422,1,0,0:0:0:0:
182,192,233520,1,0,0:0:0:50:kick.wav
402,192,233520,1,0,0:0:0:0:
475,192,233520,1,0,0:0:0:0:
402,192,233618,1,0,0:0:0:50:kick.wav
475,192,233618,1,0,0:0:0:0:
36,192,233716,1,0,0:0:0:50:kick.wav
109,192,233716,1,0,0:0:0:0:
329,192,233716,1,0,0:0:0:0:
36,192,233814,1,0,0:0:0:50:kick.wav
109,192,233814,1,0,0:0:0:0:
256,192,233912,1,0,0:0:0:50:kick.wav
402,192,233912,1,0,0:0:0:100:VEC3 Snares 076.wav
475,192,233912,1,0,0:0:0:0:
402,192,234010,1,0,0:0:0:50:kick.wav
475,192,234010,1,0,0:0:0:0:
36,192,234108,1,0,0:0:0:50:kick.wav
109,192,234108,1,0,0:0:0:0:
329,192,234108,1,0,0:0:0:0:
36,192,234206,1,0,0:0:0:50:kick.wav
109,192,234206,1,0,0:0:0:0:
256,192,234304,1,0,0:0:0:50:kick.wav
402,192,234304,1,0,0:0:0:0:
475,192,234304,1,0,0:0:0:0:
402,192,234402,1,0,0:0:0:50:kick.wav
475,192,234402,1,0,0:0:0:0:
36,192,234500,1,0,0:0:0:50:kick.wav
109,192,234500,1,0,0:0:0:0:
256,192,234500,1,0,0:0:0:0:
36,192,234598,1,0,0:0:0:50:kick.wav
109,192,234598,1,0,0:0:0:0:
329,192,234696,1,0,0:0:0:50:kick.wav
475,192,234696,128,0,235089:0:0:0:0:
256,192,234745,1,0,0:0:0:0:
182,192,234794,1,0,0:0:0:0:
109,192,234843,1,0,0:0:0:0:
36,192,234893,128,0,235089:0:0:0:0:
402,192,234893,1,0,0:0:0:0:
329,192,234942,1,0,0:0:0:0:
256,192,234991,1,0,0:0:0:0:
182,192,235040,1,0,0:0:0:0:
109,192,235089,1,0,0:0:0:50:kick.wav
329,192,235089,1,0,0:0:0:70:cymbal.wav
402,192,235089,1,0,0:0:0:70:push_scratch.wav
329,192,235187,1,0,0:0:0:50:kick.wav
402,192,235187,1,0,0:0:0:0:
36,192,235285,1,0,0:0:0:50:kick.wav
109,192,235285,1,0,0:0:0:0:
182,192,235285,1,0,0:0:0:0:
109,192,235383,1,0,0:0:0:50:kick.wav
182,192,235383,1,0,0:0:0:0:
329,192,235481,1,0,0:0:0:50:kick.wav
402,192,235481,1,0,0:0:0:100:VEC3 Snares 076.wav
475,192,235481,1,0,0:0:0:0:
329,192,235579,1,0,0:0:0:50:kick.wav
402,192,235579,1,0,0:0:0:0:
36,192,235677,1,0,0:0:0:50:kick.wav
109,192,235677,1,0,0:0:0:0:
182,192,235677,1,0,0:0:0:0:
109,192,235775,1,0,0:0:0:50:kick.wav
182,192,235775,1,0,0:0:0:0:
329,192,235873,1,0,0:0:0:50:kick.wav
402,192,235873,1,0,0:0:0:0:
475,192,235873,1,0,0:0:0:0:
329,192,235971,1,0,0:0:0:50:kick.wav
402,192,235971,1,0,0:0:0:0:
36,192,236069,1,0,0:0:0:50:kick.wav
109,192,236069,1,0,0:0:0:0:
182,192,236069,1,0,0:0:0:0:
109,192,236167,1,0,0:0:0:50:kick.wav
182,192,236167,1,0,0:0:0:0:
329,192,236265,1,0,0:0:0:50:kick.wav
402,192,236265,1,0,0:0:0:100:VEC3 Snares 076.wav
475,192,236265,1,0,0:0:0:0:
329,192,236363,1,0,0:0:0:50:kick.wav
402,192,236363,1,0,0:0:0:0:
36,192,236461,1,0,0:0:0:50:kick.wav
109,192,236461,1,0,0:0:0:0:
182,192,236461,1,0,0:0:0:0:
109,192,236559,1,0,0:0:0:50:kick.wav
182,192,236559,1,0,0:0:0:0:
256,192,236657,1,0,0:0:0:50:kick.wav
402,192,236657,1,0,0:0:0:0:
475,192,236657,1,0,0:0:0:0:
36,192,236755,1,0,0:0:0:50:kick.wav
109,192,236755,1,0,0:0:0:0:
182,192,236853,1,0,0:0:0:50:kick.wav
329,192,236853,1,0,0:0:0:0:
475,192,236853,1,0,0:0:0:0:
182,192,236951,1,0,0:0:0:50:kick.wav
329,192,236951,1,0,0:0:0:0:
475,192,236951,1,0,0:0:0:0:
36,192,237049,1,0,0:0:0:50:kick.wav
109,192,237049,1,0,0:0:0:100:VEC3 Snares 076.wav
256,192,237147,1,0,0:0:0:50:kick.wav
402,192,237147,1,0,0:0:0:0:
475,192,237147,1,0,0:0:0:0:
256,192,237245,1,0,0:0:0:50:kick.wav
402,192,237245,1,0,0:0:0:0:
475,192,237245,1,0,0:0:0:0:
36,192,237343,1,0,0:0:0:50:kick.wav
109,192,237343,1,0,0:0:0:0:
329,192,237442,128,0,237638:0:0:0:50:kick.wav
475,192,237442,128,0,237638:0:0:0:100:BassBass_002C.wav
329,192,237736,128,0,237932:0:0:0:100:BassBass_002C.wav
475,192,237736,128,0,237932:0:0:0:0:
329,192,238030,128,0,238128:0:0:0:100:BassBass_002C.wav
475,192,238030,128,0,238128:0:0:0:0:
109,192,238226,1,0,0:0:0:35:kick.wav
182,192,238226,1,0,0:0:0:70:cymbal.wav
36,192,238275,1,0,0:0:0:35:kick.wav
329,192,238324,1,0,0:0:0:35:kick.wav
402,192,238324,1,0,0:0:0:0:
256,192,238373,1,0,0:0:0:35:kick.wav
109,192,238422,1,0,0:0:0:35:kick.wav
182,192,238422,1,0,0:0:0:0:
475,192,238471,1,0,0:0:0:35:kick.wav
329,192,238520,1,0,0:0:0:35:kick.wav
402,192,238520,1,0,0:0:0:0:
36,192,238569,1,0,0:0:0:35:kick.wav
109,192,238618,1,0,0:0:0:35:kick.wav
182,192,238618,1,0,0:0:0:0:
256,192,238667,1,0,0:0:0:35:kick.wav
329,192,238716,1,0,0:0:0:35:kick.wav
402,192,238716,1,0,0:0:0:0:
475,192,238765,1,0,0:0:0:35:kick.wav
109,192,238814,1,0,0:0:0:35:kick.wav
182,192,238814,1,0,0:0:0:0:
36,192,238863,1,0,0:0:0:35:kick.wav
329,192,238912,1,0,0:0:0:35:kick.wav
402,192,238912,1,0,0:0:0:0:
256,192,238961,1,0,0:0:0:35:kick.wav
109,192,239010,1,0,0:0:0:35:kick.wav
182,192,239010,1,0,0:0:0:0:
475,192,239059,1,0,0:0:0:35:kick.wav
329,192,239108,1,0,0:0:0:35:kick.wav
402,192,239108,1,0,0:0:0:0:
36,192,239157,1,0,0:0:0:35:kick.wav
109,192,239206,1,0,0:0:0:35:kick.wav
182,192,239206,1,0,0:0:0:0:
256,192,239255,1,0,0:0:0:35:kick.wav
329,192,239304,1,0,0:0:0:35:kick.wav
402,192,239304,1,0,0:0:0:0:
475,192,239353,1,0,0:0:0:35:kick.wav
109,192,239402,1,0,0:0:0:35:kick.wav
182,192,239402,1,0,0:0:0:0:
36,192,239451,1,0,0:0:0:35:kick.wav
329,192,239500,1,0,0:0:0:35:kick.wav
402,192,239500,1,0,0:0:0:0:
256,192,239549,1,0,0:0:0:35:kick.wav
109,192,239598,1,0,0:0:0:35:kick.wav
182,192,239598,1,0,0:0:0:0:
475,192,239647,1,0,0:0:0:35:kick.wav
329,192,239696,1,0,0:0:0:35:kick.wav
402,192,239696,1,0,0:0:0:0:
256,192,239745,1,0,0:0:0:35:kick.wav
36,192,239794,1,0,0:0:0:35:kick.wav
109,192,239794,1,0,0:0:0:0:
182,192,239843,1,0,0:0:0:35:kick.wav
402,192,239893,1,0,0:0:0:35:kick.wav
475,192,239893,1,0,0:0:0:0:
329,192,239942,1,0,0:0:0:35:kick.wav
36,192,239991,1,0,0:0:0:35:kick.wav
109,192,239991,1,0,0:0:0:0:
256,192,240040,1,0,0:0:0:35:kick.wav
402,192,240089,1,0,0:0:0:35:kick.wav
475,192,240089,1,0,0:0:0:0:
182,192,240138,1,0,0:0:0:35:kick.wav
36,192,240187,1,0,0:0:0:35:kick.wav
109,192,240187,1,0,0:0:0:0:
329,192,240236,1,0,0:0:0:35:kick.wav
402,192,240285,1,0,0:0:0:35:kick.wav
475,192,240285,1,0,0:0:0:0:
256,192,240334,1,0,0:0:0:35:kick.wav
36,192,240383,1,0,0:0:0:35:kick.wav
109,192,240383,1,0,0:0:0:0:
182,192,240432,1,0,0:0:0:35:kick.wav
402,192,240481,1,0,0:0:0:35:kick.wav
475,192,240481,1,0,0:0:0:0:
329,192,240530,1,0,0:0:0:35:kick.wav
36,192,240579,1,0,0:0:0:35:kick.wav
109,192,240579,1,0,0:0:0:0:
256,192,240628,1,0,0:0:0:35:kick.wav
402,192,240677,1,0,0:0:0:35:kick.wav
475,192,240677,1,0,0:0:0:0:
182,192,240726,1,0,0:0:0:35:kick.wav
36,192,240775,1,0,0:0:0:35:kick.wav
109,192,240775,1,0,0:0:0:0:
329,192,240824,1,0,0:0:0:35:kick.wav
402,192,240873,1,0,0:0:0:35:kick.wav
475,192,240873,1,0,0:0:0:0:
256,192,240922,1,0,0:0:0:35:kick.wav
36,192,240971,1,0,0:0:0:35:kick.wav
109,192,240971,1,0,0:0:0:0:
182,192,241020,1,0,0:0:0:35:kick.wav
402,192,241069,1,0,0:0:0:35:kick.wav
475,192,241069,1,0,0:0:0:0:
329,192,241118,1,0,0:0:0:35:kick.wav
36,192,241167,1,0,0:0:0:35:kick.wav
109,192,241167,1,0,0:0:0:0:
182,192,241216,1,0,0:0:0:35:kick.wav
402,192,241265,1,0,0:0:0:35:kick.wav
475,192,241265,1,0,0:0:0:0:
256,192,241314,1,0,0:0:0:35:kick.wav
36,192,241363,1,0,0:0:0:30:kick.wav
109,192,241388,1,0,0:0:0:30:kick.wav
182,192,241412,1,0,0:0:0:30:kick.wav
475,192,241437,1,0,0:0:0:30:kick.wav
402,192,241461,1,0,0:0:0:30:kick.wav
329,192,241486,1,0,0:0:0:30:kick.wav
256,192,241510,1,0,0:0:0:30:kick.wav
182,192,241535,1,0,0:0:0:30:kick.wav
36,192,241559,1,0,0:0:0:30:kick.wav
109,192,241559,1,0,0:0:0:0:
475,192,241755,1,0,0:0:0:30:kick.wav
402,192,241780,1,0,0:0:0:30:kick.wav
329,192,241804,1,0,0:0:0:30:kick.wav
36,192,241829,1,0,0:0:0:30:kick.wav
109,192,241853,1,0,0:0:0:30:kick.wav
182,192,241878,1,0,0:0:0:30:kick.wav
256,192,241902,1,0,0:0:0:30:kick.wav
329,192,241927,1,0,0:0:0:30:kick.wav
402,192,241951,1,0,0:0:0:30:kick.wav
475,192,241951,1,0,0:0:0:0:
182,192,242147,1,0,0:0:0:30:kick.wav
109,192,242172,1,0,0:0:0:30:kick.wav
36,192,242196,1,0,0:0:0:30:kick.wav
475,192,242221,1,0,0:0:0:30:kick.wav
402,192,242245,1,0,0:0:0:30:kick.wav
329,192,242270,1,0,0:0:0:30:kick.wav
256,192,242294,1,0,0:0:0:30:kick.wav
182,192,242319,1,0,0:0:0:30:kick.wav
36,192,242343,1,0,0:0:0:30:kick.wav
109,192,242343,1,0,0:0:0:0:
329,192,242540,1,0,0:0:0:30:kick.wav
402,192,242564,1,0,0:0:0:30:kick.wav
475,192,242589,1,0,0:0:0:30:kick.wav
36,192,242613,1,0,0:0:0:30:kick.wav
109,192,242638,1,0,0:0:0:30:kick.wav
182,192,242662,1,0,0:0:0:30:kick.wav
256,192,242687,1,0,0:0:0:30:kick.wav
329,192,242711,1,0,0:0:0:30:kick.wav
402,192,242736,1,0,0:0:0:30:kick.wav
475,192,242736,1,0,0:0:0:70:LR4_BassLineLDRN.wav
36,192,242834,1,0,0:0:0:0:
109,192,242834,1,0,0:0:0:0:
329,192,242932,128,0,243030:0:0:0:0:
475,192,242932,128,0,243030:0:0:0:0:
329,192,243128,128,0,243226:0:0:0:0:
475,192,243128,128,0,243226:0:0:0:0:
109,192,243324,1,0,0:0:0:0:
256,192,243422,1,0,0:0:0:0:
109,192,243520,1,0,0:0:0:0:
256,192,243618,1,0,0:0:0:0:
475,192,243618,128,0,243716:0:0:0:0:
109,192,243716,1,0,0:0:0:0:
36,192,243814,128,0,244206:0:0:0:0:
182,192,243814,128,0,244206:0:0:0:0:
329,192,243814,128,0,244206:0:0:0:0:
475,192,243912,128,0,244108:0:0:0:0:
475,192,244206,1,0,0:0:0:0:
109,192,244304,1,0,0:0:0:50:electronic33.wav
182,192,244353,1,0,0:0:0:0:
256,192,244402,1,0,0:0:0:0:
329,192,244451,1,0,0:0:0:0:
402,192,244500,1,0,0:0:0:50:kick.wav
475,192,244500,1,0,0:0:0:50:cymbal_s.wav
36,192,244549,1,0,0:0:0:50:kick.wav
109,192,244549,1,0,0:0:0:50:cymbal_s.wav
182,192,244598,1,0,0:0:0:50:kick.wav
329,192,244598,1,0,0:0:0:50:cymbal_s.wav
402,192,244647,1,0,0:0:0:50:kick.wav
475,192,244647,1,0,0:0:0:50:cymbal_s.wav
36,192,244696,1,0,0:0:0:50:kick.wav
109,192,244696,1,0,0:0:0:50:cymbal_s.wav
256,192,244696,1,0,0:0:0:0:
182,192,244794,1,0,0:0:0:50:kick.wav
329,192,244794,1,0,0:0:0:50:cymbal_s.wav
36,192,244893,1,0,0:0:0:50:kick.wav
109,192,244893,1,0,0:0:0:70:cymbal.wav
256,192,244893,1,0,0:0:0:70:CLAP_.wav
402,192,244893,1,0,0:0:0:100:Go_001.wav
475,192,244893,1,0,0:0:0:70:push_scratch.wav
182,192,244991,1,0,0:0:0:0:
109,192,245089,1,0,0:0:0:0:
329,192,245089,1,0,0:0:0:0:
402,192,245089,1,0,0:0:0:0:
182,192,245187,1,0,0:0:0:0:
329,192,245187,128,0,245285:0:0:0:0:
402,192,245187,128,0,245285:0:0:0:0:
36,192,245285,1,0,0:0:0:50:kick.wav
256,192,245285,1,0,0:0:0:0:
475,192,245285,1,0,0:0:0:0:
109,192,245383,1,0,0:0:0:0:
182,192,245481,1,0,0:0:0:0:
329,192,245481,128,0,245579:0:0:0:0:
402,192,245481,128,0,245579:0:0:0:0:
109,192,245579,1,0,0:0:0:0:
36,192,245677,1,0,0:0:0:50:kick.wav
256,192,245677,1,0,0:0:0:70:CLAP_.wav
402,192,245677,1,0,0:0:0:0:
475,192,245677,1,0,0:0:0:0:
109,192,245775,1,0,0:0:0:0:
182,192,245775,1,0,0:0:0:0:
36,192,245873,1,0,0:0:0:0:
329,192,245873,1,0,0:0:0:0:
475,192,245873,1,0,0:0:0:0:
182,192,245971,1,0,0:0:0:0:
256,192,245971,1,0,0:0:0:0:
109,192,246069,1,0,0:0:0:50:kick.wav
402,192,246069,1,0,0:0:0:0:
475,192,246069,1,0,0:0:0:0:
256,192,246167,1,0,0:0:0:0:
329,192,246167,1,0,0:0:0:0:
36,192,246265,1,0,0:0:0:0:
182,192,246265,1,0,0:0:0:0:
475,192,246265,1,0,0:0:0:0:
329,192,246363,1,0,0:0:0:0:
402,192,246363,1,0,0:0:0:0:
36,192,246461,1,0,0:0:0:50:kick.wav
109,192,246461,1,0,0:0:0:70:CLAP_.wav
256,192,246461,1,0,0:0:0:0:
475,192,246461,1,0,0:0:0:0:
402,192,246559,1,0,0:0:0:0:
109,192,246657,1,0,0:0:0:0:
182,192,246657,1,0,0:0:0:0:
329,192,246657,1,0,0:0:0:0:
109,192,246755,128,0,246853:0:0:0:0:
182,192,246755,128,0,246853:0:0:0:0:
475,192,246755,1,0,0:0:0:0:
36,192,246853,1,0,0:0:0:50:kick.wav
256,192,246853,1,0,0:0:0:0:
402,192,246853,128,0,246902:0:0:0:0:
475,192,246951,128,0,247000:0:0:0:0:
109,192,247049,128,0,247147:0:0:0:0:
182,192,247049,128,0,247147:0:0:0:0:
329,192,247049,128,0,247098:0:0:0:0:
402,192,247147,128,0,247196:0:0:0:0:
36,192,247245,1,0,0:0:0:50:kick.wav
109,192,247245,1,0,0:0:0:70:CLAP_.wav
256,192,247245,128,0,247294:0:0:0:0:
475,192,247245,1,0,0:0:0:0:
329,192,247343,128,0,247393:0:0:0:0:
36,192,247442,1,0,0:0:0:0:
182,192,247442,1,0,0:0:0:0:
475,192,247442,1,0,0:0:0:0:
402,192,247491,1,0,0:0:0:0:
329,192,247540,1,0,0:0:0:0:
256,192,247589,1,0,0:0:0:0:
36,192,247638,1,0,0:0:0:50:kick.wav
109,192,247638,1,0,0:0:0:0:
182,192,247638,1,0,0:0:0:0:
36,192,247736,1,0,0:0:0:50:kick.wav
109,192,247736,1,0,0:0:0:0:
182,192,247736,1,0,0:0:0:0:
329,192,247932,1,0,0:0:0:50:kick.wav
402,192,247932,1,0,0:0:0:0:
475,192,247932,1,0,0:0:0:0:
109,192,248030,1,0,0:0:0:50:kick.wav
329,192,248030,1,0,0:0:0:70:CLAP_.wav
402,192,248030,1,0,0:0:0:0:
475,192,248030,1,0,0:0:0:0:
256,192,248128,1,0,0:0:0:0:
36,192,248226,1,0,0:0:0:0:
182,192,248226,1,0,0:0:0:0:
402,192,248226,1,0,0:0:0:0:
36,192,248324,128,0,248422:0:0:0:0:
182,192,248324,128,0,248422:0:0:0:0:
329,192,248324,1,0,0:0:0:0:
109,192,248422,1,0,0:0:0:50:kick.wav
256,192,248422,1,0,0:0:0:0:
475,192,248422,1,0,0:0:0:0:
402,192,248520,1,0,0:0:0:0:
36,192,248618,128,0,248716:0:0:0:0:
182,192,248618,128,0,248716:0:0:0:0:
329,192,248618,1,0,0:0:0:0:
402,192,248716,1,0,0:0:0:0:
36,192,248814,1,0,0:0:0:50:kick.wav
109,192,248814,1,0,0:0:0:70:CLAP_.wav
256,192,248814,1,0,0:0:0:0:
475,192,248814,1,0,0:0:0:0:
329,192,248912,1,0,0:0:0:0:
402,192,248912,1,0,0:0:0:0:
36,192,249010,1,0,0:0:0:0:
109,192,249010,1,0,0:0:0:0:
182,192,249010,1,0,0:0:0:0:
256,192,249108,1,0,0:0:0:0:
475,192,249108,1,0,0:0:0:0:
36,192,249206,1,0,0:0:0:50:kick.wav
109,192,249206,1,0,0:0:0:0:
329,192,249206,1,0,0:0:0:0:
182,192,249304,1,0,0:0:0:0:
402,192,249304,1,0,0:0:0:0:
36,192,249402,1,0,0:0:0:0:
256,192,249402,1,0,0:0:0:0:
475,192,249402,1,0,0:0:0:0:
109,192,249500,1,0,0:0:0:0:
329,192,249500,1,0,0:0:0:0:
182,192,249598,1,0,0:0:0:50:kick.wav
402,192,249598,1,0,0:0:0:70:CLAP_.wav
475,192,249598,1,0,0:0:0:0:
256,192,249696,1,0,0:0:0:50:kick.wav
402,192,249696,1,0,0:0:0:0:
475,192,249696,1,0,0:0:0:0:
36,192,249794,1,0,0:0:0:50:kick.wav
109,192,249794,1,0,0:0:0:0:
329,192,249794,1,0,0:0:0:0:
182,192,249794,1,0,0:0:0:0:
36,192,249991,1,0,0:0:0:50:kick.wav
182,192,249991,1,0,0:0:0:70:cymbal.wav
256,192,249991,1,0,0:0:0:0:
329,192,249991,1,0,0:0:0:0:
475,192,249991,1,0,0:0:0:0:
36,192,250187,1,0,0:0:0:50:kick.wav
182,192,250187,1,0,0:0:0:0:
256,192,250187,1,0,0:0:0:0:
329,192,250187,1,0,0:0:0:0:
475,192,250187,1,0,0:0:0:0:
109,192,250383,128,0,250677:0:0:0:50:LR4_BassLineLDRN.wav
256,192,250383,128,0,250677:0:0:0:0:
402,192,250383,128,0,250677:0:0:0:0:
36,192,250513,128,0,250677:0:0:0:0:
475,192,250579,128,0,250677:0:0:0:0:
36,192,250775,1,0,0:0:0:50:kick.wav
109,192,250775,1,0,0:0:0:70:cymbal.wav
256,192,250775,1,0,0:0:0:70:push_scratch.wav
402,192,250775,1,0,0:0:0:0:
475,192,250775,1,0,0:0:0:0:
182,192,250873,1,0,0:0:0:0:
329,192,250873,1,0,0:0:0:0:
36,192,250971,1,0,0:0:0:0:
256,192,250971,1,0,0:0:0:0:
475,192,250971,1,0,0:0:0:0:
109,192,251069,1,0,0:0:0:0:
402,192,251069,1,0,0:0:0:0:
36,192,251167,1,0,0:0:0:50:kick.wav
182,192,251167,1,0,0:0:0:70:CLAP_.wav
256,192,251167,1,0,0:0:0:0:
329,192,251167,1,0,0:0:0:0:
402,192,251265,1,0,0:0:0:0:
475,192,251265,1,0,0:0:0:0:
109,192,251363,1,0,0:0:0:0:
256,192,251363,1,0,0:0:0:0:
329,192,251363,1,0,0:0:0:0:
109,192,251461,128,0,251559:0:0:0:0:
256,192,251461,128,0,251559:0:0:0:0:
36,192,251559,1,0,0:0:0:50:kick.wav
402,192,251559,1,0,0:0:0:0:
475,192,251559,1,0,0:0:0:0:
182,192,251657,1,0,0:0:0:0:
329,192,251657,1,0,0:0:0:0:
36,192,251755,1,0,0:0:0:0:
256,192,251755,1,0,0:0:0:0:
475,192,251755,1,0,0:0:0:0:
109,192,251853,1,0,0:0:0:0:
402,192,251853,1,0,0:0:0:0:
182,192,251951,1,0,0:0:0:50:kick.wav
256,192,251951,1,0,0:0:0:70:CLAP_.wav
329,192,251951,1,0,0:0:0:0:
475,192,251951,1,0,0:0:0:0:
36,192,252049,1,0,0:0:0:0:
109,192,252049,1,0,0:0:0:0:
182,192,252147,1,0,0:0:0:0:
256,192,252147,1,0,0:0:0:0:
402,192,252147,1,0,0:0:0:0:
256,192,252245,128,0,252343:0:0:0:0:
402,192,252245,128,0,252343:0:0:0:0:
36,192,252343,1,0,0:0:0:50:kick.wav
109,192,252343,1,0,0:0:0:0:
475,192,252343,1,0,0:0:0:0:
182,192,252442,1,0,0:0:0:0:
256,192,252442,1,0,0:0:0:0:
36,192,252540,1,0,0:0:0:0:
329,192,252540,1,0,0:0:0:0:
475,192,252540,1,0,0:0:0:0:
182,192,252638,1,0,0:0:0:0:
256,192,252638,1,0,0:0:0:0:
36,192,252736,1,0,0:0:0:50:kick.wav
109,192,252736,1,0,0:0:0:70:CLAP_.wav
329,192,252736,1,0,0:0:0:0:
475,192,252736,1,0,0:0:0:0:
256,192,252834,1,0,0:0:0:0:
402,192,252834,1,0,0:0:0:0:
36,192,252932,1,0,0:0:0:0:
182,192,252932,1,0,0:0:0:0:
329,192,252932,1,0,0:0:0:0:
182,192,253030,128,0,253128:0:0:0:0:
329,192,253030,128,0,253128:0:0:0:0:
109,192,253128,1,0,0:0:0:50:kick.wav
402,192,253128,1,0,0:0:0:0:
475,192,253128,1,0,0:0:0:0:
36,192,253226,1,0,0:0:0:0:
256,192,253226,1,0,0:0:0:0:
182,192,253324,1,0,0:0:0:0:
402,192,253324,1,0,0:0:0:0:
475,192,253324,1,0,0:0:0:0:
109,192,253422,1,0,0:0:0:0:
329,192,253422,1,0,0:0:0:0:
36,192,253520,1,0,0:0:0:50:kick.wav
256,192,253520,1,0,0:0:0:70:CLAP_.wav
402,192,253520,1,0,0:0:0:0:
475,192,253520,1,0,0:0:0:0:
182,192,253618,1,0,0:0:0:0:
36,192,253716,1,0,0:0:0:50:kick.wav
109,192,253716,1,0,0:0:0:0:
329,192,253716,1,0,0:0:0:0:
475,192,253716,1,0,0:0:0:0:
256,192,253814,1,0,0:0:0:0:
109,192,253912,1,0,0:0:0:50:kick.wav
182,192,253912,1,0,0:0:0:0:
329,192,253912,1,0,0:0:0:0:
402,192,253912,1,0,0:0:0:0:
109,192,254108,1,0,0:0:0:50:kick.wav
182,192,254108,1,0,0:0:0:0:
329,192,254108,1,0,0:0:0:0:
402,192,254108,1,0,0:0:0:0:
109,192,254304,128,0,254500:0:0:0:50:kick.wav
182,192,254304,128,0,254500:0:0:0:70:CLAP_.wav
329,192,254304,1,0,0:0:0:0:
402,192,254304,1,0,0:0:0:0:
256,192,254500,1,0,0:0:0:0:
402,192,254500,1,0,0:0:0:0:
182,192,254598,1,0,0:0:0:50:kick.wav
329,192,254598,1,0,0:0:0:0:
36,192,254696,1,0,0:0:0:50:electronic13_short.wav
109,192,254696,1,0,0:0:0:0:
256,192,254696,1,0,0:0:0:0:
402,192,254696,1,0,0:0:0:0:
475,192,254696,1,0,0:0:0:0:
182,192,254893,1,0,0:0:0:50:kick.wav
256,192,254893,1,0,0:0:0:0:
329,192,254893,1,0,0:0:0:0:
36,192,255089,1,0,0:0:0:50:kick.wav
109,192,255089,1,0,0:0:0:70:cymbal.wav
256,192,255089,1,0,0:0:0:0:
402,192,255089,1,0,0:0:0:0:
475,192,255089,1,0,0:0:0:0:
182,192,255285,128,0,255383:0:0:0:0:
329,192,255285,128,0,255383:0:0:0:0:
36,192,255383,1,0,0:0:0:0:
475,192,255383,1,0,0:0:0:0:
256,192,255432,1,0,0:0:0:0:
182,192,255481,128,0,255873:0:0:0:0:
329,192,255481,128,0,255873:0:0:0:0:
109,192,255677,128,0,255873:0:0:0:0:
402,192,255775,128,0,255873:0:0:0:0:
36,192,255873,1,0,0:0:0:50:kick.wav
256,192,255873,1,0,0:0:0:0:
475,192,255873,1,0,0:0:0:0:
109,192,256069,1,0,0:0:0:50:kick.wav
182,192,256069,1,0,0:0:0:0:
329,192,256118,1,0,0:0:0:50:kick.wav
402,192,256118,1,0,0:0:0:0:
109,192,256167,1,0,0:0:0:50:kick.wav
182,192,256167,1,0,0:0:0:0:
329,192,256216,1,0,0:0:0:50:kick.wav
402,192,256216,1,0,0:0:0:0:
36,192,256265,1,0,0:0:0:50:electronic13_short.wav
256,192,256265,128,0,256314:0:0:0:0:
475,192,256265,1,0,0:0:0:0:
182,192,256330,1,0,0:0:0:0:
109,192,256396,1,0,0:0:0:0:
256,192,256461,1,0,0:0:0:0:
402,192,256461,128,0,256510:0:0:0:0:
182,192,256559,1,0,0:0:0:0:
36,192,256657,128,0,256951:0:0:0:70:S2.wav
109,192,256657,128,0,256951:0:0:0:0:
329,192,256657,128,0,256706:0:0:0:0:
475,192,256657,1,0,0:0:0:0:
182,192,256755,128,0,256951:0:0:0:70:S2.wav
256,192,256853,128,0,256951:0:0:0:70:S2.wav
475,192,256853,128,0,256902:0:0:0:0:
329,192,256951,1,0,0:0:0:70:S2.wav
36,192,257049,1,0,0:0:0:50:kick.wav
109,192,257049,1,0,0:0:0:0:
402,192,257049,1,0,0:0:0:0:
475,192,257049,1,0,0:0:0:0:
256,192,257098,1,0,0:0:0:0:
182,192,257147,1,0,0:0:0:0:
109,192,257196,1,0,0:0:0:0:
36,192,257245,1,0,0:0:0:50:kick.wav
329,192,257245,1,0,0:0:0:0:
402,192,257245,1,0,0:0:0:0:
475,192,257245,1,0,0:0:0:0:
256,192,257311,1,0,0:0:0:0:
182,192,257376,1,0,0:0:0:0:
36,192,257442,1,0,0:0:0:50:kick.wav
109,192,257442,1,0,0:0:0:70:cymbal.wav
329,192,257442,1,0,0:0:0:70:CLAP_.wav
402,192,257442,1,0,0:0:0:100:Go_001.wav
475,192,257442,1,0,0:0:0:70:push_scratch.wav
256,192,257540,1,0,0:0:0:0:
109,192,257638,1,0,0:0:0:0:
182,192,257638,1,0,0:0:0:0:
402,192,257638,1,0,0:0:0:0:
109,192,257736,128,0,257834:0:0:0:0:
182,192,257736,128,0,257834:0:0:0:0:
36,192,257834,1,0,0:0:0:50:kick.wav
329,192,257834,1,0,0:0:0:0:
475,192,257834,1,0,0:0:0:0:
256,192,257932,1,0,0:0:0:0:
109,192,258030,1,0,0:0:0:0:
182,192,258030,1,0,0:0:0:0:
402,192,258030,1,0,0:0:0:0:
109,192,258128,128,0,258226:0:0:0:0:
182,192,258128,128,0,258226:0:0:0:0:
36,192,258226,1,0,0:0:0:50:kick.wav
256,192,258226,1,0,0:0:0:70:CLAP_.wav
475,192,258226,1,0,0:0:0:0:
182,192,258324,1,0,0:0:0:0:
329,192,258324,128,0,258618:0:0:0:0:
36,192,258422,1,0,0:0:0:0:
109,192,258422,1,0,0:0:0:0:
402,192,258422,128,0,258618:0:0:0:0:
182,192,258520,1,0,0:0:0:0:
475,192,258520,128,0,258618:0:0:0:0:
36,192,258618,1,0,0:0:0:50:kick.wav
109,192,258618,1,0,0:0:0:0:
256,192,258618,1,0,0:0:0:0:
182,192,258716,128,0,259010:0:0:0:0:
329,192,258716,1,0,0:0:0:0:
109,192,258814,128,0,259010:0:0:0:0:
402,192,258814,1,0,0:0:0:0:
475,192,258814,1,0,0:0:0:0:
36,192,258912,128,0,259010:0:0:0:0:
329,192,258912,1,0,0:0:0:0:
256,192,259010,1,0,0:0:0:50:kick.wav
402,192,259010,1,0,0:0:0:70:CLAP_.wav
475,192,259010,1,0,0:0:0:0:
36,192,259108,1,0,0:0:0:0:
256,192,259108,1,0,0:0:0:0:
182,192,259206,1,0,0:0:0:0:
329,192,259206,1,0,0:0:0:0:
475,192,259206,1,0,0:0:0:0:
109,192,259304,1,0,0:0:0:0:
329,192,259304,1,0,0:0:0:0:
36,192,259402,1,0,0:0:0:50:kick.wav
256,192,259402,1,0,0:0:0:70:cymbal.wav
475,192,259402,1,0,0:0:0:0:
182,192,259598,1,0,0:0:0:50:kick.wav
402,192,259598,1,0,0:0:0:0:
329,192,259647,1,0,0:0:0:50:kick.wav
109,192,259647,1,0,0:0:0:0:
36,192,259696,1,0,0:0:0:50:kick.wav
256,192,259696,1,0,0:0:0:0:
475,192,259696,1,0,0:0:0:0:
182,192,259893,128,0,260187:0:0:0:50:kick.wav
329,192,259893,1,0,0:0:0:70:cymbal.wav
402,192,259893,1,0,0:0:0:0:
475,192,259893,1,0,0:0:0:0:
109,192,259991,128,0,260187:0:0:0:0:
36,192,260089,128,0,260187:0:0:0:50:kick.wav
329,192,260089,128,0,260187:0:0:0:0:
402,192,260089,128,0,260187:0:0:0:0:
475,192,260089,128,0,260187:0:0:0:0:
36,192,260285,1,0,0:0:0:50:kick.wav
109,192,260285,1,0,0:0:0:0:
182,192,260285,1,0,0:0:0:0:
256,192,260383,1,0,0:0:0:50:kick.wav
402,192,260383,1,0,0:0:0:0:
475,192,260383,1,0,0:0:0:0:
36,192,260481,1,0,0:0:0:50:kick.wav
109,192,260481,1,0,0:0:0:0:
329,192,260481,1,0,0:0:0:0:
36,192,260579,1,0,0:0:0:50:kick.wav
109,192,260579,1,0,0:0:0:70:cymbal.wav
182,192,260579,1,0,0:0:0:70:CLAP_.wav
402,192,260579,1,0,0:0:0:70:push_scratch.wav
475,192,260579,1,0,0:0:0:0:
256,192,260677,1,0,0:0:0:0:
109,192,260775,1,0,0:0:0:0:
329,192,260775,1,0,0:0:0:0:
475,192,260775,1,0,0:0:0:0:
109,192,260873,128,0,260971:0:0:0:0:
329,192,260873,128,0,260971:0:0:0:0:
36,192,260971,1,0,0:0:0:50:kick.wav
182,192,260971,1,0,0:0:0:0:
402,192,260971,1,0,0:0:0:0:
256,192,261069,1,0,0:0:0:0:
109,192,261167,1,0,0:0:0:0:
329,192,261167,1,0,0:0:0:0:
475,192,261167,1,0,0:0:0:0:
109,192,261265,128,0,261363:0:0:0:0:
329,192,261265,128,0,261363:0:0:0:0:
36,192,261363,1,0,0:0:0:50:kick.wav
182,192,261363,1,0,0:0:0:70:CLAP_.wav
475,192,261363,1,0,0:0:0:0:
256,192,261461,1,0,0:0:0:0:
402,192,261461,1,0,0:0:0:0:
36,192,261559,1,0,0:0:0:0:
109,192,261559,1,0,0:0:0:0:
329,192,261559,1,0,0:0:0:0:
182,192,261657,1,0,0:0:0:0:
475,192,261657,1,0,0:0:0:0:
36,192,261755,1,0,0:0:0:50:kick.wav
109,192,261755,1,0,0:0:0:50:cymbal_s.wav
256,192,261755,1,0,0:0:0:0:
329,192,261755,1,0,0:0:0:0:
36,192,261853,1,0,0:0:0:50:kick.wav
109,192,261853,1,0,0:0:0:50:cymbal_s.wav
256,192,261853,1,0,0:0:0:0:
329,192,261853,1,0,0:0:0:0:
109,192,262049,1,0,0:0:0:50:kick.wav
182,192,262049,1,0,0:0:0:50:cymbal_s.wav
329,192,262049,1,0,0:0:0:0:
402,192,262049,1,0,0:0:0:0:
109,192,262147,1,0,0:0:0:50:kick.wav
182,192,262147,1,0,0:0:0:50:cymbal_s.wav
329,192,262147,1,0,0:0:0:0:
402,192,262147,1,0,0:0:0:0:
182,192,262343,1,0,0:0:0:50:kick.wav
256,192,262343,1,0,0:0:0:50:cymbal_s.wav
402,192,262343,1,0,0:0:0:0:
475,192,262343,1,0,0:0:0:0:
182,192,262442,1,0,0:0:0:50:kick.wav
256,192,262442,1,0,0:0:0:50:cymbal_s.wav
402,192,262442,1,0,0:0:0:0:
475,192,262442,1,0,0:0:0:0:
36,192,262638,1,0,0:0:0:50:kick.wav
109,192,262638,1,0,0:0:0:50:cymbal_s.wav
256,192,262638,1,0,0:0:0:0:
329,192,262638,1,0,0:0:0:0:
36,192,262736,128,0,262932:0:0:0:50:kick.wav
109,192,262736,128,0,262932:0:0:0:50:cymbal_s.wav
256,192,262736,128,0,262932:0:0:0:0:
329,192,262736,128,0,262932:0:0:0:0:
475,192,262932,1,0,0:0:0:70:LR4_BassLineLDRN.wav
182,192,263128,128,0,263324:0:0:0:0:
329,192,263226,128,0,263324:0:0:0:0:
36,192,263324,1,0,0:0:0:50:kick.wav
109,192,263324,1,0,0:0:0:70:cymbal.wav
256,192,263324,1,0,0:0:0:70:push_scratch.wav
402,192,263324,1,0,0:0:0:0:
475,192,263324,1,0,0:0:0:0:
182,192,263618,1,0,0:0:0:50:kick.wav
329,192,263618,1,0,0:0:0:0:
402,192,263618,1,0,0:0:0:0:
475,192,263618,1,0,0:0:0:0:
182,192,263814,1,0,0:0:0:50:kick.wav
329,192,263814,1,0,0:0:0:0:
402,192,263814,1,0,0:0:0:0:
475,192,263814,1,0,0:0:0:0:
36,192,263912,1,0,0:0:0:50:kick.wav
109,192,263912,1,0,0:0:0:0:
256,192,263912,1,0,0:0:0:0:
256,192,264010,1,0,0:0:0:50:kick.wav
402,192,264010,1,0,0:0:0:0:
475,192,264010,1,0,0:0:0:0:
36,192,264108,1,0,0:0:0:50:kick.wav
109,192,264108,1,0,0:0:0:0:
182,192,264108,1,0,0:0:0:0:
329,192,264108,1,0,0:0:0:0:
36,192,264402,1,0,0:0:0:50:kick.wav
109,192,264402,1,0,0:0:0:0:
182,192,264402,1,0,0:0:0:0:
329,192,264402,1,0,0:0:0:0:
36,192,264598,1,0,0:0:0:50:kick.wav
109,192,264598,1,0,0:0:0:0:
182,192,264598,1,0,0:0:0:0:
329,192,264598,1,0,0:0:0:0:
256,192,264696,1,0,0:0:0:50:kick.wav
402,192,264696,1,0,0:0:0:0:
475,192,264696,1,0,0:0:0:0:
36,192,264794,1,0,0:0:0:50:kick.wav
109,192,264794,1,0,0:0:0:0:
256,192,264794,1,0,0:0:0:0:
182,192,264893,1,0,0:0:0:50:kick.wav
329,192,264893,1,0,0:0:0:0:
402,192,264893,1,0,0:0:0:0:
475,192,264893,1,0,0:0:0:0:
109,192,265187,1,0,0:0:0:50:kick.wav
256,192,265187,1,0,0:0:0:0:
402,192,265187,1,0,0:0:0:0:
475,192,265187,1,0,0:0:0:0:
109,192,265383,1,0,0:0:0:50:kick.wav
256,192,265383,1,0,0:0:0:0:
402,192,265383,1,0,0:0:0:0:
475,192,265383,1,0,0:0:0:0:
36,192,265481,1,0,0:0:0:50:kick.wav
182,192,265481,1,0,0:0:0:0:
329,192,265481,1,0,0:0:0:0:
182,192,265579,1,0,0:0:0:50:kick.wav
329,192,265579,1,0,0:0:0:0:
475,192,265579,1,0,0:0:0:0:
36,192,265677,1,0,0:0:0:50:kick.wav
109,192,265677,1,0,0:0:0:0:
256,192,265677,1,0,0:0:0:0:
402,192,265677,1,0,0:0:0:0:
36,192,265971,1,0,0:0:0:50:kick.wav
109,192,265971,1,0,0:0:0:0:
256,192,265971,1,0,0:0:0:0:
402,192,265971,1,0,0:0:0:0:
36,192,266167,1,0,0:0:0:50:kick.wav
109,192,266167,1,0,0:0:0:0:
256,192,266167,1,0,0:0:0:0:
402,192,266167,1,0,0:0:0:0:
182,192,266265,1,0,0:0:0:50:kick.wav
329,192,266265,1,0,0:0:0:0:
475,192,266265,1,0,0:0:0:0:
36,192,266363,1,0,0:0:0:50:kick.wav
182,192,266363,1,0,0:0:0:0:
329,192,266363,1,0,0:0:0:0:
256,192,266461,1,0,0:0:0:50:kick.wav
402,192,266461,1,0,0:0:0:70:cymbal.wav
475,192,266461,1,0,0:0:0:70:push_scratch.wav
256,192,266559,128,0,266755:0:0:0:50:kick.wav
402,192,266559,128,0,266755:0:0:0:0:
475,192,266559,128,0,266755:0:0:0:0:
36,192,266755,1,0,0:0:0:50:kick.wav
109,192,266755,1,0,0:0:0:0:
182,192,266853,1,0,0:0:0:50:kick.wav
329,192,266853,1,0,0:0:0:0:
402,192,266853,1,0,0:0:0:0:
182,192,266951,128,0,267147:0:0:0:50:kick.wav
329,192,266951,128,0,267147:0:0:0:0:
402,192,266951,128,0,267147:0:0:0:0:
36,192,267147,1,0,0:0:0:50:kick.wav
475,192,267147,1,0,0:0:0:0:
109,192,267245,1,0,0:0:0:50:kick.wav
256,192,267245,1,0,0:0:0:0:
329,192,267245,1,0,0:0:0:0:
109,192,267343,128,0,267540:0:0:0:50:kick.wav
256,192,267343,128,0,267540:0:0:0:0:
329,192,267343,128,0,267540:0:0:0:0:
402,192,267540,1,0,0:0:0:50:kick.wav
475,192,267540,1,0,0:0:0:0:
36,192,267638,1,0,0:0:0:50:kick.wav
182,192,267638,1,0,0:0:0:0:
256,192,267638,1,0,0:0:0:0:
36,192,267736,128,0,268030:0:0:0:50:kick.wav
182,192,267736,128,0,268030:0:0:0:0:
256,192,267736,128,0,268030:0:0:0:0:
329,192,267932,128,0,268030:0:0:0:50:kick.wav
402,192,267932,128,0,268030:0:0:0:0:
475,192,267932,128,0,268030:0:0:0:0:
109,192,268030,1,0,0:0:0:0:
36,192,268128,1,0,0:0:0:50:kick.wav
256,192,268128,1,0,0:0:0:0:
329,192,268128,128,0,268226:0:0:0:0:
402,192,268128,128,0,268226:0:0:0:0:
475,192,268128,128,0,268226:0:0:0:0:
182,192,268226,1,0,0:0:0:0:
36,192,268324,128,0,268422:0:0:0:50:kick.wav
109,192,268324,1,0,0:0:0:0:
329,192,268324,1,0,0:0:0:0:
402,192,268324,128,0,268422:0:0:0:0:
475,192,268324,128,0,268422:0:0:0:0:
256,192,268422,1,0,0:0:0:0:
36,192,268520,128,0,268618:0:0:0:50:kick.wav
109,192,268520,128,0,268618:0:0:0:0:
182,192,268520,1,0,0:0:0:0:
402,192,268520,1,0,0:0:0:0:
475,192,268520,128,0,268618:0:0:0:0:
329,192,268618,1,0,0:0:0:0:
36,192,268716,128,0,268814:0:0:0:50:kick.wav
109,192,268716,128,0,268814:0:0:0:0:
182,192,268716,128,0,268814:0:0:0:0:
256,192,268716,1,0,0:0:0:0:
475,192,268716,1,0,0:0:0:0:
402,192,268814,1,0,0:0:0:0:
36,192,268912,1,0,0:0:0:50:kick.wav
109,192,268912,128,0,269010:0:0:0:0:
182,192,268912,128,0,269010:0:0:0:0:
256,192,268912,128,0,269010:0:0:0:0:
329,192,268912,1,0,0:0:0:0:
475,192,269010,1,0,0:0:0:0:
36,192,269108,1,0,0:0:0:50:kick.wav
182,192,269108,128,0,269206:0:0:0:0:
256,192,269108,128,0,269206:0:0:0:0:
329,192,269108,128,0,269206:0:0:0:0:
402,192,269108,1,0,0:0:0:0:
109,192,269206,1,0,0:0:0:50:kick.wav
475,192,269206,128,0,269598:0:0:0:0:
182,192,269304,1,0,0:0:0:0:
402,192,269304,128,0,269566:0:0:0:0:
36,192,269402,1,0,0:0:0:0:
329,192,269402,128,0,269533:0:0:0:0:
182,192,269500,1,0,0:0:0:0:
36,192,269598,1,0,0:0:0:20:kick.wav
109,192,269598,1,0,0:0:0:70:LR4_BassLineLDRN.wav
256,192,269598,1,0,0:0:0:0:
329,192,269631,1,0,0:0:0:0:
402,192,269664,1,0,0:0:0:0:
475,192,269696,1,0,0:0:0:0:
182,192,269794,1,0,0:0:0:20:kick.wav
256,192,269893,1,0,0:0:0:20:kick.wav
109,192,269991,1,0,0:0:0:20:kick.wav
329,192,269991,1,0,0:0:0:0:
182,192,270089,1,0,0:0:0:20:kick.wav
402,192,270089,1,0,0:0:0:0:
256,192,270187,1,0,0:0:0:20:kick.wav
475,192,270187,1,0,0:0:0:0:
36,192,270285,1,0,0:0:0:20:kick.wav
329,192,270285,1,0,0:0:0:0:
109,192,270334,1,0,0:0:0:0:
182,192,270383,1,0,0:0:0:30:kick.wav
475,192,270383,1,0,0:0:0:0:
402,192,270432,1,0,0:0:0:0:
36,192,270481,1,0,0:0:0:30:kick.wav
329,192,270481,1,0,0:0:0:0:
256,192,270530,1,0,0:0:0:0:
182,192,270579,1,0,0:0:0:30:kick.wav
475,192,270579,1,0,0:0:0:0:
402,192,270628,1,0,0:0:0:0:
36,192,270677,1,0,0:0:0:30:kick.wav
329,192,270677,1,0,0:0:0:0:
256,192,270726,1,0,0:0:0:0:
109,192,270775,1,0,0:0:0:30:kick.wav
182,192,270775,1,0,0:0:0:0:
329,192,270824,1,0,0:0:0:0:
402,192,270873,1,0,0:0:0:30:kick.wav
475,192,270873,1,0,0:0:0:0:
256,192,270922,1,0,0:0:0:0:
36,192,270971,1,0,0:0:0:30:kick.wav
109,192,270971,1,0,0:0:0:0:
182,192,271020,1,0,0:0:0:0:
475,192,271069,1,0,0:0:0:30:kick.wav
402,192,271069,1,0,0:0:0:0:
329,192,271118,1,0,0:0:0:0:
36,192,271167,1,0,0:0:0:50:kick.wav
109,192,271167,1,0,0:0:0:50:cymbal_s.wav
182,192,271167,1,0,0:0:0:0:
256,192,271167,1,0,0:0:0:0:
329,192,271265,1,0,0:0:0:0:
329,192,271363,1,0,0:0:0:70:S2.wav
329,192,271461,1,0,0:0:0:70:S2.wav
36,192,271559,1,0,0:0:0:50:kick.wav
109,192,271559,1,0,0:0:0:50:cymbal_s.wav
182,192,271559,1,0,0:0:0:0:
402,192,271559,1,0,0:0:0:0:
475,192,271559,1,0,0:0:0:0:
256,192,271657,1,0,0:0:0:0:
256,192,271755,1,0,0:0:0:70:S7.wav
256,192,271853,1,0,0:0:0:70:S7.wav
36,192,271951,1,0,0:0:0:50:kick.wav
109,192,271951,1,0,0:0:0:50:cymbal_s.wav
329,192,271951,1,0,0:0:0:0:
402,192,271951,1,0,0:0:0:0:
475,192,271951,1,0,0:0:0:0:
182,192,272049,1,0,0:0:0:0:
182,192,272147,1,0,0:0:0:70:S4.wav
182,192,272245,1,0,0:0:0:70:S4.wav
36,192,272343,1,0,0:0:0:50:kick.wav
256,192,272343,1,0,0:0:0:50:cymbal_s.wav
475,192,272343,1,0,0:0:0:0:
36,192,272736,1,0,0:0:0:50:kick.wav
109,192,272736,128,0,273030:0:0:0:70:cymbal.wav
182,192,272736,128,0,273030:0:0:0:70:push_scratch.wav
402,192,272736,1,0,0:0:0:0:
475,192,272736,1,0,0:0:0:0:
329,192,272834,1,0,0:0:0:0:
256,192,272932,1,0,0:0:0:0:
475,192,272932,1,0,0:0:0:0:
329,192,273030,1,0,0:0:0:0:
402,192,273079,1,0,0:0:0:0:
36,192,273128,1,0,0:0:0:50:kick.wav
182,192,273128,128,0,273324:0:0:0:70:CLAP_.wav
256,192,273128,128,0,273324:0:0:0:0:
475,192,273128,1,0,0:0:0:0:
329,192,273226,1,0,0:0:0:0:
36,192,273324,1,0,0:0:0:0:
402,192,273324,1,0,0:0:0:0:
475,192,273324,1,0,0:0:0:0:
109,192,273422,1,0,0:0:0:0:
329,192,273422,1,0,0:0:0:0:
182,192,273520,1,0,0:0:0:50:kick.wav
402,192,273520,128,0,273716:0:0:0:0:
475,192,273520,128,0,273716:0:0:0:0:
256,192,273618,1,0,0:0:0:0:
36,192,273716,1,0,0:0:0:0:
109,192,273716,1,0,0:0:0:0:
182,192,273814,1,0,0:0:0:0:
329,192,273814,1,0,0:0:0:0:
402,192,273814,1,0,0:0:0:0:
36,192,273912,1,0,0:0:0:50:kick.wav
256,192,273912,1,0,0:0:0:70:CLAP_.wav
329,192,273912,128,0,274206:0:0:0:0:
402,192,273912,128,0,274206:0:0:0:0:
182,192,274010,1,0,0:0:0:0:
36,192,274108,1,0,0:0:0:0:
109,192,274108,1,0,0:0:0:0:
256,192,274206,1,0,0:0:0:0:
475,192,274206,1,0,0:0:0:0:
36,192,274304,128,0,274598:0:0:0:50:kick.wav
109,192,274304,128,0,274598:0:0:0:0:
329,192,274304,1,0,0:0:0:0:
256,192,274402,1,0,0:0:0:0:
182,192,274500,1,0,0:0:0:0:
402,192,274500,1,0,0:0:0:0:
329,192,274598,1,0,0:0:0:0:
256,192,274647,1,0,0:0:0:0:
36,192,274696,1,0,0:0:0:50:kick.wav
109,192,274696,128,0,274893:0:0:0:70:CLAP_.wav
182,192,274696,128,0,274893:0:0:0:0:
475,192,274696,1,0,0:0:0:0:
402,192,274794,1,0,0:0:0:0:
36,192,274893,1,0,0:0:0:0:
256,192,274893,1,0,0:0:0:0:
475,192,274893,1,0,0:0:0:0:
109,192,274991,1,0,0:0:0:0:
329,192,274991,1,0,0:0:0:0:
182,192,275089,1,0,0:0:0:50:kick.wav
402,192,275089,1,0,0:0:0:70:LR_Chm loong.wav
475,192,275089,1,0,0:0:0:0:
36,192,275187,1,0,0:0:0:0:
109,192,275187,1,0,0:0:0:0:
256,192,275285,1,0,0:0:0:0:
329,192,275285,1,0,0:0:0:0:
475,192,275285,1,0,0:0:0:0:
109,192,275383,1,0,0:0:0:0:
182,192,275383,1,0,0:0:0:0:
36,192,275481,1,0,0:0:0:50:kick.wav
329,192,275481,1,0,0:0:0:70:CLAP_.wav
402,192,275481,1,0,0:0:0:0:
475,192,275481,1,0,0:0:0:0:
256,192,275530,1,0,0:0:0:0:
182,192,275579,1,0,0:0:0:0:
329,192,275677,128,0,275775:0:0:0:50:kick.wav
402,192,275677,128,0,275775:0:0:0:0:
256,192,275775,1,0,0:0:0:0:
36,192,275873,1,0,0:0:0:50:kick.wav
109,192,275873,1,0,0:0:0:0:
329,192,275873,128,0,276167:0:0:0:0:
402,192,275873,128,0,276167:0:0:0:0:
475,192,275873,1,0,0:0:0:0:
182,192,275971,1,0,0:0:0:0:
36,192,276069,1,0,0:0:0:0:
256,192,276069,1,0,0:0:0:0:
109,192,276167,1,0,0:0:0:0:
182,192,276216,1,0,0:0:0:0:
36,192,276265,1,0,0:0:0:50:kick.wav
256,192,276265,128,0,276461:0:0:0:70:CLAP_.wav
329,192,276265,128,0,276461:0:0:0:0:
475,192,276265,1,0,0:0:0:0:
36,192,276461,1,0,0:0:0:0:
109,192,276461,1,0,0:0:0:0:
402,192,276461,1,0,0:0:0:0:
256,192,276559,1,0,0:0:0:0:
475,192,276559,1,0,0:0:0:0:
109,192,276657,128,0,276853:0:0:0:50:kick.wav
182,192,276657,128,0,276853:0:0:0:0:
402,192,276657,1,0,0:0:0:0:
329,192,276755,1,0,0:0:0:0:
256,192,276853,1,0,0:0:0:0:
475,192,276853,1,0,0:0:0:0:
36,192,276951,1,0,0:0:0:0:
109,192,276951,1,0,0:0:0:0:
329,192,276951,1,0,0:0:0:0:
36,192,277049,128,0,277343:0:0:0:50:kick.wav
109,192,277049,128,0,277343:0:0:0:70:CLAP_.wav
182,192,277049,1,0,0:0:0:0:
402,192,277049,1,0,0:0:0:0:
256,192,277147,1,0,0:0:0:0:
329,192,277245,1,0,0:0:0:0:
475,192,277245,1,0,0:0:0:0:
182,192,277343,1,0,0:0:0:0:
402,192,277343,1,0,0:0:0:0:
36,192,277442,1,0,0:0:0:50:kick.wav
109,192,277442,1,0,0:0:0:50:cymbal_s.wav
256,192,277442,1,0,0:0:0:0:
329,192,277442,1,0,0:0:0:0:
475,192,277442,1,0,0:0:0:0:
36,192,277736,1,0,0:0:0:50:kick.wav
182,192,277736,1,0,0:0:0:50:cymbal_s.wav
256,192,277736,1,0,0:0:0:0:
402,192,277736,1,0,0:0:0:0:
475,192,277736,1,0,0:0:0:0:
36,192,278030,1,0,0:0:0:50:kick.wav
109,192,278030,1,0,0:0:0:50:cymbal_s.wav
256,192,278030,1,0,0:0:0:0:
402,192,278030,1,0,0:0:0:0:
475,192,278030,1,0,0:0:0:0:
182,192,278226,1,0,0:0:0:50:kick.wav
329,192,278226,1,0,0:0:0:70:LR_Chm loong.wav
475,192,278226,1,0,0:0:0:0:
36,192,278291,1,0,0:0:0:0:
182,192,278357,1,0,0:0:0:0:
36,192,278422,1,0,0:0:0:50:snare06.wav
329,192,278422,1,0,0:0:0:0:
402,192,278422,1,0,0:0:0:0:
475,192,278422,1,0,0:0:0:0:
109,192,278471,1,0,0:0:0:50:snare06.wav
182,192,278520,1,0,0:0:0:50:snare06.wav
256,192,278569,1,0,0:0:0:0:
36,192,278618,1,0,0:0:0:50:snare06.wav
475,192,278618,1,0,0:0:0:0:
402,192,278651,1,0,0:0:0:0:
329,192,278683,1,0,0:0:0:0:
256,192,278716,1,0,0:0:0:0:
182,192,278749,1,0,0:0:0:0:
109,192,278781,1,0,0:0:0:0:
36,192,278814,1,0,0:0:0:50:snare06.wav
475,192,278814,1,0,0:0:0:0:
402,192,278847,1,0,0:0:0:0:
329,192,278879,1,0,0:0:0:0:
256,192,278912,1,0,0:0:0:0:
182,192,278945,1,0,0:0:0:0:
109,192,278977,1,0,0:0:0:0:
36,192,279010,1,0,0:0:0:50:kick.wav
329,192,279010,128,0,279206:0:0:0:0:
402,192,279010,128,0,279255:0:0:0:0:
475,192,279010,128,0,279304:0:0:0:0:
182,192,279206,1,0,0:0:0:50:snare06.wav
256,192,279255,1,0,0:0:0:50:snare06.wav
329,192,279304,1,0,0:0:0:50:snare06.wav
402,192,279353,1,0,0:0:0:50:snare06.wav
36,192,279402,1,0,0:0:0:50:kick.wav
109,192,279402,1,0,0:0:0:70:cymbal.wav
182,192,279402,1,0,0:0:0:70:CLAP_.wav
475,192,279402,1,0,0:0:0:70:LR_Drum Rpd x2.wav
109,192,279500,1,0,0:0:0:70:LR_Drum Rpd x2.wav
182,192,279500,1,0,0:0:0:0:
329,192,279598,1,0,0:0:0:70:LR_Drum Rpd x2.wav
402,192,279598,1,0,0:0:0:0:
475,192,279598,1,0,0:0:0:0:
329,192,279696,1,0,0:0:0:70:LR_Drum Rpd x2.wav
402,192,279696,1,0,0:0:0:0:
36,192,279794,1,0,0:0:0:50:kick.wav
182,192,279794,1,0,0:0:0:70:LR_Drum Rpd x2.wav
475,192,279794,1,0,0:0:0:0:
256,192,279893,1,0,0:0:0:70:LR_Drum Rpd x2.wav
402,192,279893,1,0,0:0:0:0:
36,192,279991,1,0,0:0:0:70:LR_Drum Rpd x2.wav
109,192,279991,1,0,0:0:0:0:
329,192,279991,1,0,0:0:0:0:
256,192,280089,1,0,0:0:0:70:LR_Drum Rpd x2.wav
475,192,280089,1,0,0:0:0:0:
36,192,280187,1,0,0:0:0:50:kick.wav
182,192,280187,1,0,0:0:0:70:CLAP_.wav
402,192,280187,1,0,0:0:0:70:LR_Drum Rpd x2.wav
36,192,280285,1,0,0:0:0:70:LR_Drum Rpd x2.wav
182,192,280285,1,0,0:0:0:0:
109,192,280383,1,0,0:0:0:50:kick.wav
329,192,280383,1,0,0:0:0:70:LR_Drum Rpd x2.wav
475,192,280383,1,0,0:0:0:0:
256,192,280481,1,0,0:0:0:70:LR_Drum Rpd x2.wav
402,192,280481,1,0,0:0:0:0:
36,192,280579,1,0,0:0:0:50:kick.wav
182,192,280579,1,0,0:0:0:70:cymbal.wav
329,192,280579,1,0,0:0:0:70:LR_Drum Rpd x2.wav
36,192,280677,1,0,0:0:0:50:kick.wav
182,192,280677,1,0,0:0:0:70:LR_Drum Rpd x2.wav
329,192,280677,1,0,0:0:0:0:
402,192,280775,1,0,0:0:0:70:LR_Drum Rpd x2.wav
475,192,280775,1,0,0:0:0:0:
36,192,280873,1,0,0:0:0:50:kick.wav
109,192,280873,1,0,0:0:0:70:LR_Drum Rpd x2.wav
256,192,280873,1,0,0:0:0:0:
36,192,280971,1,0,0:0:0:50:kick.wav
109,192,280971,1,0,0:0:0:70:CLAP_.wav
256,192,280971,1,0,0:0:0:70:LR_Drum Rpd x2.wav
329,192,281069,1,0,0:0:0:70:LR_Drum Rpd x2.wav
475,192,281069,1,0,0:0:0:0:
36,192,281167,1,0,0:0:0:70:LR_Drum Rpd x2.wav
182,192,281167,1,0,0:0:0:0:
256,192,281265,1,0,0:0:0:70:LR_Drum Rpd x2.wav
475,192,281314,1,0,0:0:0:0:
36,192,281363,1,0,0:0:0:50:kick.wav
109,192,281363,1,0,0:0:0:70:LR_Drum Rpd x2.wav
329,192,281363,1,0,0:0:0:70:LR_Chm loong.wav
182,192,281428,1,0,0:0:0:0:
402,192,281461,1,0,0:0:0:70:LR_Drum Rpd x2.wav
475,192,281461,1,0,0:0:0:0:
256,192,281494,1,0,0:0:0:0:
109,192,281559,1,0,0:0:0:70:LR_Drum Rpd x2.wav
329,192,281559,1,0,0:0:0:0:
182,192,281657,1,0,0:0:0:70:LR_Drum Rpd x2.wav
402,192,281657,1,0,0:0:0:0:
36,192,281755,1,0,0:0:0:50:kick.wav
256,192,281755,1,0,0:0:0:70:CLAP_.wav
475,192,281755,1,0,0:0:0:70:LR_Drum Rpd x2.wav
109,192,281853,1,0,0:0:0:70:LR_Drum Rpd x2.wav
329,192,281853,1,0,0:0:0:0:
36,192,281951,1,0,0:0:0:50:kick.wav
182,192,281951,1,0,0:0:0:70:LR_Drum Rpd x2.wav
402,192,281951,1,0,0:0:0:0:
256,192,282049,1,0,0:0:0:70:LR_Drum Rpd x2.wav
475,192,282049,1,0,0:0:0:0:
36,192,282147,1,0,0:0:0:50:kick.wav
109,192,282147,1,0,0:0:0:70:cymbal.wav
329,192,282196,1,0,0:0:0:0:
36,192,282245,1,0,0:0:0:50:kick.wav
109,192,282245,1,0,0:0:0:0:
402,192,282294,1,0,0:0:0:0:
182,192,282343,1,0,0:0:0:50:kick.wav
256,192,282343,1,0,0:0:0:0:
475,192,282393,1,0,0:0:0:0:
182,192,282442,1,0,0:0:0:50:kick.wav
256,192,282442,1,0,0:0:0:0:
402,192,282491,1,0,0:0:0:0:
36,192,282540,1,0,0:0:0:50:kick.wav
109,192,282540,1,0,0:0:0:0:
329,192,282589,1,0,0:0:0:0:
36,192,282638,1,0,0:0:0:50:kick.wav
109,192,282638,1,0,0:0:0:0:
475,192,282687,1,0,0:0:0:0:
182,192,282736,1,0,0:0:0:50:kick.wav
402,192,282736,1,0,0:0:0:0:
256,192,282785,1,0,0:0:0:0:
109,192,282834,1,0,0:0:0:50:kick.wav
329,192,282834,1,0,0:0:0:0:
36,192,282883,1,0,0:0:0:0:
402,192,282932,1,0,0:0:0:50:kick.wav
475,192,282932,1,0,0:0:0:70:cymbal.wav
182,192,282981,1,0,0:0:0:0:
402,192,283030,1,0,0:0:0:50:kick.wav
475,192,283030,1,0,0:0:0:0:
109,192,283079,1,0,0:0:0:0:
256,192,283128,1,0,0:0:0:50:kick.wav
329,192,283128,1,0,0:0:0:0:
36,192,283177,1,0,0:0:0:0:
256,192,283226,1,0,0:0:0:50:kick.wav
329,192,283226,1,0,0:0:0:0:
109,192,283275,1,0,0:0:0:0:
402,192,283324,1,0,0:0:0:50:kick.wav
475,192,283324,1,0,0:0:0:0:
182,192,283373,1,0,0:0:0:0:
402,192,283422,1,0,0:0:0:50:kick.wav
475,192,283422,1,0,0:0:0:0:
36,192,283471,1,0,0:0:0:0:
109,192,283520,1,0,0:0:0:50:kick.wav
329,192,283520,1,0,0:0:0:0:
256,192,283569,1,0,0:0:0:0:
182,192,283618,1,0,0:0:0:50:kick.wav
402,192,283618,1,0,0:0:0:0:
475,192,283667,1,0,0:0:0:0:
36,192,283716,1,0,0:0:0:35:kick.wav
109,192,283716,1,0,0:0:0:70:cymbal.wav
182,192,283765,1,0,0:0:0:35:kick.wav
256,192,283765,1,0,0:0:0:0:
329,192,283814,1,0,0:0:0:35:kick.wav
402,192,283814,1,0,0:0:0:0:
36,192,283863,1,0,0:0:0:35:kick.wav
475,192,283863,1,0,0:0:0:0:
109,192,283912,1,0,0:0:0:35:kick.wav
182,192,283912,1,0,0:0:0:0:
256,192,283961,1,0,0:0:0:35:kick.wav
329,192,283961,1,0,0:0:0:0:
402,192,284010,1,0,0:0:0:35:kick.wav
475,192,284010,1,0,0:0:0:0:
36,192,284059,1,0,0:0:0:35:kick.wav
109,192,284059,1,0,0:0:0:0:
182,192,284108,1,0,0:0:0:35:kick.wav
256,192,284108,1,0,0:0:0:70:cymbal.wav
329,192,284157,1,0,0:0:0:35:kick.wav
402,192,284157,1,0,0:0:0:0:
36,192,284206,1,0,0:0:0:35:kick.wav
475,192,284206,1,0,0:0:0:0:
109,192,284255,1,0,0:0:0:35:kick.wav
182,192,284255,1,0,0:0:0:0:
256,192,284304,1,0,0:0:0:35:kick.wav
329,192,284304,1,0,0:0:0:0:
402,192,284353,1,0,0:0:0:35:kick.wav
475,192,284353,1,0,0:0:0:0:
36,192,284402,1,0,0:0:0:35:kick.wav
109,192,284402,1,0,0:0:0:0:
182,192,284451,1,0,0:0:0:35:kick.wav
256,192,284451,1,0,0:0:0:0:
329,192,284500,1,0,0:0:0:35:kick.wav
402,192,284500,1,0,0:0:0:100:electronic13_short.wav
475,192,284500,1,0,0:0:0:0:
109,192,284696,1,0,0:0:0:0:
402,192,284696,1,0,0:0:0:0:
36,192,284794,1,0,0:0:0:100:electronic13_short.wav
182,192,284794,1,0,0:0:0:0:
329,192,284794,1,0,0:0:0:0:
475,192,284794,1,0,0:0:0:0:
36,192,284991,1,0,0:0:0:100:electronic13_short.wav
182,192,284991,1,0,0:0:0:0:
329,192,284991,1,0,0:0:0:0:
475,192,284991,1,0,0:0:0:0:
36,192,285089,1,0,0:0:0:100:electronic13_short.wav
182,192,285089,1,0,0:0:0:0:
329,192,285089,1,0,0:0:0:0:
475,192,285089,1,0,0:0:0:0:
109,192,285187,1,0,0:0:0:50:kick.wav
402,192,285236,1,0,0:0:0:0:
36,192,285285,128,0,285701:0:0:0:50:kick.wav
182,192,285285,128,0,285677:0:0:0:70:push_scratch.wav
256,192,285285,128,0,286069:0:0:0:0:
329,192,285285,128,0,285677:0:0:0:0:
475,192,285285,128,0,285701:0:0:0:0:
36,192,286069,1,0,0:0:0:100:electronic13_short.wav
109,192,286069,1,0,0:0:0:0:
182,192,286069,1,0,0:0:0:0:
329,192,286069,1,0,0:0:0:0:
402,192,286069,1,0,0:0:0:0:
475,192,286069,1,0,0:0:0:0:
182,192,286265,1,0,0:0:0:0:
329,192,286265,1,0,0:0:0:0:
36,192,286461,1,0,0:0:0:50:kick.wav
109,192,286461,128,0,286804:0:0:0:70:cymbal.wav
256,192,286461,128,0,286804:0:0:0:100:Percussion Hey sound.wav
402,192,286461,128,0,286804:0:0:0:0:
475,192,286461,1,0,0:0:0:0:
109,192,286853,128,0,287000:0:0:0:0:
256,192,286878,128,0,287000:0:0:0:0:
402,192,286902,128,0,287000:0:0:0:0:
109,192,287049,128,0,287196:0:0:0:0:
256,192,287074,128,0,287196:0:0:0:0:
402,192,287098,128,0,287196:0:0:0:0:
36,192,287245,1,0,0:0:0:50:kick.wav
109,192,287245,128,0,287393:0:0:0:100:Percussion Hey sound.wav
475,192,287245,1,0,0:0:0:0:
256,192,287270,128,0,287393:0:0:0:0:
402,192,287294,128,0,287393:0:0:0:0:
109,192,287442,128,0,287589:0:0:0:0:
256,192,287466,128,0,287589:0:0:0:0:
402,192,287491,128,0,287589:0:0:0:0:
36,192,287638,1,0,0:0:0:100:electronic13_short.wav
109,192,287638,128,0,287785:0:0:0:0:
182,192,287638,1,0,0:0:0:0:
329,192,287638,1,0,0:0:0:0:
475,192,287638,1,0,0:0:0:0:
256,192,287662,128,0,287785:0:0:0:0:
402,192,287687,128,0,287785:0:0:0:0:
109,192,287834,128,0,287981:0:0:0:50:kick.wav
256,192,287858,128,0,287981:0:0:0:0:
402,192,287883,128,0,287981:0:0:0:0:
36,192,288030,1,0,0:0:0:100:Percussion Hey sound.wav
109,192,288030,128,0,288324:0:0:0:0:
256,192,288030,1,0,0:0:0:0:
402,192,288030,128,0,288324:0:0:0:0:
475,192,288030,1,0,0:0:0:0:
182,192,288128,128,0,288324:0:0:0:50:kick.wav
329,192,288128,128,0,288324:0:0:0:50:cymbal_s.wav
256,192,288324,1,0,0:0:0:0:
36,192,288422,1,0,0:0:0:50:kick.wav
182,192,288422,1,0,0:0:0:50:cymbal_s.wav
329,192,288422,1,0,0:0:0:0:
475,192,288422,1,0,0:0:0:0:
109,192,288618,1,0,0:0:0:50:kick.wav
329,192,288618,1,0,0:0:0:100:Percussion Hey sound.wav
402,192,288618,1,0,0:0:0:0:
182,192,288716,1,0,0:0:0:0:
36,192,288814,1,0,0:0:0:0:
256,192,288814,1,0,0:0:0:0:
475,192,288814,1,0,0:0:0:0:
329,192,288863,1,0,0:0:0:0:
182,192,288912,1,0,0:0:0:0:
402,192,288961,1,0,0:0:0:0:
109,192,289010,1,0,0:0:0:100:Percussion Hey sound.wav
402,192,289059,1,0,0:0:0:0:
182,192,289108,1,0,0:0:0:0:
329,192,289157,1,0,0:0:0:0:
36,192,289206,1,0,0:0:0:100:electronic13_short.wav
109,192,289206,1,0,0:0:0:0:
256,192,289206,1,0,0:0:0:0:
402,192,289206,1,0,0:0:0:0:
475,192,289206,1,0,0:0:0:0:
36,192,289598,1,0,0:0:0:50:kick.wav
182,192,289598,128,0,289893:0:0:0:70:cymbal.wav
256,192,289598,128,0,289893:0:0:0:100:Percussion Hey sound.wav
329,192,289598,128,0,289893:0:0:0:0:
475,192,289598,1,0,0:0:0:0:
36,192,289991,1,0,0:0:0:50:kick.wav
109,192,289991,1,0,0:0:0:50:cymbal_s.wav
256,192,289991,1,0,0:0:0:0:
402,192,289991,1,0,0:0:0:0:
475,192,289991,1,0,0:0:0:0:
36,192,290285,1,0,0:0:0:50:kick.wav
109,192,290285,1,0,0:0:0:50:cymbal_s.wav
182,192,290285,1,0,0:0:0:0:
256,192,290285,1,0,0:0:0:0:
329,192,290285,1,0,0:0:0:0:
182,192,290579,1,0,0:0:0:50:kick.wav
256,192,290579,1,0,0:0:0:50:cymbal_s.wav
329,192,290579,1,0,0:0:0:0:
402,192,290579,1,0,0:0:0:0:
475,192,290579,1,0,0:0:0:0:
36,192,290775,128,0,290971:0:0:0:50:kick.wav
109,192,290775,128,0,290971:0:0:0:50:cymbal_s.wav
182,192,290775,128,0,290971:0:0:0:0:
329,192,290775,128,0,290971:0:0:0:0:
402,192,290775,128,0,290971:0:0:0:0:
475,192,290775,128,0,290971:0:0:0:0:
36,192,291069,128,0,291265:0:0:0:50:kick.wav
109,192,291069,128,0,291265:0:0:0:50:cymbal_s.wav
182,192,291069,128,0,291265:0:0:0:0:
329,192,291069,128,0,291265:0:0:0:0:
402,192,291069,128,0,291265:0:0:0:0:
475,192,291069,128,0,291265:0:0:0:0:
256,192,291363,128,0,291412:0:0:0:0:
36,192,291559,1,0,0:0:0:50:kick.wav
109,192,291559,128,0,291853:0:0:0:70:cymbal.wav
182,192,291559,128,0,291853:0:0:0:70:push_scratch.wav
329,192,291559,128,0,291755:0:0:0:0:
402,192,291559,128,0,291755:0:0:0:0:
475,192,291559,1,0,0:0:0:0:
329,192,291853,1,0,0:0:0:0:
402,192,291853,1,0,0:0:0:0:
36,192,291951,1,0,0:0:0:50:kick.wav
109,192,291951,1,0,0:0:0:70:CLAP_.wav
256,192,291951,1,0,0:0:0:0:
475,192,291951,1,0,0:0:0:0:
182,192,292049,1,0,0:0:0:0:
329,192,292049,1,0,0:0:0:0:
402,192,292049,1,0,0:0:0:0:
109,192,292147,1,0,0:0:0:0:
329,192,292147,128,0,292245:0:0:0:0:
402,192,292147,128,0,292245:0:0:0:0:
36,192,292245,1,0,0:0:0:0:
256,192,292245,1,0,0:0:0:0:
182,192,292343,1,0,0:0:0:50:kick.wav
402,192,292343,1,0,0:0:0:0:
475,192,292343,1,0,0:0:0:0:
109,192,292442,1,0,0:0:0:0:
329,192,292442,1,0,0:0:0:0:
109,192,292540,1,0,0:0:0:0:
329,192,292540,1,0,0:0:0:0:
475,192,292540,1,0,0:0:0:0:
36,192,292638,1,0,0:0:0:0:
256,192,292638,1,0,0:0:0:0:
109,192,292736,128,0,292932:0:0:0:50:kick.wav
182,192,292736,128,0,292932:0:0:0:70:CLAP_.wav
329,192,292736,128,0,292932:0:0:0:0:
402,192,292736,128,0,292932:0:0:0:0:
36,192,292932,1,0,0:0:0:50:kick.wav
256,192,292932,1,0,0:0:0:70:cymbal.wav
475,192,292932,1,0,0:0:0:0:
109,192,293030,1,0,0:0:0:0:
402,192,293030,1,0,0:0:0:0:
182,192,293128,128,0,293324:0:0:0:0:
329,192,293128,128,0,293324:0:0:0:0:
36,192,293324,1,0,0:0:0:50:kick.wav
109,192,293324,1,0,0:0:0:0:
256,192,293324,1,0,0:0:0:0:
256,192,293422,1,0,0:0:0:50:kick.wav
402,192,293422,1,0,0:0:0:0:
475,192,293422,1,0,0:0:0:0:
36,192,293520,1,0,0:0:0:50:kick.wav
109,192,293520,1,0,0:0:0:70:cymbal.wav
182,192,293520,1,0,0:0:0:70:CLAP_.wav
329,192,293520,1,0,0:0:0:0:
402,192,293618,1,0,0:0:0:0:
256,192,293716,1,0,0:0:0:0:
475,192,293716,1,0,0:0:0:0:
109,192,293912,128,0,294108:0:0:0:50:kick.wav
256,192,293912,128,0,294108:0:0:0:50:cymbal_s.wav
402,192,293912,128,0,294108:0:0:0:0:
36,192,294108,1,0,0:0:0:0:
475,192,294108,1,0,0:0:0:0:
109,192,294206,1,0,0:0:0:50:kick.wav
256,192,294206,1,0,0:0:0:0:
402,192,294206,1,0,0:0:0:0:
182,192,294304,1,0,0:0:0:50:kick.wav
329,192,294304,1,0,0:0:0:50:cymbal_s.wav
109,192,294500,1,0,0:0:0:50:kick.wav
256,192,294500,1,0,0:0:0:50:cymbal_s.wav
402,192,294500,1,0,0:0:0:0:
36,192,294598,1,0,0:0:0:50:kick.wav
475,192,294598,1,0,0:0:0:0:
256,192,294647,1,0,0:0:0:50:kick.wav
109,192,294696,128,0,294794:0:0:0:50:kick.wav
182,192,294696,128,0,294794:0:0:0:50:cymbal_s.wav
329,192,294696,128,0,294893:0:0:0:0:
402,192,294696,128,0,294893:0:0:0:0:
109,192,294893,1,0,0:0:0:0:
182,192,294893,1,0,0:0:0:0:
109,192,294991,128,0,295187:0:0:0:50:kick.wav
182,192,294991,128,0,295187:0:0:0:50:cymbal_s.wav
329,192,294991,128,0,295089:0:0:0:0:
402,192,294991,128,0,295089:0:0:0:0:
329,192,295187,1,0,0:0:0:0:
402,192,295187,1,0,0:0:0:0:
36,192,295285,1,0,0:0:0:50:kick.wav
109,192,295285,1,0,0:0:0:50:cymbal_s.wav
256,192,295285,1,0,0:0:0:0:
475,192,295285,1,0,0:0:0:0:
182,192,295383,1,0,0:0:0:50:kick.wav
402,192,295383,1,0,0:0:0:0:
109,192,295432,1,0,0:0:0:50:kick.wav
329,192,295432,1,0,0:0:0:0:
36,192,295481,1,0,0:0:0:50:kick.wav
256,192,295481,1,0,0:0:0:50:cymbal_s.wav
475,192,295481,1,0,0:0:0:0:
182,192,295677,1,0,0:0:0:0:
329,192,295677,1,0,0:0:0:0:
36,192,295775,1,0,0:0:0:50:kick.wav
182,192,295775,1,0,0:0:0:50:cymbal_s.wav
329,192,295775,1,0,0:0:0:0:
475,192,295775,1,0,0:0:0:0:
182,192,295971,1,0,0:0:0:0:
329,192,295971,1,0,0:0:0:0:
36,192,296069,1,0,0:0:0:50:kick.wav
182,192,296069,1,0,0:0:0:50:cymbal_s.wav
329,192,296069,1,0,0:0:0:0:
475,192,296069,1,0,0:0:0:0:
36,192,296265,1,0,0:0:0:50:kick.wav
109,192,296265,1,0,0:0:0:50:cymbal_s.wav
256,192,296265,1,0,0:0:0:0:
329,192,296265,1,0,0:0:0:0:
182,192,296396,1,0,0:0:0:50:kick.wav
329,192,296396,1,0,0:0:0:50:cymbal_s.wav
402,192,296396,1,0,0:0:0:0:
36,192,296461,1,0,0:0:0:0:
256,192,296526,1,0,0:0:0:50:kick.wav
402,192,296526,1,0,0:0:0:50:cymbal_s.wav
475,192,296526,1,0,0:0:0:0:
36,192,296657,128,0,296723:0:0:0:50:kick.wav
109,192,296657,128,0,296723:0:0:0:50:cymbal_s.wav
182,192,296657,1,0,0:0:0:0:
329,192,296657,1,0,0:0:0:0:
36,192,296788,128,0,296853:0:0:0:50:kick.wav
109,192,296788,128,0,296853:0:0:0:50:cymbal_s.wav
256,192,296788,1,0,0:0:0:0:
402,192,296788,1,0,0:0:0:0:
36,192,296919,128,0,296984:0:0:0:50:kick.wav
109,192,296919,128,0,296984:0:0:0:50:cymbal_s.wav
329,192,296919,1,0,0:0:0:0:
475,192,296919,1,0,0:0:0:0:
36,192,297049,128,0,297343:0:0:0:0:
109,192,297049,128,0,297343:0:0:0:0:
182,192,297049,1,0,0:0:0:0:
402,192,297147,128,0,297343:0:0:0:0:
475,192,297147,128,0,297343:0:0:0:0:
256,192,297245,128,0,297343:0:0:0:70:LR_Drum Kick Low.wav
36,192,297442,128,0,297736:0:0:0:70:LR_Drum Kick Low.wav
109,192,297442,128,0,297736:0:0:0:0:
182,192,297442,1,0,0:0:0:0:
329,192,297442,1,0,0:0:0:0:
402,192,297540,128,0,297736:0:0:0:70:LR_Drum Kick Low.wav
475,192,297540,128,0,297736:0:0:0:0:
256,192,297638,128,0,297736:0:0:0:70:LR_Drum Kick Low.wav
182,192,297834,128,0,297932:0:0:0:0:
329,192,297834,128,0,297932:0:0:0:0:
36,192,297932,1,0,0:0:0:0:
182,192,298030,128,0,298128:0:0:0:0:
329,192,298030,128,0,298128:0:0:0:0:
36,192,298128,1,0,0:0:0:0:
109,192,298226,1,0,0:0:0:50:kick.wav
256,192,298226,1,0,0:0:0:70:cymbal.wav
329,192,298226,1,0,0:0:0:100:Percussion Hey sound.wav
402,192,298226,1,0,0:0:0:70:push_scratch.wav
475,192,298226,1,0,0:0:0:0:
182,192,298422,1,0,0:0:0:0:
256,192,298471,1,0,0:0:0:0:
329,192,298520,1,0,0:0:0:0:
402,192,298569,1,0,0:0:0:0:
36,192,298618,1,0,0:0:0:100:electronic13_short.wav
109,192,298618,1,0,0:0:0:0:
475,192,298618,1,0,0:0:0:0:
256,192,298716,1,0,0:0:0:0:
329,192,298716,1,0,0:0:0:0:
109,192,298814,1,0,0:0:0:0:
182,192,298814,1,0,0:0:0:0:
329,192,298912,1,0,0:0:0:0:
475,192,298912,1,0,0:0:0:0:
36,192,299010,1,0,0:0:0:50:kick.wav
182,192,299010,1,0,0:0:0:70:cymbal.wav
256,192,299010,1,0,0:0:0:100:Percussion Hey sound.wav
402,192,299010,1,0,0:0:0:0:
475,192,299010,1,0,0:0:0:0:
109,192,299108,1,0,0:0:0:0:
329,192,299108,1,0,0:0:0:0:
182,192,299206,1,0,0:0:0:0:
402,192,299206,1,0,0:0:0:0:
475,192,299206,1,0,0:0:0:0:
36,192,299304,1,0,0:0:0:0:
256,192,299304,1,0,0:0:0:0:
109,192,299402,1,0,0:0:0:0:
329,192,299402,128,0,299500:0:0:0:0:
402,192,299427,128,0,299500:0:0:0:0:
475,192,299451,128,0,299500:0:0:0:0:
109,192,299598,1,0,0:0:0:0:
329,192,299598,128,0,299696:0:0:0:0:
402,192,299623,128,0,299696:0:0:0:0:
475,192,299647,128,0,299696:0:0:0:0:
182,192,299696,128,0,299991:0:0:0:0:
36,192,299794,128,0,299991:0:0:0:50:kick.wav
329,192,299794,128,0,299991:0:0:0:100:Percussion Hey sound.wav
402,192,299819,128,0,299991:0:0:0:0:
475,192,299843,128,0,299991:0:0:0:0:
256,192,299991,1,0,0:0:0:0:
109,192,300040,1,0,0:0:0:0:
329,192,300089,1,0,0:0:0:0:
182,192,300138,1,0,0:0:0:0:
36,192,300187,1,0,0:0:0:100:electronic13_short.wav
402,192,300187,1,0,0:0:0:0:
475,192,300187,1,0,0:0:0:0:
109,192,300285,1,0,0:0:0:0:
256,192,300285,1,0,0:0:0:0:
182,192,300383,1,0,0:0:0:50:kick.wav
329,192,300383,1,0,0:0:0:0:
402,192,300383,1,0,0:0:0:0:
475,192,300383,1,0,0:0:0:0:
36,192,300579,1,0,0:0:0:100:electronic13_short.wav
109,192,300579,1,0,0:0:0:100:Percussion Hey sound.wav
256,192,300579,1,0,0:0:0:0:
182,192,300677,128,0,300873:0:0:0:50:kick.wav
329,192,300677,128,0,300873:0:0:0:50:cymbal_s.wav
402,192,300677,128,0,300873:0:0:0:0:
475,192,300677,128,0,300873:0:0:0:0:
36,192,300873,1,0,0:0:0:100:electronic13_short.wav
109,192,300873,1,0,0:0:0:0:
256,192,300873,1,0,0:0:0:0:
182,192,300971,1,0,0:0:0:50:kick.wav
329,192,300971,1,0,0:0:0:0:
475,192,300971,1,0,0:0:0:0:
109,192,301167,1,0,0:0:0:0:
402,192,301216,1,0,0:0:0:0:
109,192,301265,1,0,0:0:0:0:
402,192,301314,1,0,0:0:0:0:
36,192,301363,1,0,0:0:0:50:kick.wav
182,192,301363,1,0,0:0:0:70:cymbal.wav
256,192,301363,1,0,0:0:0:100:Percussion Hey sound.wav
329,192,301363,1,0,0:0:0:0:
475,192,301363,1,0,0:0:0:0:
109,192,301559,1,0,0:0:0:0:
402,192,301559,1,0,0:0:0:0:
182,192,301657,1,0,0:0:0:0:
402,192,301657,1,0,0:0:0:0:
36,192,301755,1,0,0:0:0:100:electronic13_short.wav
256,192,301755,1,0,0:0:0:0:
475,192,301755,1,0,0:0:0:0:
109,192,301853,1,0,0:0:0:0:
329,192,301853,1,0,0:0:0:0:
182,192,301951,1,0,0:0:0:50:cymbal_s.wav
402,192,301951,1,0,0:0:0:0:
475,192,301951,1,0,0:0:0:0:
36,192,302049,1,0,0:0:0:0:
256,192,302049,1,0,0:0:0:0:
109,192,302147,128,0,302343:0:0:0:50:kick.wav
182,192,302147,128,0,302343:0:0:0:100:Percussion Hey sound.wav
329,192,302147,128,0,302343:0:0:0:0:
402,192,302147,128,0,302343:0:0:0:0:
475,192,302343,1,0,0:0:0:50:kick.wav
36,192,302343,1,0,0:0:0:0:
36,192,302540,128,0,302736:0:0:0:50:kick.wav
109,192,302540,128,0,302736:0:0:0:50:cymbal_s.wav
256,192,302540,128,0,302736:0:0:0:0:
329,192,302540,128,0,302736:0:0:0:0:
475,192,302540,128,0,302736:0:0:0:0:
36,192,302834,128,0,303030:0:0:0:50:kick.wav
182,192,302834,128,0,303030:0:0:0:50:cymbal_s.wav
256,192,302834,128,0,303030:0:0:0:0:
402,192,302834,128,0,303030:0:0:0:0:
475,192,302834,128,0,303030:0:0:0:0:
36,192,303128,1,0,0:0:0:50:kick.wav
109,192,303128,1,0,0:0:0:50:cymbal_s.wav
256,192,303128,1,0,0:0:0:0:
329,192,303128,1,0,0:0:0:0:
475,192,303128,1,0,0:0:0:0:
36,192,303324,128,0,303520:0:0:0:50:kick.wav
182,192,303324,128,0,303520:0:0:0:50:cymbal_s.wav
329,192,303324,128,0,303520:0:0:0:0:
402,192,303324,128,0,303520:0:0:0:0:
475,192,303324,128,0,303520:0:0:0:0:
36,192,303618,128,0,303814:0:0:0:50:kick.wav
109,192,303618,128,0,303814:0:0:0:50:cymbal_s.wav
256,192,303618,128,0,303814:0:0:0:0:
402,192,303618,128,0,303814:0:0:0:0:
475,192,303618,128,0,303814:0:0:0:0:
36,192,303912,1,0,0:0:0:50:kick.wav
182,192,303912,1,0,0:0:0:0:
329,192,303912,1,0,0:0:0:0:
475,192,303912,1,0,0:0:0:0:
402,192,304108,1,0,0:0:0:35:kick.wav
475,192,304108,1,0,0:0:0:70:cymbal.wav
36,192,304157,1,0,0:0:0:35:kick.wav
109,192,304157,1,0,0:0:0:0:
256,192,304206,1,0,0:0:0:35:kick.wav
329,192,304206,1,0,0:0:0:0:
402,192,304255,1,0,0:0:0:35:kick.wav
475,192,304255,1,0,0:0:0:0:
36,192,304304,1,0,0:0:0:35:kick.wav
109,192,304304,1,0,0:0:0:0:
182,192,304353,1,0,0:0:0:35:kick.wav
256,192,304353,1,0,0:0:0:0:
402,192,304402,1,0,0:0:0:35:kick.wav
475,192,304402,1,0,0:0:0:0:
36,192,304451,1,0,0:0:0:35:kick.wav
109,192,304451,1,0,0:0:0:0:
256,192,304500,1,0,0:0:0:35:kick.wav
329,192,304500,1,0,0:0:0:0:
402,192,304549,1,0,0:0:0:35:kick.wav
475,192,304549,1,0,0:0:0:0:
36,192,304598,1,0,0:0:0:35:kick.wav
109,192,304598,1,0,0:0:0:0:
182,192,304647,1,0,0:0:0:35:kick.wav
256,192,304647,1,0,0:0:0:0:
402,192,304696,1,0,0:0:0:35:kick.wav
475,192,304696,1,0,0:0:0:0:
36,192,304745,1,0,0:0:0:35:kick.wav
109,192,304745,1,0,0:0:0:0:
256,192,304794,1,0,0:0:0:35:kick.wav
329,192,304794,1,0,0:0:0:0:
402,192,304843,1,0,0:0:0:35:kick.wav
475,192,304843,1,0,0:0:0:0:
36,192,304893,1,0,0:0:0:35:kick.wav
109,192,304893,1,0,0:0:0:0:
182,192,304942,1,0,0:0:0:35:kick.wav
256,192,304942,1,0,0:0:0:0:
402,192,304991,1,0,0:0:0:35:kick.wav
475,192,304991,1,0,0:0:0:0:
36,192,305040,1,0,0:0:0:35:kick.wav
109,192,305040,1,0,0:0:0:0:
256,192,305089,1,0,0:0:0:35:kick.wav
329,192,305089,1,0,0:0:0:0:
402,192,305138,1,0,0:0:0:35:kick.wav
475,192,305138,1,0,0:0:0:0:
36,192,305187,1,0,0:0:0:35:kick.wav
109,192,305187,1,0,0:0:0:0:
182,192,305236,1,0,0:0:0:35:kick.wav
256,192,305236,1,0,0:0:0:0:
329,192,305285,1,0,0:0:0:70:LR_Drum Kick Low.wav
475,192,305285,1,0,0:0:0:0:
109,192,305383,1,0,0:0:0:70:LR_Drum Kick Low.wav
402,192,305481,1,0,0:0:0:70:LR_Drum Kick Low.wav
109,192,305579,1,0,0:0:0:70:LR_Drum Kick Low.wav
329,192,305677,1,0,0:0:0:35:kick.wav
475,192,305677,1,0,0:0:0:70:cymbal.wav
182,192,305726,1,0,0:0:0:35:kick.wav
256,192,305726,1,0,0:0:0:0:
36,192,305775,1,0,0:0:0:35:kick.wav
109,192,305775,1,0,0:0:0:0:
402,192,305824,1,0,0:0:0:35:kick.wav
475,192,305824,1,0,0:0:0:0:
256,192,305873,1,0,0:0:0:35:kick.wav
329,192,305873,1,0,0:0:0:0:
109,192,305922,1,0,0:0:0:35:kick.wav
182,192,305922,1,0,0:0:0:0:
36,192,305971,1,0,0:0:0:35:kick.wav
475,192,305971,1,0,0:0:0:0:
329,192,306020,1,0,0:0:0:35:kick.wav
402,192,306020,1,0,0:0:0:0:
182,192,306069,1,0,0:0:0:35:kick.wav
256,192,306069,1,0,0:0:0:0:
36,192,306118,1,0,0:0:0:35:kick.wav
109,192,306118,1,0,0:0:0:0:
402,192,306167,1,0,0:0:0:35:kick.wav
475,192,306167,1,0,0:0:0:0:
256,192,306216,1,0,0:0:0:35:kick.wav
329,192,306216,1,0,0:0:0:0:
109,192,306265,1,0,0:0:0:35:kick.wav
182,192,306265,1,0,0:0:0:0:
36,192,306314,1,0,0:0:0:35:kick.wav
475,192,306314,1,0,0:0:0:0:
329,192,306363,1,0,0:0:0:35:kick.wav
402,192,306363,1,0,0:0:0:0:
182,192,306412,1,0,0:0:0:35:kick.wav
256,192,306412,1,0,0:0:0:0:
36,192,306461,128,0,306526:0:0:0:35:kick.wav
109,192,306461,128,0,306526:0:0:0:0:
329,192,306461,128,0,306592:0:0:0:0:
402,192,306461,128,0,306723:0:0:0:0:
475,192,306461,128,0,306853:0:0:0:0:
109,192,306592,128,0,306657:0:0:0:0:
182,192,306592,128,0,306657:0:0:0:0:
182,192,306723,128,0,306788:0:0:0:0:
256,192,306723,128,0,306788:0:0:0:0:
36,192,306853,128,0,307180:0:0:0:0:
256,192,306853,128,0,306919:0:0:0:0:
329,192,306853,128,0,306919:0:0:0:0:
109,192,306984,128,0,307180:0:0:0:0:
329,192,306984,128,0,307049:0:0:0:0:
402,192,306984,128,0,307049:0:0:0:0:
182,192,307115,128,0,307180:0:0:0:0:
402,192,307115,128,0,307180:0:0:0:0:
475,192,307115,128,0,307180:0:0:0:0:
36,192,307245,1,0,0:0:0:35:kick.wav
109,192,307245,1,0,0:0:0:50:cymbal_s.wav
256,192,307245,128,0,307343:0:0:0:0:
329,192,307294,128,0,307393:0:0:0:35:kick.wav
36,192,307343,1,0,0:0:0:35:kick.wav
109,192,307343,1,0,0:0:0:0:
402,192,307343,128,0,307442:0:0:0:0:
475,192,307393,128,0,307442:0:0:0:35:kick.wav
182,192,307442,1,0,0:0:0:35:kick.wav
109,192,307507,1,0,0:0:0:0:
36,192,307572,1,0,0:0:0:0:
256,192,307638,128,0,307736:0:0:0:35:kick.wav
402,192,307638,1,0,0:0:0:50:cymbal_s.wav
475,192,307638,1,0,0:0:0:0:
182,192,307687,128,0,307785:0:0:0:35:kick.wav
109,192,307736,128,0,307834:0:0:0:35:kick.wav
402,192,307736,1,0,0:0:0:0:
475,192,307736,1,0,0:0:0:0:
36,192,307785,128,0,307834:0:0:0:35:kick.wav
329,192,307834,1,0,0:0:0:35:kick.wav
256,192,307899,1,0,0:0:0:0:
182,192,307964,1,0,0:0:0:0:
36,192,308030,1,0,0:0:0:35:kick.wav
109,192,308030,1,0,0:0:0:50:cymbal_s.wav
475,192,308030,128,0,308128:0:0:0:0:
402,192,308079,128,0,308177:0:0:0:35:kick.wav
36,192,308128,1,0,0:0:0:35:kick.wav
109,192,308128,1,0,0:0:0:0:
329,192,308128,128,0,308226:0:0:0:0:
256,192,308177,128,0,308226:0:0:0:35:kick.wav
182,192,308226,1,0,0:0:0:35:kick.wav
475,192,308291,1,0,0:0:0:0:
256,192,308357,1,0,0:0:0:0:
36,192,308422,128,0,308520:0:0:0:35:kick.wav
402,192,308422,1,0,0:0:0:50:cymbal_s.wav
475,192,308422,1,0,0:0:0:0:
109,192,308471,128,0,308569:0:0:0:35:kick.wav
182,192,308520,128,0,308618:0:0:0:35:kick.wav
402,192,308520,1,0,0:0:0:0:
475,192,308520,1,0,0:0:0:0:
256,192,308569,128,0,308618:0:0:0:35:kick.wav
329,192,308618,1,0,0:0:0:35:kick.wav
36,192,308683,1,0,0:0:0:0:
256,192,308749,1,0,0:0:0:0:
36,192,308814,128,0,308912:0:0:0:50:kick.wav
109,192,308814,128,0,308912:0:0:0:70:cymbal.wav
182,192,308814,128,0,308912:0:0:0:0:
402,192,308814,128,0,308912:0:0:0:0:
475,192,308814,128,0,308912:0:0:0:0:
256,192,308879,128,0,309010:0:0:0:0:
329,192,308945,128,0,309010:0:0:0:0:
36,192,309010,128,0,309108:0:0:0:50:kick.wav
109,192,309010,128,0,309108:0:0:0:0:
182,192,309010,128,0,309206:0:0:0:0:
402,192,309010,128,0,309108:0:0:0:0:
475,192,309010,128,0,309108:0:0:0:0:
256,192,309108,128,0,309206:0:0:0:50:kick.wav
36,192,309206,128,0,309304:0:0:0:50:kick.wav
109,192,309206,128,0,309402:0:0:0:0:
329,192,309206,128,0,309304:0:0:0:0:
402,192,309206,128,0,309304:0:0:0:0:
475,192,309206,128,0,309304:0:0:0:0:
182,192,309304,128,0,309402:0:0:0:50:kick.wav
36,192,309402,128,0,309598:0:0:0:50:kick.wav
256,192,309402,128,0,309500:0:0:0:0:
329,192,309402,128,0,309500:0:0:0:0:
402,192,309402,128,0,309500:0:0:0:0:
475,192,309402,128,0,309500:0:0:0:0:
109,192,309500,128,0,309598:0:0:0:50:kick.wav
182,192,309598,128,0,311559:0:0:0:50:kick.wav
256,192,309598,128,0,312343:0:0:0:50:G2H.wav
329,192,309598,128,0,311559:0:0:0:0:
402,192,309598,128,0,311559:0:0:0:0:
475,192,309598,128,0,311559:0:0:0:0:
36,192,309794,128,0,311559:0:0:0:0:
