osu file format v14

[General]
AudioFilename: audio.mp3
AudioLeadIn: 0
PreviewTime: 172585
Countdown: 0
SampleSet: Normal
StackLeniency: 0.7
Mode: 1
LetterboxInBreaks: 0
WidescreenStoryboard: 1

[Editor]
DistanceSpacing: 1
BeatDivisor: 4
GridSize: 32
TimelineZoom: 2.3

[Metadata]
Title:Love yiff!
TitleUnicode:Love yiff!
Artist:Camellia
ArtistUnicode:かめりあ
Creator:Jaltzu
Version:Furries!
Source:osu!
Tags:electronic hardcore techno bass english instrumental rhythm video game breaks cametek invaidas from da jungle featured artist fa coryn かめるかめりあ kamelcamellia masaya oya comiket c92 92 CTCD-016 mappers' guild mg
BeatmapID:2345487
BeatmapSetID:1122409

[Difficulty]
HPDrainRate:6
CircleSize:2
OverallDifficulty:7
ApproachRate:10
SliderMultiplier:1.4
SliderTickRate:1

[Events]
//Background and Video events
0,0,"cover.jpg",0,65
//Break Periods
//Storyboard Layer 0 (Background)
//Storyboard Layer 1 (Fail)
//Storyboard Layer 2 (Pass)
//Storyboard Layer 3 (Foreground)
//Storyboard Layer 4 (Overlay)
//Storyboard Sound Samples

[TimingPoints]
1750,441.176470588235,4,1,0,40,1,0
3163,-40,4,1,0,80,0,0
3935,-66.6666666666667,4,1,0,80,0,0
4156,-66.6666666666667,4,1,0,40,0,0
4597,-66.6666666666667,4,1,0,80,0,0
4707,-66.6666666666667,4,1,0,60,0,0
4818,-66.6666666666667,4,1,0,80,0,0
4928,-66.6666666666667,4,1,0,40,0,0
5479,-66.6666666666667,4,1,0,80,0,0
5921,-66.6666666666667,4,1,0,40,0,0
6362,-66.6666666666667,4,1,0,80,0,0
6693,-40,4,1,0,80,0,0
7465,-66.6666666666667,4,1,0,80,0,0
7685,-66.6666666666667,4,1,0,40,0,0
8127,-66.6666666666667,4,1,0,80,0,0
8237,-66.6666666666667,4,1,0,60,0,0
8347,-66.6666666666667,4,1,0,80,0,0
8457,-66.6666666666667,4,1,0,40,0,0
9009,-66.6666666666667,4,1,0,80,0,0
9450,-66.6666666666667,4,1,0,40,0,0
10112,-66.6666666666667,4,1,0,80,0,0
10222,-40,4,1,0,80,0,0
10994,-66.6666666666667,4,1,0,80,0,0
11215,-66.6666666666667,4,1,0,40,0,0
11656,-66.6666666666667,4,1,0,80,0,0
11766,-66.6666666666667,4,1,0,60,0,0
11877,-66.6666666666667,4,1,0,80,0,0
11987,-66.6666666666667,4,1,0,40,0,0
12538,-66.6666666666667,4,1,0,80,0,0
12979,-66.6666666666667,4,1,0,40,0,0
13641,-66.6666666666667,4,1,0,80,0,0
13772,-40,4,1,0,80,0,0
14544,-66.6666666666667,4,1,0,80,0,0
14744,-66.6666666666667,4,1,0,40,0,0
15185,-66.6666666666667,4,1,0,80,0,0
17281,-40,4,1,0,80,0,0
18073,-66.6666666666667,4,1,0,80,0,0
18274,-66.6666666666667,4,1,0,40,0,0
18715,-66.6666666666667,4,1,0,80,0,0
18825,-66.6666666666667,4,1,0,60,0,0
18935,-66.6666666666667,4,1,0,80,0,0
19046,-66.6666666666667,4,1,0,40,0,0
19597,-66.6666666666667,4,1,0,80,0,0
20038,-66.6666666666667,4,1,0,40,0,0
20700,-66.6666666666667,4,1,0,80,0,0
20810,-40,4,1,0,80,0,0
21582,-66.6666666666667,4,1,0,80,0,0
21803,-66.6666666666667,4,1,0,40,0,0
22244,-66.6666666666667,4,1,0,80,0,0
22354,-66.6666666666667,4,1,0,60,0,0
22465,-66.6666666666667,4,1,0,80,0,0
22575,-66.6666666666667,4,1,0,40,0,0
23127,-66.6666666666667,4,1,0,80,0,0
24360,-40,4,1,0,80,0,0
24891,-66.6666666666667,4,1,0,60,0,0
25022,-66.2251655629139,4,1,0,60,0,0
25112,-65.7894736842105,4,1,0,80,0,0
25222,-65.359477124183,4,1,0,80,0,0
25332,-64.9350649350649,4,1,0,80,0,0
25443,-64.5161290322581,4,1,0,80,0,0
25553,-64.1025641025641,4,1,0,80,0,0
25774,-63.2911392405063,4,1,0,80,0,0
25884,-62.8930817610063,4,1,0,80,0,0
25994,-62.5,4,1,0,80,0,0
26104,-62.111801242236,4,1,0,80,0,0
26215,-61.7283950617284,4,1,0,80,0,0
26435,-60.9756097560976,4,1,0,80,0,0
26546,-60.6060606060606,4,1,0,80,0,0
26656,-60.2409638554217,4,1,0,80,0,0
26877,-59.5238095238095,4,1,0,80,0,0
26987,-59.1715976331361,4,1,0,80,0,0
27097,-58.8235294117647,4,1,0,80,0,0
27207,-58.4795321637427,4,1,0,80,0,0
27318,-58.1395348837209,4,1,0,80,0,0
27538,-57.4712643678161,4,1,0,80,0,0
27612,-57.1428571428571,4,1,0,80,0,0
27685,-56.8181818181818,4,1,0,80,0,0
27759,-56.4971751412429,4,1,0,80,0,0
27832,-56.1797752808989,4,1,0,80,0,0
27906,-55.8659217877095,4,1,0,80,0,0
27979,-55.5555555555556,4,1,0,80,0,0
28421,-66.6666666666667,4,1,0,80,0,0
28531,-66.2251655629139,4,1,0,80,0,0
28641,-65.7894736842105,4,1,0,80,0,0
28752,-65.359477124183,4,1,0,80,0,0
28862,-64.9350649350649,4,1,0,80,0,0
28972,-64.5161290322581,4,1,0,80,0,0
29082,-64.1025641025641,4,1,0,80,0,0
29193,-63.6942675159236,4,1,0,80,0,0
29303,-63.2911392405063,4,1,0,80,0,0
29413,-62.8930817610063,4,1,0,80,0,0
29524,-62.5,4,1,0,80,0,0
29634,-61.7283950617284,4,1,0,80,0,0
29744,-60.9756097560976,4,1,0,50,0,0
29818,-60.2409638554217,4,1,0,60,0,0
29891,-59.5238095238095,4,1,0,70,0,0
29965,-58.8235294117647,4,1,0,80,0,0
30185,-62.5,4,1,0,60,0,0
30406,-64.1025641025641,4,1,0,40,0,0
30516,-64.9350649350649,4,1,0,45,0,0
30627,-65.7894736842105,4,1,0,50,0,0
30737,-66.6666666666667,4,1,0,55,0,0
30847,-67.5675675675676,4,1,0,60,0,0
30957,-68.4931506849315,4,1,0,65,0,0
31068,-69.4444444444444,4,1,0,70,0,0
31178,-70.4225352112676,4,1,0,75,0,0
31288,-71.4285714285714,4,1,0,80,0,0
31399,-50,4,1,0,80,0,0
31729,-40,4,1,0,80,0,0
32171,-40,4,1,0,80,0,0
32612,-100,4,1,0,80,0,0
43641,-100,4,1,0,60,0,0
44082,-100,4,1,0,40,0,0
44744,-100,4,1,0,60,0,0
44891,-100,4,1,0,40,0,0
45185,-40,4,1,0,80,0,0
46068,-100,4,1,0,80,0,0
46178,-99.009900990099,4,1,0,80,0,0
46288,-98.0392156862745,4,1,0,80,0,0
46509,-96.1538461538461,4,1,0,80,0,0
46619,-95.2380952380952,4,1,0,80,0,0
46729,-94.3396226415094,4,1,0,80,0,0
46950,-92.5925925925926,4,1,0,80,0,0
47171,-90.9090909090909,4,1,0,80,0,0
47391,-89.2857142857143,4,1,0,80,0,0
47502,-88.4955752212389,4,1,0,80,0,0
47612,-87.719298245614,4,1,0,80,0,0
47722,-86.9565217391304,4,1,0,80,0,0
47832,-86.2068965517241,4,1,0,80,0,0
47943,-85.4700854700855,4,1,0,80,0,0
48053,-84.7457627118644,4,1,0,80,0,0
48274,-83.3333333333333,4,1,0,80,0,0
48384,-82.6446280991736,4,1,0,80,0,0
48494,-81.9672131147541,4,1,0,80,0,0
48715,-80.6451612903226,4,1,0,80,0,0
48825,-80,4,1,0,80,0,0
48935,-79.3650793650794,4,1,0,80,0,0
49046,-40,4,1,0,80,0,0
49818,-74.6268656716418,4,1,0,80,0,0
50038,-73.5294117647059,4,1,0,80,0,0
50149,-72.992700729927,4,1,0,80,0,0
50259,-72.463768115942,4,1,0,80,0,0
50479,-71.4285714285714,4,1,0,80,0,0
50590,-70.9219858156028,4,1,0,80,0,0
50700,-70.4225352112676,4,1,0,80,0,0
50921,-69.4444444444444,4,1,0,80,0,0
51031,-68.9655172413793,4,1,0,80,0,0
51141,-68.4931506849315,4,1,0,80,0,0
51252,-68.0272108843537,4,1,0,80,0,0
51362,-67.5675675675676,4,1,0,80,0,0
51472,-67.1140939597315,4,1,0,80,0,0
51582,-66.6666666666667,4,1,0,80,0,0
51693,-66.2251655629139,4,1,0,80,0,0
51803,-65.7894736842105,4,1,0,80,0,0
51913,-65.359477124183,4,1,0,80,0,0
52024,-64.9350649350649,4,1,0,80,0,0
52097,-64.5161290322581,4,1,0,80,0,0
52171,-64.1025641025641,4,1,0,80,0,0
52244,-63.6942675159236,4,1,0,80,0,0
52318,-63.2911392405063,4,1,0,80,0,0
52391,-62.8930817610063,4,1,0,80,0,0
52465,-62.5,4,1,0,80,0,0
52575,-40,4,1,0,80,0,0
52906,-66.6666666666667,4,1,0,80,0,0
53127,-65.7894736842105,4,1,0,80,0,0
53347,-64.9350649350649,4,1,0,80,0,0
53568,-64.1025641025641,4,1,0,80,0,0
53788,-63.2911392405063,4,1,0,80,0,0
54009,-62.5,4,1,0,80,0,0
54229,-61.7283950617284,4,1,0,80,0,0
54450,-60.9756097560976,4,1,0,80,0,0
54671,-60.2409638554217,4,1,0,80,0,0
54891,-59.5238095238095,4,1,0,80,0,0
55112,-58.8235294117647,4,1,0,80,0,0
55332,-58.1395348837209,4,1,0,80,0,0
55553,-57.4712643678161,4,1,0,80,0,0
55774,-56.8181818181818,4,1,0,80,0,0
55994,-56.1797752808989,4,1,0,80,0,0
56215,-55.5555555555556,4,1,0,80,0,0
56435,-54.9450549450549,4,1,0,80,0,0
56546,-54.6448087431694,4,1,0,80,0,0
56656,-54.3478260869565,4,1,0,80,0,0
56766,-54.054054054054,4,1,0,80,0,0
56877,-53.763440860215,4,1,0,80,0,0
56987,-53.475935828877,4,1,0,80,0,0
57097,-53.1914893617021,4,1,0,80,0,0
57207,-52.9100529100529,4,1,0,80,0,0
57318,-52.6315789473684,4,1,0,80,0,0
57428,-52.3560209424084,4,1,0,80,0,0
57538,-52.0833333333333,4,1,0,80,0,0
57649,-51.8134715025907,4,1,0,80,0,0
57759,-51.5463917525773,4,1,0,50,0,0
57832,-51.2820512820513,4,1,0,55,0,0
57906,-51.0204081632653,4,1,0,60,0,0
57979,-50.761421319797,4,1,0,65,0,0
58053,-50.5050505050505,4,1,0,70,0,0
58127,-50.251256281407,4,1,0,75,0,0
58200,-50,4,1,0,80,0,0
59634,-40,4,1,0,80,0,0
59965,-40,4,1,0,90,0,0
60406,-66.6666666666667,4,1,0,90,0,0
63163,-40,4,1,0,90,0,0
63935,-66.6666666666667,4,1,0,90,0,0
66693,-40,4,1,0,90,0,0
67465,-66.6666666666667,4,1,0,90,0,0
70222,-40,4,1,0,90,0,0
70994,-66.6666666666667,4,1,0,90,0,0
71104,-67.5675675675676,4,1,0,90,0,0
71325,-69.4444444444444,4,1,0,90,0,0
71435,-70.4225352112676,4,1,0,90,0,0
71546,-71.4285714285714,4,1,0,90,0,0
71656,-72.463768115942,4,1,0,90,0,0
71877,-74.6268656716418,4,1,0,90,0,0
71987,-75.7575757575758,4,1,0,90,0,0
72097,-76.9230769230769,4,1,0,90,0,0
72207,-78.125,4,1,0,90,0,0
72318,-79.3650793650794,4,1,0,90,0,0
72538,-81.9672131147541,4,1,0,90,0,0
72759,-84.7457627118644,4,1,0,90,0,0
72979,-87.719298245614,4,1,0,90,0,0
73090,-89.2857142857143,4,1,0,90,0,0
73200,-90.9090909090909,4,1,0,90,0,0
74082,-40,4,1,0,90,0,0
74524,-66.6666666666667,4,1,0,90,0,0
77281,-40,4,1,0,90,0,0
77612,-50,4,1,0,90,0,0
78053,-74.0740740740741,4,1,0,90,0,0
80810,-50,4,1,0,90,0,0
81141,-40,4,1,0,90,0,0
81582,-83.3333333333333,4,1,0,60,0,0
81803,-79.3650793650794,4,1,0,60,0,0
81950,-76.9230769230769,4,1,0,60,0,0
82024,-75.7575757575758,4,1,0,60,0,0
82171,-73.5294117647059,4,1,0,60,0,0
82244,-72.463768115942,4,1,0,60,0,0
82391,-70.4225352112676,4,1,0,60,0,0
82465,-69.4444444444444,4,1,0,60,0,0
82612,-67.5675675675676,4,1,0,60,0,0
82685,-66.6666666666667,4,1,0,60,0,0
82906,-40,4,1,0,90,0,0
83347,-66.6666666666667,4,1,0,60,0,0
83494,-64.9350649350649,4,1,0,60,0,0
83568,-64.1025641025641,4,1,0,60,0,0
83715,-62.5,4,1,0,60,0,0
83788,-61.7283950617284,4,1,0,60,0,0
83935,-60.2409638554217,4,1,0,60,0,0
84009,-59.5238095238095,4,1,0,60,0,0
84156,-58.1395348837209,4,1,0,60,0,0
84229,-57.4712643678161,4,1,0,60,0,0
84377,-56.1797752808989,4,1,0,60,0,0
84450,-55.5555555555556,4,1,0,60,0,0
84671,-40,4,1,0,90,0,0
86215,-44.2477876106195,4,1,0,90,0,0
86288,-45.045045045045,4,1,0,90,0,0
86362,-45.8715596330275,4,1,0,90,0,0
86435,-46.7289719626168,4,1,0,90,0,0
86509,-47.6190476190476,4,1,0,90,0,0
86582,-48.5436893203883,4,1,0,90,0,0
86656,-49.5049504950495,4,1,0,90,0,0
86877,-52.6315789473684,4,1,0,90,0,0
87097,-56.1797752808989,4,1,0,90,0,0
87171,-57.4712643678161,4,1,0,90,0,0
87244,-58.8235294117647,4,1,0,90,0,0
87318,-60.2409638554217,4,1,0,90,0,0
87538,-64.9350649350649,4,1,0,90,0,0
87759,-70.4225352112676,4,1,0,90,0,0
87869,-40,4,1,0,90,0,0
88641,-66.6666666666667,4,1,0,90,0,0
89524,-62.5,4,1,0,90,0,0
89634,-58.8235294117647,4,1,0,90,0,0
89744,-55.5555555555556,4,1,0,90,0,0
89965,-50,4,1,0,90,0,0
91399,-40,4,1,0,90,0,0
92171,-66.6666666666667,4,1,0,90,0,0
93604,-67.5675675675676,4,1,0,90,0,0
93715,-68.4931506849315,4,1,0,90,0,0
93825,-69.4444444444444,4,1,0,90,0,0
93935,-70.4225352112676,4,1,0,90,0,0
94046,-71.4285714285714,4,1,0,90,0,0
94156,-72.463768115942,4,1,0,90,0,0
94266,-73.5294117647059,4,1,0,90,0,0
94377,-74.6268656716418,4,1,0,90,0,0
94597,-76.9230769230769,4,1,0,90,0,0
94818,-66.6666666666667,4,1,0,90,0,0
94928,-40,4,1,0,90,0,0
95700,-66.6666666666667,4,1,0,90,0,0
96582,-62.5,4,1,0,90,0,0
96693,-58.8235294117647,4,1,0,90,0,0
96803,-55.5555555555556,4,1,0,90,0,0
97024,-50,4,1,0,90,0,0
98457,-40,4,1,0,90,0,0
99229,-66.6666666666667,4,1,0,90,0,0
100700,-64.9350649350649,4,1,0,90,0,0
100774,-64.1025641025641,4,1,0,90,0,0
100921,-62.5,4,1,0,90,0,0
100994,-61.7283950617284,4,1,0,90,0,0
101141,-60.2409638554217,4,1,0,90,0,0
101215,-59.5238095238095,4,1,0,90,0,0
101288,-58.8235294117647,4,1,0,90,0,0
101362,-58.1395348837209,4,1,0,90,0,0
101582,-56.1797752808989,4,1,0,90,0,0
101656,-55.5555555555556,4,1,0,90,0,0
101987,-40,4,1,0,90,0,0
102759,-66.6666666666667,4,1,0,90,0,0
103641,-62.5,4,1,0,90,0,0
103752,-58.8235294117647,4,1,0,90,0,0
103862,-55.5555555555556,4,1,0,90,0,0
104082,-50,4,1,0,90,0,0
105516,-40,4,1,0,90,0,0
106288,-66.6666666666667,4,1,0,90,0,0
107722,-67.5675675675676,4,1,0,90,0,0
107832,-68.4931506849315,4,1,0,90,0,0
107943,-69.4444444444444,4,1,0,90,0,0
108053,-70.4225352112676,4,1,0,90,0,0
108163,-71.4285714285714,4,1,0,90,0,0
108274,-72.463768115942,4,1,0,90,0,0
108384,-73.5294117647059,4,1,0,90,0,0
108494,-40,4,1,0,70,0,0
109046,-50,4,1,0,90,0,0
109377,-66.6666666666667,4,1,0,90,0,0
109597,-65.7894736842105,4,1,0,90,0,0
109707,-65.359477124183,4,1,0,90,0,0
109818,-64.9350649350649,4,1,0,90,0,0
109928,-64.5161290322581,4,1,0,90,0,0
110038,-64.1025641025641,4,1,0,90,0,0
110149,-63.6942675159236,4,1,0,90,0,0
110259,-63.2911392405063,4,1,0,90,0,0
110369,-62.8930817610063,4,1,0,90,0,0
110479,-62.5,4,1,0,90,0,0
110590,-62.111801242236,4,1,0,90,0,0
110700,-61.7283950617284,4,1,0,90,0,0
110810,-61.3496932515337,4,1,0,90,0,0
110921,-60.9756097560976,4,1,0,90,0,0
111031,-60.6060606060606,4,1,0,90,0,0
111141,-60.2409638554217,4,1,0,90,0,0
111252,-59.8802395209581,4,1,0,90,0,0
111362,-59.5238095238095,4,1,0,90,0,0
111472,-59.1715976331361,4,1,0,90,0,0
111582,-58.8235294117647,4,1,0,90,0,0
111803,-58.1395348837209,4,1,0,90,0,0
111913,-57.8034682080925,4,1,0,90,0,0
112024,-57.4712643678161,4,1,0,90,0,0
112134,-57.1428571428571,4,1,0,90,0,0
112244,-56.8181818181818,4,1,0,90,0,0
112354,-56.4971751412429,4,1,0,90,0,0
112465,-56.1797752808989,4,1,0,90,0,0
112575,-55.8659217877095,4,1,0,90,0,0
112685,-55.5555555555556,4,1,0,90,0,0
112796,-55.2486187845304,4,1,0,90,0,0
112906,-54.9450549450549,4,1,0,90,0,0
113016,-54.6448087431694,4,1,0,90,0,0
113127,-54.3478260869565,4,1,0,90,0,0
113237,-54.054054054054,4,1,0,90,0,0
113347,-53.763440860215,4,1,0,90,0,0
113457,-53.475935828877,4,1,0,90,0,0
113568,-53.1914893617021,4,1,0,90,0,0
113678,-52.9100529100529,4,1,0,90,0,0
113788,-52.6315789473684,4,1,0,90,0,0
113899,-52.3560209424084,4,1,0,90,0,0
114009,-52.0833333333333,4,1,0,90,0,0
114119,-51.8134715025907,4,1,0,90,0,0
114229,-51.5463917525773,4,1,0,90,0,0
114303,-51.2820512820513,4,1,0,90,0,0
114377,-51.0204081632653,4,1,0,90,0,0
114450,-50.761421319797,4,1,0,90,0,0
114524,-50.5050505050505,4,1,0,90,0,0
114597,-50.251256281407,4,1,0,90,0,0
114671,-50,4,1,0,90,0,0
116435,-40,4,1,0,80,0,0
117338,-66.6666666666667,4,1,0,80,0,0
123494,-100,4,1,0,60,0,0
129891,-99.009900990099,4,1,0,62,0,0
129965,-98.0392156862745,4,1,0,64,0,0
130038,-97.0873786407767,4,1,0,66,0,0
130112,-96.1538461538461,4,1,0,68,0,0
130185,-95.2380952380952,4,1,0,70,0,0
130259,-94.3396226415094,4,1,0,72,0,0
130332,-93.4579439252336,4,1,0,74,0,0
130406,-92.5925925925926,4,1,0,76,0,0
130479,-91.743119266055,4,1,0,78,0,0
130553,-90.9090909090909,4,1,0,80,0,0
131656,-90.9090909090909,4,1,0,70,0,0
131877,-90.9090909090909,4,1,0,80,0,0
132207,-90.9090909090909,4,1,0,70,0,0
135406,-90.9090909090909,4,1,0,72,0,0
135516,-89.2857142857143,4,1,0,74,0,0
135627,-87.719298245614,4,1,0,76,0,0
135737,-86.2068965517241,4,1,0,78,0,0
135847,-84.7457627118644,4,1,0,80,0,0
136950,-87.719298245614,4,1,0,76,0,0
137060,-89.2857142857143,4,1,0,70,0,0
137171,-90.9090909090909,4,1,0,72,0,0
137612,-100,4,1,0,80,0,0
138715,-100,4,1,0,70,0,0
138935,-100,4,1,0,80,0,0
139266,-100,4,1,0,70,0,0
140700,-98.0392156862745,4,1,0,70,0,0
140810,-97.0873786407767,4,1,0,70,0,0
140921,-96.1538461538461,4,1,0,70,0,0
141031,-95.2380952380952,4,1,0,80,0,0
142244,-100,4,1,0,80,0,0
142465,-95.2380952380952,4,1,0,80,0,0
142575,-93.4579439252336,4,1,0,78,0,0
142685,-91.743119266055,4,1,0,76,0,0
142759,-90.0900900900901,4,1,0,74,0,0
142832,-88.4955752212389,4,1,0,72,0,0
142906,-86.9565217391304,4,1,0,70,0,0
143788,-81.9672131147541,4,1,0,60,0,0
143862,-82.6446280991736,4,1,0,62,0,0
143935,-83.3333333333333,4,1,0,64,0,0
144009,-84.0336134453781,4,1,0,66,0,0
144082,-84.7457627118644,4,1,0,66,0,0
144156,-85.4700854700855,4,1,0,66,0,0
144229,-86.2068965517241,4,1,0,68,0,0
144303,-86.9565217391304,4,1,0,70,0,0
144377,-87.719298245614,4,1,0,72,0,0
144450,-88.4955752212389,4,1,0,74,0,0
144524,-89.2857142857143,4,1,0,76,0,0
144597,-90.0900900900901,4,1,0,78,0,0
144671,-90.9090909090909,4,1,0,80,0,0
149634,-89.2857142857143,4,1,0,80,0,0
149744,-87.719298245614,4,1,0,80,0,0
149854,-86.2068965517241,4,1,0,80,0,0
149965,-84.7457627118644,4,1,0,80,0,0
150627,-86.2068965517241,4,1,0,80,0,0
150847,-87.719298245614,4,1,0,80,0,0
151068,-89.2857142857143,4,1,0,80,0,0
151288,-90.9090909090909,4,1,0,80,0,0
155700,-90.9090909090909,4,1,0,40,0,0
155921,-89.2857142857143,4,1,0,42,0,0
156141,-87.719298245614,4,1,0,44,0,0
156362,-86.2068965517241,4,1,0,46,0,0
156582,-84.7457627118644,4,1,0,48,0,0
156803,-83.3333333333333,4,1,0,50,0,0
157024,-81.9672131147541,4,1,0,52,0,0
157097,-81.3008130081301,4,1,0,53,0,0
157171,-80.6451612903226,4,1,0,54,0,0
157244,-80,4,1,0,55,0,0
157354,-79.3650793650794,4,1,0,56,0,0
157465,-78.7401574803149,4,1,0,57,0,0
157575,-78.125,4,1,0,58,0,0
157685,-77.5193798449612,4,1,0,59,0,0
157759,-76.9230769230769,4,1,0,60,0,0
157832,-76.3358778625954,4,1,0,61,0,0
157906,-75.7575757575758,4,1,0,62,0,0
158016,-75.187969924812,4,1,0,63,0,0
158127,-74.6268656716418,4,1,0,64,0,0
158347,-73.5294117647059,4,1,0,66,0,0
158457,-72.992700729927,4,1,0,67,0,0
158568,-72.463768115942,4,1,0,68,0,0
158788,-71.4285714285714,4,1,0,80,0,0
159229,-68.0272108843537,4,1,0,80,0,0
159671,-64.9350649350649,4,1,0,80,0,0
160112,-61.7283950617284,4,1,0,80,0,0
160553,-59.1715976331361,4,1,0,80,0,0
160994,-56.8181818181818,4,1,0,80,0,0
161435,-54.3478260869565,4,1,0,80,0,0
161877,-52.3560209424084,4,1,0,80,0,0
162318,-50.5050505050505,4,1,0,80,0,0
162759,-48.5436893203883,4,1,0,80,0,0
163200,-46.9483568075117,4,1,0,80,0,0
163641,-45.4545454545455,4,1,0,80,0,0
164082,-44.0528634361233,4,1,0,80,0,0
164524,-42.7350427350427,4,1,0,80,0,0
164965,-41.3223140495868,4,1,0,80,0,0
165406,-40,4,1,0,80,0,0
165847,-66.6666666666667,4,1,0,80,0,0
166068,-65.7894736842105,4,1,0,80,0,0
166288,-64.9350649350649,4,1,0,80,0,0
166509,-64.1025641025641,4,1,0,80,0,0
166729,-63.2911392405063,4,1,0,80,0,0
166950,-62.5,4,1,0,80,0,0
167171,-61.7283950617284,4,1,0,80,0,0
167391,-60.9756097560976,4,1,0,80,0,0
167612,-60.2409638554217,4,1,0,80,0,0
167832,-59.5238095238095,4,1,0,80,0,0
168053,-58.8235294117647,4,1,0,80,0,0
168274,-58.1395348837209,4,1,0,80,0,0
168494,-57.4712643678161,4,1,0,80,0,0
168715,-56.8181818181818,4,1,0,80,0,0
168935,-56.1797752808989,4,1,0,80,0,0
169156,-55.5555555555556,4,1,0,80,0,0
169377,-54.9450549450549,4,1,0,80,0,0
169487,-54.6448087431694,4,1,0,80,0,0
169597,-54.3478260869565,4,1,0,80,0,0
169707,-54.054054054054,4,1,0,80,0,0
169818,-53.763440860215,4,1,0,80,0,0
169928,-53.475935828877,4,1,0,80,0,0
170038,-53.1914893617021,4,1,0,80,0,0
170149,-52.9100529100529,4,1,0,80,0,0
170259,-52.6315789473684,4,1,0,80,0,0
170369,-52.3560209424084,4,1,0,80,0,0
170479,-52.0833333333333,4,1,0,80,0,0
170590,-51.8134715025907,4,1,0,80,0,0
170700,-51.5463917525773,4,1,0,50,0,0
170774,-51.2820512820513,4,1,0,55,0,0
170847,-51.0204081632653,4,1,0,60,0,0
170921,-50.761421319797,4,1,0,65,0,0
170994,-50.5050505050505,4,1,0,70,0,0
171068,-50.251256281407,4,1,0,75,0,0
171141,-50,4,1,0,80,0,0
172465,-40,4,1,0,80,0,0
172871,-40,4,1,0,90,0,0
172926,-40,4,1,0,90,0,1
173347,-66.6666666666667,4,1,0,90,0,1
174450,-66.2251655629139,4,1,0,90,0,1
174560,-65.7894736842105,4,1,0,90,0,1
174671,-65.359477124183,4,1,0,90,0,1
174781,-64.9350649350649,4,1,0,90,0,1
174891,-64.5161290322581,4,1,0,90,0,1
175038,-63.6942675159236,4,1,0,90,0,1
175112,-63.2911392405063,4,1,0,90,0,1
175259,-62.5,4,1,0,90,0,1
175332,-62.111801242236,4,1,0,90,0,1
175479,-61.3496932515337,4,1,0,90,0,1
175553,-60.9756097560976,4,1,0,90,0,1
175700,-60.2409638554217,4,1,0,90,0,1
175774,-59.8802395209581,4,1,0,90,0,1
175921,-59.1715976331361,4,1,0,90,0,1
175994,-58.8235294117647,4,1,0,90,0,1
176104,-40,4,1,0,90,0,1
176877,-66.6666666666667,4,1,0,90,0,1
177979,-66.2251655629139,4,1,0,90,0,1
178090,-65.7894736842105,4,1,0,90,0,1
178200,-65.359477124183,4,1,0,90,0,1
178310,-64.9350649350649,4,1,0,90,0,1
178421,-64.5161290322581,4,1,0,90,0,1
178568,-63.6942675159236,4,1,0,90,0,1
178641,-63.2911392405063,4,1,0,90,0,1
178788,-62.5,4,1,0,90,0,1
178862,-62.111801242236,4,1,0,90,0,1
179009,-61.3496932515337,4,1,0,90,0,1
179082,-60.9756097560976,4,1,0,90,0,1
179229,-60.2409638554217,4,1,0,90,0,1
179303,-59.8802395209581,4,1,0,90,0,1
179450,-59.1715976331361,4,1,0,90,0,1
179524,-58.8235294117647,4,1,0,90,0,1
179634,-40,4,1,0,90,0,1
180406,-66.6666666666667,4,1,0,90,0,1
181509,-66.2251655629139,4,1,0,90,0,1
181619,-65.7894736842105,4,1,0,90,0,1
181729,-65.359477124183,4,1,0,90,0,1
181840,-64.9350649350649,4,1,0,90,0,1
181950,-64.5161290322581,4,1,0,90,0,1
182097,-63.6942675159236,4,1,0,90,0,1
182171,-63.2911392405063,4,1,0,90,0,1
182318,-62.5,4,1,0,90,0,1
182391,-62.111801242236,4,1,0,90,0,1
182538,-61.3496932515337,4,1,0,90,0,1
182612,-60.9756097560976,4,1,0,90,0,1
182759,-60.2409638554217,4,1,0,90,0,1
182832,-59.8802395209581,4,1,0,90,0,1
182979,-59.1715976331361,4,1,0,90,0,1
183053,-58.8235294117647,4,1,0,90,0,1
183163,-40,4,1,0,90,0,1
183935,-66.6666666666667,4,1,0,90,0,1
184266,-66.2251655629139,4,1,0,90,0,1
184377,-65.7894736842105,4,1,0,90,0,1
184487,-65.359477124183,4,1,0,90,0,1
184597,-64.9350649350649,4,1,0,90,0,1
184707,-64.5161290322581,4,1,0,90,0,1
184818,-64.1025641025641,4,1,0,90,0,1
184928,-63.6942675159236,4,1,0,90,0,1
185038,-63.2911392405063,4,1,0,90,0,1
185149,-62.8930817610063,4,1,0,90,0,1
185259,-62.5,4,1,0,90,0,1
185369,-61.7283950617284,4,1,0,90,0,1
185479,-60.9756097560976,4,1,0,90,0,1
185627,-59.5238095238095,4,1,0,90,0,1
185700,-58.8235294117647,4,1,0,90,0,1
185847,-57.4712643678161,4,1,0,90,0,1
185921,-56.8181818181818,4,1,0,90,0,1
186068,-55.5555555555556,4,1,0,90,0,1
186141,-54.9450549450549,4,1,0,90,0,1
186288,-53.763440860215,4,1,0,90,0,1
186362,-53.1914893617021,4,1,0,90,0,1
186509,-52.0833333333333,4,1,0,90,0,1
186582,-51.5463917525773,4,1,0,90,0,1
186729,-50.5050505050505,4,1,0,90,0,1
186803,-50,4,1,0,90,0,1
187024,-40,4,1,0,90,0,1
187465,-66.6666666666667,4,1,0,90,0,1
188568,-66.2251655629139,4,1,0,90,0,1
188678,-65.7894736842105,4,1,0,90,0,1
188788,-65.359477124183,4,1,0,90,0,1
188899,-64.9350649350649,4,1,0,90,0,1
189009,-64.5161290322581,4,1,0,90,0,1
189156,-63.6942675159236,4,1,0,90,0,1
189229,-63.2911392405063,4,1,0,90,0,1
189377,-62.5,4,1,0,90,0,1
189450,-62.111801242236,4,1,0,90,0,1
189597,-61.3496932515337,4,1,0,90,0,1
189671,-60.9756097560976,4,1,0,90,0,1
189818,-60.2409638554217,4,1,0,90,0,1
189891,-59.8802395209581,4,1,0,90,0,1
190038,-59.1715976331361,4,1,0,90,0,1
190112,-58.8235294117647,4,1,0,90,0,1
190222,-40,4,1,0,90,0,1
190994,-66.6666666666667,4,1,0,90,0,1
192097,-66.2251655629139,4,1,0,90,0,1
192207,-65.7894736842105,4,1,0,90,0,1
192318,-65.359477124183,4,1,0,90,0,1
192428,-64.9350649350649,4,1,0,90,0,1
192538,-64.5161290322581,4,1,0,90,0,1
192685,-63.6942675159236,4,1,0,90,0,1
192759,-63.2911392405063,4,1,0,90,0,1
192906,-62.5,4,1,0,90,0,1
192979,-62.111801242236,4,1,0,90,0,1
193127,-61.3496932515337,4,1,0,90,0,1
193200,-60.9756097560976,4,1,0,90,0,1
193347,-60.2409638554217,4,1,0,90,0,1
193421,-59.8802395209581,4,1,0,90,0,1
193568,-59.1715976331361,4,1,0,90,0,1
193641,-58.8235294117647,4,1,0,90,0,1
193752,-40,4,1,0,90,0,1
194524,-83.3333333333333,4,1,0,90,0,1
194671,-80.6451612903226,4,1,0,90,0,1
194744,-79.3650793650794,4,1,0,90,0,1
194891,-76.9230769230769,4,1,0,90,0,1
194965,-75.7575757575758,4,1,0,90,0,1
195112,-73.5294117647059,4,1,0,90,0,1
195185,-72.463768115942,4,1,0,90,0,1
195332,-70.4225352112676,4,1,0,90,0,1
195406,-69.4444444444444,4,1,0,90,0,1
195553,-67.5675675675676,4,1,0,90,0,1
195627,-66.6666666666667,4,1,0,90,0,1
195774,-64.9350649350649,4,1,0,90,0,1
195847,-64.1025641025641,4,1,0,90,0,1
195994,-62.5,4,1,0,90,0,1
196068,-61.7283950617284,4,1,0,90,0,1
196215,-60.2409638554217,4,1,0,90,0,1
196288,-59.5238095238095,4,1,0,90,0,1
196435,-58.1395348837209,4,1,0,90,0,1
196509,-57.4712643678161,4,1,0,90,0,1
196656,-56.1797752808989,4,1,0,90,0,1
196729,-55.5555555555556,4,1,0,90,0,1
196877,-54.3478260869565,4,1,0,90,0,1
196950,-53.763440860215,4,1,0,90,0,1
197097,-52.6315789473684,4,1,0,90,0,1
197171,-52.0833333333333,4,1,0,90,0,1
197318,-51.0204081632653,4,1,0,90,0,1
197391,-50.5050505050505,4,1,0,90,0,1
197612,-47.6190476190476,4,1,0,90,0,1
198053,-45.4545454545455,4,1,0,90,0,1
198494,-43.4782608695652,4,1,0,90,0,1
198935,-41.6666666666667,4,1,0,90,0,1
199369,-41.6666666666667,4,1,0,80,0,1
199397,-50,4,1,0,80,0,0
200810,-44.4444444444445,4,1,0,80,0,0
201134,-44.4444444444445,4,1,0,90,0,0
201161,-40,4,1,0,90,0,1
201582,-66.6666666666667,4,1,0,90,0,1
201729,-65.7894736842105,4,1,0,90,0,1
201803,-65.359477124183,4,1,0,90,0,1
201950,-64.5161290322581,4,1,0,90,0,1
202024,-64.1025641025641,4,1,0,90,0,1
202097,-63.6942675159236,4,1,0,90,0,1
202171,-63.2911392405063,4,1,0,90,0,1
202244,-62.8930817610063,4,1,0,90,0,1
202391,-62.111801242236,4,1,0,90,0,1
202465,-61.7283950617284,4,1,0,90,0,1
202612,-60.9756097560976,4,1,0,90,0,1
202685,-60.6060606060606,4,1,0,90,0,1
202906,-40,4,1,0,90,0,1
203127,-50,4,1,0,90,0,1
203347,-44.4444444444445,4,1,0,90,0,1
204009,-47.6190476190476,4,1,0,90,0,1
204156,-50,4,1,0,90,0,1
204340,-40,4,1,0,90,0,1
205112,-66.6666666666667,4,1,0,90,0,1
205259,-65.7894736842105,4,1,0,90,0,1
205332,-65.359477124183,4,1,0,90,0,1
205479,-64.5161290322581,4,1,0,90,0,1
205553,-64.1025641025641,4,1,0,90,0,1
205627,-63.6942675159236,4,1,0,90,0,1
205700,-63.2911392405063,4,1,0,90,0,1
205774,-62.8930817610063,4,1,0,90,0,1
205921,-62.111801242236,4,1,0,90,0,1
205994,-61.7283950617284,4,1,0,90,0,1
206141,-60.9756097560976,4,1,0,90,0,1
206215,-60.6060606060606,4,1,0,90,0,1
206877,-61.7283950617284,4,1,0,90,0,1
206987,-62.8930817610063,4,1,0,90,0,1
207097,-64.1025641025641,4,1,0,90,0,1
207207,-65.359477124183,4,1,0,90,0,1
207318,-66.6666666666667,4,1,0,90,0,1
207869,-40,4,1,0,90,0,1
208641,-66.6666666666667,4,1,0,90,0,1
208788,-65.7894736842105,4,1,0,90,0,1
208862,-65.359477124183,4,1,0,90,0,1
209009,-64.5161290322581,4,1,0,90,0,1
209082,-64.1025641025641,4,1,0,90,0,1
209156,-63.6942675159236,4,1,0,90,0,1
209229,-63.2911392405063,4,1,0,90,0,1
209303,-62.8930817610063,4,1,0,90,0,1
209450,-62.111801242236,4,1,0,90,0,1
209524,-61.7283950617284,4,1,0,90,0,1
209671,-60.9756097560976,4,1,0,90,0,1
209744,-60.6060606060606,4,1,0,90,0,1
209965,-40,4,1,0,90,0,1
210185,-50,4,1,0,90,0,1
210406,-44.4444444444445,4,1,0,90,0,1
211068,-47.6190476190476,4,1,0,90,0,1
211215,-50,4,1,0,90,0,1
211399,-40,4,1,0,90,0,1
212171,-66.6666666666667,4,1,0,90,0,1
212318,-65.7894736842105,4,1,0,90,0,1
212391,-65.359477124183,4,1,0,90,0,1
212465,-64.9350649350649,4,1,0,90,0,1
212538,-64.5161290322581,4,1,0,90,0,1
212612,-64.1025641025641,4,1,0,90,0,1
212759,-63.2911392405063,4,1,0,90,0,1
212832,-62.8930817610063,4,1,0,90,0,1
212979,-62.111801242236,4,1,0,90,0,1
213053,-61.7283950617284,4,1,0,90,0,1
213200,-60.9756097560976,4,1,0,90,0,1
213274,-60.6060606060606,4,1,0,90,0,1
213347,-60.2409638554217,4,1,0,90,0,1
213421,-59.8802395209581,4,1,0,90,0,1
213494,-59.5238095238095,4,1,0,90,0,1
213641,-58.8235294117647,4,1,0,90,0,1
213825,-59.5238095238095,4,1,0,90,0,1
213935,-60.2409638554217,4,1,0,90,0,1
214046,-60.9756097560976,4,1,0,90,0,1
214156,-61.7283950617284,4,1,0,90,0,1
214266,-62.5,4,1,0,90,0,1
214377,-63.2911392405063,4,1,0,90,0,1
214597,-64.9350649350649,4,1,0,90,0,1
214818,-66.6666666666667,4,1,0,90,0,1
214928,-40,4,1,0,90,0,1
215700,-66.6666666666667,4,1,0,90,0,1
215847,-65.7894736842105,4,1,0,90,0,1
215921,-65.359477124183,4,1,0,90,0,1
215994,-64.9350649350649,4,1,0,90,0,1
216068,-64.5161290322581,4,1,0,90,0,1
216141,-64.1025641025641,4,1,0,90,0,1
216288,-63.2911392405063,4,1,0,90,0,1
216362,-62.8930817610063,4,1,0,90,0,1
216509,-62.111801242236,4,1,0,90,0,1
216582,-61.7283950617284,4,1,0,90,0,1
216729,-60.9756097560976,4,1,0,90,0,1
216803,-60.6060606060606,4,1,0,90,0,1
217024,-40,4,1,0,90,0,1
217244,-50,4,1,0,90,0,1
217465,-44.4444444444445,4,1,0,90,0,1
218127,-50,4,1,0,90,0,1
218257,-50,4,1,0,90,0,1
218367,-50,4,1,0,90,0,1
218457,-40,4,1,0,90,0,1
219229,-66.6666666666667,4,1,0,90,0,1
219377,-65.7894736842105,4,1,0,90,0,1
219450,-65.359477124183,4,1,0,90,0,1
219524,-64.9350649350649,4,1,0,90,0,1
219597,-64.5161290322581,4,1,0,90,0,1
219671,-64.1025641025641,4,1,0,90,0,1
219818,-63.2911392405063,4,1,0,90,0,1
219891,-62.8930817610063,4,1,0,90,0,1
220038,-62.111801242236,4,1,0,90,0,1
220112,-61.7283950617284,4,1,0,90,0,1
220259,-60.9756097560976,4,1,0,90,0,1
220332,-60.6060606060606,4,1,0,90,0,1
220479,-59.8802395209581,4,1,0,90,0,1
220553,-59.5238095238095,4,1,0,90,0,1
220774,-60.6060606060606,4,1,0,90,0,1
220884,-61.7283950617284,4,1,0,90,0,1
220994,-62.8930817610063,4,1,0,90,0,1
221104,-64.1025641025641,4,1,0,90,0,1
221215,-65.359477124183,4,1,0,90,0,1
221325,-66.6666666666667,4,1,0,90,0,1
221428,-66.6666666666667,4,1,0,70,0,1
221455,-40,4,1,0,70,0,0
221987,-50,4,1,0,90,0,0
222338,-66.6666666666667,4,1,0,90,0,1
222428,-66.2251655629139,4,1,0,90,0,1
222538,-65.7894736842105,4,1,0,90,0,1
222649,-65.359477124183,4,1,0,90,0,1
222759,-64.9350649350649,4,1,0,90,0,1
222832,-64.5161290322581,4,1,0,90,0,1
222906,-64.1025641025641,4,1,0,90,0,1
222979,-63.6942675159236,4,1,0,90,0,1
223090,-63.2911392405063,4,1,0,90,0,1
223200,-62.8930817610063,4,1,0,90,0,1
223310,-62.5,4,1,0,90,0,1
223421,-62.111801242236,4,1,0,90,0,1
223531,-61.7283950617284,4,1,0,90,0,1
223641,-61.3496932515337,4,1,0,90,0,1
223715,-60.9756097560976,4,1,0,90,0,1
223788,-60.6060606060606,4,1,0,90,0,1
223862,-60.2409638554217,4,1,0,90,0,1
223972,-59.8802395209581,4,1,0,90,0,1
224082,-59.5238095238095,4,1,0,90,0,1
224193,-59.1715976331361,4,1,0,90,0,1
224303,-58.8235294117647,4,1,0,90,0,1
224413,-58.4795321637427,4,1,0,90,0,1
224524,-58.1395348837209,4,1,0,90,0,1
224634,-57.8034682080925,4,1,0,90,0,1
224744,-57.4712643678161,4,1,0,90,0,1
224854,-57.1428571428571,4,1,0,90,0,1
224965,-56.8181818181818,4,1,0,90,0,1
225075,-56.4971751412429,4,1,0,90,0,1
225185,-56.1797752808989,4,1,0,90,0,1
225296,-55.8659217877095,4,1,0,90,0,1
225406,-55.5555555555556,4,1,0,90,0,1
225516,-40,4,1,0,90,0,1
225847,-55.2486187845304,4,1,0,90,0,1
225957,-54.9450549450549,4,1,0,90,0,1
226068,-54.6448087431694,4,1,0,90,0,1
226178,-54.3478260869565,4,1,0,90,0,1
226288,-54.054054054054,4,1,0,90,0,1
226362,-53.763440860215,4,1,0,90,0,1
226435,-53.475935828877,4,1,0,90,0,1
226509,-53.1914893617021,4,1,0,90,0,1
226619,-52.9100529100529,4,1,0,90,0,1
226729,-52.6315789473684,4,1,0,90,0,1
226840,-52.3560209424084,4,1,0,90,0,1
226950,-52.0833333333333,4,1,0,90,0,1
227060,-51.8134715025907,4,1,0,90,0,1
227171,-51.5463917525773,4,1,0,90,0,1
227244,-51.2820512820513,4,1,0,90,0,1
227318,-51.0204081632653,4,1,0,90,0,1
227391,-50.761421319797,4,1,0,90,0,1
227465,-50.5050505050505,4,1,0,90,0,1
227538,-50.251256281407,4,1,0,90,0,1
227612,-50,4,1,0,90,0,1
229369,-50,4,1,0,80,0,1
229397,-40,4,1,0,80,0,0
229818,-66.6666666666667,4,1,0,80,0,0
230038,-66.6666666666667,4,1,0,40,0,0
230479,-66.6666666666667,4,1,0,80,0,0
230590,-66.6666666666667,4,1,0,60,0,0
230700,-66.6666666666667,4,1,0,80,0,0
230810,-66.6666666666667,4,1,0,40,0,0
231362,-66.6666666666667,4,1,0,80,0,0
231803,-66.6666666666667,4,1,0,40,0,0
232244,-66.6666666666667,4,1,0,80,0,0
232575,-40,4,1,0,80,0,0
233347,-66.6666666666667,4,1,0,80,0,0
233568,-66.6666666666667,4,1,0,40,0,0
234009,-66.6666666666667,4,1,0,80,0,0
234119,-66.6666666666667,4,1,0,60,0,0
234229,-66.6666666666667,4,1,0,80,0,0
234340,-66.6666666666667,4,1,0,40,0,0
234891,-66.6666666666667,4,1,0,80,0,0
235332,-66.6666666666667,4,1,0,40,0,0
235774,-66.6666666666667,4,1,0,80,0,0
236124,-40,4,1,0,80,0,0
236897,-66.6666666666667,4,1,0,80,0,0
237097,-66.6666666666667,4,1,0,40,0,0
237538,-66.6666666666667,4,1,0,80,0,0
237649,-66.6666666666667,4,1,0,60,0,0
237759,-66.6666666666667,4,1,0,80,0,0
237869,-66.6666666666667,4,1,0,40,0,0
238421,-66.6666666666667,4,1,0,80,0,0
238862,-66.6666666666667,4,1,0,40,0,0
239303,-66.6666666666667,4,1,0,80,0,0
239654,-40,4,1,0,80,0,0
240426,-66.6666666666667,4,1,0,80,0,0
240627,-66.6666666666667,4,1,0,40,0,0
241068,-66.6666666666667,4,1,0,80,0,0
243163,-40,4,1,0,80,0,0
243935,-66.6666666666667,4,1,0,80,0,0
244156,-66.6666666666667,4,1,0,40,0,0
244597,-66.6666666666667,4,1,0,80,0,0
244707,-66.6666666666667,4,1,0,60,0,0
244818,-66.6666666666667,4,1,0,80,0,0
244928,-66.6666666666667,4,1,0,40,0,0
245479,-66.6666666666667,4,1,0,80,0,0
245921,-66.6666666666667,4,1,0,40,0,0
246362,-66.6666666666667,4,1,0,80,0,0
246693,-40,4,1,0,80,0,0
247465,-66.6666666666667,4,1,0,80,0,0
247685,-66.6666666666667,4,1,0,40,0,0
248127,-66.6666666666667,4,1,0,80,0,0
248237,-66.6666666666667,4,1,0,60,0,0
248347,-66.6666666666667,4,1,0,80,0,0
248457,-66.6666666666667,4,1,0,40,0,0
249009,-66.6666666666667,4,1,0,80,0,0
250222,-40,4,1,0,80,0,0
250774,-66.6666666666667,4,1,0,60,0,0
250904,-66.2251655629139,4,1,0,60,0,0
250994,-65.7894736842105,4,1,0,80,0,0
251104,-65.359477124183,4,1,0,80,0,0
251215,-64.9350649350649,4,1,0,80,0,0
251325,-64.5161290322581,4,1,0,80,0,0
251435,-64.1025641025641,4,1,0,80,0,0
251656,-63.2911392405063,4,1,0,80,0,0
251766,-62.8930817610063,4,1,0,80,0,0
251877,-62.5,4,1,0,80,0,0
251987,-62.111801242236,4,1,0,80,0,0
252097,-61.7283950617284,4,1,0,80,0,0
252207,-61.3496932515337,4,1,0,80,0,0
252318,-60.9756097560976,4,1,0,80,0,0
252428,-60.6060606060606,4,1,0,80,0,0
252538,-60.2409638554217,4,1,0,80,0,0
252759,-59.5238095238095,4,1,0,80,0,0
252869,-59.1715976331361,4,1,0,80,0,0
252979,-58.8235294117647,4,1,0,80,0,0
253090,-58.4795321637427,4,1,0,80,0,0
253200,-58.1395348837209,4,1,0,80,0,0
253421,-57.4712643678161,4,1,0,80,0,0
253494,-57.1428571428571,4,1,0,80,0,0
253568,-56.8181818181818,4,1,0,80,0,0
253641,-56.4971751412429,4,1,0,80,0,0
253715,-56.1797752808989,4,1,0,80,0,0
253788,-55.8659217877095,4,1,0,80,0,0
253862,-55.5555555555556,4,1,0,80,0,0
254303,-66.6666666666667,4,1,0,80,0,0
254413,-66.2251655629139,4,1,0,80,0,0
254524,-65.7894736842105,4,1,0,80,0,0
254634,-65.359477124183,4,1,0,80,0,0
254744,-64.9350649350649,4,1,0,80,0,0
254854,-64.5161290322581,4,1,0,80,0,0
254965,-64.1025641025641,4,1,0,80,0,0
255075,-63.6942675159236,4,1,0,80,0,0
255185,-63.2911392405063,4,1,0,80,0,0
255296,-62.8930817610063,4,1,0,80,0,0
255406,-62.5,4,1,0,80,0,0
255516,-61.7283950617284,4,1,0,80,0,0
255627,-60.9756097560976,4,1,0,50,0,0
255700,-60.2409638554217,4,1,0,60,0,0
255774,-59.5238095238095,4,1,0,70,0,0
255847,-58.8235294117647,4,1,0,80,0,0
256068,-62.5,4,1,0,60,0,0
256288,-64.1025641025641,4,1,0,40,0,0
256399,-64.9350649350649,4,1,0,45,0,0
256509,-65.7894736842105,4,1,0,50,0,0
256619,-66.6666666666667,4,1,0,55,0,0
256729,-67.5675675675676,4,1,0,60,0,0
256840,-68.4931506849315,4,1,0,65,0,0
256950,-69.4444444444444,4,1,0,70,0,0
257060,-70.4225352112676,4,1,0,75,0,0
257171,-71.4285714285714,4,1,0,80,0,0
257281,-50,4,1,0,80,0,0
257612,-40,4,1,0,80,0,0
257832,-40,4,1,0,78,0,0
258073,-66.6666666666667,4,1,0,76,0,0
258294,-66.6666666666667,4,1,0,74,0,0
258514,-66.6666666666667,4,1,0,72,0,0
258735,-66.6666666666667,4,1,0,70,0,0
258955,-66.6666666666667,4,1,0,68,0,0
259176,-66.6666666666667,4,1,0,66,0,0
259397,-66.6666666666667,4,1,0,64,0,0
259617,-66.6666666666667,4,1,0,62,0,0
259838,-66.6666666666667,4,1,0,60,0,0
260058,-66.6666666666667,4,1,0,58,0,0
260279,-66.6666666666667,4,1,0,56,0,0
260499,-66.6666666666667,4,1,0,54,0,0
260720,-66.6666666666667,4,1,0,52,0,0
260941,-66.6666666666667,4,1,0,50,0,0
261161,-66.6666666666667,4,1,0,48,0,0
261382,-66.6666666666667,4,1,0,46,0,0
261602,-66.6666666666667,4,1,0,44,0,0
261823,-66.6666666666667,4,1,0,42,0,0
262044,-66.6666666666667,4,1,0,40,0,0
262264,-66.6666666666667,4,1,0,38,0,0
262485,-66.6666666666667,4,1,0,36,0,0
262705,-66.6666666666667,4,1,0,34,0,0
262926,-66.6666666666667,4,1,0,32,0,0
263147,-66.6666666666667,4,1,0,30,0,0
263367,-66.6666666666667,4,1,0,28,0,0
263588,-66.6666666666667,4,1,0,26,0,0
263808,-66.6666666666667,4,1,0,22,0,0
264029,-66.6666666666667,4,1,0,22,0,0
264249,-66.6666666666667,4,1,0,20,0,0

[HitObjects]
256,192,1750,5,0,0:0:0:0:
256,192,1970,1,0,0:0:0:0:
256,192,2080,1,8,0:0:0:0:
256,192,2136,1,8,0:0:0:0:
256,192,2411,1,8,0:0:0:0:
256,192,2632,1,0,0:0:0:0:
256,192,2742,1,0,0:0:0:0:
256,192,2852,1,8,0:0:0:0:
256,192,3183,1,12,0:0:0:0:
256,192,3514,1,4,0:0:0:0:
256,192,3955,1,8,0:0:0:0:
256,192,4176,1,0,0:0:0:0:
256,192,4323,1,8,0:0:0:0:
256,192,4397,1,0,0:0:0:0:
256,192,4544,1,8,0:0:0:0:
256,192,4617,1,0,0:0:0:0:
256,192,4727,1,0,0:0:0:0:
256,192,4838,1,8,0:0:0:0:
256,192,4985,1,0,0:0:0:0:
256,192,5058,1,8,0:0:0:0:
256,192,5205,1,8,0:0:0:0:
256,192,5279,1,0,0:0:0:0:
256,192,5499,1,0,0:0:0:0:
256,192,5720,1,8,0:0:0:0:
256,192,5941,1,8,0:0:0:0:
256,192,6088,1,0,0:0:0:0:
256,192,6161,1,8,0:0:0:0:
256,192,6308,1,8,0:0:0:0:
256,192,6382,1,0,0:0:0:0:
256,192,6602,1,8,0:0:0:0:
256,192,6713,1,4,0:0:0:0:
256,192,7044,1,4,0:0:0:0:
256,192,7485,1,8,0:0:0:0:
256,192,7705,1,0,0:0:0:0:
256,192,7852,1,8,0:0:0:0:
256,192,7926,1,0,0:0:0:0:
256,192,8073,1,8,0:0:0:0:
256,192,8147,1,0,0:0:0:0:
256,192,8257,1,0,0:0:0:0:
256,192,8367,1,8,0:0:0:0:
256,192,8514,1,0,0:0:0:0:
256,192,8588,1,8,0:0:0:0:
256,192,8735,1,8,0:0:0:0:
256,192,8808,1,0,0:0:0:0:
256,192,9029,1,0,0:0:0:0:
256,192,9176,1,0,0:0:0:0:
256,192,9249,1,8,0:0:0:0:
256,192,9470,1,8,0:0:0:0:
256,192,9617,1,0,0:0:0:0:
256,192,9691,1,8,0:0:0:0:
256,192,9838,1,8,0:0:0:0:
256,192,9911,1,0,0:0:0:0:
256,192,10058,1,0,0:0:0:0:
256,192,10132,1,8,0:0:0:0:
256,192,10242,1,4,0:0:0:0:
256,192,10573,1,4,0:0:0:0:
256,192,11014,1,8,0:0:0:0:
256,192,11235,1,0,0:0:0:0:
256,192,11382,1,8,0:0:0:0:
256,192,11455,1,0,0:0:0:0:
256,192,11602,1,8,0:0:0:0:
256,192,11676,1,0,0:0:0:0:
256,192,11786,1,0,0:0:0:0:
256,192,11897,1,8,0:0:0:0:
256,192,12044,1,0,0:0:0:0:
256,192,12117,1,8,0:0:0:0:
256,192,12264,1,8,0:0:0:0:
256,192,12338,1,0,0:0:0:0:
256,192,12558,1,0,0:0:0:0:
256,192,12779,1,8,0:0:0:0:
256,192,12999,1,8,0:0:0:0:
256,192,13147,1,0,0:0:0:0:
256,192,13220,1,8,0:0:0:0:
256,192,13367,1,8,0:0:0:0:
256,192,13441,1,0,0:0:0:0:
256,192,13661,1,8,0:0:0:0:
256,192,13772,1,4,0:0:0:0:
256,192,14102,1,4,0:0:0:0:
256,192,14544,1,8,0:0:0:0:
256,192,14764,1,0,0:0:0:0:
256,192,14911,1,8,0:0:0:0:
256,192,14985,1,0,0:0:0:0:
256,192,15205,1,0,0:0:0:0:
256,192,15316,1,0,0:0:0:0:
256,192,15426,1,8,0:0:0:0:
256,192,15536,1,8,0:0:0:0:
256,192,15647,1,8,0:0:0:0:
256,192,15757,1,8,0:0:0:0:
256,192,15867,1,8,0:0:0:0:
256,192,16088,1,0,0:0:0:0:
256,192,16308,1,8,0:0:0:0:
256,192,16529,1,8,0:0:0:0:
256,192,16749,1,8,0:0:0:0:
256,192,16970,1,0,0:0:0:0:
256,192,17191,1,0,0:0:0:0:
256,192,17301,1,12,0:0:0:0:
256,192,17632,5,4,0:0:0:0:
256,192,18073,1,8,0:0:0:0:
256,192,18294,1,0,0:0:0:0:
256,192,18441,1,8,0:0:0:0:
256,192,18514,1,0,0:0:0:0:
256,192,18661,1,8,0:0:0:0:
256,192,18735,1,0,0:0:0:0:
256,192,18845,1,0,0:0:0:0:
256,192,18955,1,8,0:0:0:0:
256,192,19102,1,0,0:0:0:0:
256,192,19176,1,8,0:0:0:0:
256,192,19323,1,8,0:0:0:0:
256,192,19397,1,0,0:0:0:0:
256,192,19617,1,0,0:0:0:0:
256,192,19838,1,8,0:0:0:0:
256,192,20058,1,8,0:0:0:0:
256,192,20205,1,0,0:0:0:0:
256,192,20279,1,8,0:0:0:0:
256,192,20426,1,8,0:0:0:0:
256,192,20499,1,0,0:0:0:0:
256,192,20720,1,8,0:0:0:0:
256,192,20830,1,4,0:0:0:0:
256,192,21161,1,4,0:0:0:0:
256,192,21602,1,8,0:0:0:0:
256,192,21823,1,0,0:0:0:0:
256,192,21970,1,8,0:0:0:0:
256,192,22044,1,0,0:0:0:0:
256,192,22191,1,8,0:0:0:0:
256,192,22264,1,0,0:0:0:0:
256,192,22374,1,0,0:0:0:0:
256,192,22485,1,8,0:0:0:0:
256,192,22632,1,0,0:0:0:0:
256,192,22705,1,8,0:0:0:0:
256,192,22852,1,0,0:0:0:0:
256,192,22926,1,0,0:0:0:0:
256,192,23147,1,8,0:0:0:0:
256,192,23202,1,0,0:0:0:0:
256,192,23257,1,0,0:0:0:0:
256,192,23367,1,0,0:0:0:0:
256,192,23477,1,8,0:0:0:0:
256,192,23533,1,0,0:0:0:0:
256,192,23588,1,0,0:0:0:0:
256,192,23698,1,0,0:0:0:0:
256,192,23808,1,8,0:0:0:0:
256,192,23863,1,0,0:0:0:0:
256,192,23919,1,0,0:0:0:0:
256,192,24029,1,0,0:0:0:0:
256,192,24139,1,8,0:0:0:0:
256,192,24194,1,8,0:0:0:0:
256,192,24249,1,8,0:0:0:0:
256,192,24360,1,4,0:0:0:0:
256,192,24691,1,4,0:0:0:0:
256,192,24911,1,8,0:0:0:0:
256,192,25022,1,0,0:0:0:0:
256,192,25132,1,0,0:0:0:0:
256,192,25242,1,0,0:0:0:0:
256,192,25352,1,8,0:0:0:0:
256,192,25463,1,0,0:0:0:0:
256,192,25573,1,8,0:0:0:0:
256,192,25794,1,8,0:0:0:0:
256,192,25904,1,0,0:0:0:0:
256,192,26014,1,0,0:0:0:0:
256,192,26124,1,0,0:0:0:0:
256,192,26235,1,8,0:0:0:0:
256,192,26455,1,0,0:0:0:0:
256,192,26566,1,0,0:0:0:0:
256,192,26676,1,8,0:0:0:0:
256,192,26897,1,8,0:0:0:0:
256,192,27007,1,0,0:0:0:0:
256,192,27117,1,0,0:0:0:0:
256,192,27227,1,0,0:0:0:0:
256,192,27338,1,8,0:0:0:0:
256,192,27558,1,8,0:0:0:0:
256,192,27632,1,8,0:0:0:0:
256,192,27705,1,8,0:0:0:0:
256,192,27779,1,0,0:0:0:0:
256,192,27852,1,0,0:0:0:0:
256,192,27926,1,0,0:0:0:0:
256,192,27999,1,8,0:0:0:0:
256,192,28073,1,0,0:0:0:0:
256,192,28147,1,0,0:0:0:0:
256,192,28220,1,8,0:0:0:0:
256,192,28441,1,0,0:0:0:0:
256,192,28551,1,0,0:0:0:0:
256,192,28661,1,8,0:0:0:0:
256,192,28772,1,8,0:0:0:0:
256,192,28882,1,0,0:0:0:0:
256,192,28992,1,0,0:0:0:0:
256,192,29102,1,8,0:0:0:0:
256,192,29213,1,8,0:0:0:0:
256,192,29323,1,0,0:0:0:0:
256,192,29433,1,0,0:0:0:0:
256,192,29544,1,8,0:0:0:0:
256,192,29654,1,8,0:0:0:0:
256,192,29764,1,0,0:0:0:0:
256,192,29838,1,8,0:0:0:0:
256,192,29911,1,8,0:0:0:0:
256,192,29985,1,0,0:0:0:0:
256,192,30205,1,8,0:0:0:0:
256,192,30426,1,8,0:0:0:0:
256,192,30536,1,8,0:0:0:0:
256,192,30647,1,8,0:0:0:0:
256,192,30757,1,8,0:0:0:0:
256,192,30867,1,0,0:0:0:0:
256,192,30977,1,8,0:0:0:0:
256,192,31088,1,8,0:0:0:0:
256,192,31198,1,0,0:0:0:0:
256,192,31308,1,8,0:0:0:0:
256,192,31419,1,4,0:0:0:0:
256,192,31749,1,12,0:0:0:0:
256,192,32191,12,0,43220,0:0:0:0:
256,192,43661,5,8,0:0:0:0:
256,192,43735,1,8,0:0:0:0:
256,192,43808,1,8,0:0:0:0:
256,192,43882,1,8,0:0:0:0:
256,192,43955,1,8,0:0:0:0:
256,192,44029,1,8,0:0:0:0:
256,192,44102,1,0,0:0:0:0:
256,192,44176,1,0,0:0:0:0:
256,192,44249,1,0,0:0:0:0:
256,192,44323,1,0,0:0:0:0:
256,192,44433,1,0,0:0:0:0:
256,192,44544,1,0,0:0:0:0:
256,192,44764,1,8,0:0:0:0:
256,192,44838,1,8,0:0:0:0:
256,192,44911,1,0,0:0:0:0:
256,192,44985,1,0,0:0:0:0:
256,192,45095,1,0,0:0:0:0:
256,192,45205,1,12,0:0:0:0:
256,192,45536,1,12,0:0:0:0:
256,192,45867,1,4,0:0:0:0:
256,192,46088,1,0,0:0:0:0:
256,192,46198,1,0,0:0:0:0:
256,192,46308,1,8,0:0:0:0:
256,192,46529,1,0,0:0:0:0:
256,192,46639,1,0,0:0:0:0:
256,192,46749,1,0,0:0:0:0:
256,192,46970,1,8,0:0:0:0:
256,192,47191,1,8,0:0:0:0:
256,192,47411,1,8,0:0:0:0:
256,192,47522,1,0,0:0:0:0:
256,192,47632,1,8,0:0:0:0:
256,192,47742,1,0,0:0:0:0:
256,192,47852,1,8,0:0:0:0:
256,192,47963,1,0,0:0:0:0:
256,192,48073,1,8,0:0:0:0:
256,192,48294,1,8,0:0:0:0:
256,192,48404,1,0,0:0:0:0:
256,192,48514,1,8,0:0:0:0:
256,192,48735,1,8,0:0:0:0:
256,192,48845,1,0,0:0:0:0:
256,192,48955,1,8,0:0:0:0:
256,192,49066,1,4,0:0:0:0:
256,192,49397,1,4,0:0:0:0:
256,192,49838,1,8,0:0:0:0:
256,192,50058,1,8,0:0:0:0:
256,192,50169,1,0,0:0:0:0:
256,192,50279,1,8,0:0:0:0:
256,192,50499,1,8,0:0:0:0:
256,192,50610,1,0,0:0:0:0:
256,192,50720,1,0,0:0:0:0:
256,192,50941,1,8,0:0:0:0:
256,192,51051,1,0,0:0:0:0:
256,192,51161,1,8,0:0:0:0:
256,192,51272,1,0,0:0:0:0:
256,192,51382,1,8,0:0:0:0:
256,192,51492,1,0,0:0:0:0:
256,192,51602,1,8,0:0:0:0:
256,192,51713,1,8,0:0:0:0:
256,192,51823,1,8,0:0:0:0:
256,192,51933,1,0,0:0:0:0:
256,192,52044,1,8,0:0:0:0:
256,192,52117,1,0,0:0:0:0:
256,192,52191,1,0,0:0:0:0:
256,192,52264,1,8,0:0:0:0:
256,192,52338,1,0,0:0:0:0:
256,192,52411,1,0,0:0:0:0:
256,192,52485,1,8,0:0:0:0:
256,192,52595,1,4,0:0:0:0:
256,192,52926,5,0,0:0:0:0:
256,192,53147,1,0,0:0:0:0:
256,192,53367,1,0,0:0:0:0:
256,192,53588,1,0,0:0:0:0:
256,192,53808,1,0,0:0:0:0:
256,192,54029,1,0,0:0:0:0:
256,192,54249,1,0,0:0:0:0:
256,192,54470,1,0,0:0:0:0:
256,192,54691,1,0,0:0:0:0:
256,192,54911,1,0,0:0:0:0:
256,192,55132,1,0,0:0:0:0:
256,192,55352,1,0,0:0:0:0:
256,192,55573,1,0,0:0:0:0:
256,192,55794,1,0,0:0:0:0:
256,192,56014,1,0,0:0:0:0:
256,192,56235,1,0,0:0:0:0:
256,192,56455,1,0,0:0:0:0:
256,192,56566,1,0,0:0:0:0:
256,192,56676,1,0,0:0:0:0:
256,192,56786,1,0,0:0:0:0:
256,192,56897,1,0,0:0:0:0:
256,192,57007,1,0,0:0:0:0:
256,192,57117,1,0,0:0:0:0:
256,192,57227,1,0,0:0:0:0:
256,192,57338,1,0,0:0:0:0:
256,192,57448,1,0,0:0:0:0:
256,192,57558,1,0,0:0:0:0:
256,192,57669,1,0,0:0:0:0:
256,192,57779,1,8,0:0:0:0:
256,192,57852,1,8,0:0:0:0:
256,192,57926,1,8,0:0:0:0:
256,192,57999,1,8,0:0:0:0:
256,192,58073,1,8,0:0:0:0:
256,192,58147,1,8,0:0:0:0:
256,192,58220,1,0,0:0:0:0:
256,192,59654,1,12,0:0:0:0:
256,192,59985,5,4,0:0:0:0:
256,192,60426,1,8,0:0:0:0:
256,192,60536,1,0,0:0:0:0:
256,192,60757,1,0,0:0:0:0:
256,192,60977,1,0,0:0:0:0:
256,192,61088,1,0,0:0:0:0:
256,192,61308,1,8,0:0:0:0:
256,192,61419,1,0,0:0:0:0:
256,192,61529,1,0,0:0:0:0:
256,192,61639,1,8,0:0:0:0:
256,192,61860,1,0,0:0:0:0:
256,192,61970,1,0,0:0:0:0:
256,192,62191,1,8,0:0:0:0:
256,192,62301,1,0,0:0:0:0:
256,192,62522,1,0,0:0:0:0:
256,192,62742,1,0,0:0:0:0:
256,192,62852,1,0,0:0:0:0:
256,192,63073,1,0,0:0:0:0:
256,192,63183,1,12,0:0:0:0:
256,192,63514,1,4,0:0:0:0:
256,192,63955,1,8,0:0:0:0:
256,192,64066,1,0,0:0:0:0:
256,192,64286,1,0,0:0:0:0:
256,192,64507,1,0,0:0:0:0:
256,192,64617,1,0,0:0:0:0:
256,192,64838,1,8,0:0:0:0:
256,192,64948,1,0,0:0:0:0:
256,192,65058,1,0,0:0:0:0:
256,192,65169,1,8,0:0:0:0:
256,192,65389,1,0,0:0:0:0:
256,192,65499,1,0,0:0:0:0:
256,192,65720,1,8,0:0:0:0:
256,192,65830,1,0,0:0:0:0:
256,192,66051,1,8,0:0:0:0:
256,192,66272,1,0,0:0:0:0:
256,192,66382,1,0,0:0:0:0:
256,192,66602,1,0,0:0:0:0:
256,192,66713,1,12,0:0:0:0:
256,192,67044,1,4,0:0:0:0:
256,192,67485,1,8,0:0:0:0:
256,192,67595,1,0,0:0:0:0:
256,192,67816,1,0,0:0:0:0:
256,192,68036,1,0,0:0:0:0:
256,192,68147,1,0,0:0:0:0:
256,192,68367,1,8,0:0:0:0:
256,192,68477,1,0,0:0:0:0:
256,192,68588,1,0,0:0:0:0:
256,192,68698,1,8,0:0:0:0:
256,192,68919,1,0,0:0:0:0:
256,192,69029,1,0,0:0:0:0:
256,192,69249,1,8,0:0:0:0:
256,192,69360,1,0,0:0:0:0:
256,192,69580,1,8,0:0:0:0:
256,192,69801,1,0,0:0:0:0:
256,192,69911,1,0,0:0:0:0:
256,192,70132,1,0,0:0:0:0:
256,192,70242,1,12,0:0:0:0:
256,192,70573,1,4,0:0:0:0:
256,192,71014,1,8,0:0:0:0:
256,192,71124,1,0,0:0:0:0:
256,192,71345,1,8,0:0:0:0:
256,192,71455,1,8,0:0:0:0:
256,192,71566,1,8,0:0:0:0:
256,192,71676,1,0,0:0:0:0:
256,192,71897,1,8,0:0:0:0:
256,192,72007,1,0,0:0:0:0:
256,192,72117,1,8,0:0:0:0:
256,192,72227,1,8,0:0:0:0:
256,192,72338,1,0,0:0:0:0:
256,192,72558,1,0,0:0:0:0:
256,192,72779,1,8,0:0:0:0:
256,192,72999,1,0,0:0:0:0:
256,192,73110,1,0,0:0:0:0:
256,192,73220,1,8,0:0:0:0:
256,192,73441,1,0,0:0:0:0:
256,192,73661,1,8,0:0:0:0:
256,192,73882,1,8,0:0:0:0:
256,192,74102,1,4,0:0:0:0:
256,192,74544,5,8,0:0:0:0:
256,192,74654,1,0,0:0:0:0:
256,192,74874,1,0,0:0:0:0:
256,192,75095,1,0,0:0:0:0:
256,192,75205,1,0,0:0:0:0:
256,192,75426,1,8,0:0:0:0:
256,192,75536,1,0,0:0:0:0:
256,192,75647,1,0,0:0:0:0:
256,192,75757,1,8,0:0:0:0:
256,192,75977,1,0,0:0:0:0:
256,192,76088,1,0,0:0:0:0:
256,192,76308,1,8,0:0:0:0:
256,192,76419,1,0,0:0:0:0:
256,192,76639,1,8,0:0:0:0:
256,192,76860,1,0,0:0:0:0:
256,192,76970,1,0,0:0:0:0:
256,192,77191,1,8,0:0:0:0:
256,192,77301,1,4,0:0:0:0:
256,192,77632,1,4,0:0:0:0:
256,192,78073,1,8,0:0:0:0:
256,192,78183,1,0,0:0:0:0:
256,192,78404,1,0,0:0:0:0:
256,192,78624,1,0,0:0:0:0:
256,192,78735,1,0,0:0:0:0:
256,192,78955,1,8,0:0:0:0:
256,192,79066,1,0,0:0:0:0:
256,192,79176,1,0,0:0:0:0:
256,192,79286,1,8,0:0:0:0:
256,192,79507,1,0,0:0:0:0:
256,192,79617,1,0,0:0:0:0:
256,192,79838,1,8,0:0:0:0:
256,192,79948,1,0,0:0:0:0:
256,192,80169,1,8,0:0:0:0:
256,192,80389,1,0,0:0:0:0:
256,192,80499,1,0,0:0:0:0:
256,192,80647,1,0,0:0:0:0:
256,192,80720,1,8,0:0:0:0:
256,192,80830,1,4,0:0:0:0:
256,192,81161,1,4,0:0:0:0:
256,192,81602,1,0,0:0:0:0:
256,192,81823,1,8,0:0:0:0:
256,192,81970,1,0,0:0:0:0:
256,192,82044,1,0,0:0:0:0:
256,192,82191,1,0,0:0:0:0:
256,192,82264,1,8,0:0:0:0:
256,192,82411,1,8,0:0:0:0:
256,192,82485,1,0,0:0:0:0:
256,192,82632,1,0,0:0:0:0:
256,192,82705,1,8,0:0:0:0:
256,192,82926,1,4,0:0:0:0:
256,192,83367,1,0,0:0:0:0:
256,192,83514,1,8,0:0:0:0:
256,192,83588,1,8,0:0:0:0:
256,192,83735,1,8,0:0:0:0:
256,192,83808,1,0,0:0:0:0:
256,192,83955,1,8,0:0:0:0:
256,192,84029,1,0,0:0:0:0:
256,192,84176,1,8,0:0:0:0:
256,192,84249,1,0,0:0:0:0:
256,192,84397,1,0,0:0:0:0:
256,192,84470,1,8,0:0:0:0:
256,192,84691,1,4,0:0:0:0:
256,192,85132,1,4,0:0:0:0:
256,192,85573,1,4,0:0:0:0:
256,192,86014,1,4,0:0:0:0:
256,192,86235,1,0,0:0:0:0:
256,192,86308,1,0,0:0:0:0:
256,192,86382,1,0,0:0:0:0:
256,192,86455,1,8,0:0:0:0:
256,192,86529,1,8,0:0:0:0:
256,192,86602,1,8,0:0:0:0:
256,192,86676,1,0,0:0:0:0:
256,192,86897,1,8,0:0:0:0:
256,192,87117,1,0,0:0:0:0:
256,192,87191,1,0,0:0:0:0:
256,192,87264,1,0,0:0:0:0:
256,192,87338,1,8,0:0:0:0:
256,192,87558,1,0,0:0:0:0:
256,192,87779,1,8,0:0:0:0:
256,192,87889,1,4,0:0:0:0:
256,192,88220,5,4,0:0:0:0:
256,192,88661,1,8,0:0:0:0:
256,192,88772,1,0,0:0:0:0:
256,192,88992,1,0,0:0:0:0:
256,192,89213,1,0,0:0:0:0:
256,192,89323,1,0,0:0:0:0:
256,192,89544,1,8,0:0:0:0:
256,192,89654,1,0,0:0:0:0:
256,192,89764,1,8,0:0:0:0:
256,192,89985,1,8,0:0:0:0:
256,192,90205,1,0,0:0:0:0:
256,192,90316,1,8,0:0:0:0:
256,192,90426,1,8,0:0:0:0:
256,192,90647,1,0,0:0:0:0:
256,192,90867,1,8,0:0:0:0:
256,192,91088,1,0,0:0:0:0:
256,192,91198,5,0,0:0:0:0:
256,192,91308,1,8,0:0:0:0:
256,192,91419,1,4,0:0:0:0:
256,192,91749,1,4,0:0:0:0:
256,192,92191,1,8,0:0:0:0:
256,192,92301,1,0,0:0:0:0:
256,192,92522,1,0,0:0:0:0:
256,192,92742,1,0,0:0:0:0:
256,192,92852,1,0,0:0:0:0:
256,192,93073,1,8,0:0:0:0:
256,192,93183,1,0,0:0:0:0:
256,192,93294,1,8,0:0:0:0:
256,192,93514,1,8,0:0:0:0:
256,192,93624,1,8,0:0:0:0:
256,192,93735,1,0,0:0:0:0:
256,192,93845,1,8,0:0:0:0:
256,192,93955,1,0,0:0:0:0:
256,192,94066,1,8,0:0:0:0:
256,192,94176,1,0,0:0:0:0:
256,192,94286,1,0,0:0:0:0:
256,192,94397,1,8,0:0:0:0:
256,192,94617,1,0,0:0:0:0:
256,192,94838,1,8,0:0:0:0:
256,192,94948,1,4,0:0:0:0:
256,192,95279,1,4,0:0:0:0:
256,192,95720,1,8,0:0:0:0:
256,192,95830,1,0,0:0:0:0:
256,192,96051,1,0,0:0:0:0:
256,192,96272,1,0,0:0:0:0:
256,192,96382,1,0,0:0:0:0:
256,192,96602,1,8,0:0:0:0:
256,192,96713,1,0,0:0:0:0:
256,192,96823,1,8,0:0:0:0:
256,192,97044,1,8,0:0:0:0:
256,192,97154,1,8,0:0:0:0:
256,192,97264,1,0,0:0:0:0:
256,192,97374,1,0,0:0:0:0:
256,192,97485,1,8,0:0:0:0:
256,192,97705,1,0,0:0:0:0:
256,192,97926,1,0,0:0:0:0:
256,192,97999,1,8,0:0:0:0:
256,192,98073,1,8,0:0:0:0:
256,192,98147,1,0,0:0:0:0:
256,192,98257,1,8,0:0:0:0:
256,192,98367,1,8,0:0:0:0:
256,192,98477,1,4,0:0:0:0:
256,192,98808,1,4,0:0:0:0:
256,192,99249,1,8,0:0:0:0:
256,192,99360,1,0,0:0:0:0:
256,192,99580,1,0,0:0:0:0:
256,192,99801,1,0,0:0:0:0:
256,192,99911,1,0,0:0:0:0:
256,192,100132,1,8,0:0:0:0:
256,192,100352,1,0,0:0:0:0:
256,192,100499,1,0,0:0:0:0:
256,192,100573,1,8,0:0:0:0:
256,192,100720,1,8,0:0:0:0:
256,192,100794,1,0,0:0:0:0:
256,192,100941,1,0,0:0:0:0:
256,192,101014,1,8,0:0:0:0:
256,192,101161,1,8,0:0:0:0:
256,192,101235,1,0,0:0:0:0:
256,192,101308,1,0,0:0:0:0:
256,192,101382,1,8,0:0:0:0:
256,192,101602,1,8,0:0:0:0:
256,192,101676,1,0,0:0:0:0:
256,192,101897,1,0,0:0:0:0:
256,192,102007,1,12,0:0:0:0:
256,192,102338,1,4,0:0:0:0:
256,192,102779,1,8,0:0:0:0:
256,192,102889,1,0,0:0:0:0:
256,192,103110,1,0,0:0:0:0:
256,192,103330,1,0,0:0:0:0:
256,192,103441,1,0,0:0:0:0:
256,192,103661,1,8,0:0:0:0:
256,192,103772,1,0,0:0:0:0:
256,192,103882,1,8,0:0:0:0:
256,192,104102,1,8,0:0:0:0:
256,192,104323,1,0,0:0:0:0:
256,192,104433,1,8,0:0:0:0:
256,192,104544,1,8,0:0:0:0:
256,192,104764,1,0,0:0:0:0:
256,192,104985,1,8,0:0:0:0:
256,192,105205,1,0,0:0:0:0:
256,192,105316,1,8,0:0:0:0:
256,192,105426,1,8,0:0:0:0:
256,192,105536,1,4,0:0:0:0:
256,192,105867,1,4,0:0:0:0:
256,192,106308,1,8,0:0:0:0:
256,192,106419,1,0,0:0:0:0:
256,192,106639,1,0,0:0:0:0:
256,192,106860,1,0,0:0:0:0:
256,192,106970,1,0,0:0:0:0:
256,192,107191,1,8,0:0:0:0:
256,192,107301,1,0,0:0:0:0:
256,192,107411,1,8,0:0:0:0:
256,192,107632,1,0,0:0:0:0:
256,192,107742,1,0,0:0:0:0:
256,192,107852,1,8,0:0:0:0:
256,192,107963,1,8,0:0:0:0:
256,192,108073,1,0,0:0:0:0:
256,192,108183,1,8,0:0:0:0:
256,192,108294,1,0,0:0:0:0:
256,192,108404,1,0,0:0:0:0:
256,192,108514,1,12,0:0:0:0:
256,192,109066,1,12,0:0:0:0:
256,192,109397,1,0,0:0:0:0:
256,192,109507,1,0,0:0:0:0:
256,192,109617,1,8,0:0:0:0:
256,192,109727,1,0,0:0:0:0:
256,192,109838,1,8,0:0:0:0:
256,192,109948,1,8,0:0:0:0:
256,192,110058,1,0,0:0:0:0:
256,192,110169,1,8,0:0:0:0:
256,192,110279,1,0,0:0:0:0:
256,192,110389,1,0,0:0:0:0:
256,192,110499,1,8,0:0:0:0:
256,192,110610,1,0,0:0:0:0:
256,192,110720,1,8,0:0:0:0:
256,192,110830,1,8,0:0:0:0:
256,192,110941,1,0,0:0:0:0:
256,192,111051,1,8,0:0:0:0:
256,192,111161,1,0,0:0:0:0:
256,192,111272,1,0,0:0:0:0:
256,192,111382,1,0,0:0:0:0:
256,192,111492,1,8,0:0:0:0:
256,192,111602,1,8,0:0:0:0:
256,192,111713,1,0,0:0:0:0:
256,192,111823,1,8,0:0:0:0:
256,192,111933,1,0,0:0:0:0:
256,192,112044,1,8,0:0:0:0:
256,192,112154,1,8,0:0:0:0:
256,192,112264,1,0,0:0:0:0:
256,192,112374,1,8,0:0:0:0:
256,192,112485,1,0,0:0:0:0:
256,192,112595,1,0,0:0:0:0:
256,192,112705,1,8,0:0:0:0:
256,192,112816,1,8,0:0:0:0:
256,192,112926,1,0,0:0:0:0:
256,192,113036,1,0,0:0:0:0:
256,192,113147,1,8,0:0:0:0:
256,192,113257,1,0,0:0:0:0:
256,192,113367,1,8,0:0:0:0:
256,192,113477,1,8,0:0:0:0:
256,192,113588,1,0,0:0:0:0:
256,192,113698,1,8,0:0:0:0:
256,192,113808,1,0,0:0:0:0:
256,192,113919,1,0,0:0:0:0:
256,192,114029,1,8,0:0:0:0:
256,192,114139,1,0,0:0:0:0:
256,192,114249,1,0,0:0:0:0:
256,192,114323,1,0,0:0:0:0:
256,192,114397,1,0,0:0:0:0:
256,192,114470,1,8,0:0:0:0:
256,192,114544,1,8,0:0:0:0:
256,192,114617,1,8,0:0:0:0:
256,192,114691,1,8,0:0:0:0:
256,192,114911,1,8,0:0:0:0:
256,192,115132,1,0,0:0:0:0:
256,192,115352,1,0,0:0:0:0:
256,192,115408,1,0,0:0:0:0:
256,192,115463,1,0,0:0:0:0:
256,192,115518,1,0,0:0:0:0:
256,192,115573,1,8,0:0:0:0:
256,192,115794,1,0,0:0:0:0:
256,192,115849,1,0,0:0:0:0:
256,192,115904,1,0,0:0:0:0:
256,192,115959,1,0,0:0:0:0:
256,192,116014,1,8,0:0:0:0:
256,192,116455,1,12,0:0:0:0:
256,192,116897,12,4,123294,0:0:0:0:
256,192,123514,5,0,0:0:0:0:
256,192,123845,1,8,0:0:0:0:
256,192,124176,1,0,0:0:0:0:
256,192,124397,1,0,0:0:0:0:
256,192,124838,1,8,0:0:0:0:
256,192,125279,1,0,0:0:0:0:
256,192,125610,1,8,0:0:0:0:
256,192,125941,1,0,0:0:0:0:
256,192,126161,1,0,0:0:0:0:
256,192,126602,1,8,0:0:0:0:
256,192,127044,1,0,0:0:0:0:
256,192,127374,1,8,0:0:0:0:
256,192,127705,1,0,0:0:0:0:
256,192,127926,1,0,0:0:0:0:
256,192,128367,1,8,0:0:0:0:
256,192,128808,1,0,0:0:0:0:
256,192,129139,1,8,0:0:0:0:
256,192,129470,1,0,0:0:0:0:
256,192,129691,1,0,0:0:0:0:
256,192,129911,1,0,0:0:0:0:
256,192,129985,1,8,0:0:0:0:
256,192,130058,1,0,0:0:0:0:
256,192,130132,1,0,0:0:0:0:
256,192,130205,1,8,0:0:0:0:
256,192,130279,1,0,0:0:0:0:
256,192,130352,1,0,0:0:0:0:
256,192,130426,1,8,0:0:0:0:
256,192,130499,1,8,0:0:0:0:
256,192,130573,1,8,0:0:0:0:
256,192,131676,1,0,0:0:0:0:
256,192,131897,1,8,0:0:0:0:
256,192,132227,1,0,0:0:0:0:
256,192,133441,1,0,0:0:0:0:
256,192,133661,1,8,0:0:0:0:
256,192,133992,1,0,0:0:0:0:
256,192,135205,1,0,0:0:0:0:
256,192,135426,1,0,0:0:0:0:
256,192,135536,1,0,0:0:0:0:
256,192,135647,1,8,0:0:0:0:
256,192,135757,1,0,0:0:0:0:
256,192,135867,1,8,0:0:0:0:
256,192,136529,1,0,0:0:0:0:
256,192,136749,1,8,0:0:0:0:
256,192,136970,1,0,0:0:0:0:
256,192,137080,1,8,0:0:0:0:
256,192,137191,1,0,0:0:0:0:
256,192,137632,1,8,0:0:0:0:
256,192,138735,1,0,0:0:0:0:
256,192,138955,1,8,0:0:0:0:
256,192,139286,1,0,0:0:0:0:
256,192,140499,1,0,0:0:0:0:
256,192,140720,1,8,0:0:0:0:
256,192,140830,1,0,0:0:0:0:
256,192,140941,1,0,0:0:0:0:
256,192,141051,1,8,0:0:0:0:
256,192,142264,1,8,0:0:0:0:
256,192,142485,1,8,0:0:0:0:
256,192,142595,1,0,0:0:0:0:
256,192,142705,1,0,0:0:0:0:
256,192,142779,1,0,0:0:0:0:
256,192,142852,1,0,0:0:0:0:
256,192,142926,1,8,0:0:0:0:
256,192,143808,1,8,0:0:0:0:
256,192,143882,1,0,0:0:0:0:
256,192,143955,1,0,0:0:0:0:
256,192,144029,1,8,0:0:0:0:
256,192,144102,1,0,0:0:0:0:
256,192,144176,1,0,0:0:0:0:
256,192,144249,1,8,0:0:0:0:
256,192,144323,1,0,0:0:0:0:
256,192,144397,1,0,0:0:0:0:
256,192,144470,1,0,0:0:0:0:
256,192,144544,1,8,0:0:0:0:
256,192,144617,1,8,0:0:0:0:
256,192,144691,5,8,0:0:0:0:
256,192,145132,1,0,0:0:0:0:
256,192,146014,1,8,0:0:0:0:
256,192,146345,1,0,0:0:0:0:
256,192,146897,1,0,0:0:0:0:
256,192,147558,1,0,0:0:0:0:
256,192,147779,1,8,0:0:0:0:
256,192,148110,1,0,0:0:0:0:
256,192,148661,1,0,0:0:0:0:
256,192,149323,1,0,0:0:0:0:
256,192,149544,1,0,0:0:0:0:
256,192,149654,1,0,0:0:0:0:
256,192,149764,1,8,0:0:0:0:
256,192,149874,1,0,0:0:0:0:
256,192,149985,1,8,0:0:0:0:
256,192,150426,1,0,0:0:0:0:
256,192,150647,1,0,0:0:0:0:
256,192,150867,1,8,0:0:0:0:
256,192,151088,1,0,0:0:0:0:
256,192,151308,1,0,0:0:0:0:
256,192,151749,1,12,0:0:0:0:
256,192,152191,1,0,0:0:0:0:
256,192,152852,1,0,0:0:0:0:
256,192,153073,1,8,0:0:0:0:
256,192,153404,1,0,0:0:0:0:
256,192,153955,1,0,0:0:0:0:
256,192,154617,1,0,0:0:0:0:
256,192,154838,1,8,0:0:0:0:
256,192,155169,1,8,0:0:0:0:
256,192,155720,1,0,0:0:0:0:
256,192,155941,1,0,0:0:0:0:
256,192,156161,1,0,0:0:0:0:
256,192,156382,1,0,0:0:0:0:
256,192,156602,1,0,0:0:0:0:
256,192,156823,1,0,0:0:0:0:
256,192,157044,1,8,0:0:0:0:
256,192,157117,1,0,0:0:0:0:
256,192,157191,1,0,0:0:0:0:
256,192,157264,1,0,0:0:0:0:
256,192,157374,1,0,0:0:0:0:
256,192,157485,1,8,0:0:0:0:
256,192,157595,1,0,0:0:0:0:
256,192,157705,1,8,0:0:0:0:
256,192,157779,1,0,0:0:0:0:
256,192,157852,1,0,0:0:0:0:
256,192,157926,1,0,0:0:0:0:
256,192,158036,1,8,0:0:0:0:
256,192,158147,1,0,0:0:0:0:
256,192,158367,1,8,0:0:0:0:
256,192,158477,1,0,0:0:0:0:
256,192,158588,1,0,0:0:0:0:
256,192,158698,1,8,0:0:0:0:
256,192,158808,5,4,0:0:0:0:
256,192,159249,1,4,0:0:0:0:
256,192,159691,1,4,0:0:0:0:
256,192,160132,1,4,0:0:0:0:
256,192,160573,1,4,0:0:0:0:
256,192,161014,1,4,0:0:0:0:
256,192,161455,1,4,0:0:0:0:
256,192,161897,1,4,0:0:0:0:
256,192,162338,1,4,0:0:0:0:
256,192,162779,1,4,0:0:0:0:
256,192,163220,1,4,0:0:0:0:
256,192,163661,1,4,0:0:0:0:
256,192,164102,1,4,0:0:0:0:
256,192,164544,1,4,0:0:0:0:
256,192,164985,1,4,0:0:0:0:
256,192,165426,1,4,0:0:0:0:
256,192,165867,1,0,0:0:0:0:
256,192,166088,1,0,0:0:0:0:
256,192,166308,1,0,0:0:0:0:
256,192,166529,1,0,0:0:0:0:
256,192,166749,1,0,0:0:0:0:
256,192,166970,1,0,0:0:0:0:
256,192,167191,1,0,0:0:0:0:
256,192,167411,1,0,0:0:0:0:
256,192,167632,1,0,0:0:0:0:
256,192,167852,1,0,0:0:0:0:
256,192,168073,1,0,0:0:0:0:
256,192,168294,1,0,0:0:0:0:
256,192,168514,1,0,0:0:0:0:
256,192,168735,1,0,0:0:0:0:
256,192,168955,1,0,0:0:0:0:
256,192,169176,1,0,0:0:0:0:
256,192,169397,1,0,0:0:0:0:
256,192,169507,1,0,0:0:0:0:
256,192,169617,1,0,0:0:0:0:
256,192,169727,1,0,0:0:0:0:
256,192,169838,1,0,0:0:0:0:
256,192,169948,1,0,0:0:0:0:
256,192,170058,1,0,0:0:0:0:
256,192,170169,1,0,0:0:0:0:
256,192,170279,1,0,0:0:0:0:
256,192,170389,1,0,0:0:0:0:
256,192,170499,1,0,0:0:0:0:
256,192,170610,1,0,0:0:0:0:
256,192,170720,1,8,0:0:0:0:
256,192,170794,1,8,0:0:0:0:
256,192,170867,1,8,0:0:0:0:
256,192,170941,1,8,0:0:0:0:
256,192,171014,1,8,0:0:0:0:
256,192,171088,1,8,0:0:0:0:
256,192,171161,1,0,0:0:0:0:
256,192,172595,1,12,0:0:0:0:
256,192,172926,5,4,0:0:0:0:
256,192,173367,1,8,0:0:0:0:
256,192,173477,1,0,0:0:0:0:
256,192,173588,1,8,0:0:0:0:
256,192,173698,1,8,0:0:0:0:
256,192,173808,1,8,0:0:0:0:
256,192,173919,1,0,0:0:0:0:
256,192,174029,1,0,0:0:0:0:
256,192,174139,1,0,0:0:0:0:
256,192,174249,1,8,0:0:0:0:
256,192,174360,1,8,0:0:0:0:
256,192,174470,1,0,0:0:0:0:
256,192,174580,1,8,0:0:0:0:
256,192,174691,1,0,0:0:0:0:
256,192,174801,1,8,0:0:0:0:
256,192,174911,1,0,0:0:0:0:
256,192,175058,1,0,0:0:0:0:
256,192,175132,1,8,0:0:0:0:
256,192,175279,1,0,0:0:0:0:
256,192,175352,1,8,0:0:0:0:
256,192,175499,1,8,0:0:0:0:
256,192,175573,1,0,0:0:0:0:
256,192,175720,1,8,0:0:0:0:
256,192,175794,1,0,0:0:0:0:
256,192,175941,1,0,0:0:0:0:
256,192,176014,1,8,0:0:0:0:
256,192,176124,1,4,0:0:0:0:
256,192,176455,1,4,0:0:0:0:
256,192,176897,1,0,0:0:0:0:
256,192,177007,1,0,0:0:0:0:
256,192,177117,1,8,0:0:0:0:
256,192,177227,1,0,0:0:0:0:
256,192,177338,1,8,0:0:0:0:
256,192,177448,1,8,0:0:0:0:
256,192,177558,1,0,0:0:0:0:
256,192,177669,1,0,0:0:0:0:
256,192,177779,1,8,0:0:0:0:
256,192,177889,1,8,0:0:0:0:
256,192,177999,1,0,0:0:0:0:
256,192,178110,1,8,0:0:0:0:
256,192,178220,1,0,0:0:0:0:
256,192,178330,1,8,0:0:0:0:
256,192,178441,1,0,0:0:0:0:
256,192,178588,1,8,0:0:0:0:
256,192,178661,1,0,0:0:0:0:
256,192,178808,1,8,0:0:0:0:
256,192,178882,1,8,0:0:0:0:
256,192,179029,1,8,0:0:0:0:
256,192,179102,1,0,0:0:0:0:
256,192,179249,1,8,0:0:0:0:
256,192,179323,1,0,0:0:0:0:
256,192,179470,1,0,0:0:0:0:
256,192,179544,1,8,0:0:0:0:
256,192,179654,1,4,0:0:0:0:
256,192,179985,1,4,0:0:0:0:
256,192,180426,1,8,0:0:0:0:
256,192,180536,1,0,0:0:0:0:
256,192,180647,1,0,0:0:0:0:
256,192,180757,1,8,0:0:0:0:
256,192,180867,1,8,0:0:0:0:
256,192,180977,1,0,0:0:0:0:
256,192,181088,1,8,0:0:0:0:
256,192,181198,1,0,0:0:0:0:
256,192,181308,1,8,0:0:0:0:
256,192,181419,1,8,0:0:0:0:
256,192,181529,1,0,0:0:0:0:
256,192,181639,1,8,0:0:0:0:
256,192,181749,1,0,0:0:0:0:
256,192,181860,1,8,0:0:0:0:
256,192,181970,1,0,0:0:0:0:
256,192,182117,1,0,0:0:0:0:
256,192,182191,1,8,0:0:0:0:
256,192,182338,1,0,0:0:0:0:
256,192,182411,1,8,0:0:0:0:
256,192,182558,1,8,0:0:0:0:
256,192,182632,1,0,0:0:0:0:
256,192,182779,1,8,0:0:0:0:
256,192,182852,1,0,0:0:0:0:
256,192,182999,1,0,0:0:0:0:
256,192,183073,1,8,0:0:0:0:
256,192,183183,1,4,0:0:0:0:
256,192,183514,1,4,0:0:0:0:
256,192,183955,1,8,0:0:0:0:
256,192,184066,1,0,0:0:0:0:
256,192,184176,1,8,0:0:0:0:
256,192,184286,1,0,0:0:0:0:
256,192,184397,1,8,0:0:0:0:
256,192,184507,1,8,0:0:0:0:
256,192,184617,1,0,0:0:0:0:
256,192,184727,1,8,0:0:0:0:
256,192,184838,1,8,0:0:0:0:
256,192,184948,1,8,0:0:0:0:
256,192,185058,1,0,0:0:0:0:
256,192,185169,1,8,0:0:0:0:
256,192,185279,1,8,0:0:0:0:
256,192,185389,1,8,0:0:0:0:
256,192,185499,1,0,0:0:0:0:
256,192,185647,1,8,0:0:0:0:
256,192,185720,1,8,0:0:0:0:
256,192,185867,1,0,0:0:0:0:
256,192,185941,1,8,0:0:0:0:
256,192,186088,1,8,0:0:0:0:
256,192,186161,1,8,0:0:0:0:
256,192,186308,1,8,0:0:0:0:
256,192,186382,1,0,0:0:0:0:
256,192,186529,1,8,0:0:0:0:
256,192,186602,1,8,0:0:0:0:
256,192,186749,1,0,0:0:0:0:
256,192,186823,1,8,0:0:0:0:
256,192,187044,1,4,0:0:0:0:
256,192,187485,1,8,0:0:0:0:
256,192,187595,1,0,0:0:0:0:
256,192,187705,1,0,0:0:0:0:
256,192,187816,1,8,0:0:0:0:
256,192,187926,1,8,0:0:0:0:
256,192,188036,1,0,0:0:0:0:
256,192,188147,1,8,0:0:0:0:
256,192,188257,1,0,0:0:0:0:
256,192,188367,1,8,0:0:0:0:
256,192,188477,1,8,0:0:0:0:
256,192,188588,1,0,0:0:0:0:
256,192,188698,1,8,0:0:0:0:
256,192,188808,1,0,0:0:0:0:
256,192,188919,1,8,0:0:0:0:
256,192,189029,1,0,0:0:0:0:
256,192,189176,1,0,0:0:0:0:
256,192,189249,1,8,0:0:0:0:
256,192,189397,1,0,0:0:0:0:
256,192,189470,1,8,0:0:0:0:
256,192,189617,1,8,0:0:0:0:
256,192,189691,1,0,0:0:0:0:
256,192,189838,1,8,0:0:0:0:
256,192,189911,1,0,0:0:0:0:
256,192,190058,1,0,0:0:0:0:
256,192,190132,1,8,0:0:0:0:
256,192,190242,1,4,0:0:0:0:
256,192,190573,1,4,0:0:0:0:
256,192,191014,1,0,0:0:0:0:
256,192,191124,1,0,0:0:0:0:
256,192,191235,1,8,0:0:0:0:
256,192,191345,1,0,0:0:0:0:
256,192,191455,1,8,0:0:0:0:
256,192,191566,1,8,0:0:0:0:
256,192,191676,1,0,0:0:0:0:
256,192,191786,1,0,0:0:0:0:
256,192,191897,1,8,0:0:0:0:
256,192,192007,1,8,0:0:0:0:
256,192,192117,1,0,0:0:0:0:
256,192,192227,1,8,0:0:0:0:
256,192,192338,1,0,0:0:0:0:
256,192,192448,1,8,0:0:0:0:
256,192,192558,1,0,0:0:0:0:
256,192,192705,1,8,0:0:0:0:
256,192,192779,1,0,0:0:0:0:
256,192,192926,1,8,0:0:0:0:
256,192,192999,1,8,0:0:0:0:
256,192,193147,1,8,0:0:0:0:
256,192,193220,1,0,0:0:0:0:
256,192,193367,1,8,0:0:0:0:
256,192,193441,1,0,0:0:0:0:
256,192,193588,1,0,0:0:0:0:
256,192,193661,1,8,0:0:0:0:
256,192,193772,1,4,0:0:0:0:
256,192,194102,1,4,0:0:0:0:
256,192,194544,1,0,0:0:0:0:
256,192,194691,1,8,0:0:0:0:
256,192,194764,1,0,0:0:0:0:
256,192,194911,1,8,0:0:0:0:
256,192,194985,1,0,0:0:0:0:
256,192,195132,1,8,0:0:0:0:
256,192,195205,1,8,0:0:0:0:
256,192,195352,1,0,0:0:0:0:
256,192,195426,1,0,0:0:0:0:
256,192,195573,1,8,0:0:0:0:
256,192,195647,1,0,0:0:0:0:
256,192,195794,1,8,0:0:0:0:
256,192,195867,1,0,0:0:0:0:
256,192,196014,1,0,0:0:0:0:
256,192,196088,1,8,0:0:0:0:
256,192,196235,1,8,0:0:0:0:
256,192,196308,1,0,0:0:0:0:
256,192,196455,1,0,0:0:0:0:
256,192,196529,1,8,0:0:0:0:
256,192,196676,1,8,0:0:0:0:
256,192,196749,1,8,0:0:0:0:
256,192,196897,1,8,0:0:0:0:
256,192,196970,1,0,0:0:0:0:
256,192,197117,1,0,0:0:0:0:
256,192,197191,1,8,0:0:0:0:
256,192,197338,1,8,0:0:0:0:
256,192,197411,1,0,0:0:0:0:
256,192,197632,1,4,0:0:0:0:
256,192,198073,1,4,0:0:0:0:
256,192,198514,1,4,0:0:0:0:
256,192,198955,1,4,0:0:0:0:
256,192,199397,1,8,0:0:0:0:
256,192,199544,1,8,0:0:0:0:
256,192,199617,1,0,0:0:0:0:
256,192,199764,1,8,0:0:0:0:
256,192,199838,1,0,0:0:0:0:
256,192,199985,1,0,0:0:0:0:
256,192,200058,1,8,0:0:0:0:
256,192,200205,1,0,0:0:0:0:
256,192,200279,1,8,0:0:0:0:
256,192,200426,1,8,0:0:0:0:
256,192,200499,1,0,0:0:0:0:
256,192,200647,1,0,0:0:0:0:
256,192,200720,1,8,0:0:0:0:
256,192,200830,1,4,0:0:0:0:
256,192,201161,1,4,0:0:0:0:
256,192,201602,5,0,0:0:0:0:
256,192,201749,1,0,0:0:0:0:
256,192,201823,1,8,0:0:0:0:
256,192,201970,1,8,0:0:0:0:
256,192,202044,1,0,0:0:0:0:
256,192,202117,1,0,0:0:0:0:
256,192,202191,1,0,0:0:0:0:
256,192,202264,1,8,0:0:0:0:
256,192,202411,1,0,0:0:0:0:
256,192,202485,1,8,0:0:0:0:
256,192,202632,1,0,0:0:0:0:
256,192,202705,1,8,0:0:0:0:
256,192,202926,1,4,0:0:0:0:
256,192,203147,1,4,0:0:0:0:
256,192,203367,1,12,0:0:0:0:
256,192,203808,1,12,0:0:0:0:
256,192,204029,1,0,0:0:0:0:
256,192,204176,1,12,0:0:0:0:
256,192,204360,1,4,0:0:0:0:
256,192,204691,1,4,0:0:0:0:
256,192,205132,1,0,0:0:0:0:
256,192,205279,1,0,0:0:0:0:
256,192,205352,1,8,0:0:0:0:
256,192,205499,1,8,0:0:0:0:
256,192,205573,1,0,0:0:0:0:
256,192,205647,1,0,0:0:0:0:
256,192,205720,1,0,0:0:0:0:
256,192,205794,1,8,0:0:0:0:
256,192,205941,1,8,0:0:0:0:
256,192,206014,1,0,0:0:0:0:
256,192,206161,1,8,0:0:0:0:
256,192,206235,1,8,0:0:0:0:
256,192,206382,1,8,0:0:0:0:
256,192,206455,1,0,0:0:0:0:
256,192,206566,1,0,0:0:0:0:
256,192,206786,1,0,0:0:0:0:
256,192,206897,1,8,0:0:0:0:
256,192,207007,1,0,0:0:0:0:
256,192,207117,1,8,0:0:0:0:
256,192,207227,1,8,0:0:0:0:
256,192,207338,1,8,0:0:0:0:
256,192,207558,1,0,0:0:0:0:
256,192,207779,1,8,0:0:0:0:
256,192,207889,1,4,0:0:0:0:
256,192,208220,1,4,0:0:0:0:
256,192,208661,1,0,0:0:0:0:
256,192,208808,1,0,0:0:0:0:
256,192,208882,1,8,0:0:0:0:
256,192,209029,1,8,0:0:0:0:
256,192,209102,1,0,0:0:0:0:
256,192,209176,1,0,0:0:0:0:
256,192,209249,1,0,0:0:0:0:
256,192,209323,1,8,0:0:0:0:
256,192,209470,1,0,0:0:0:0:
256,192,209544,1,8,0:0:0:0:
256,192,209691,1,0,0:0:0:0:
256,192,209764,1,8,0:0:0:0:
256,192,209985,1,4,0:0:0:0:
256,192,210205,1,12,0:0:0:0:
256,192,210426,1,12,0:0:0:0:
256,192,210867,1,12,0:0:0:0:
256,192,211088,1,0,0:0:0:0:
256,192,211235,1,12,0:0:0:0:
256,192,211419,1,4,0:0:0:0:
256,192,211749,1,4,0:0:0:0:
256,192,212191,1,0,0:0:0:0:
256,192,212338,1,8,0:0:0:0:
256,192,212411,1,0,0:0:0:0:
256,192,212485,1,0,0:0:0:0:
256,192,212558,1,0,0:0:0:0:
256,192,212632,1,8,0:0:0:0:
256,192,212779,1,8,0:0:0:0:
256,192,212852,1,0,0:0:0:0:
256,192,212999,1,8,0:0:0:0:
256,192,213073,1,0,0:0:0:0:
256,192,213220,1,0,0:0:0:0:
256,192,213294,1,8,0:0:0:0:
256,192,213367,1,8,0:0:0:0:
256,192,213441,1,8,0:0:0:0:
256,192,213514,1,0,0:0:0:0:
256,192,213661,1,8,0:0:0:0:
256,192,213735,1,0,0:0:0:0:
256,192,213845,1,8,0:0:0:0:
256,192,213955,1,8,0:0:0:0:
256,192,214066,1,0,0:0:0:0:
256,192,214176,1,8,0:0:0:0:
256,192,214286,1,0,0:0:0:0:
256,192,214397,1,8,0:0:0:0:
256,192,214617,1,0,0:0:0:0:
256,192,214838,1,8,0:0:0:0:
256,192,214948,1,4,0:0:0:0:
256,192,215279,1,4,0:0:0:0:
256,192,215720,1,8,0:0:0:0:
256,192,215867,1,0,0:0:0:0:
256,192,215941,1,8,0:0:0:0:
256,192,216014,1,8,0:0:0:0:
256,192,216088,1,8,0:0:0:0:
256,192,216161,1,0,0:0:0:0:
256,192,216308,1,8,0:0:0:0:
256,192,216382,1,0,0:0:0:0:
256,192,216529,1,0,0:0:0:0:
256,192,216602,1,8,0:0:0:0:
256,192,216749,1,8,0:0:0:0:
256,192,216823,1,0,0:0:0:0:
256,192,217044,1,12,0:0:0:0:
256,192,217264,1,4,0:0:0:0:
256,192,217485,1,12,0:0:0:0:
256,192,217926,1,12,0:0:0:0:
256,192,218147,1,0,0:0:0:0:
256,192,218257,1,8,0:0:0:0:
256,192,218367,1,8,0:0:0:0:
256,192,218477,1,4,0:0:0:0:
256,192,218808,1,4,0:0:0:0:
256,192,219249,1,8,0:0:0:0:
256,192,219397,1,0,0:0:0:0:
256,192,219470,1,8,0:0:0:0:
256,192,219544,1,8,0:0:0:0:
256,192,219617,1,8,0:0:0:0:
256,192,219691,1,0,0:0:0:0:
256,192,219838,1,8,0:0:0:0:
256,192,219911,1,0,0:0:0:0:
256,192,220058,1,0,0:0:0:0:
256,192,220132,1,8,0:0:0:0:
256,192,220279,1,8,0:0:0:0:
256,192,220352,1,0,0:0:0:0:
256,192,220499,1,0,0:0:0:0:
256,192,220573,1,8,0:0:0:0:
256,192,220683,1,8,0:0:0:0:
256,192,220794,1,0,0:0:0:0:
256,192,220904,1,8,0:0:0:0:
256,192,221014,1,0,0:0:0:0:
256,192,221124,1,8,0:0:0:0:
256,192,221235,1,8,0:0:0:0:
256,192,221345,1,0,0:0:0:0:
256,192,221455,1,12,0:0:0:0:
256,192,222007,1,12,0:0:0:0:
256,192,222338,1,8,0:0:0:0:
256,192,222448,1,0,0:0:0:0:
256,192,222558,1,8,0:0:0:0:
256,192,222669,1,0,0:0:0:0:
256,192,222779,1,8,0:0:0:0:
256,192,222852,1,8,0:0:0:0:
256,192,222926,1,8,0:0:0:0:
256,192,222999,1,0,0:0:0:0:
256,192,223110,1,0,0:0:0:0:
256,192,223220,1,8,0:0:0:0:
256,192,223330,1,0,0:0:0:0:
256,192,223441,1,8,0:0:0:0:
256,192,223551,1,0,0:0:0:0:
256,192,223661,1,8,0:0:0:0:
256,192,223735,1,8,0:0:0:0:
256,192,223808,1,8,0:0:0:0:
256,192,223882,1,0,0:0:0:0:
256,192,223992,1,8,0:0:0:0:
256,192,224102,1,0,0:0:0:0:
256,192,224213,1,0,0:0:0:0:
256,192,224323,1,8,0:0:0:0:
256,192,224433,1,0,0:0:0:0:
256,192,224544,1,8,0:0:0:0:
256,192,224654,1,8,0:0:0:0:
256,192,224764,1,0,0:0:0:0:
256,192,224874,1,8,0:0:0:0:
256,192,224985,1,0,0:0:0:0:
256,192,225095,1,8,0:0:0:0:
256,192,225205,1,8,0:0:0:0:
256,192,225316,1,0,0:0:0:0:
256,192,225426,1,8,0:0:0:0:
256,192,225536,1,4,0:0:0:0:
256,192,225867,1,0,0:0:0:0:
256,192,225977,1,0,0:0:0:0:
256,192,226088,1,8,0:0:0:0:
256,192,226198,1,0,0:0:0:0:
256,192,226308,1,0,0:0:0:0:
256,192,226382,1,0,0:0:0:0:
256,192,226455,1,0,0:0:0:0:
256,192,226529,1,8,0:0:0:0:
256,192,226639,1,0,0:0:0:0:
256,192,226749,1,8,0:0:0:0:
256,192,226860,1,0,0:0:0:0:
256,192,226970,1,8,0:0:0:0:
256,192,227080,1,8,0:0:0:0:
256,192,227191,1,0,0:0:0:0:
256,192,227264,1,0,0:0:0:0:
256,192,227338,1,0,0:0:0:0:
256,192,227411,1,8,0:0:0:0:
256,192,227485,1,8,0:0:0:0:
256,192,227558,1,8,0:0:0:0:
256,192,227632,1,8,0:0:0:0:
256,192,227852,1,8,0:0:0:0:
256,192,228073,1,0,0:0:0:0:
256,192,228294,1,0,0:0:0:0:
256,192,228349,1,0,0:0:0:0:
256,192,228404,1,0,0:0:0:0:
256,192,228459,1,0,0:0:0:0:
256,192,228514,1,8,0:0:0:0:
256,192,228735,1,0,0:0:0:0:
256,192,228790,1,0,0:0:0:0:
256,192,228845,1,0,0:0:0:0:
256,192,228900,1,0,0:0:0:0:
256,192,228955,1,8,0:0:0:0:
256,192,229397,5,4,0:0:0:0:
256,192,229838,1,8,0:0:0:0:
256,192,230058,1,0,0:0:0:0:
256,192,230205,1,8,0:0:0:0:
256,192,230279,1,0,0:0:0:0:
256,192,230426,1,8,0:0:0:0:
256,192,230499,1,0,0:0:0:0:
256,192,230610,1,0,0:0:0:0:
256,192,230720,1,8,0:0:0:0:
256,192,230867,1,0,0:0:0:0:
256,192,230941,1,8,0:0:0:0:
256,192,231088,1,8,0:0:0:0:
256,192,231161,1,0,0:0:0:0:
256,192,231382,1,0,0:0:0:0:
256,192,231602,1,8,0:0:0:0:
256,192,231823,1,8,0:0:0:0:
256,192,231970,1,0,0:0:0:0:
256,192,232044,1,8,0:0:0:0:
256,192,232191,1,8,0:0:0:0:
256,192,232264,1,0,0:0:0:0:
256,192,232485,1,8,0:0:0:0:
256,192,232595,1,4,0:0:0:0:
256,192,232926,1,4,0:0:0:0:
256,192,233367,1,8,0:0:0:0:
256,192,233588,1,0,0:0:0:0:
256,192,233735,1,8,0:0:0:0:
256,192,233808,1,0,0:0:0:0:
256,192,233955,1,8,0:0:0:0:
256,192,234029,1,0,0:0:0:0:
256,192,234139,1,0,0:0:0:0:
256,192,234249,1,8,0:0:0:0:
256,192,234397,1,0,0:0:0:0:
256,192,234470,1,8,0:0:0:0:
256,192,234617,1,8,0:0:0:0:
256,192,234691,1,0,0:0:0:0:
256,192,234911,1,0,0:0:0:0:
256,192,235058,1,0,0:0:0:0:
256,192,235132,1,8,0:0:0:0:
256,192,235352,1,8,0:0:0:0:
256,192,235499,1,0,0:0:0:0:
256,192,235573,1,8,0:0:0:0:
256,192,235720,1,8,0:0:0:0:
256,192,235794,1,0,0:0:0:0:
256,192,235941,1,0,0:0:0:0:
256,192,236014,1,8,0:0:0:0:
256,192,236124,1,4,0:0:0:0:
256,192,236455,1,4,0:0:0:0:
256,192,236897,1,8,0:0:0:0:
256,192,237117,1,0,0:0:0:0:
256,192,237264,1,8,0:0:0:0:
256,192,237338,1,0,0:0:0:0:
256,192,237485,1,8,0:0:0:0:
256,192,237558,1,0,0:0:0:0:
256,192,237669,1,0,0:0:0:0:
256,192,237779,1,8,0:0:0:0:
256,192,237926,1,0,0:0:0:0:
256,192,237999,1,8,0:0:0:0:
256,192,238147,1,8,0:0:0:0:
256,192,238220,1,0,0:0:0:0:
256,192,238441,1,0,0:0:0:0:
256,192,238661,1,8,0:0:0:0:
256,192,238882,1,8,0:0:0:0:
256,192,239029,1,0,0:0:0:0:
256,192,239102,1,8,0:0:0:0:
256,192,239249,1,8,0:0:0:0:
256,192,239323,1,0,0:0:0:0:
256,192,239544,1,8,0:0:0:0:
256,192,239654,1,4,0:0:0:0:
256,192,239985,1,4,0:0:0:0:
256,192,240426,1,8,0:0:0:0:
256,192,240647,1,0,0:0:0:0:
256,192,240794,1,8,0:0:0:0:
256,192,240867,1,0,0:0:0:0:
256,192,241088,1,0,0:0:0:0:
256,192,241198,1,0,0:0:0:0:
256,192,241308,1,8,0:0:0:0:
256,192,241419,1,8,0:0:0:0:
256,192,241529,1,8,0:0:0:0:
256,192,241639,1,8,0:0:0:0:
256,192,241749,1,8,0:0:0:0:
256,192,241970,1,0,0:0:0:0:
256,192,242191,1,8,0:0:0:0:
256,192,242411,1,8,0:0:0:0:
256,192,242632,1,8,0:0:0:0:
256,192,242852,1,0,0:0:0:0:
256,192,243073,1,0,0:0:0:0:
256,192,243183,1,12,0:0:0:0:
256,192,243514,5,4,0:0:0:0:
256,192,243955,1,8,0:0:0:0:
256,192,244176,1,0,0:0:0:0:
256,192,244323,1,8,0:0:0:0:
256,192,244397,1,0,0:0:0:0:
256,192,244544,1,8,0:0:0:0:
256,192,244617,1,0,0:0:0:0:
256,192,244727,1,0,0:0:0:0:
256,192,244838,1,8,0:0:0:0:
256,192,244985,1,0,0:0:0:0:
256,192,245058,1,8,0:0:0:0:
256,192,245205,1,8,0:0:0:0:
256,192,245279,1,0,0:0:0:0:
256,192,245499,1,0,0:0:0:0:
256,192,245720,1,8,0:0:0:0:
256,192,245941,1,8,0:0:0:0:
256,192,246088,1,0,0:0:0:0:
256,192,246161,1,8,0:0:0:0:
256,192,246308,1,8,0:0:0:0:
256,192,246382,1,0,0:0:0:0:
256,192,246602,1,8,0:0:0:0:
256,192,246713,1,4,0:0:0:0:
256,192,247044,1,4,0:0:0:0:
256,192,247485,1,8,0:0:0:0:
256,192,247705,1,0,0:0:0:0:
256,192,247852,1,8,0:0:0:0:
256,192,247926,1,0,0:0:0:0:
256,192,248073,1,8,0:0:0:0:
256,192,248147,1,0,0:0:0:0:
256,192,248257,1,0,0:0:0:0:
256,192,248367,1,8,0:0:0:0:
256,192,248514,1,0,0:0:0:0:
256,192,248588,1,8,0:0:0:0:
256,192,248735,1,0,0:0:0:0:
256,192,248808,1,0,0:0:0:0:
256,192,249029,1,8,0:0:0:0:
256,192,249084,1,0,0:0:0:0:
256,192,249139,1,0,0:0:0:0:
256,192,249249,1,0,0:0:0:0:
256,192,249360,1,8,0:0:0:0:
256,192,249415,1,0,0:0:0:0:
256,192,249470,1,0,0:0:0:0:
256,192,249580,1,0,0:0:0:0:
256,192,249691,1,8,0:0:0:0:
256,192,249746,1,0,0:0:0:0:
256,192,249801,1,0,0:0:0:0:
256,192,249911,1,0,0:0:0:0:
256,192,250022,1,8,0:0:0:0:
256,192,250077,1,8,0:0:0:0:
256,192,250132,1,8,0:0:0:0:
256,192,250242,1,4,0:0:0:0:
256,192,250573,1,4,0:0:0:0:
256,192,250794,1,8,0:0:0:0:
256,192,250904,1,0,0:0:0:0:
256,192,251014,1,8,0:0:0:0:
256,192,251124,1,0,0:0:0:0:
256,192,251235,1,0,0:0:0:0:
256,192,251345,1,0,0:0:0:0:
256,192,251455,1,8,0:0:0:0:
256,192,251676,1,8,0:0:0:0:
256,192,251786,1,0,0:0:0:0:
256,192,251897,1,8,0:0:0:0:
256,192,252007,1,0,0:0:0:0:
256,192,252117,1,8,0:0:0:0:
256,192,252227,1,8,0:0:0:0:
256,192,252338,1,0,0:0:0:0:
256,192,252448,1,0,0:0:0:0:
256,192,252558,1,8,0:0:0:0:
256,192,252779,1,8,0:0:0:0:
256,192,252889,1,0,0:0:0:0:
256,192,252999,1,0,0:0:0:0:
256,192,253110,1,0,0:0:0:0:
256,192,253220,1,8,0:0:0:0:
256,192,253441,1,8,0:0:0:0:
256,192,253514,1,8,0:0:0:0:
256,192,253588,1,8,0:0:0:0:
256,192,253661,1,0,0:0:0:0:
256,192,253735,1,0,0:0:0:0:
256,192,253808,1,0,0:0:0:0:
256,192,253882,1,8,0:0:0:0:
256,192,253955,1,0,0:0:0:0:
256,192,254029,1,0,0:0:0:0:
256,192,254102,1,8,0:0:0:0:
256,192,254323,1,0,0:0:0:0:
256,192,254433,1,0,0:0:0:0:
256,192,254544,1,8,0:0:0:0:
256,192,254654,1,8,0:0:0:0:
256,192,254764,1,0,0:0:0:0:
256,192,254874,1,0,0:0:0:0:
256,192,254985,1,8,0:0:0:0:
256,192,255095,1,8,0:0:0:0:
256,192,255205,1,0,0:0:0:0:
256,192,255316,1,0,0:0:0:0:
256,192,255426,1,8,0:0:0:0:
256,192,255536,1,8,0:0:0:0:
256,192,255647,1,0,0:0:0:0:
256,192,255720,1,8,0:0:0:0:
256,192,255794,1,8,0:0:0:0:
256,192,255867,1,8,0:0:0:0:
256,192,256088,1,8,0:0:0:0:
256,192,256308,1,8,0:0:0:0:
256,192,256419,1,8,0:0:0:0:
256,192,256529,1,8,0:0:0:0:
256,192,256639,1,8,0:0:0:0:
256,192,256749,1,0,0:0:0:0:
256,192,256860,1,8,0:0:0:0:
256,192,256970,1,8,0:0:0:0:
256,192,257080,1,0,0:0:0:0:
256,192,257191,1,8,0:0:0:0:
256,192,257301,1,4,0:0:0:0:
256,192,257632,1,12,0:0:0:0:
256,192,257852,12,0,264691,0:0:0:0:
