osu file format v14

[General]
AudioFilename: audio.mp3
AudioLeadIn: 0
PreviewTime: 300628
Countdown: 0
SampleSet: Soft
StackLeniency: 0.7
Mode: 0
LetterboxInBreaks: 0
WidescreenStoryboard: 0

[Editor]
Bookmarks: 9689,20724,46931,63483,110379,121414,126576,132448,143483,154517,165552,176586,187621,198655,204172,215207,231748,242793,253827,273138,278655,289690,300724,311758,322793,333827,344862,355896,366931,377965,400034,422103,441414,446921,459345,470369,470379
DistanceSpacing: 0.1
BeatDivisor: 4
GridSize: 32
TimelineZoom: 3.439999

[Metadata]
Title:Looking for Edge of Ground
TitleUnicode:大地の閾を探して
Artist:Camellia
ArtistUnicode:かめりあ
Creator:Mir
Version:Artificial Star
Source:
Tags:japanese electronic hatsune miku 初音ミク drum'n'bass drumstep hardcore 80k 50k 6k cametek vocaloid fake world dnb earth's ground's threshold daichi no shikai o sagashite
BeatmapID:2451494
BeatmapSetID:1175337

[Difficulty]
HPDrainRate:5
CircleSize:4
OverallDifficulty:8.7
ApproachRate:9.5
SliderMultiplier:2.3
SliderTickRate:1

[Events]
//Background and Video events
0,0,"clockwork miku 1920x1080.jpg",0,0
//Break Periods
2,113343,120894
2,204377,213537
2,231963,242273
//Storyboard Layer 0 (Background)
//Storyboard Layer 1 (Fail)
//Storyboard Layer 2 (Pass)
//Storyboard Layer 3 (Foreground)
//Storyboard Layer 4 (Overlay)
//Storyboard Sound Samples

[TimingPoints]
9695,344.827586206897,4,2,1,70,1,0
9695,-133.333333333333,4,2,3,50,0,0
20729,-166.666666666667,4,2,3,50,0,0
31763,-153.846153846154,4,2,3,60,0,0
45901,-153.846153846154,4,2,3,60,0,0
45959,-153.846153846154,4,2,3,20,0,0
46016,-153.846153846154,4,2,3,60,0,0
46074,-153.846153846154,4,2,3,20,0,0
46131,-153.846153846154,4,2,3,60,0,0
46189,-153.846153846154,4,2,3,20,0,0
46246,-153.846153846154,4,2,3,60,0,0
46936,-142.857142857143,4,2,3,60,0,0
58315,-333.333333333333,4,2,3,60,0,0
63488,-133.333333333333,4,2,4,80,0,0
90384,-200,4,2,4,80,0,0
90729,-100,4,2,4,80,0,0
91074,-133.333333333333,4,2,4,80,0,0
95557,-100,4,2,4,80,0,0
96246,-200,4,2,4,80,0,0
96591,-133.333333333333,4,2,4,80,0,0
101763,-100,4,2,4,80,0,0
102108,-133.333333333333,4,2,4,80,0,0
105212,-133.333333333333,4,2,4,5,0,0
105298,-133.333333333333,4,2,4,80,0,0
106246,-133.333333333333,4,2,4,5,0,0
106332,-133.333333333333,4,2,4,80,0,0
107281,-133.333333333333,4,2,4,5,0,0
107396,-133.333333333333,4,2,4,80,0,0
107511,-133.333333333333,4,2,4,5,0,0
107626,-133.333333333333,4,2,4,80,0,0
107740,-133.333333333333,4,2,4,5,0,0
107855,-133.333333333333,4,2,4,80,0,0
109005,-133.333333333333,4,2,4,5,0,0
109091,-133.333333333333,4,2,4,80,0,0
109350,-133.333333333333,4,2,4,5,0,0
109465,-133.333333333333,4,2,4,80,0,0
109580,-133.333333333333,4,2,4,5,0,0
109695,-133.333333333333,4,2,4,80,0,0
109809,-133.333333333333,4,2,4,5,0,0
109924,-133.333333333333,4,2,4,80,0,0
113143,-133.333333333333,4,2,4,50,0,0
121419,-200,4,2,1,80,0,0
124177,-133.333333333333,4,2,1,80,0,0
126591,-100,4,2,1,80,0,0
132108,-100,4,2,0,80,0,0
132195,-100,4,2,4,80,0,0
132453,-66.6666666666667,4,2,2,100,0,1
133229,-133.333333333333,4,2,2,100,0,1
134177,-66.6666666666667,4,2,2,100,0,1
136246,-100,4,2,2,100,0,1
137626,-50,4,2,2,100,0,1
137798,-133.333333333333,4,2,2,100,0,1
137970,-66.6666666666667,4,2,2,100,0,1
139953,-100,4,2,2,100,0,1
140729,-66.6666666666667,4,2,2,100,0,1
141936,-100,4,2,2,100,0,1
142453,-100,4,2,2,70,0,0
143057,-100,4,2,4,70,0,0
143488,-66.6666666666667,4,2,2,100,0,1
144263,-133.333333333333,4,2,2,100,0,1
144695,-100,4,2,2,100,0,1
145212,-66.6666666666667,4,2,2,100,0,1
147022,-133.333333333333,4,2,2,100,0,1
147281,-100,4,2,2,100,0,1
148660,-133.333333333333,4,2,2,100,0,1
149005,-66.6666666666667,4,2,2,100,0,1
150039,-133.333333333333,4,2,2,100,0,1
150729,-100,4,2,2,100,0,1
151246,-66.6666666666667,4,2,2,100,0,1
152539,-100,4,2,2,100,0,1
153488,-66.6666666666667,4,2,2,100,0,1
153832,-100,4,2,2,100,0,0
154522,-83.3333333333333,4,2,5,70,0,0
154781,-83.3333333333333,4,2,5,5,0,0
154867,-71.4285714285714,4,2,5,70,0,0
155126,-71.4285714285714,4,2,5,5,0,0
155212,-100,4,2,5,70,0,0
156246,-133.333333333333,4,2,5,70,0,0
157281,-83.3333333333333,4,2,5,70,0,0
157539,-83.3333333333333,4,2,5,5,0,0
157626,-66.6666666666667,4,2,5,70,0,0
157712,-66.6666666666667,4,2,5,5,0,0
157798,-66.6666666666667,4,2,5,70,0,0
157884,-66.6666666666667,4,2,5,5,0,0
157970,-76.9230769230769,4,2,5,70,0,0
158057,-76.9230769230769,4,2,5,5,0,0
158143,-100,4,2,5,70,0,0
158229,-100,4,2,5,5,0,0
158315,-133.333333333333,4,2,5,70,0,0
160039,-83.3333333333333,4,2,5,70,0,0
160298,-83.3333333333333,4,2,5,5,0,0
160384,-71.4285714285714,4,2,5,70,0,0
160643,-71.4285714285714,4,2,5,5,0,0
160729,-100,4,2,5,70,0,0
161763,-133.333333333333,4,2,5,70,0,0
162798,-83.3333333333333,4,2,5,70,0,0
163057,-83.3333333333333,4,2,5,5,0,0
163143,-66.6666666666667,4,2,5,70,0,0
163229,-66.6666666666667,4,2,5,5,0,0
163315,-66.6666666666667,4,2,5,70,0,0
163401,-66.6666666666667,4,2,5,5,0,0
163487,-76.9230769230769,4,2,5,70,0,0
163574,-76.9230769230769,4,2,5,5,0,0
163660,-100,4,2,5,70,0,0
163746,-100,4,2,5,5,0,0
163832,-133.333333333333,4,2,5,70,0,0
164867,-83.3333333333333,4,2,5,70,0,0
165557,-133.333333333333,4,2,1,70,0,0
168315,-117.647058823529,4,2,1,70,0,0
171074,-100,4,2,1,80,0,0
173832,-100,4,2,1,90,0,0
175212,-100,4,2,1,70,0,0
176591,-66.6666666666667,4,2,2,100,0,1
176936,-100,4,2,2,100,0,1
179350,-66.6666666666667,4,2,2,100,0,1
181419,-100,4,2,2,100,0,1
181763,-66.6666666666667,4,2,2,100,0,1
182453,-100,4,2,2,100,0,1
184177,-66.6666666666667,4,2,2,100,0,1
184350,-100,4,2,2,100,0,1
184867,-66.6666666666667,4,2,2,100,0,1
185212,-50,4,2,2,100,0,1
185557,-200,4,2,2,100,0,0
186936,-100,4,2,2,100,0,0
187626,-66.6666666666667,4,2,2,100,0,1
187970,-100,4,2,2,100,0,1
189953,-66.6666666666667,4,2,2,100,0,1
193488,-133.333333333333,4,2,2,100,0,1
193660,-100,4,2,2,100,0,1
193832,-66.6666666666667,4,2,2,100,0,1
194177,-133.333333333333,4,2,2,100,0,1
194522,-66.6666666666667,4,2,2,100,0,1
194867,-133.333333333333,4,2,2,100,0,1
195039,-66.6666666666667,4,2,2,100,0,1
195384,-133.333333333333,4,2,2,100,0,1
195557,-66.6666666666667,4,2,2,100,0,1
196246,-100,4,2,2,100,0,1
198660,-66.6666666666667,4,2,2,90,0,0
198919,-100,4,2,2,90,0,0
202712,-100,4,2,2,5,0,0
202798,-66.6666666666667,4,2,2,90,0,0
203488,-133.333333333333,4,2,2,90,0,0
214062,-133.333333333333,4,2,2,50,0,0
214522,-571.428571428571,4,2,2,50,0,0
214867,-571.428571428571,4,2,2,5,0,0
215212,-142.857142857143,4,2,4,60,0,0
226591,-333.333333333333,4,2,1,60,0,0
230729,-133.333333333333,4,2,1,70,0,0
231074,-333.333333333333,4,2,1,70,0,0
231763,-333.333333333333,4,2,1,5,0,0
242798,-333.333333333333,4,2,1,50,0,0
245557,-200,4,2,1,50,0,0
252453,-166.666666666667,4,2,1,50,0,0
253832,-142.857142857143,4,2,6,80,0,0
258660,-100,4,2,6,80,0,0
259350,-142.857142857143,4,2,6,80,0,0
263832,-100,4,2,6,80,0,0
264867,-142.857142857143,4,2,6,80,0,0
272626,-142.857142857143,4,2,0,80,0,0
273143,-100,4,2,6,80,0,0
273488,-100,4,2,6,5,0,0
273574,-100,4,2,6,80,0,0
274522,-100,4,2,6,5,0,0
274608,-100,4,2,6,80,0,0
275557,-100,4,2,6,5,0,0
275672,-100,4,2,6,80,0,0
275786,-100,4,2,6,5,0,0
275901,-100,4,2,6,80,0,0
276016,-100,4,2,6,5,0,0
276131,-100,4,2,6,80,0,0
277281,-100,4,2,6,5,0,0
277367,-100,4,2,6,80,0,0
277626,-100,4,2,6,5,0,0
277741,-100,4,2,6,80,0,0
277855,-100,4,2,6,5,0,0
277970,-100,4,2,6,80,0,0
278085,-100,4,2,6,5,0,0
278200,-100,4,2,6,80,0,0
278315,-100,4,2,0,80,0,0
278660,-100,4,2,1,80,0,0
289695,-83.3333333333333,4,2,1,80,0,0
294867,-66.6666666666667,4,2,1,80,0,0
295212,-83.3333333333333,4,2,1,80,0,0
300384,-100,4,2,0,80,0,0
300470,-100,4,2,4,80,0,0
300729,-66.6666666666667,4,2,8,100,0,1
310729,-58.8235294117647,4,2,8,100,0,1
311763,-133.333333333333,4,2,8,100,0,0
312108,-66.6666666666667,4,2,8,100,0,1
314522,-133.333333333333,4,2,8,100,0,1
314867,-66.6666666666667,4,2,8,100,0,1
322798,-133.333333333333,4,2,2,100,0,0
323143,-66.6666666666667,4,2,1,100,0,1
325384,-50,4,2,1,100,0,1
326936,-66.6666666666667,4,2,1,100,0,1
327970,-50,4,2,1,100,0,1
328315,-66.6666666666667,4,2,2,100,0,0
330039,-66.6666666666667,4,2,2,100,0,1
330557,-100,4,2,2,100,0,1
331074,-66.6666666666667,4,2,2,100,0,0
331850,-133.333333333333,4,2,2,100,0,0
332539,-66.6666666666667,4,2,2,100,0,0
333832,-66.6666666666667,4,2,1,100,0,1
336591,-133.333333333333,4,2,1,100,0,1
337108,-66.6666666666667,4,2,1,100,0,1
338660,-133.333333333333,4,2,1,100,0,1
339350,-66.6666666666667,4,2,2,100,0,1
342626,-100,4,2,2,100,0,1
344867,-66.6666666666667,4,2,1,90,0,0
345384,-133.333333333333,4,2,1,90,0,0
346246,-66.6666666666667,4,2,1,90,0,0
347022,-133.333333333333,4,2,1,90,0,0
347626,-66.6666666666667,4,2,1,90,0,0
348143,-133.333333333333,4,2,1,90,0,0
349005,-66.6666666666667,4,2,1,90,0,0
349781,-133.333333333333,4,2,1,90,0,0
350384,-66.6666666666667,4,2,1,90,0,0
350901,-133.333333333333,4,2,1,90,0,0
351763,-66.6666666666667,4,2,1,90,0,0
352539,-133.333333333333,4,2,1,90,0,0
353143,-66.6666666666667,4,2,1,90,0,0
355557,-333.333333333333,4,2,2,90,0,0
355901,-66.6666666666667,4,2,2,90,0,0
356591,-83.3333333333333,4,2,2,90,0,0
358315,-333.333333333333,4,2,2,90,0,0
358660,-66.6666666666667,4,2,2,90,0,0
359005,-50,4,2,2,90,0,0
359350,-66.6666666666667,4,2,2,90,0,0
361419,-333.333333333333,4,2,2,90,0,0
361763,-66.6666666666667,4,2,2,90,0,0
362798,-83.3333333333333,4,2,2,90,0,0
363143,-100,4,2,2,90,0,0
363488,-133.333333333333,4,2,2,90,0,0
363832,-333.333333333333,4,2,2,90,0,0
364177,-66.6666666666667,4,2,2,90,0,0
364522,-333.333333333333,4,2,2,90,0,0
366591,-66.6666666666667,4,2,2,90,0,0
366936,-133.333333333333,4,2,2,90,0,0
367626,-200,4,2,5,90,0,0
372108,-100,4,2,5,90,0,0
372453,-100,4,2,1,90,0,0
377626,-100,4,2,4,80,0,0
377970,-66.6666666666667,4,2,1,90,0,1
388919,-66.6666666666667,4,2,1,90,0,0
389005,-66.6666666666667,4,2,1,90,0,1
397281,-100,4,2,2,90,0,0
398832,-66.6666666666667,4,2,2,90,0,0
400384,-66.6666666666667,4,2,2,90,0,1
405901,-133.333333333333,4,2,2,90,0,0
406246,-66.6666666666667,4,2,2,90,0,0
406591,-133.333333333333,4,2,2,90,0,0
406936,-66.6666666666667,4,2,2,90,0,0
407453,-133.333333333333,4,2,2,90,0,0
407626,-66.6666666666667,4,2,2,90,0,0
408660,-133.333333333333,4,2,2,90,0,0
409005,-66.6666666666667,4,2,2,90,0,0
409522,-133.333333333333,4,2,2,90,0,0
409695,-66.6666666666667,4,2,2,90,0,0
410039,-100,4,2,2,90,0,0
410384,-66.6666666666667,4,2,2,90,0,0
411074,-66.6666666666667,4,2,2,90,0,1
416936,-133.333333333333,4,2,2,90,0,1
418660,-133.333333333333,4,2,6,90,0,1
419350,-66.6666666666667,4,2,2,90,0,1
420729,-50,4,2,1,90,0,1
422022,-50,4,2,2,90,0,0
422108,-66.6666666666667,4,2,2,90,0,1
422798,-66.6666666666667,4,2,2,90,0,0
423832,-66.6666666666667,4,2,2,90,0,1
425557,-133.333333333333,4,2,2,90,0,0
426591,-50,4,2,2,90,0,1
426936,-44.4444444444445,4,2,2,90,0,1
427281,-133.333333333333,4,2,2,90,0,0
427626,-40,4,2,2,90,0,1
428315,-133.333333333333,4,2,2,90,0,0
429350,-40,4,2,2,90,0,1
431074,-133.333333333333,4,2,2,90,0,0
431936,-40,4,2,2,90,0,1
432453,-133.333333333333,4,2,2,90,0,0
433832,-66.6666666666667,4,2,2,90,0,1
434522,-66.6666666666667,4,2,2,90,0,0
434867,-66.6666666666667,4,2,2,90,0,1
436677,-133.333333333333,4,2,2,90,0,0
436936,-66.6666666666667,4,2,2,90,0,1
438660,-100,4,2,2,90,0,0
441419,-66.6666666666667,4,2,2,90,0,0
441763,-66.6666666666667,4,2,1,5,0,0
441850,-66.6666666666667,4,2,1,90,0,0
442798,-66.6666666666667,4,2,1,5,0,0
442885,-66.6666666666667,4,2,1,90,0,0
443832,-66.6666666666667,4,2,1,5,0,0
443947,-66.6666666666667,4,2,1,90,0,0
444062,-66.6666666666667,4,2,1,5,0,0
444177,-66.6666666666667,4,2,1,90,0,0
445557,-66.6666666666667,4,2,1,5,0,0
445644,-66.6666666666667,4,2,1,90,0,0
445901,-66.6666666666667,4,2,1,5,0,0
446016,-66.6666666666667,4,2,1,90,0,0
446131,-66.6666666666667,4,2,1,5,0,0
446246,-66.6666666666667,4,2,1,90,0,0
446361,-66.6666666666667,4,2,1,5,0,0
446476,-66.6666666666667,4,2,1,90,0,0
446591,-66.6666666666667,4,2,7,90,0,0
446677,-66.6666666666667,4,2,1,90,0,0
446936,-66.6666666666667,4,2,1,80,0,0
447453,-133.333333333333,4,2,1,80,0,0
448315,-66.6666666666667,4,2,1,80,0,0
449091,-133.333333333333,4,2,1,80,0,0
449695,-66.6666666666667,4,2,1,80,0,0
450212,-133.333333333333,4,2,1,80,0,0
451074,-66.6666666666667,4,2,1,80,0,0
451850,-133.333333333333,4,2,1,80,0,0
452453,-66.6666666666667,4,2,1,80,0,0
452970,-133.333333333333,4,2,1,80,0,0
453832,-66.6666666666667,4,2,1,80,0,0
454608,-133.333333333333,4,2,1,80,0,0
455212,-66.6666666666667,4,2,1,80,0,0
457970,-66.6666666666667,4,2,1,50,0,0
459005,-66.6666666666667,4,2,1,70,0,0
459350,-83.3333333333333,4,2,5,70,0,0
459609,-83.3333333333333,4,2,5,5,0,0
459695,-71.4285714285714,4,2,5,70,0,0
459954,-71.4285714285714,4,2,5,5,0,0
460039,-100,4,2,5,70,0,0
461074,-133.333333333333,4,2,5,70,0,0
462108,-66.6666666666667,4,2,5,70,0,0
462367,-66.6666666666667,4,2,5,5,0,0
462454,-66.6666666666667,4,2,5,70,0,0
462540,-66.6666666666667,4,2,5,5,0,0
462626,-66.6666666666667,4,2,5,70,0,0
462712,-66.6666666666667,4,2,5,5,0,0
462798,-76.9230769230769,4,2,5,70,0,0
462885,-76.9230769230769,4,2,5,5,0,0
462971,-100,4,2,5,70,0,0
463057,-100,4,2,5,5,0,0
463143,-133.333333333333,4,2,5,70,0,0
464867,-83.3333333333333,4,2,5,70,0,0
465126,-83.3333333333333,4,2,5,5,0,0
465212,-71.4285714285714,4,2,5,70,0,0
465471,-71.4285714285714,4,2,5,5,0,0
465557,-100,4,2,5,70,0,0
466591,-133.333333333333,4,2,5,70,0,0
467626,-66.6666666666667,4,2,5,70,0,0
467885,-66.6666666666667,4,2,5,5,0,0
467971,-66.6666666666667,4,2,5,70,0,0
468057,-66.6666666666667,4,2,5,5,0,0
468143,-66.6666666666667,4,2,5,70,0,0
468229,-66.6666666666667,4,2,5,5,0,0
468315,-76.9230769230769,4,2,5,70,0,0
468402,-76.9230769230769,4,2,5,5,0,0
468488,-100,4,2,5,70,0,0
468574,-100,4,2,5,5,0,0
468660,-133.333333333333,4,2,5,70,0,0
469695,-83.3333333333333,4,2,5,70,0,0
470385,-133.333333333333,4,2,5,70,0,0

[Colours]
Combo1 : 255,113,184
Combo2 : 255,209,164
Combo3 : 240,250,124
Combo4 : 255,185,220

[HitObjects]
103,365,9695,6,0,P|86:283|73:170,1,172.500006580353,2|0,0:3|0:2,0:2:0:0:
157,153,10212,1,2,0:1:0:0:
163,164,10298,1,2,0:2:0:0:
167,176,10384,6,0,P|215:165|258:161,1,86.2500032901765,2|2,0:2|0:2,0:2:0:0:
256,173,10643,1,2,0:2:0:0:
260,184,10729,2,0,P|308:173|337:166,3,43.1250016450883,2|2|2|2,0:2|0:2|0:2|0:2,0:2:0:0:
219,272,11074,6,0,P|310:289|369:316,1,129.375004935265,2|0,0:1|0:2,0:2:0:0:
352,323,11419,2,0,P|417:308|423:274,1,86.2500032901765,2|8,0:2|0:0,0:2:0:0:
381,93,11936,1,0,0:2:0:0:
475,197,12108,5,2,0:2:0:0:
463,191,12195,1,2,0:2:0:0:
450,187,12281,1,2,0:2:0:0:
437,186,12367,1,2,0:2:0:0:
424,188,12453,6,0,P|348:193|278:100,1,172.500006580353,2|0,0:3|0:2,0:2:0:0:
246,48,12970,1,2,0:1:0:0:
241,60,13057,1,2,0:2:0:0:
236,72,13143,6,0,P|182:85|135:87,1,86.2500032901765,2|2,0:2|0:2,0:2:0:0:
143,97,13401,1,2,0:2:0:0:
134,106,13488,2,0,P|105:103|84:95,3,43.1250016450883,2|2|2|2,0:2|0:2|0:1|0:2,0:2:0:0:
198,171,13832,6,0,P|204:232|199:296,1,86.2500032901765,2|2,0:1|0:2,0:2:0:0:
199,269,14091,1,2,0:2:0:0:
194,281,14177,2,0,P|136:296|103:270,1,86.2500032901765,2|2,0:2|0:3,0:2:0:0:
285,356,14695,1,0,0:2:0:0:
349,294,14867,5,2,0:2:0:0:
361,296,14953,1,2,0:2:0:0:
383,301,15039,5,2,0:2:0:0:
395,304,15126,1,2,0:2:0:0:
414,341,15212,6,0,P|430:253|506:229,1,172.500006580353,2|0,0:3|0:2,0:2:0:0:
485,86,15729,1,2,0:1:0:0:
480,98,15815,1,2,0:2:0:0:
475,110,15901,6,0,P|426:100|406:57,1,86.2500032901765,2|2,0:2|0:2,0:2:0:0:
407,58,16160,1,2,0:2:0:0:
409,45,16246,2,0,P|377:39|333:43,3,43.1250016450883,2|2|2|2,0:1|0:2|0:2|0:2,0:2:0:0:
334,124,16591,6,0,B|272:161|268:99|186:149,1,129.375004935265,2|0,0:1|0:2,0:2:0:0:
204,149,16936,2,0,P|137:141|125:103,1,86.2500032901765,2|2,0:1|0:3,0:2:0:0:
221,359,17453,1,0,0:2:0:0:
114,233,17626,5,0,0:2:0:0:
72,232,17712,1,2,0:0:0:0:
39,259,17798,1,2,0:0:0:0:
31,300,17884,1,2,0:0:0:0:
47,336,17970,6,0,P|115:349|151:350,1,86.2500032901765,8|0,0:2|0:2,0:2:0:0:
377,350,18315,5,2,0:1:0:0:
381,337,18401,1,2,0:1:0:0:
385,324,18488,1,2,0:1:0:0:
389,311,18574,1,2,0:1:0:0:
393,298,18660,2,0,L|287:316,1,86.2500032901765,2|0,0:1|0:2,0:2:0:0:
486,252,19005,5,2,0:1:0:0:
490,239,19091,1,2,0:1:0:0:
494,226,19178,1,2,0:1:0:0:
498,213,19264,1,2,0:1:0:0:
502,200,19350,6,0,L|396:218,1,86.2500032901765,2|0,0:3|0:2,0:2:0:0:
359,105,19695,2,0,L|465:123,1,86.2500032901765,0|0,0:2|0:2,0:2:0:0:
502,57,20039,1,2,0:1:0:0:
502,57,20212,1,2,0:1:0:0:
359,105,20384,6,0,P|355:49|355:-3,1,86.2500032901765,2|0,0:3|0:2,0:2:0:0:
342,13,20643,1,0,0:2:0:0:
333,18,20729,6,0,B|261:9|285:64|176:37,1,137.999995788574,2|0,0:3|0:2,0:2:0:0:
104,133,21246,2,0,P|104:93|54:-7,1,137.999995788574,2|0,0:3|0:2,0:2:0:0:
111,147,21763,2,0,P|171:162|194:161,1,68.9999978942872,2|0,0:2|0:2,0:2:0:0:
163,247,22108,6,0,P|128:250|66:349,1,137.999995788574,2|0,0:1|0:2,0:2:0:0:
118,384,22626,1,2,0:3:0:0:
275,278,22970,1,2,0:3:0:0:
275,278,23143,2,0,P|326:296|362:282,1,68.9999978942872,2|0,0:2|0:2,0:2:0:0:
426,364,23488,6,0,P|435:303|506:256,1,137.999995788574,2|2,0:2|0:3,0:2:0:0:
492,258,24005,1,2,0:3:0:0:
492,258,24177,1,2,0:1:0:0:
389,222,24350,1,2,0:3:0:0:
494,93,24522,6,0,L|508:6,1,68.9999978942872,2|2,0:2|0:1,0:2:0:0:
396,36,24867,2,0,P|353:118|304:113,1,137.999995788574,2|0,0:1|0:2,0:2:0:0:
237,86,25384,2,0,P|213:46|218:-7,2,68.9999978942872,2|2|2,0:3|0:1|0:3,0:2:0:0:
248,171,25901,2,0,P|240:217|199:248,1,68.9999978942872,2|2,0:2|0:2,0:2:0:0:
220,241,26160,1,2,0:2:0:0:
213,248,26246,6,0,L|65:233,1,137.999995788574,2|0,0:2|0:2,0:2:0:0:
75,234,26763,1,2,0:1:0:0:
74,233,26936,2,0,P|71:193|80:150,1,68.9999978942872,2|0,0:1|0:2,0:2:0:0:
100,318,27281,6,0,P|126:348|162:372,1,68.9999978942872,2|0,0:2|0:2,0:2:0:0:
242,378,27626,2,0,P|283:331|368:343,1,137.999995788574,2|0,0:1|0:2,0:2:0:0:
454,363,28143,2,0,P|480:315|406:274,1,137.999995788574,2|0,0:3|0:2,0:2:0:0:
493,194,28660,2,0,L|511:111,1,68.9999978942872,2|2,0:2|0:2,0:2:0:0:
503,116,28919,1,2,0:2:0:0:
499,106,29005,6,0,P|453:132|342:122,1,137.999995788574,2|0,0:3|0:2,0:2:0:0:
313,77,29522,1,2,0:1:0:0:
165,225,29695,2,0,P|166:168|127:76,1,137.999995788574,2|0,0:2|0:2,0:2:0:0:
85,37,30212,1,2,0:1:0:0:
226,69,30384,5,2,0:1:0:0:
71,175,30557,2,0,P|25:161|-13:145,2,68.9999978942872,2|2|0,0:2|0:3|0:2,0:2:0:0:
74,266,31074,2,0,P|28:280|-10:296,1,68.9999978942872,2|0,0:1|0:2,0:2:0:0:
122,384,31419,2,0,P|158:348|160:276,1,103.499996841431,2|0,0:3|0:2,0:2:0:0:
175,301,31763,6,0,P|281:314|341:319,1,149.499993156433,2|0,0:2|0:2,0:2:0:0:
393,372,32281,1,2,0:1:0:0:
393,372,32453,2,0,P|419:345|417:301,1,74.7499965782167,2|2,0:1|0:3,0:2:0:0:
450,109,32798,2,0,P|497:152|482:212,1,112.124994867325,2|0,0:2|0:2,0:2:0:0:
483,201,33143,6,0,B|395:180|418:251|319:218,1,149.499993156433,2|0,0:1|0:2,0:2:0:0:
275,168,33660,2,0,P|274:115|302:87,2,74.7499965782167,2|2|2,0:3|0:1|0:3,0:2:0:0:
280,358,34177,2,0,P|297:310|240:255,1,112.124994867325,2|0,0:2|0:2,0:2:0:0:
263,252,34522,6,0,P|206:281|136:213,1,149.499993156433,2|0,0:2|0:2,0:2:0:0:
136,152,35039,1,2,0:1:0:0:
136,152,35212,1,2,0:1:0:0:
61,206,35384,1,2,0:3:0:0:
124,310,35557,2,0,P|140:276|145:239,1,74.7499965782167,2|2,0:2|0:1,0:2:0:0:
49,384,35901,6,0,P|36:329|-44:237,1,149.499993156433,2|0,0:1|0:2,0:2:0:0:
0,169,36419,2,0,P|40:191|88:171,1,74.7499965782167,2|0,0:3|0:2,0:2:0:0:
122,125,36763,1,2,0:3:0:0:
143,275,36936,2,0,P|143:229|185:197,1,74.7499965782167,2|2,0:1|0:2,0:2:0:0:
172,206,37195,1,2,0:2:0:0:
183,206,37281,5,2,0:2:0:0:
224,327,37453,1,2,0:2:0:0:
304,251,37626,2,0,P|362:252|465:263,1,149.499993156433,2|0,0:2|0:2,0:2:0:0:
512,329,38143,2,0,P|472:361|433:360,1,74.7499965782167,2|0,0:3|0:2,0:2:0:0:
375,334,38488,1,2,0:2:0:0:
452,261,38660,6,0,P|463:182|470:92,1,149.499993156433,2|0,0:1|0:2,0:2:0:0:
426,41,39177,1,2,0:1:0:0:
308,133,39350,2,0,P|256:122|155:92,1,149.499993156433,2|0,0:2|0:2,0:2:0:0:
163,94,39867,1,2,0:2:0:0:
163,94,39953,1,2,0:2:0:0:
163,94,40039,6,0,P|165:45|161:7,1,74.7499965782167,2|0,0:3|0:2,0:2:0:0:
76,97,40384,2,0,P|73:48|77:10,1,74.7499965782167,2|0,0:2|0:2,0:2:0:0:
194,177,40729,2,0,P|230:144|254:114,1,74.7499965782167,2|2,0:2|0:3,0:2:0:0:
52,188,41074,2,0,P|15:155|-8:125,1,74.7499965782167,2|2,0:2|0:1,0:2:0:0:
114,271,41419,6,0,P|166:275|273:307,1,149.499993156433,2|0,0:1|0:2,0:2:0:0:
314,369,41936,1,2,0:2:0:0:
457,334,42108,2,0,P|472:278|467:156,1,149.499993156433,2|0,0:2|0:2,0:2:0:0:
430,113,42626,1,0,0:2:0:0:
430,113,42798,1,2,0:1:0:0:
206,79,43143,5,2,0:3:0:0:
270,21,43315,1,2,0:1:0:0:
289,106,43488,2,0,L|305:207,2,74.7499965782167,8|0|0,0:2|0:2|0:2,0:2:0:0:
80,279,44005,5,2,0:2:0:0:
80,279,44091,1,0,0:0:0:0:
80,279,44177,2,0,P|131:235|224:216,1,149.499993156433,2|0,0:2|0:2,0:2:0:0:
209,215,44695,1,2,0:1:0:0:
338,375,44867,6,0,P|329:334|215:322,1,149.499993156433,2|0,0:2|0:2,0:2:0:0:
236,305,45384,1,2,0:1:0:0:
308,216,45557,2,0,P|331:159|317:123,1,74.7499965782167,2|0,0:1|0:2,0:2:0:0:
318,0,45901,6,0,L|314:34,1,24.9166655260722,2|0,0:3|0:2,0:2:0:0:
322,14,46016,2,0,L|318:48,1,24.9166655260722,2|0,0:3|0:2,0:2:0:0:
326,24,46131,2,0,L|322:58,1,24.9166655260722,2|0,0:3|0:2,0:2:0:0:
330,34,46246,6,0,P|246:76|194:15,1,149.499993156433,2|0,0:3|0:2,0:2:0:0:
95,287,46763,1,0,0:2:0:0:
95,287,46850,1,0,0:2:0:0:
95,287,46936,5,2,0:3:0:0:
11,260,47108,1,2,0:2:0:0:
11,172,47280,1,2,0:2:0:0:
96,144,47453,1,2,0:3:0:0:
148,216,47626,6,0,P|206:217|253:211,1,80.499997543335,2|0,0:2|0:2,0:2:0:0:
233,315,47970,2,0,P|283:286|321:258,1,80.499997543335,2|0,0:3|0:2,0:2:0:0:
483,100,48315,5,2,0:1:0:0:
455,202,48488,1,2,0:2:0:0:
381,72,48660,1,2,0:2:0:0:
353,174,48832,1,2,0:1:0:0:
483,100,49005,6,0,P|500:35|487:5,1,80.499997543335,2|0,0:2|0:2,0:2:0:0:
381,72,49350,2,0,P|387:32|411:1,1,80.499997543335,2|0,0:3|0:2,0:2:0:0:
417,11,49608,1,0,0:0:0:0:
419,22,49695,6,0,P|351:9|326:-25,1,80.499997543335,2|2,0:2|0:1,0:2:0:0:
299,111,50039,2,0,P|270:83|259:44,1,80.499997543335,2|2,0:2|0:3,0:2:0:0:
241,195,50384,2,0,P|173:208|148:242,1,80.499997543335,2|2,0:2|0:2,0:2:0:0:
121,106,50728,2,0,P|92:133|81:172,1,80.499997543335,2|2,0:2|0:3,0:2:0:0:
162,384,51074,6,0,P|177:324|325:328,1,160.99999508667,2|0,0:1|0:2,0:2:0:0:
327,341,51591,1,2,0:2:0:0:
399,384,51763,2,0,P|413:323|390:286,1,80.499997543335,2|0,0:3|0:2,0:2:0:0:
343,256,52108,2,0,P|355:241|373:231,3,40.2499987716675,0|0|0|0,0:2|0:2|0:2|0:2,0:2:0:0:
340,244,52453,5,2,0:3:0:0:
355,163,52626,1,2,0:1:0:0:
370,82,52798,1,2,0:2:0:0:
385,2,52970,1,2,0:1:0:0:
291,109,53143,6,0,P|215:72|205:46,1,80.499997543335,2|0,0:2|0:2,0:2:0:0:
436,139,53488,2,0,P|519:130|537:109,1,80.499997543335,2|0,0:3|0:2,0:2:0:0:
335,259,53832,5,2,0:3:0:0:
267,189,54005,1,2,0:2:0:0:
194,238,54177,1,2,0:2:0:0:
124,207,54350,1,2,0:1:0:0:
46,223,54522,6,0,P|46:183|68:150,1,80.499997543335,2|0,0:3|0:2,0:2:0:0:
9,91,54867,2,0,P|37:63|76:55,1,80.499997543335,2|2,0:2|0:2,0:2:0:0:
84,63,55126,1,2,0:2:0:0:
92,71,55212,6,0,L|119:-22,1,80.499997543335,0|2,0:2|0:1,0:2:0:0:
182,85,55557,2,0,L|209:-8,1,80.499997543335,2|2,0:2|0:3,0:2:0:0:
246,163,55901,6,0,L|273:256,1,80.499997543335,2|0,0:2|0:2,0:2:0:0:
336,149,56246,2,0,L|363:242,1,80.499997543335,2|2,0:3|0:1,0:2:0:0:
504,372,56591,6,0,P|477:332|358:318,1,160.99999508667,2|0,0:1|0:2,0:2:0:0:
310,362,57108,1,2,0:3:0:0:
138,380,57281,2,0,P|105:327|162:222,1,160.99999508667,2|2,0:2|0:3,0:2:0:0:
217,197,57798,1,2,0:2:0:0:
217,197,57884,1,2,0:2:0:0:
217,197,57970,5,2,0:2:0:0:
141,156,58143,1,2,0:2:0:0:
212,111,58315,2,0,B|330:91|293:184|411:161,2,206.999993682861,2|2|2,0:2|0:2|0:2,0:2:0:0:
103,323,60729,5,2,0:2:0:0:
86,329,60901,1,0,0:2:0:0:
79,312,61074,1,0,0:2:0:0:
96,306,61246,1,0,0:2:0:0:
162,237,61419,5,2,0:2:0:0:
189,246,61591,1,0,0:2:0:0:
201,217,61764,1,0,0:2:0:0:
172,208,61936,1,0,0:2:0:0:
79,207,62108,5,2,0:2:0:0:
102,170,62281,1,2,0:2:0:0:
57,122,62453,1,2,0:2:0:0:
115,50,62626,1,2,0:2:0:0:
115,50,62712,1,2,0:2:0:0:
115,50,62798,6,0,L|161:42,1,34.4999989471436,2|2,0:2|0:2,0:2:0:0:
176,56,63143,2,0,L|222:48,1,34.4999989471436,2|2,0:2|0:2,0:2:0:0:
486,27,63488,6,0,P|466:86|447:185,1,129.375004935265,6|0,3:2|0:2,0:2:0:0:
455,163,63832,2,0,P|410:200|356:172,1,86.2500032901765,2|8,0:2|0:2,0:2:0:0:
407,298,64177,2,0,P|349:292|330:234,1,86.2500032901765,2|0,3:2|0:2,0:2:0:0:
117,200,64522,5,10,0:2:0:0:
213,109,64695,1,2,0:2:0:0:
115,213,64867,2,0,L|-3:199,1,86.2500032901765,2|0,3:2|0:2,0:2:0:0:
212,91,65212,2,0,L|330:77,1,86.2500032901765,2|8,0:2|0:2,0:2:0:0:
236,185,65557,2,0,P|240:236|223:345,1,129.375004935265,2|0,3:2|0:2,0:2:0:0:
224,324,65901,1,10,0:2:0:0:
333,257,66074,1,2,0:2:0:0:
399,371,66246,6,0,P|419:313|423:280,1,86.2500032901765,2|0,3:2|0:2,0:2:0:0:
346,249,66591,2,0,P|326:191|322:158,1,86.2500032901765,2|8,0:2|0:2,0:2:0:0:
512,129,66936,2,0,P|467:164|420:145,1,86.2500032901765,2|0,3:2|0:2,0:2:0:0:
195,0,67281,2,0,P|240:35|287:16,1,86.2500032901765,10|0,0:2|0:2,0:2:0:0:
490,0,67626,6,0,P|456:57|456:98,1,86.2500032901765,2|0,3:2|0:2,0:2:0:0:
315,104,67970,2,0,P|349:161|349:202,1,86.2500032901765,2|8,0:2|0:2,0:2:0:0:
472,288,68315,2,0,P|502:253|487:207,1,86.2500032901765,2|0,3:2|0:2,0:2:0:0:
343,341,68660,2,0,P|297:331|282:284,1,86.2500032901765,10|0,0:2|0:2,0:2:0:0:
282,285,68919,1,0,0:2:0:0:
288,273,69005,6,0,B|216:271|263:333|157:323,1,129.375004935265,2|0,3:2|0:2,0:2:0:0:
171,336,69350,2,0,P|115:334|95:290,1,86.2500032901765,2|8,0:2|0:2,0:2:0:0:
23,243,69695,2,0,P|74:222|80:140,1,129.375004935265,2|0,3:2|0:2,0:2:0:0:
94,143,70039,2,0,P|145:164|151:246,1,129.375004935265,10|0,0:2|0:2,0:2:0:0:
177,206,70384,6,0,L|346:174,1,172.500006580353,0|0,3:2|0:2,0:2:0:0:
418,239,70901,1,8,0:2:0:0:
500,57,71074,2,0,P|442:35|428:0,1,86.2500032901765,2|0,3:2|0:2,0:2:0:0:
356,81,71419,2,0,P|330:24|345:-10,1,86.2500032901765,10|0,0:2|0:2,0:2:0:0:
427,139,71763,6,0,P|457:193|395:239,1,129.375004935265,2|0,3:2|0:2,0:2:0:0:
411,249,72108,2,0,P|392:338|400:363,1,86.2500032901765,2|8,0:2|0:2,0:2:0:0:
312,384,72453,2,0,P|293:295|301:270,1,86.2500032901765,2|0,3:2|0:2,0:2:0:0:
295,199,72798,2,0,P|223:180|189:179,1,86.2500032901765,10|0,0:2|0:2,0:2:0:0:
44,361,73143,6,0,P|140:324|140:244,1,172.500006580353,0|0,3:2|0:2,0:2:0:0:
87,123,73660,2,0,P|71:169|85:217,1,86.2500032901765,10|0,0:2|3:2,0:2:0:0:
148,264,74005,5,2,0:2:0:0:
228,219,74177,1,10,0:2:0:0:
345,260,74350,1,2,0:2:0:0:
468,198,74522,6,0,P|486:129|426:77,1,129.375004935265,6|0,3:2|0:2,0:2:0:0:
441,81,74867,2,0,P|399:68|357:60,1,86.2500032901765,2|8,0:2|0:2,0:2:0:0:
228,219,75212,2,0,P|246:150|250:113,1,86.2500032901765,2|0,3:2|0:2,0:2:0:0:
232,12,75557,5,10,0:2:0:0:
76,57,75729,1,2,0:2:0:0:
163,150,75901,2,0,P|231:138|274:129,1,86.2500032901765,2|0,3:2|0:2,0:2:0:0:
85,39,76246,2,0,P|17:27|-26:18,1,86.2500032901765,2|8,0:2|0:2,0:2:0:0:
36,157,76591,2,0,P|56:213|80:296,1,129.375004935265,2|0,3:2|0:2,0:2:0:0:
71,292,76936,5,10,0:2:0:0:
201,376,77108,1,2,0:2:0:0:
201,376,77195,1,0,0:2:0:0:
201,376,77281,6,0,P|226:276|274:264,1,129.375004935265,2|0,3:2|0:2,0:2:0:0:
251,274,77626,2,0,P|340:312|353:304,1,86.2500032901765,2|8,0:2|0:2,0:2:0:0:
504,134,77970,2,0,P|415:172|402:164,1,86.2500032901765,2|0,3:2|0:2,0:2:0:0:
364,223,78315,2,0,P|322:212|296:179,1,86.2500032901765,10|0,0:2|0:2,0:2:0:0:
446,270,78660,6,0,P|457:318|457:374,1,86.2500032901765,2|0,3:2|0:2,0:2:0:0:
296,179,79005,2,0,P|298:135|308:94,1,86.2500032901765,2|8,0:2|0:2,0:2:0:0:
428,166,79350,2,0,P|476:155|532:155,1,86.2500032901765,2|0,3:2|0:2,0:2:0:0:
337,316,79695,2,0,P|293:313|252:303,1,86.2500032901765,10|0,0:2|0:2,0:2:0:0:
114,364,80039,6,0,P|113:314|127:199,1,129.375004935265,2|0,3:2|0:2,0:2:0:0:
127,223,80384,1,2,0:2:0:0:
24,66,80557,1,10,0:2:0:0:
0,150,80729,2,0,P|73:138|95:109,1,86.2500032901765,2|0,3:2|0:2,0:2:0:0:
90,6,81074,2,0,P|163:18|185:47,1,86.2500032901765,10|0,0:2|0:2,0:2:0:0:
172,36,81332,1,0,0:2:0:0:
175,48,81419,6,0,P|221:104|329:93,1,172.500006580353,0|0,3:2|0:2,0:2:0:0:
369,36,81936,1,10,0:2:0:0:
430,257,82108,2,0,P|472:221|491:165,1,86.2500032901765,2|0,3:2|0:2,0:2:0:0:
345,256,82453,2,0,P|303:220|284:164,1,86.2500032901765,10|0,0:2|0:2,0:2:0:0:
287,324,82798,6,0,P|219:317|186:329,1,86.2500032901765,2|0,3:2|0:2,0:2:0:0:
137,378,83143,1,2,0:2:0:0:
63,343,83315,1,10,0:2:0:0:
64,260,83488,2,0,P|75:191|83:109,1,129.375004935265,2|0,3:2|0:2,0:2:0:0:
75,120,83832,5,10,0:2:0:0:
168,174,84005,1,2,0:2:0:0:
168,174,84091,1,0,0:2:0:0:
168,174,84177,6,0,P|184:124|184:82,1,86.2500032901765,2|0,3:2|0:2,0:2:0:0:
107,22,84522,1,2,0:2:0:0:
75,120,84695,1,10,0:2:0:0:
271,103,84867,2,0,P|268:60|254:19,1,86.2500032901765,2|0,3:2|0:2,0:2:0:0:
168,174,85212,5,10,0:2:0:0:
174,184,85298,1,2,0:2:0:0:
182,193,85384,1,2,0:2:0:0:
191,201,85470,1,2,0:2:0:0:
201,208,85557,6,0,P|266:224|371:181,1,172.500006580353,6|0,3:2|0:2,0:2:0:0:
417,123,86074,1,10,0:2:0:0:
512,228,86246,2,0,P|510:280|418:253,1,172.500006580353,2|8,3:2|0:2,0:2:0:0:
415,112,86763,1,2,0:2:0:0:
419,262,86936,6,0,B|316:279|397:333|256:354,1,172.500006580353,2|0,3:2|0:2,0:2:0:0:
205,303,87453,1,10,0:2:0:0:
11,339,87626,2,0,P|-1:291|90:230,1,172.500006580353,2|8,3:2|0:2,0:2:0:0:
278,254,88143,1,2,0:2:0:0:
278,254,88229,1,0,0:2:0:0:
278,254,88315,6,0,L|299:135,2,86.2500032901765,2|0|0,3:2|0:2|0:2,0:2:0:0:
142,157,88832,1,8,0:2:0:0:
142,157,89004,2,0,L|121:38,1,86.2500032901765,0|0,3:2|0:2,0:2:0:0:
292,169,89350,6,0,P|355:130|386:124,1,86.2500032901765,10|0,0:2|0:2,0:2:0:0:
127,72,89695,2,0,P|64:33|33:27,1,86.2500032901765,2|0,3:2|0:2,0:2:0:0:
270,1,90039,2,0,P|243:62|239:115,1,86.2500032901765,2|8,0:2|0:2,0:2:0:0:
80,218,90384,6,0,L|39:209,3,28.75,2|0|0|0,3:2|0:2|0:2|0:2,0:2:0:0:
48,230,90729,6,0,B|128:246|128:246|142:297|142:297|186:306,1,172.5,2|0,0:2|0:2,0:2:0:0:
263,378,91074,6,0,P|280:327|421:301,1,172.500006580353,2|0,3:2|0:2,0:2:0:0:
448,345,91591,1,10,0:2:0:0:
512,214,91763,2,0,P|495:163|354:137,1,172.500006580353,2|8,3:2|0:2,0:2:0:0:
240,215,92281,1,2,0:2:0:0:
240,215,92367,1,0,0:2:0:0:
240,215,92453,6,0,P|232:147|264:22,1,172.500006580353,2|0,3:2|0:2,0:2:0:0:
333,18,92970,1,10,0:2:0:0:
149,125,93143,2,0,P|83:101|45:7,1,172.500006580353,2|8,3:2|0:2,0:2:0:0:
134,11,93660,1,2,0:2:0:0:
240,215,93832,6,0,B|352:226|288:148|422:162,1,172.500006580353,2|0,3:2|0:2,0:2:0:0:
473,212,94350,1,8,0:2:0:0:
423,345,94522,2,0,P|394:278|389:237,1,86.2500032901765,0|0,3:2|0:2,0:2:0:0:
504,132,94867,2,0,P|475:199|470:240,1,86.2500032901765,10|0,0:2|0:2,0:2:0:0:
318,335,95212,6,0,L|215:314,1,86.2500032901765,2|0,3:2|0:2,0:2:0:0:
256,129,95557,6,0,B|127:145|127:145|108:221,1,172.5,2|0,3:2|0:2,0:2:0:0:
112,210,95901,2,0,B|60:104|60:104|121:33,1,172.5,2|0,0:2|0:2,0:2:0:0:
107,56,96246,2,0,L|111:-11,1,57.5,2|0,0:2|0:2,0:2:0:0:
258,142,96591,6,0,L|445:167,1,172.500006580353,6|0,3:2|0:2,0:2:0:0:
485,102,97108,1,10,0:2:0:0:
495,355,97281,2,0,P|440:351|423:232,1,172.500006580353,2|8,3:2|0:2,0:2:0:0:
494,221,97798,1,2,0:2:0:0:
333,366,97970,6,0,P|304:324|174:287,1,172.500006580353,2|0,3:2|0:2,0:2:0:0:
121,332,98488,1,10,0:2:0:0:
8,223,98660,2,0,P|13:157|26:51,1,172.500006580353,2|8,3:2|0:2,0:2:0:0:
206,159,99177,1,2,0:2:0:0:
206,159,99263,1,0,0:2:0:0:
206,159,99350,6,0,B|318:186|257:108|385:137,1,172.500006580353,2|0,3:2|0:2,0:2:0:0:
439,198,99867,1,8,0:2:0:0:
434,28,100039,2,0,P|458:86|459:128,1,86.2500032901765,0|0,3:2|0:2,0:2:0:0:
512,258,100384,2,0,P|505:300|485:338,1,86.2500032901765,10|0,0:2|0:2,0:2:0:0:
151,362,100729,6,0,P|125:317|150:275,1,86.2500032901765,2|0,3:2|0:2,0:2:0:0:
0,195,101074,2,0,P|51:194|75:237,1,86.2500032901765,2|8,0:2|0:2,0:2:0:0:
220,147,101419,2,0,P|194:192|145:191,1,86.2500032901765,2|0,3:2|0:2,0:2:0:0:
159,186,101763,6,0,B|172:108|172:108|181:101|181:101|196:-2,1,172.5,2|0,0:2|0:2,0:2:0:0:
280,62,102108,6,0,L|456:35,1,172.500006580353,2|0,3:2|0:2,0:2:0:0:
511,99,102626,1,10,0:2:0:0:
376,193,102798,2,0,P|368:279|360:383,1,172.500006580353,2|8,3:2|0:2,0:2:0:0:
457,293,103315,1,2,0:2:0:0:
273,257,103488,6,0,P|198:298|154:387,1,172.500006580353,2|0,3:2|0:2,0:2:0:0:
238,384,104005,1,10,0:2:0:0:
75,352,104177,2,0,P|50:269|82:175,1,172.500006580353,2|8,3:2|0:2,0:2:0:0:
194,71,104695,1,2,3:2:0:0:
194,71,104781,1,0,3:2:0:0:
194,71,104867,6,0,B|255:56|255:56|286:79|286:79|386:50,1,172.500006580353,6|0,3:2|0:2,0:2:0:0:
487,317,105901,6,0,B|425:302|425:302|395:325|395:325|295:296,1,172.500006580353,6|0,3:2|0:2,0:2:0:0:
334,362,107166,6,0,L|322:276,1,57.500002193451,6|0,3:2|0:2,0:2:0:0:
422,210,107396,2,0,L|434:124,1,57.500002193451,6|0,3:2|0:2,0:2:0:0:
294,89,107626,2,0,L|282:3,1,57.500002193451,6|0,3:2|0:2,0:2:0:0:
286,32,108660,6,0,B|157:25|157:25|122:93,1,172.500006580353,6|0,3:2|0:2,0:2:0:0:
125,73,109235,6,0,B|110:49|110:49|139:63,1,57.500002193451,6|0,3:2|0:2,0:2:0:0:
182,253,109465,2,0,B|169:277|169:277|167:245,1,57.500002193451,6|0,3:2|0:2,0:2:0:0:
309,113,109695,2,0,B|336:111|336:111|309:129,1,57.500002193451,6|0,3:2|0:2,0:2:0:0:
204,153,110039,5,2,0:2:0:0:
207,140,110126,1,2,0:2:0:0:
211,127,110212,1,2,0:2:0:0:
214,115,110298,1,2,0:2:0:0:
218,102,110384,1,6,3:2:0:0:
256,192,110470,12,2,113143,0:2:0:0:
353,338,121419,6,0,P|426:313|432:283,1,115,2|0,3:2|0:2,0:2:0:0:
403,207,121936,1,0,0:2:0:0:
403,207,122108,2,0,P|337:201|272:179,1,115,2|0,3:2|0:2,0:2:0:0:
230,135,122626,1,0,0:2:0:0:
230,135,122712,1,0,0:2:0:0:
230,135,122798,6,0,L|222:15,1,115,2|0,3:2|0:2,0:2:0:0:
132,20,123315,1,0,0:2:0:0:
132,20,123488,2,0,L|124:134,1,115,2|0,3:2|0:2,0:2:0:0:
53,203,124005,1,0,0:2:0:0:
53,203,124091,1,0,0:2:0:0:
53,203,124177,6,0,P|100:227|134:359,1,172.500006580353,2|0,3:2|0:2,0:2:0:0:
233,372,124695,1,0,0:2:0:0:
233,372,124867,2,0,P|284:362|378:340,1,129.375004935265,2|0,3:2|0:2,0:2:0:0:
378,356,125212,1,0,0:2:0:0:
456,269,125384,1,0,0:2:0:0:
456,269,125470,1,0,0:2:0:0:
456,269,125557,6,0,P|463:205|446:155,1,86.2500032901765,2|0,3:2|0:2,0:2:0:0:
403,113,125901,1,0,0:2:0:0:
403,113,126074,1,0,0:2:0:0:
344,266,126246,6,0,L|301:260,1,43.1250016450883,2|0,3:2|0:2,0:2:0:0:
352,255,126419,2,0,L|309:249,1,43.1250016450883,2|0,0:2|0:2,0:2:0:0:
363,246,126591,6,0,B|325:242|325:242|256:314|256:314|196:306,1,172.5,2|0,0:2|0:2,0:2:0:0:
128,358,126936,6,0,P|125:280|100:237,1,115,10|0,3:2|0:2,0:2:0:0:
26,236,127195,2,0,P|4:183|6:126,1,115,10|0,3:2|0:2,0:2:0:0:
78,76,127453,1,10,3:2:0:0:
112,238,127626,6,0,P|165:189|235:164,1,115,10|0,3:2|0:2,0:2:0:0:
224,87,127884,2,0,P|281:86|335:104,1,115,10|0,3:2|0:2,0:2:0:0:
393,175,128143,1,10,3:2:0:0:
216,168,128315,6,0,P|208:271|248:299,1,115,10|0,3:2|0:2,0:2:0:0:
138,325,128574,2,0,P|223:383|267:362,1,115,10|0,3:2|0:2,0:2:0:0:
294,335,128832,1,10,3:2:0:0:
480,182,129005,6,0,P|462:239|387:266,1,115,10|0,3:2|0:2,0:2:0:0:
491,358,129263,2,0,P|432:370|371:319,1,115,10|0,3:2|0:2,0:2:0:0:
294,335,129522,2,0,P|282:306|290:261,1,57.5,10|0,3:2|0:2,0:2:0:0:
378,62,129695,5,10,3:2:0:0:
360,64,129781,1,0,3:2:0:0:
342,66,129867,1,0,3:2:0:0:
325,68,129953,1,0,3:2:0:0:
293,87,130039,5,10,3:2:0:0:
275,85,130125,1,0,3:2:0:0:
257,83,130211,1,0,3:2:0:0:
240,81,130297,1,0,3:2:0:0:
212,54,130384,5,10,3:2:0:0:
194,56,130470,1,0,3:2:0:0:
176,58,130556,1,0,3:2:0:0:
159,60,130642,1,0,3:2:0:0:
127,79,130728,5,10,3:2:0:0:
109,77,130814,1,0,3:2:0:0:
91,75,130900,1,0,3:2:0:0:
74,73,130988,1,0,3:2:0:0:
47,48,131074,5,8,0:2:0:0:
28,83,131160,1,8,0:2:0:0:
56,109,131246,1,8,0:2:0:0:
19,143,131332,1,8,0:2:0:0:
63,180,131419,1,8,0:2:0:0:
14,217,131505,1,8,0:2:0:0:
59,259,131591,5,0,3:2:0:0:
69,278,131677,1,0,1:2:0:0:
58,296,131763,1,0,1:2:0:0:
38,296,131850,1,0,1:2:0:0:
28,278,131936,1,0,1:2:0:0:
38,260,132022,1,0,1:2:0:0:
46,266,132108,5,10,1:2:0:0:
58,278,132195,1,8,0:2:0:0:
46,290,132280,1,8,0:2:0:0:
33,278,132367,1,8,0:2:0:0:
104,324,132453,6,0,B|152:369|152:369|262:344|262:344|263:331|263:331|381:303,1,258.75000987053,6|0,3:2|0:2,0:2:0:0:
407,291,132798,1,2,0:3:0:0:
45,54,132970,6,0,P|136:43|177:154,1,172.500006580353,10|0,0:2|0:2,0:2:0:0:
195,188,133229,2,0,P|218:130|211:75,1,86.2500032901765,2|0,3:2|0:2,0:2:0:0:
242,27,133488,2,0,P|240:12|236:29,1,43.1250016450883,10|0,0:2|0:2,0:2:0:0:
315,225,133660,5,2,0:2:0:0:
320,213,133746,1,2,0:2:0:0:
329,221,133832,1,2,0:2:0:0:
339,212,133919,1,2,0:2:0:0:
350,218,134005,1,2,0:2:0:0:
417,187,134091,5,0,3:2:0:0:
464,246,134177,2,0,P|406:343|199:304,1,345.000013160706,10|0,0:2|0:2,0:2:0:0:
76,94,134695,5,2,3:2:0:0:
79,68,134781,1,2,0:2:0:0:
83,42,134867,2,0,L|193:61,1,86.2500032901765,8|0,0:2|0:2,0:2:0:0:
101,136,135039,2,0,L|-9:155,1,86.2500032901765,2|0,0:2|0:2,0:2:0:0:
112,384,135212,6,0,B|54:348|54:348|119:217|119:217|158:319,1,258.75000987053,6|0,3:2|0:2,0:2:0:0:
135,259,135729,6,0,B|211:240|211:240|226:253|226:253|362:218,1,172.500006580353,10|0,0:2|0:2,0:2:0:0:
512,333,135988,2,0,B|440:314|440:314|425:327|425:327|349:308,1,172.500006580353,2|0,3:2|0:2,0:2:0:0:
387,210,136246,5,10,0:2:0:0:
389,192,136332,1,2,0:2:0:0:
391,174,136419,2,0,L|414:270,1,57.5,2|0,0:2|0:2,0:2:0:0:
491,123,136591,5,0,3:2:0:0:
467,87,136677,5,2,0:2:0:0:
450,90,136763,1,2,0:2:0:0:
433,93,136850,1,0,3:2:0:0:
405,65,136936,5,10,0:2:0:0:
388,68,137022,1,2,0:2:0:0:
371,71,137109,1,2,0:2:0:0:
354,74,137195,1,0,3:2:0:0:
316,52,137281,6,0,L|220:37,1,57.5,2|0,0:2|0:2,0:2:0:0:
302,144,137453,2,0,L|206:159,1,57.5,2|0,3:2|0:2,0:2:0:0:
70,22,137626,2,0,P|110:2|148:102,1,115,10|0,0:2|0:2,0:2:0:0:
174,94,137798,2,0,L|168:52,1,43.1250016450883,2|0,0:2|0:2,0:2:0:0:
40,178,137970,6,0,B|146:196|146:196|173:233|173:233|312:253,1,258.75000987053,6|0,3:2|0:2,0:2:0:0:
332,314,138315,1,2,0:3:0:0:
501,3,138488,6,0,B|427:91|427:91|338:48,1,172.500006580353,10|0,0:2|0:2,0:2:0:0:
217,46,138746,2,0,B|352:22|352:22|347:81,1,172.500006580353,2|0,3:2|0:2,0:2:0:0:
313,292,139005,5,10,0:2:0:0:
326,214,139120,1,2,0:2:0:0:
340,137,139235,1,2,0:2:0:0:
340,137,139350,6,0,B|228:127|289:198|167:197,1,172.500006580353,2|0,0:2|0:2,0:2:0:0:
5,170,139608,1,2,3:2:0:0:
62,103,139695,6,0,B|99:135|99:135|71:280,1,172.500006580353,10|0,0:2|0:2,0:2:0:0:
93,359,139953,1,2,0:2:0:0:
109,363,140039,6,0,P|146:293|140:267,1,57.5,2|0,0:2|0:2,0:2:0:0:
236,346,140212,2,0,P|212:270|190:256,1,57.5,2|0,3:2|0:2,0:2:0:0:
277,210,140384,6,0,P|314:280|308:306,1,57.5,10|0,0:2|0:2,0:2:0:0:
404,227,140557,2,0,P|380:302|358:316,1,57.5,2|0,0:2|0:2,0:2:0:0:
484,375,140729,6,0,P|432:220|463:119,1,258.75000987053,6|0,3:2|0:2,0:2:0:0:
504,61,141074,1,2,0:3:0:0:
61,75,141246,6,0,B|173:65|173:65|186:0,1,172.500006580353,10|0,0:2|0:2,0:2:0:0:
303,148,141505,2,0,B|191:138|191:138|178:73,1,172.500006580353,2|0,3:2|0:2,0:2:0:0:
102,232,141763,2,0,B|88:194|88:194|131:130,1,86.2500032901765,10|0,0:2|0:2,0:2:0:0:
170,285,141936,1,2,0:2:0:0:
167,301,142022,1,2,0:2:0:0:
164,318,142108,6,0,B|156:363|156:363|51:388,1,115,2|0,3:2|0:2,0:2:0:0:
75,371,142367,1,0,3:2:0:0:
167,301,142453,6,0,L|316:328,1,115,10|0,0:2|0:2,0:2:0:0:
294,310,142712,2,0,L|443:337,1,115,2|0,0:2|0:2,0:2:0:0:
413,346,142970,2,0,P|434:303|426:273,1,57.5,2|0,0:2|0:2,0:2:0:0:
463,109,143143,5,10,0:2:0:0:
437,147,143229,1,10,0:2:0:0:
394,164,143315,1,10,0:2:0:0:
348,160,143401,1,10,0:2:0:0:
295,93,143488,6,0,B|257:44|257:44|91:33|91:33|116:93,1,258.75000987053,6|0,3:2|0:2,0:2:0:0:
129,136,143832,1,2,0:3:0:0:
255,349,144005,6,0,P|183:273|63:278,1,172.500006580353,10|0,0:2|0:2,0:2:0:0:
27,377,144263,2,0,P|96:347|94:312,1,86.2500032901765,2|0,3:2|0:2,0:2:0:0:
41,288,144522,2,0,P|36:275|29:293,1,43.1250016450883,8|0,0:0|0:0,0:0:0:0:
261,216,144695,5,2,0:2:0:0:
270,201,144781,1,2,0:2:0:0:
260,186,144867,1,2,0:2:0:0:
272,174,144953,1,2,0:2:0:0:
262,159,145039,1,2,0:2:0:0:
311,100,145126,5,0,3:2:0:0:
289,15,145212,2,0,B|240:74|240:74|372:89|372:89|368:102|368:102|489:115,1,345.000013160706,10|0,0:2|0:2,0:2:0:0:
424,370,145729,5,2,3:2:0:0:
420,344,145815,1,2,0:2:0:0:
416,318,145901,2,0,L|501:330,1,86.2500032901765,10|0,0:2|0:2,0:2:0:0:
401,235,146074,2,0,L|500:250,1,86.2500032901765,2|0,0:2|0:2,0:2:0:0:
252,361,146246,6,0,B|95:403|184:252|0:306,1,258.75000987053,6|0,3:2|0:2,0:2:0:0:
20,300,146591,1,2,0:2:0:0:
20,300,146677,1,2,0:2:0:0:
112,278,146763,6,0,P|126:190|118:89,1,172.500006580353,10|0,0:2|0:2,0:2:0:0:
207,50,147022,2,0,P|180:79|103:80,1,86.2500032901765,2|0,3:2|0:2,0:2:0:0:
207,158,147281,6,0,P|248:167|274:197,1,57.5,10|0,0:2|0:2,0:2:0:0:
303,258,147453,2,0,P|331:254|355:239,1,57.5,2|0,0:2|0:2,0:2:0:0:
512,114,147626,5,0,3:2:0:0:
488,150,147712,5,2,0:2:0:0:
471,147,147798,1,2,0:2:0:0:
454,144,147885,1,0,3:2:0:0:
426,172,147971,5,10,0:2:0:0:
409,169,148057,1,2,0:2:0:0:
392,166,148144,1,2,0:2:0:0:
375,163,148230,1,0,3:2:0:0:
358,159,148315,6,0,L|350:74,1,57.5,2|0,0:2|0:2,0:2:0:0:
422,57,148488,2,0,L|414:-28,1,57.5,2|0,3:2|0:2,0:2:0:0:
496,343,148660,6,0,L|459:337,2,28.7500010967255,10|2|2,0:2|0:2|0:2,0:2:0:0:
480,254,148832,2,0,L|509:259,2,28.7500010967255,2|2|2,3:2|3:2|3:2,0:2:0:0:
393,288,149005,6,0,B|337:275|337:275|336:262|336:262|192:230|192:230|133:280,1,258.75000987053,6|0,3:2|0:2,0:2:0:0:
92,310,149350,1,2,0:3:0:0:
7,85,149522,5,2,3:2:0:0:
7,85,149608,1,2,0:2:0:0:
20,162,149695,6,0,P|127:165|195:24,1,258.75000987053,10|0,0:2|0:2,0:2:0:0:
218,118,150039,6,0,P|268:88|322:100,1,86.2500032901765,2|2,0:2|0:2,0:2:0:0:
304,96,150298,1,2,0:2:0:0:
309,107,150384,2,0,P|347:102|370:90,3,43.1250016450883,2|2|2|2,0:2|0:2|0:2|0:2,0:2:0:0:
350,254,150729,6,0,P|340:219|237:212,1,115,2|0,3:2|0:2,0:2:0:0:
140,281,150988,1,2,0:2:0:0:
150,293,151074,2,0,P|185:285|220:268,1,57.5,10|0,0:2|0:2,0:2:0:0:
428,316,151246,6,0,L|449:215,1,86.2500032901765,2|0,0:2|0:2,0:2:0:0:
252,205,151419,2,0,L|231:104,1,86.2500032901765,2|0,0:2|0:2,0:2:0:0:
363,104,151591,2,0,L|384:3,1,86.2500032901765,2|0,0:2|0:2,0:2:0:0:
512,156,151763,6,0,B|476:218|476:218|357:206|357:206|318:282,1,258.75000987053,6|0,3:2|0:2,0:2:0:0:
293,340,152108,1,2,0:3:0:0:
69,177,152281,5,0,0:2:0:0:
69,177,152367,1,0,3:2:0:0:
58,261,152453,1,8,0:2:0:0:
58,261,152539,6,0,P|150:200|151:162,1,115,2|0,0:2|0:2,0:2:0:0:
203,327,152798,2,0,P|224:218|198:191,1,115,2|0,0:2|0:2,0:2:0:0:
342,250,153057,2,0,P|281:157|242:156,1,115,2|0,0:2|0:2,0:2:0:0:
315,77,153315,2,0,P|253:78|226:104,1,57.5,2|0,0:2|0:2,0:2:0:0:
286,159,153488,6,0,P|404:174|475:55,1,258.75000987053,2|0,3:2|0:2,0:2:0:0:
393,41,153832,6,0,P|390:30|378:13,6,28.75,10|0|0|0|0|0|0,0:2|0:2|0:2|0:2|0:2|0:2|0:2,0:2:0:0:
315,77,154177,2,0,P|303:69|284:67,6,28.75,2|0|0|0|0|0|0,0:2|0:2|0:2|0:2|0:2|0:2|0:2,0:2:0:0:
465,168,154522,6,0,B|498:202|498:202|480:323|480:323|434:261,1,206.999993682861,6|0,3:2|0:2,0:2:0:0:
355,247,154867,6,0,L|66:298,1,241.499992630005,2|0,0:0|0:2,0:2:0:0:
6,351,155212,6,0,P|142:325|54:193,1,345,10|2,0:0|0:2,0:2:0:0:
54,201,155815,1,2,0:2:0:0:
47,210,155901,1,2,0:2:0:0:
439,369,156246,6,0,L|456:256,1,86.2500032901765,2|0,3:2|0:2,0:2:0:0:
512,215,156591,2,0,B|414:209|469:279|341:266,1,172.500006580353,10|0,0:0|0:2,0:2:0:0:
342,253,157108,1,2,0:2:0:0:
186,50,157281,6,0,B|251:12|251:12|346:49|346:49|329:103,1,206.999993682861,2|0,3:2|0:2,0:2:0:0:
199,140,157626,6,0,P|157:139|122:114,1,86.2500032901765,2|0,0:3|0:2,0:2:0:0:
153,258,157798,2,0,P|194:251|226:222,1,86.2500032901765,2|0,0:3|0:2,0:2:0:0:
410,234,157970,6,0,P|378:252|341:252,1,74.7499965782167,10|0,0:3|0:2,0:2:0:0:
314,334,158143,2,0,P|339:360|375:370,1,57.5,2|0,0:3|0:2,0:2:0:0:
228,376,158315,6,0,B|120:383|189:310|37:347,1,172.500006580353,2|0,0:3|0:2,0:2:0:0:
66,340,159005,2,0,P|43:282|55:254,1,86.2500032901765,2|0,3:2|0:2,0:2:0:0:
185,107,159350,6,0,P|154:45|50:54,1,172.500006580353,10|0,0:2|0:2,0:2:0:0:
21,117,159867,1,2,0:2:0:0:
237,219,160039,6,0,B|399:174|399:174|431:224,1,206.999993682861,2|0,3:2|0:2,0:2:0:0:
452,333,160384,6,0,L|470:63,1,241.499992630005,2|0,0:0|0:2,0:2:0:0:
211,209,160729,6,0,P|176:295|365:303,1,345,10|2,0:2|0:2,0:2:0:0:
363,313,161332,1,2,0:2:0:0:
367,302,161419,1,2,0:2:0:0:
192,202,161763,6,0,L|91:221,1,86.2500032901765,2|0,3:2|0:2,0:2:0:0:
32,384,162108,2,0,B|-8:345|-8:345|24:223,1,172.500006580353,10|0,0:2|0:2,0:2:0:0:
54,43,162798,6,0,B|58:89|58:89|256:131,1,206.999993682861,2|0,3:2|0:2,0:2:0:0:
429,110,163143,6,0,B|436:64|436:64|376:21,1,86.2500032901765,2|0,0:3|0:2,0:2:0:0:
327,71,163315,2,0,B|319:116|319:116|351:139,1,86.2500032901765,2|0,0:3|0:2,0:2:0:0:
486,174,163488,6,0,B|516:152|516:152|506:92,1,74.7499965782167,10|0,0:3|0:2,0:2:0:0:
311,203,163660,2,0,B|327:226|327:226|357:221,1,57.5,2|0,0:3|0:2,0:2:0:0:
495,264,163832,6,0,P|506:344|400:276,1,258.75000987053,2|0,0:3|0:2,0:2:0:0:
390,301,164522,2,0,P|351:307|318:343,1,86.2500032901765,2|0,3:2|0:2,0:2:0:0:
66,356,164867,6,0,P|121:379|177:175,1,344.999989471436,10|0,0:2|0:2,0:2:0:0:
116,168,165384,1,2,0:2:0:0:
116,168,165470,1,2,0:2:0:0:
116,168,165557,6,0,B|196:170|164:120|242:123,1,129.375004935265,6|0,3:2|0:2,0:2:0:0:
312,96,165901,2,0,P|334:0|343:-15,1,86.2500032901765,0|0,3:2|0:2,0:2:0:0:
405,109,166246,2,0,P|417:67|421:25,1,86.2500032901765,0|0,3:2|0:2,0:2:0:0:
347,179,166591,1,0,3:2:0:0:
478,331,166763,1,2,0:2:0:0:
478,331,166850,1,0,0:2:0:0:
478,331,166936,6,0,P|427:316|389:281,1,86.2500032901765,2|0,3:2|0:2,0:2:0:0:
326,341,167281,2,0,P|275:356|237:391,1,86.2500032901765,0|0,3:2|0:2,0:2:0:0:
238,369,167539,1,0,0:2:0:0:
229,359,167626,2,0,P|208:322|249:258,1,86.2500032901765,0|0,3:2|0:2,0:2:0:0:
299,234,167970,5,0,3:2:0:0:
300,221,168057,1,0,0:2:0:0:
301,208,168143,1,2,0:2:0:0:
302,195,168229,1,0,0:2:0:0:
303,182,168315,6,0,L|186:196,1,97.7500018644333,2|0,3:2|0:2,0:2:0:0:
207,178,168574,1,0,0:2:0:0:
208,165,168660,1,0,3:2:0:0:
201,86,168832,2,0,P|177:90|136:128,1,48.8750009322167,2|0,0:2|0:2,0:2:0:0:
87,161,169005,6,0,P|39:97|47:48,1,97.7500018644333,2|0,3:2|0:2,0:2:0:0:
47,71,169263,1,0,0:2:0:0:
59,62,169350,2,0,P|65:35|55:12,1,48.8750009322167,0|0,3:2|0:2,0:2:0:0:
72,170,169522,2,0,P|78:196|68:220,1,48.8750009322167,2|0,0:2|0:2,0:2:0:0:
155,101,169695,6,0,P|265:79|322:52,1,146.62500279665,2|0,3:2|0:2,0:2:0:0:
307,55,170039,2,0,P|317:28|320:-5,1,48.8750009322167,0|0,3:2|0:2,0:2:0:0:
367,126,170212,1,2,0:2:0:0:
379,133,170298,1,2,0:2:0:0:
392,137,170384,6,0,P|418:125|471:69,1,97.7500018644333,2|0,3:2|0:2,0:2:0:0:
469,63,170643,1,0,0:2:0:0:
463,49,170729,1,0,3:2:0:0:
293,158,170901,2,0,P|290:187|304:216,1,48.8750009322167,2|0,0:2|0:2,0:2:0:0:
322,375,171074,5,10,3:2:0:0:
323,357,171160,1,0,3:2:0:0:
325,339,171246,2,0,L|334:246,1,57.5,0|0,3:2|3:2,0:2:0:0:
190,375,171419,5,10,3:2:0:0:
189,357,171505,1,0,3:2:0:0:
187,339,171591,2,0,L|178:246,1,57.5,0|0,3:2|3:2,0:2:0:0:
344,345,171763,5,10,3:2:0:0:
345,327,171849,1,0,3:2:0:0:
347,309,171935,2,0,L|356:216,1,57.5,0|0,3:2|3:2,0:2:0:0:
168,345,172108,5,10,3:2:0:0:
167,327,172194,1,0,3:2:0:0:
165,309,172280,2,0,L|156:216,1,57.5,0|0,3:2|3:2,0:2:0:0:
354,233,172453,5,10,3:2:0:0:
372,234,172539,1,0,3:2:0:0:
390,236,172625,2,0,L|483:245,1,57.5,0|0,3:2|3:2,0:2:0:0:
158,233,172798,5,10,3:2:0:0:
140,234,172884,1,0,3:2:0:0:
122,236,172970,2,0,L|29:245,1,57.5,0|0,3:2|3:2,3:2:0:0:
372,215,173143,5,10,3:2:0:0:
390,216,173229,1,0,3:2:0:0:
408,218,173315,2,0,L|501:227,1,57.5,0|0,3:2|3:2,0:2:0:0:
140,215,173488,5,10,3:2:0:0:
122,216,173574,1,0,3:2:0:0:
104,218,173660,2,0,L|46:223,1,57.5,0|0,3:2|3:2,0:2:0:0:
352,96,173832,6,0,L|365:61,2,28.75,8|0|0,1:2|1:2|1:2,1:2:0:0:
256,224,174005,2,0,L|256:256,2,28.75,8|0|0,1:2|1:2|1:2,1:2:0:0:
160,96,174177,6,0,L|149:69,2,28.75,8|0|0,1:2|1:2|1:2,1:2:0:0:
256,256,174350,2,0,L|256:288,2,28.75,8|0|0,1:2|1:2|1:2,1:2:0:0:
160,192,174522,6,0,L|133:181,2,28.75,8|0|0,1:2|1:2|1:2,1:2:0:0:
352,192,174695,2,0,L|379:181,2,28.75,8|0|0,1:2|1:2|1:2,1:2:0:0:
160,288,174867,6,0,L|133:299,2,28.75,8|0|0,1:2|1:2|1:2,1:2:0:0:
352,288,175039,2,0,L|379:299,2,28.75,8|0|0,1:2|1:2|1:2,1:2:0:0:
256,128,175212,6,0,L|256:64,1,57.5,2|0,0:2|0:2,0:2:0:0:
256,49,175384,2,0,L|256:17,4,28.75,0|0|0|0|2,0:2|0:2|0:2|0:2|0:2,0:2:0:0:
253,238,175729,5,2,0:2:0:0:
270,238,175815,1,2,0:2:0:0:
253,249,175901,5,2,0:2:0:0:
269,249,175987,1,2,0:2:0:0:
238,294,176074,5,10,0:2:0:0:
286,294,176160,1,10,0:2:0:0:
241,303,176246,5,10,0:2:0:0:
282,303,176332,1,10,0:2:0:0:
244,313,176418,5,10,0:2:0:0:
280,312,176504,1,10,0:2:0:0:
190,379,176591,6,0,B|142:299|29:320|29:320|28:377|99:400,1,258.75000987053,6|0,3:2|0:2,0:2:0:0:
140,231,176936,2,0,P|141:187|110:127,1,57.5,2|0,0:2|0:2,0:2:0:0:
48,20,177108,5,2,0:2:0:0:
107,81,177195,1,2,0:2:0:0:
131,0,177281,1,10,0:2:0:0:
403,326,177626,6,0,P|402:282|433:222,1,57.5,2|0,0:2|0:2,0:2:0:0:
494,127,177798,5,2,0:2:0:0:
437,186,177885,1,2,0:2:0:0:
414,108,177971,1,2,0:2:0:0:
468,45,178057,1,2,0:2:0:0:
468,45,178315,5,2,3:2:0:0:
414,108,178401,1,2,0:2:0:0:
414,108,178660,5,10,0:2:0:0:
383,26,178746,1,2,0:2:0:0:
383,26,178919,5,2,0:2:0:0:
322,94,179005,2,0,L|217:74,1,57.5,2|0,0:2|0:2,0:2:0:0:
211,12,179177,2,0,L|315:-8,1,57.5,2|0,0:2|0:2,0:2:0:0:
24,318,179350,6,0,B|56:260|56:260|284:306,1,258.75000987053,6|0,3:2|0:2,0:2:0:0:
402,354,179695,2,0,B|339:371|339:371|305:319,1,86.2500032901765,2|0,0:2|0:2,0:2:0:0:
360,272,179867,5,2,0:2:0:0:
436,248,179953,1,2,0:2:0:0:
512,224,180040,1,10,0:2:0:0:
191,36,180384,6,0,B|128:19|128:19|94:71,1,86.2500032901765,2|0,0:2|0:2,0:2:0:0:
146,117,180556,5,2,0:2:0:0:
222,141,180642,1,2,0:2:0:0:
298,165,180729,1,2,0:2:0:0:
374,189,180815,1,2,0:2:0:0:
374,189,181074,6,0,B|395:164|395:164|370:88,1,86.2500032901765,2|0,3:2|0:2,0:2:0:0:
249,253,181246,2,0,L|195:243,1,43.1250016450883,2|2,0:2|0:2,0:2:0:0:
248,269,181332,2,0,L|194:259,1,43.1250016450883,2|2,0:2|0:2,0:2:0:0:
246,285,181419,6,0,L|237:386,1,57.5,10|0,0:2|0:2,0:2:0:0:
346,384,181591,2,0,L|338:298,1,57.5,2|0,0:2|0:2,0:2:0:0:
206,165,181763,6,0,B|101:169|175:250|34:256,1,172.500006580353,2|0,0:2|0:2,0:2:0:0:
166,88,182022,1,0,0:2:0:0:
98,31,182108,6,0,P|139:114|296:104,1,258.75000987053,6|0,3:2|0:2,0:2:0:0:
484,95,182453,6,0,P|485:66|435:13,1,57.5,2|0,0:2|0:2,0:2:0:0:
379,55,182626,2,0,P|381:97|409:129,1,57.5,2|0,0:2|0:2,0:2:0:0:
355,314,182798,6,0,L|361:266,1,28.75,10|2,0:2|0:2,0:2:0:0:
412,287,182884,2,0,L|368:266,1,28.75,2|2,0:2|0:2,0:2:0:0:
403,223,182970,2,0,L|370:259,1,28.75,2|2,0:2|0:2,0:2:0:0:
340,212,183057,2,0,L|363:254,1,28.75,2|2,0:2|0:2,0:2:0:0:
309,268,183143,2,0,L|387:259,1,57.5,2|0,0:2|0:2,0:2:0:0:
282,360,183315,2,0,L|204:351,1,57.5,2|0,0:2|0:2,0:2:0:0:
121,243,183488,6,0,L|116:292,1,28.75,2|2,0:2|0:2,0:2:0:0:
64,271,183574,2,0,L|108:291,1,28.75,2|2,0:2|0:2,0:2:0:0:
73,334,183660,2,0,L|105:298,1,28.75,2|2,0:2|0:2,0:2:0:0:
137,345,183747,2,0,L|113:303,1,28.75,2|2,0:2|0:2,0:2:0:0:
167,289,183833,2,0,L|89:298,1,57.5,2|0,3:2|0:2,0:2:0:0:
179,194,184005,2,0,L|256:202,1,57.5,2|0,0:2|0:2,0:2:0:0:
21,60,184177,6,0,P|9:88|30:130,1,43.1250016450883,10|2,0:2|0:2,0:2:0:0:
0,109,184263,2,0,P|12:137|56:152,1,43.1250016450883,2|2,0:2|0:2,0:2:0:0:
23,158,184350,6,0,P|81:167|112:137,1,57.5,2|0,0:2|0:2,0:2:0:0:
148,114,184522,2,0,P|158:54|127:23,1,57.5,2|0,0:2|0:2,0:2:0:0:
118,248,184695,5,2,0:2:0:0:
118,248,184781,1,2,0:2:0:0:
12,254,184867,6,0,B|186:266|58:368|237:384,1,258.75000987053,6|0,3:2|0:2,0:2:0:0:
268,384,185212,6,0,P|226:272|414:232,1,345,2|0,0:2|0:2,0:2:0:0:
482,223,185557,6,0,P|468:276|439:293,2,86.25,10|2|2,0:2|0:2|0:2,0:2:0:0:
442,149,186246,6,0,P|430:114|437:88,1,57.5,2|0,0:2|0:2,0:2:0:0:
420,79,186505,2,0,P|437:45|460:32,1,57.5,2|0,0:2|0:2,0:2:0:0:
479,36,186763,1,2,0:2:0:0:
359,340,186936,5,10,0:2:0:0:
327,293,187022,1,2,0:2:0:0:
273,274,187108,1,2,0:2:0:0:
219,288,187194,1,2,0:2:0:0:
154,329,187281,5,2,0:2:0:0:
122,337,187367,1,2,0:2:0:0:
90,326,187453,1,2,0:2:0:0:
71,297,187539,1,2,0:2:0:0:
97,212,187626,6,0,B|269:191|147:324|379:287,1,258.75000987053,6|0,3:2|0:2,0:2:0:0:
452,360,187970,2,0,P|473:334|463:280,1,57.5,2|0,0:2|0:2,0:2:0:0:
420,244,188143,5,2,0:2:0:0:
501,219,188229,1,2,0:2:0:0:
501,219,188315,1,10,0:2:0:0:
349,8,188488,6,0,L|336:117,1,57.5,2|0,0:2|0:2,0:2:0:0:
422,80,188660,2,0,L|430:5,1,57.5,2|0,0:2|0:2,0:2:0:0:
176,69,188832,5,2,0:2:0:0:
260,58,188919,1,2,0:2:0:0:
272,365,189091,5,2,0:2:0:0:
309,293,189177,2,0,P|297:256|248:219,1,57.5,2|0,0:2|0:2,0:2:0:0:
118,222,189350,5,2,3:2:0:0:
161,290,189436,2,0,P|198:298|254:274,1,57.5,2|0,0:2|0:2,0:2:0:0:
318,160,189608,5,2,0:2:0:0:
238,163,189695,1,10,0:2:0:0:
238,163,189781,2,0,P|211:191|204:251,1,57.5,2|0,0:2|0:2,0:2:0:0:
394,323,189953,5,2,0:2:0:0:
394,323,190039,2,0,B|416:289|416:289|370:217,1,86.2500032901765,2|0,0:2|0:2,0:2:0:0:
161,290,190212,2,0,B|139:324|139:324|185:396,1,86.2500032901765,2|0,0:2|0:2,0:2:0:0:
287,384,190384,6,0,B|281:318|281:318|289:307|289:307|256:52,1,258.75000987053,6|0,3:2|0:2,0:2:0:0:
36,123,190729,2,0,P|114:60|154:76,1,86.2500032901765,2|0,0:2|0:2,0:2:0:0:
186,28,190901,5,2,0:2:0:0:
171,115,190988,1,2,0:2:0:0:
171,115,191074,1,10,0:2:0:0:
427,72,191246,6,0,L|512:85,1,86.2500032901765,2|0,0:2|0:2,0:2:0:0:
503,174,191419,2,0,L|417:160,1,86.2500032901765,2|0,0:2|0:2,0:2:0:0:
323,14,191591,5,2,0:2:0:0:
338,102,191678,1,2,0:2:0:0:
338,102,191850,5,2,0:2:0:0:
319,188,191936,2,0,L|344:319,1,86.2500032901765,2|0,0:2|0:2,0:2:0:0:
426,361,192108,2,0,L|442:276,1,86.2500032901765,2|0,3:2|0:2,0:2:0:0:
216,244,192281,6,0,P|225:278|214:310,1,43.1250016450883,2|2,0:2|0:2,0:2:0:0:
243,298,192367,2,0,P|225:329|195:344,1,43.1250016450883,2|2,0:2|0:2,0:2:0:0:
215,355,192453,6,0,P|152:353|128:324,1,86.2500032901765,10|0,0:2|0:2,0:2:0:0:
83,182,192626,2,0,P|113:236|100:271,1,86.2500032901765,2|0,0:2|0:2,0:2:0:0:
0,380,192798,2,0,P|32:326|69:320,1,86.2500032901765,2|0,0:2|0:2,0:2:0:0:
327,285,192970,1,0,0:2:0:0:
327,285,193057,1,0,0:2:0:0:
241,269,193143,6,0,B|206:215|206:215|272:23,1,258.75000987053,6|0,3:2|0:2,0:2:0:0:
352,17,193488,2,0,L|274:32,1,43.1250016450883,2|0,0:2|0:2,0:2:0:0:
76,136,193660,5,2,0:2:0:0:
76,136,193746,1,2,0:2:0:0:
18,71,193832,6,2,P|46:61|95:79,1,43.1250016450883,10|2,0:2|0:2,0:2:0:0:
51,42,193919,2,2,P|80:47|113:87,1,43.1250016450883,2|2,0:2|0:2,0:2:0:0:
94,34,194005,2,2,P|116:53|125:104,1,43.1250016450883,2|2,0:2|0:2,0:2:0:0:
135,49,194091,2,2,P|144:77|127:126,1,43.1250016450883,2|2,0:2|0:2,0:2:0:0:
163,83,194177,2,0,P|157:112|117:145,1,43.1250016450883,2|0,0:2|0:2,0:2:0:0:
99,320,194350,6,0,L|112:375,1,43.1250016450883,2|0,0:2|0:2,0:2:0:0:
160,255,194522,6,2,P|132:245|83:263,1,43.1250016450883,2|2,0:2|0:2,0:2:0:0:
127,226,194609,2,2,P|97:231|64:271,1,43.1250016450883,2|2,0:2|0:2,0:2:0:0:
84,218,194695,2,2,P|61:237|52:288,1,43.1250016450883,2|2,0:2|0:2,0:2:0:0:
43,233,194781,2,2,P|33:261|51:310,1,43.1250016450883,2|2,0:2|0:2,0:2:0:0:
15,267,194867,2,0,P|20:296|60:329,1,43.1250016450883,2|0,3:2|0:2,0:2:0:0:
160,255,195039,6,0,B|194:250|194:250|212:259|212:259|270:245,1,86.2500032901765,2|0,0:2|0:2,0:2:0:0:
322,228,195212,2,0,B|331:250|331:250|317:279,2,43.1250016450883,10|0|0,0:2|0:2|0:2,0:2:0:0:
271,129,195384,6,0,L|262:184,1,43.1250016450883,2|0,0:2|0:2,0:2:0:0:
399,353,195557,6,0,L|438:275,1,86.2500032901765,2|0,0:2|0:2,0:2:0:0:
68,315,195729,2,0,L|39:220,1,86.2500032901765,2|0,0:2|0:2,0:2:0:0:
359,72,195901,6,0,B|309:62|309:62|181:147|181:147|91:127,1,258.75000987053,4|0,3:2|0:2,0:2:0:0:
95,47,196246,1,2,0:2:0:0:
422,9,196419,2,0,P|445:42|439:112,1,57.5,2|0,0:2|0:2,0:2:0:0:
475,153,196591,6,0,P|418:149|348:209,1,115,10|0,0:2|0:2,0:2:0:0:
390,274,196850,2,0,P|447:278|517:218,1,115,2|0,0:2|0:2,0:2:0:0:
293,254,197108,1,2,0:2:0:0:
293,254,197195,1,2,0:2:0:0:
293,254,197281,6,0,P|272:323|267:369,1,115,2|0,0:2|0:2,0:2:0:0:
189,292,197539,1,2,0:2:0:0:
178,307,197626,2,0,P|86:287|46:279,1,115,0|2,3:2|0:2,0:2:0:0:
337,122,197970,5,10,0:2:0:0:
358,94,198057,1,2,0:2:0:0:
362,59,198143,1,2,0:2:0:0:
343,27,198229,1,2,0:2:0:0:
312,11,198315,2,0,P|246:45|260:170,1,172.5,2|0,0:2|0:2,0:2:0:0:
296,215,198660,5,6,3:2:0:0:
256,192,198746,12,2,201419,0:2:0:0:
256,192,201505,12,0,202712,0:2:0:0:
420,378,202798,6,0,P|453:307|352:274,1,172.500006580353,6|0,3:2|0:2,0:2:0:0:
195,279,203057,2,0,P|239:343|319:272,1,172.500006580353,6|0,3:2|0:2,0:2:0:0:
364,177,203315,1,0,3:2:0:0:
364,177,203401,1,0,3:2:0:0:
293,223,203488,6,0,B|223:228|208:162|208:162|154:129|104:186,1,215.625008225441,10|0,0:2|0:2,0:2:0:0:
118,173,204005,2,0,P|117:153|146:111,1,43.1250016450883,2|0,0:2|0:2,0:2:0:0:
313,310,204177,5,4,3:2:0:0:
486,266,214062,6,0,P|456:280|406:252,1,57.500002193451,0|0,3:2|0:2,0:2:0:0:
407,357,214292,2,0,P|375:345|360:290,1,57.500002193451,0|0,3:2|0:2,0:2:0:0:
285,366,214522,2,0,P|270:339|273:308,1,60.3749981575013,0|0,3:2|0:2,0:2:0:0:
165,253,215212,5,6,3:2:0:0:
225,178,215384,1,2,0:2:0:0:
303,228,215557,1,2,0:2:0:0:
364,187,215729,1,10,0:2:0:0:
430,225,215901,6,0,P|446:264|441:322,1,80.499997543335,2|0,3:2|0:2,0:2:0:0:
315,327,216246,2,0,P|299:288|304:230,1,80.499997543335,10|0,0:2|0:2,0:2:0:0:
479,81,216591,5,2,3:2:0:0:
407,45,216763,1,2,0:2:0:0:
341,36,216936,1,2,0:2:0:0:
287,53,217108,1,10,0:2:0:0:
265,75,217281,6,0,P|210:98|160:80,1,80.499997543335,2|0,3:2|0:2,0:2:0:0:
72,0,217626,2,0,P|94:55|142:77,1,80.499997543335,10|2,0:2|0:2,0:2:0:0:
106,78,217884,1,2,0:2:0:0:
103,89,217970,6,0,L|85:196,1,80.499997543335,2|0,3:2|0:2,0:2:0:0:
207,294,218315,2,0,L|193:214,1,80.499997543335,2|8,0:2|0:2,0:2:0:0:
26,225,218660,2,0,P|57:253|113:240,1,80.499997543335,2|0,3:2|0:2,0:2:0:0:
258,154,219005,2,0,P|227:126|171:139,1,80.499997543335,10|0,0:2|0:2,0:2:0:0:
179,384,219350,6,0,P|211:327|326:294,1,160.99999508667,2|0,3:2|0:2,0:2:0:0:
358,343,219867,1,10,0:2:0:0:
512,317,220039,2,0,P|531:241|461:188,1,160.99999508667,2|10,3:2|0:2,0:2:0:0:
466,197,220470,1,2,0:2:0:0:
456,204,220557,1,2,0:2:0:0:
446,211,220643,1,2,0:2:0:0:
437,218,220729,5,2,3:2:0:0:
389,152,220901,1,2,0:2:0:0:
313,177,221074,1,2,0:2:0:0:
313,258,221246,1,10,0:2:0:0:
389,283,221419,6,0,P|379:337|358:355,1,80.499997543335,2|0,3:2|0:2,0:2:0:0:
276,381,221763,2,0,P|222:371|204:350,1,80.499997543335,10|0,0:2|0:2,0:2:0:0:
35,94,222108,5,2,3:2:0:0:
83,28,222280,1,2,0:2:0:0:
159,53,222453,1,2,0:2:0:0:
159,134,222625,1,10,0:2:0:0:
83,159,222798,6,0,P|93:213|114:231,1,80.499997543335,2|0,3:2|0:2,0:2:0:0:
196,257,223143,2,0,P|250:247|268:226,1,80.499997543335,10|2,0:2|0:2,0:2:0:0:
266,217,223401,1,2,0:2:0:0:
266,204,223488,6,0,L|370:190,1,80.499997543335,2|0,3:2|0:2,0:2:0:0:
386,271,223832,2,0,L|490:257,1,80.499997543335,2|8,0:2|0:2,0:2:0:0:
475,114,224177,2,0,L|371:100,1,80.499997543335,2|0,3:2|0:2,0:2:0:0:
355,181,224522,2,0,L|251:167,1,80.499997543335,10|0,0:2|0:2,0:2:0:0:
188,26,224867,6,0,P|267:7|300:71,1,160.99999508667,2|0,3:2|0:2,0:2:0:0:
218,109,225384,1,8,0:2:0:0:
48,180,225557,2,0,P|40:126|90:12,1,160.99999508667,2|8,3:2|0:2,0:2:0:0:
146,227,226074,1,2,0:2:0:0:
146,227,226160,1,2,0:2:0:0:
146,227,226246,5,2,3:2:0:0:
83,284,226419,1,2,0:2:0:0:
118,355,226591,2,0,B|262:355|175:284|316:284,2,206.999993682861,2|2|0,0:2|0:2|0:2,0:2:0:0:
213,58,229005,5,2,0:2:0:0:
202,47,229177,1,0,0:2:0:0:
213,36,229350,1,0,0:2:0:0:
223,47,229522,1,0,0:2:0:0:
298,128,229695,5,2,0:2:0:0:
324,108,229867,1,0,0:2:0:0:
306,81,230040,1,0,0:2:0:0:
281,100,230212,1,0,0:2:0:0:
206,165,230384,6,0,L|195:172,6,8.6249997367859,2|0|0|0|0|0|0,0:2|0:2|0:2|0:2|0:2|0:2|0:2,0:2:0:0:
307,201,230729,2,0,L|336:219,6,21.5625008225441,2|0|0|0|0|0|0,0:2|0:2|0:2|0:2|0:2|0:2|0:2,0:2:0:0:
236,254,231074,6,0,B|226:294|226:294|238:320|238:320|219:358|239:387,1,137.999995788574,2|0,0:2|0:2,0:2:0:0:
97,261,242798,6,0,B|102:323|153:333|153:333|211:258|211:258|172:230|179:186,1,275.999991577149,2|0,0:0|0:2,0:2:0:0:
438,231,245557,6,0,B|401:159|487:95|574:168|538:271|462:296|387:306|306:275|273:177,1,460,2|0,0:0|0:2,0:2:0:0:
34,116,248315,6,0,B|57:47|133:19|133:19|198:89|161:180|161:180|72:195|63:295,1,460,2|0,0:0|0:2,0:0:0:0:
144,334,251074,6,0,P|128:356|80:359,7,57.5,2|0|0|0|0|0|0|0,0:2|0:2|0:2|0:2|0:2|0:2|0:2|0:2,0:2:0:0:
58,293,252453,6,0,P|74:271|122:268,3,68.9999978942872,2|0|0|0,0:2|0:2|0:2|0:2,0:2:0:0:
345,306,253143,5,2,1:2:0:0:
345,306,253258,1,0,1:0:0:0:
345,306,253373,1,0,1:0:0:0:
345,306,253488,6,0,L|383:312,4,22.9999992980957,8|8|8|4|4,0:3|0:3|0:3|0:3|0:3,0:3:0:0:
254,367,253832,6,0,P|246:298|247:187,1,160.99999508667,4|0,0:3|0:2,0:2:0:0:
319,147,254350,1,0,0:0:0:0:
48,76,254522,2,0,P|109:28|198:55,1,160.99999508667,10|0,0:2|0:2,0:2:0:0:
198,125,255039,1,2,0:2:0:0:
441,194,255212,6,0,P|490:143|501:105,2,80.499997543335,4|8|0,0:3|0:2|0:2,0:2:0:0:
324,254,255729,1,4,0:3:0:0:
324,254,255815,1,4,0:3:0:0:
324,254,255901,2,0,P|304:328|367:381,1,160.99999508667,10|0,0:2|0:2,0:2:0:0:
181,318,256419,1,4,0:3:0:0:
181,318,256505,1,4,0:3:0:0:
181,318,256591,6,0,P|107:293|20:278,1,160.99999508667,4|0,0:3|0:2,0:2:0:0:
296,159,257108,1,4,0:3:0:0:
296,159,257195,1,4,0:3:0:0:
296,159,257281,6,0,P|255:187|230:222,2,80.499997543335,8|0|2,0:2|0:2|0:2,0:2:0:0:
382,176,257798,1,8,0:2:0:0:
457,128,257970,6,0,P|471:84|455:44,1,80.499997543335,4|8,0:3|0:2,0:2:0:0:
376,186,258315,2,0,P|362:230|378:270,1,80.499997543335,2|4,0:2|0:3,0:2:0:0:
378,271,258574,1,4,0:3:0:0:
387,283,258660,6,0,B|262:300|262:300|246:369,1,172.5,10|0,0:2|0:2,0:2:0:0:
261,359,259005,2,0,B|166:354|166:354|143:376,1,115,2|0,0:2|0:2,0:2:0:0:
134,363,259263,1,4,0:3:0:0:
116,363,259350,6,0,P|81:304|127:202,1,160.99999508667,4|0,0:3|0:2,0:2:0:0:
225,73,259867,1,4,0:3:0:0:
225,73,259953,1,4,0:3:0:0:
225,73,260039,2,0,P|208:33|90:37,1,160.99999508667,10|0,0:2|0:2,0:2:0:0:
191,151,260557,1,4,0:3:0:0:
303,34,260729,6,0,P|374:6|407:5,2,80.499997543335,4|8|0,0:3|0:2|0:2,0:2:0:0:
237,247,261246,1,4,0:3:0:0:
237,247,261332,1,4,0:3:0:0:
237,247,261419,2,0,P|310:269|353:184,1,160.99999508667,10|0,0:2|0:2,0:2:0:0:
127,225,261936,1,4,0:3:0:0:
127,225,262022,1,4,0:3:0:0:
127,225,262108,6,0,P|63:219|58:323,1,160.99999508667,4|0,0:3|0:2,0:2:0:0:
101,362,262626,1,4,0:3:0:0:
101,362,262712,1,4,0:3:0:0:
101,362,262798,1,8,0:2:0:0:
165,303,262970,1,8,0:2:0:0:
356,209,263143,6,0,L|384:319,1,80.499997543335,2|4,0:0|0:3,0:2:0:0:
446,188,263488,2,0,L|474:298,1,80.499997543335,4|8,0:3|0:2,0:2:0:0:
342,17,263832,6,0,B|424:28|424:28|430:69,1,115,2|0,3:2|0:2,0:2:0:0:
433,76,264091,1,4,0:3:0:0:
437,92,264177,6,0,L|513:98,1,57.5,10|0,0:2|0:2,0:2:0:0:
505,13,264350,2,0,L|447:8,1,57.5,10|0,0:2|0:2,0:2:0:0:
297,95,264522,2,0,L|354:99,1,57.5,4|0,0:3|0:2,0:2:0:0:
188,31,264695,1,8,0:2:0:0:
186,48,264781,1,8,0:2:0:0:
184,63,264867,6,0,P|119:100|91:13,1,160.99999508667,4|0,0:3|0:2,0:2:0:0:
198,182,265384,1,4,0:3:0:0:
198,182,265470,1,4,0:3:0:0:
198,182,265557,2,0,P|218:251|163:354,1,160.99999508667,10|0,0:2|0:2,0:2:0:0:
108,365,266074,1,4,0:3:0:0:
304,299,266246,6,0,P|357:319|392:337,2,80.499997543335,4|8|0,0:3|0:2|0:2,0:2:0:0:
96,209,266763,1,4,0:3:0:0:
96,209,266850,1,4,0:3:0:0:
96,209,266936,2,0,P|76:140|131:37,1,160.99999508667,10|0,0:2|0:2,0:2:0:0:
291,40,267453,1,10,0:2:0:0:
291,40,267539,1,8,0:2:0:0:
291,40,267626,6,0,L|459:62,1,160.99999508667,4|0,0:3|0:2,0:2:0:0:
512,172,268143,1,4,0:3:0:0:
512,172,268229,1,4,0:3:0:0:
512,172,268316,2,8,P|442:162|427:126,1,80.499997543335,8|0,0:2|0:2,0:2:0:0:
255,163,268660,2,0,L|272:285,1,120.749996315003,2|0,0:2|0:2,0:2:0:0:
274,294,269005,6,0,P|326:283|354:312,1,80.499997543335,4|8,0:3|0:2,0:2:0:0:
412,246,269350,2,0,P|456:274|455:315,1,80.499997543335,2|4,0:2|0:3,0:2:0:0:
457,310,269608,1,4,0:3:0:0:
450,320,269695,5,10,0:2:0:0:
341,202,269867,1,8,0:2:0:0:
478,149,270039,2,0,L|491:37,1,80.499997543335,2|8,3:2|0:2,0:2:0:0:
477,61,270298,1,8,0:2:0:0:
467,53,270384,6,0,B|366:39|426:118|289:88,1,160.99999508667,4|0,0:3|0:2,0:2:0:0:
48,114,270901,1,4,0:3:0:0:
48,114,270988,1,4,0:3:0:0:
48,114,271074,2,0,P|47:64|138:51,1,160.99999508667,8|0,0:2|0:2,0:2:0:0:
189,117,271591,1,10,0:2:0:0:
32,313,271763,6,8,P|5:246|10:217,2,80.499997543335,4|8|0,0:3|0:2|0:2,0:2:0:0:
123,382,272281,1,4,0:3:0:0:
123,382,272367,1,4,0:3:0:0:
123,382,272453,2,0,P|149:333|202:304,1,80.499997543335,10|8,0:2|0:3,0:2:0:0:
178,323,272712,1,8,0:3:0:0:
188,328,272798,6,0,L|253:352,1,40.2499987716675,4|4,0:3|0:3,0:2:0:0:
277,283,272970,2,0,L|342:307,1,40.2499987716675,4|4,0:3|0:3,0:2:0:0:
472,360,273143,6,0,L|497:100,1,230,6|0,3:2|0:2,0:2:0:0:
47,286,274177,6,0,L|22:26,1,230,6|0,3:2|0:2,0:2:0:0:
216,39,275039,5,4,0:3:0:0:
218,50,275097,1,4,0:3:0:0:
220,61,275154,1,4,0:3:0:0:
222,72,275212,1,8,0:2:0:0:
424,116,275442,6,0,P|418:71|365:38,1,76.6666666666667,6|0,3:2|0:2,0:2:0:0:
448,249,275672,2,0,P|475:212|461:152,1,76.6666666666667,6|0,3:2|0:2,0:2:0:0:
370,360,275901,2,0,P|415:354|448:301,1,76.6666666666667,6|0,3:2|0:2,0:2:0:0:
21,215,276936,6,0,P|152:218|167:332,1,230,6|0,3:2|0:2,0:2:0:0:
159,301,277511,6,0,B|145:318|119:318|119:318|137:298|195:297,1,76.6666666666667,6|0,3:2|0:2,0:2:0:0:
340,335,277740,2,0,B|362:339|375:361|375:361|349:355|319:306,1,76.6666666666667,6|0,3:2|0:2,0:2:0:0:
280,162,277970,2,0,B|273:140|286:118|286:118|293:144|266:194,1,76.6666666666667,6|0,3:2|0:2,0:2:0:0:
262,265,278315,5,10,0:3:0:0:
260,242,278430,1,10,0:3:0:0:
250,264,278545,1,10,0:3:0:0:
248,244,278660,6,0,L|40:222,1,172.5,6|0,3:2|0:2,0:2:0:0:
65,238,279005,1,2,3:2:0:0:
84,53,279177,5,0,0:2:0:0:
93,67,279263,1,0,0:2:0:0:
108,75,279350,2,0,P|179:68|224:30,1,115,2|0,3:2|0:2,0:2:0:0:
226,32,279608,1,0,0:2:0:0:
237,18,279695,2,0,P|282:59|246:142,1,115,2|0,3:2|0:2,0:2:0:0:
380,361,280039,6,0,P|474:356|469:275,1,172.5,2|0,3:2|0:2,0:2:0:0:
474,278,280384,2,0,L|492:152,1,115,2|0,3:2|0:2,0:2:0:0:
479,150,280643,1,0,0:2:0:0:
468,136,280729,2,0,B|403:135|430:170|345:159,1,115,2|0,3:2|0:2,0:2:0:0:
266,260,280988,1,0,0:2:0:0:
277,274,281074,2,0,B|342:275|315:240|400:251,1,115,2|0,3:2|0:2,0:2:0:0:
246,357,281332,1,0,0:2:0:0:
230,364,281419,6,0,P|181:312|196:214,1,172.5,2|0,3:2|0:2,0:2:0:0:
206,207,281763,1,2,3:2:0:0:
212,74,281936,5,0,0:2:0:0:
203,59,282022,1,0,0:2:0:0:
194,44,282108,2,0,L|56:73,1,115,2|0,3:2|0:2,0:2:0:0:
78,84,282367,1,0,0:2:0:0:
74,100,282453,1,2,3:2:0:0:
206,207,282626,1,0,0:2:0:0:
87,355,282798,5,2,3:2:0:0:
78,340,282884,1,2,0:2:0:0:
74,323,282970,1,2,0:2:0:0:
74,305,283057,1,2,0:2:0:0:
81,289,283143,1,2,3:2:0:0:
157,314,283315,1,0,0:2:0:0:
116,178,283488,6,0,L|-6:219,1,115,2|0,3:2|0:2,0:2:0:0:
199,223,283746,1,0,0:2:0:0:
206,207,283832,2,0,L|315:170,1,115,2|0,3:2|0:2,0:2:0:0:
405,197,284091,1,0,0:2:0:0:
413,183,284177,6,0,P|449:263|379:315,1,172.5,2|0,3:2|0:2,0:2:0:0:
378,308,284522,1,2,3:2:0:0:
344,115,284695,1,0,0:2:0:0:
355,102,284781,1,0,0:2:0:0:
371,97,284867,6,0,P|404:34|368:-4,1,115,2|0,3:2|0:2,0:2:0:0:
368,13,285126,1,0,0:2:0:0:
354,23,285212,2,0,L|222:10,1,115,2|0,3:2|0:2,0:2:0:0:
78,351,285557,6,0,B|29:314|29:314|58:169,1,172.5,2|0,3:2|0:2,0:2:0:0:
39,192,285901,2,0,L|168:172,1,115,2|0,3:2|0:2,0:2:0:0:
203,244,286160,1,0,0:2:0:0:
215,255,286246,2,0,P|254:199|242:142,1,115,2|0,3:2|0:2,0:2:0:0:
285,302,286505,1,0,0:2:0:0:
295,314,286591,2,0,P|239:353|182:341,1,115,2|0,3:2|0:2,0:2:0:0:
298,220,286936,6,0,B|396:211|347:286|507:260,1,172.5,2|0,3:2|0:2,0:2:0:0:
471,253,287281,1,2,3:2:0:0:
387,345,287453,1,2,0:2:0:0:
383,147,287626,2,0,P|388:111|409:-2,1,115,2|0,3:2|0:2,0:2:0:0:
419,30,287884,1,0,0:2:0:0:
436,27,287970,1,2,3:2:0:0:
258,133,288143,5,0,0:2:0:0:
242,128,288229,1,0,0:2:0:0:
226,124,288315,2,0,L|81:157,1,115,2|0,3:2|0:2,0:2:0:0:
14,307,288660,5,2,0:2:0:0:
25,280,288746,1,2,0:2:0:0:
45,259,288832,1,2,0:2:0:0:
70,246,288918,1,2,0:2:0:0:
95,277,289005,5,2,0:2:0:0:
111,264,289091,1,2,0:2:0:0:
130,258,289177,1,2,0:2:0:0:
150,259,289263,1,2,0:2:0:0:
165,311,289350,5,2,0:2:0:0:
178,307,289436,1,2,0:2:0:0:
192,311,289522,1,2,0:2:0:0:
204,318,289608,1,2,0:2:0:0:
206,378,289695,6,0,B|342:364|265:297|409:285,1,206.999993682861,6|0,3:2|0:2,0:2:0:0:
460,256,290039,2,0,P|475:300|444:341,1,68.9999978942872,0|0,3:2|0:2,0:2:0:0:
286,225,290212,5,2,0:2:0:0:
277,206,290298,1,0,0:2:0:0:
267,187,290384,5,0,3:2:0:0:
381,134,290557,2,0,L|367:239,1,68.9999978942872,2|0,0:2|0:2,0:2:0:0:
300,105,290729,5,0,3:2:0:0:
414,52,290902,2,0,L|400:157,1,68.9999978942872,2|0,0:2|0:2,0:2:0:0:
267,187,291074,6,0,P|205:193|70:123,1,206.999993682861,2|0,3:2|0:2,0:2:0:0:
71,52,291419,2,0,P|98:37|84:60,1,68.9999978942872,2|0,3:2|0:2,0:2:0:0:
31,249,291591,5,2,0:2:0:0:
27,228,291677,1,0,0:2:0:0:
24,207,291763,5,0,3:2:0:0:
86,316,291936,2,0,P|51:332|-6:337,1,68.9999978942872,2|0,0:2|0:2,0:2:0:0:
130,210,292108,5,0,3:2:0:0:
192,319,292281,2,0,P|157:335|100:340,1,68.9999978942872,2|0,0:2|0:2,0:2:0:0:
252,228,292453,6,0,P|349:270|382:391,1,206.999993682861,2|0,3:2|0:2,0:2:0:0:
476,359,292798,2,0,P|476:325|498:265,1,68.9999978942872,2|0,3:2|0:2,0:2:0:0:
512,210,292970,5,2,0:2:0:0:
491,205,293057,1,0,0:2:0:0:
470,200,293143,5,0,3:2:0:0:
422,101,293315,2,0,L|526:85,1,68.9999978942872,2|0,0:2|0:2,0:2:0:0:
368,177,293488,5,0,3:2:0:0:
320,78,293660,2,0,L|424:62,1,68.9999978942872,2|0,0:2|0:2,0:2:0:0:
250,242,293832,6,0,P|148:242|119:96,1,206.999993682861,2|0,3:2|0:2,0:2:0:0:
138,80,294177,2,0,P|109:72|39:91,1,68.9999978942872,2|0,3:2|0:2,0:2:0:0:
197,148,294350,1,2,0:2:0:0:
44,384,294522,6,0,P|25:301|142:253,1,206.999993682861,2|0,3:2|0:2,0:2:0:0:
160,335,294867,6,0,B|344:354|192:260|446:292,1,258.75000987053,2|0,0:2|0:2,0:2:0:0:
512,105,295212,6,0,P|457:146|393:102,1,137.999995788574,6|0,3:2|0:2,0:2:0:0:
368,199,295470,2,0,P|304:171|311:94,1,137.999995788574,2|0,3:2|0:2,0:2:0:0:
360,40,295729,1,2,3:2:0:0:
284,110,295901,6,0,P|187:70|129:107,1,137.999995788574,2|0,3:2|0:2,0:2:0:0:
113,6,296160,2,0,P|29:70|32:138,1,137.999995788574,2|0,3:2|0:2,0:2:0:0:
39,175,296419,1,2,3:2:0:0:
217,254,296591,6,0,P|241:337|192:379,1,137.999995788574,2|0,3:2|0:2,0:2:0:0:
121,370,296850,2,0,P|97:287|146:245,1,137.999995788574,2|0,3:2|0:2,0:2:0:0:
218,231,297108,2,0,P|253:239|296:289,1,68.9999978942872,2|0,3:2|0:2,0:2:0:0:
421,370,297281,6,0,P|482:299|452:231,1,137.999995788574,2|0,3:2|0:2,0:2:0:0:
512,184,297539,2,0,P|481:95|407:87,1,137.999995788574,2|0,3:2|0:2,0:2:0:0:
381,22,297798,2,0,P|358:68|370:110,1,68.9999978942872,2|0,3:2|0:2,0:2:0:0:
356,320,297970,5,10,3:2:0:0:
343,327,298057,1,0,3:2:0:0:
330,334,298143,1,0,3:2:0:0:
317,340,298229,1,0,3:2:0:0:
273,353,298315,5,10,3:2:0:0:
260,346,298402,1,0,3:2:0:0:
247,339,298488,1,0,3:2:0:0:
234,333,298574,1,0,3:2:0:0:
207,324,298660,5,10,3:2:0:0:
200,328,298747,1,0,3:2:0:0:
194,331,298833,1,0,3:2:0:0:
187,334,298919,1,0,3:2:0:0:
167,360,299005,5,10,3:2:0:0:
160,356,299092,1,0,3:2:0:0:
154,353,299178,1,0,3:2:0:0:
147,350,299264,1,0,3:2:0:0:
121,384,299350,5,8,0:2:0:0:
109,331,299436,1,8,0:2:0:0:
97,278,299522,1,8,0:2:0:0:
85,225,299608,1,8,0:2:0:0:
74,171,299695,1,8,0:2:0:0:
63,116,299781,1,8,0:2:0:0:
83,60,299867,5,0,1:2:0:0:
77,25,299953,1,0,1:2:0:0:
45,11,300039,1,0,1:2:0:0:
18,33,300126,1,0,1:2:0:0:
23,67,300212,1,0,1:2:0:0:
54,79,300298,1,0,1:2:0:0:
61,49,300384,5,8,1:2:0:0:
49,37,300470,1,8,0:2:0:0:
37,49,300556,1,8,0:2:0:0:
49,62,300643,1,8,0:2:0:0:
144,70,300729,6,0,B|299:34|213:172|411:122,1,258.75000987053,4|0,3:2|0:2,0:2:0:0:
481,7,301074,5,10,3:2:0:0:
452,39,301160,1,2,0:2:0:0:
451,82,301246,1,2,0:2:0:0:
476,116,301332,1,2,0:2:0:0:
489,198,301419,5,2,3:2:0:0:
502,213,301505,2,0,B|538:254|538:254|477:401,1,172.500006580353,2|0,0:2|0:2,0:2:0:0:
380,328,301763,5,10,3:2:0:0:
347,299,301850,1,2,0:2:0:0:
320,333,301936,1,2,0:2:0:0:
287,305,302022,1,2,0:2:0:0:
219,356,302108,5,2,3:2:0:0:
203,338,302195,2,0,B|167:297|167:297|228:150,1,172.500006580353,2|0,0:2|0:2,0:2:0:0:
126,138,302453,2,0,P|208:150|272:96,1,172.500006580353,10|0,3:2|0:2,0:2:0:0:
84,70,302798,5,2,3:2:0:0:
49,95,302884,1,2,0:2:0:0:
35,136,302970,1,2,0:2:0:0:
51,176,303057,1,2,0:2:0:0:
99,238,303143,5,10,3:2:0:0:
95,254,303229,1,2,0:2:0:0:
91,270,303315,1,2,0:2:0:0:
88,286,303401,1,2,0:2:0:0:
57,377,303488,6,0,B|150:356|150:356|185:279|185:279|277:261,1,258.75000987053,2|0,3:2|0:2,0:2:0:0:
458,349,303832,5,10,3:2:0:0:
414,354,303919,1,2,0:2:0:0:
376,333,304005,1,2,0:2:0:0:
370,290,304091,1,2,0:2:0:0:
429,231,304177,5,2,3:2:0:0:
460,216,304263,2,0,P|470:174|355:122,1,172.500006580353,2|0,0:2|0:2,0:2:0:0:
291,180,304522,5,10,3:2:0:0:
260,210,304608,1,2,0:2:0:0:
295,235,304695,1,2,0:2:0:0:
262,263,304781,1,2,0:2:0:0:
272,341,304867,5,2,3:2:0:0:
243,373,304953,2,0,P|142:360|123:309,1,86.2500032901765,2|0,0:2|0:2,0:2:0:0:
73,235,305126,1,2,0:2:0:0:
37,315,305212,6,0,P|113:310|150:199,1,172.500006580353,10|0,3:2|0:2,0:2:0:0:
150,41,305470,1,0,0:2:0:0:
141,68,305557,2,0,P|98:84|34:94,1,86.2500032901765,0|0,3:2|0:2,0:2:0:0:
200,127,305729,5,2,0:2:0:0:
234,119,305815,1,2,0:2:0:0:
255,92,305901,2,0,P|269:55|266:-5,1,86.2500032901765,10|0,3:2|0:2,0:2:0:0:
283,220,306074,5,2,0:2:0:0:
277,234,306131,1,2,0:2:0:0:
270,249,306189,1,2,0:0:0:0:
264,266,306246,6,0,P|270:312|303:342,1,86.2500032901765,2|0,3:2|0:2,0:2:0:0:
354,265,306419,2,0,P|397:283|440:268,1,86.2500032901765,2|0,3:2|0:2,0:2:0:0:
399,186,306591,2,0,P|436:157|445:113,1,86.2500032901765,2|0,3:2|0:2,0:2:0:0:
188,149,306763,5,2,0:2:0:0:
145,139,306850,1,2,0:2:0:0:
89,192,306936,5,2,3:2:0:0:
51,213,307022,2,0,P|75:304|147:276,1,172.500006580353,2|0,0:2|0:2,0:2:0:0:
268,178,307281,5,10,3:2:0:0:
272,135,307367,1,2,0:2:0:0:
251,96,307453,1,2,0:2:0:0:
211,78,307539,1,2,0:2:0:0:
143,22,307626,5,2,3:2:0:0:
136,55,307712,2,0,P|40:73|7:16,1,172.500006580353,2|0,0:2|0:2,0:2:0:0:
181,167,307970,2,0,B|297:154|221:96|346:84,1,172.500006580353,10|0,3:2|0:2,0:2:0:0:
460,286,308315,5,2,3:2:0:0:
446,254,308401,1,2,0:2:0:0:
422,228,308488,1,2,0:2:0:0:
389,215,308574,1,2,0:2:0:0:
354,213,308660,1,10,3:2:0:0:
216,384,308832,5,2,0:2:0:0:
287,357,308919,1,2,0:2:0:0:
227,310,309005,1,2,3:2:0:0:
220,296,309091,6,0,B|193:272|193:272|55:314,1,172.500006580353,2|0,0:2|0:2,0:2:0:0:
35,41,309350,5,10,3:2:0:0:
106,55,309436,1,2,0:2:0:0:
177,69,309522,1,2,0:2:0:0:
248,83,309608,1,2,0:2:0:0:
321,92,309695,6,0,B|320:67|320:67|218:84|218:84|287:257,1,258.75000987053,2|0,3:2|0:2,0:2:0:0:
360,362,310039,5,10,3:2:0:0:
368,288,310126,1,2,0:2:0:0:
376,215,310212,1,2,0:2:0:0:
384,142,310298,1,2,0:2:0:0:
395,69,310384,6,0,B|508:76|508:76|505:172|505:172|417:165,1,258.75000987053,2|0,3:2|0:2,0:2:0:0:
229,378,310729,6,0,P|188:292|99:258,1,195.500003728867,10|0,3:2|0:2,0:2:0:0:
304,70,310988,2,0,P|249:149|264:243,1,195.500003728867,10|0,3:2|0:2,0:2:0:0:
0,159,311246,2,0,P|95:167|168:107,1,195.500003728867,10|0,3:2|0:2,0:2:0:0:
228,378,311505,2,0,P|187:291|98:258,1,195.500003728867,10|0,3:2|0:2,0:2:0:0:
264,243,311763,6,0,P|320:279|388:315,1,129.375004935265,2|0,3:2|0:2,0:2:0:0:
483,357,312108,5,14,3:2:0:0:
495,306,312195,1,2,0:2:0:0:
494,254,312281,1,2,0:2:0:0:
479,204,312367,1,2,0:2:0:0:
434,116,312453,5,2,3:2:0:0:
424,102,312539,2,0,P|470:30|533:73,1,172.500006580353,2|0,0:2|0:2,0:2:0:0:
479,204,312798,5,10,3:2:0:0:
441,239,312884,1,2,0:2:0:0:
410,197,312970,1,2,0:2:0:0:
369,229,313057,1,2,0:2:0:0:
324,164,313143,5,2,3:2:0:0:
303,172,313229,2,0,B|191:170|252:246|105:210,1,172.500006580353,2|0,0:2|0:2,0:2:0:0:
68,63,313488,2,0,P|145:51|150:148,1,172.500006580353,10|0,3:2|0:2,0:2:0:0:
89,364,313832,5,2,3:2:0:0:
84,330,313918,1,2,0:2:0:0:
94,297,314004,1,2,0:2:0:0:
117,272,314090,1,2,0:2:0:0:
195,316,314177,5,10,3:2:0:0:
197,333,314263,1,2,0:2:0:0:
192,349,314349,1,2,0:2:0:0:
181,362,314435,1,2,0:2:0:0:
190,304,314522,6,0,B|240:294|240:294|267:303|267:303|345:286,1,129.375004935265,2|0,3:2|0:2,0:2:0:0:
313,177,314867,5,14,3:2:0:0:
261,182,314953,1,2,0:2:0:0:
209,187,315039,1,2,0:2:0:0:
157,193,315126,1,2,0:2:0:0:
84,221,315212,5,2,3:2:0:0:
58,198,315298,2,0,B|32:160|32:160|81:41,1,172.500006580353,2|0,0:2|0:2,0:2:0:0:
180,43,315557,5,10,3:2:0:0:
218,77,315643,1,2,0:2:0:0:
256,42,315729,1,2,0:2:0:0:
291,79,315815,1,2,0:2:0:0:
356,24,315901,5,2,3:2:0:0:
378,58,315988,2,0,B|399:88|399:88|376:177,1,86.2500032901765,2|0,0:2|0:2,0:2:0:0:
266,216,316160,1,2,0:2:0:0:
263,203,316246,6,0,B|289:165|289:165|304:253,1,86.2500032901765,10|0,3:2|0:2,0:2:0:0:
281,298,316419,2,0,B|255:336|255:336|240:248,1,86.2500032901765,10|0,3:2|0:2,0:2:0:0:
370,253,316591,6,0,B|482:267|482:267|458:184,1,172.500006580353,10|0,3:2|0:2,0:2:0:0:
473,101,316850,2,0,B|361:115|361:115|385:32,1,172.500006580353,10|0,3:2|0:2,0:2:0:0:
476,8,317108,2,0,B|500:32|500:32|455:153,1,86.2500032901765,10|0,3:2|0:2,0:2:0:0:
263,203,317281,6,0,B|218:210|218:210|155:165|155:165|84:175,1,172.500006580353,6|0,3:2|0:2,0:2:0:0:
96,180,317539,1,0,0:2:0:0:
61,163,317626,5,10,3:2:0:0:
31,205,317712,1,2,0:2:0:0:
33,256,317798,1,2,0:2:0:0:
65,296,317884,1,2,0:2:0:0:
149,285,317970,5,2,3:2:0:0:
164,303,318057,2,0,B|262:309|205:376|350:369,1,172.500006580353,2|0,0:2|0:2,0:2:0:0:
431,263,318315,5,10,3:2:0:0:
479,281,318401,1,2,0:2:0:0:
459,330,318488,1,2,0:2:0:0:
411,310,318574,1,2,0:2:0:0:
415,231,318660,5,2,3:2:0:0:
400,198,318746,2,0,L|429:51,1,86.2500032901765,2|0,0:2|0:2,0:2:0:0:
299,147,318919,5,2,0:2:0:0:
314,114,319005,2,0,B|297:27|297:27|187:43,1,172.500006580353,10|0,3:2|0:2,0:2:0:0:
149,127,319263,1,0,0:2:0:0:
137,144,319350,6,0,B|96:123|96:123|127:-13,1,172.500006580353,2|0,3:2|0:2,0:2:0:0:
185,282,319608,5,0,3:2:0:0:
219,201,319695,2,0,B|233:226|233:226|188:326,1,86.2500032901765,0|0,3:2|0:2,0:2:0:0:
0,314,319867,1,0,3:2:0:0:
50,304,319953,1,0,3:2:0:0:
100,294,320039,6,0,L|87:350,6,43.1250016450883,2|0|0|0|0|0|0,3:2|0:2|0:2|0:2|0:2|0:2|0:2,0:2:0:0:
205,169,320384,5,2,0:2:0:0:
154,173,320470,1,2,0:2:0:0:
102,177,320557,1,2,0:2:0:0:
51,181,320643,1,2,0:2:0:0:
0,186,320729,2,0,L|13:242,6,43.1250016450883,2|0|0|0|0|0|0,0:2|0:2|0:2|0:2|0:2|0:2|0:2,0:2:0:0:
16,38,321074,5,2,0:2:0:0:
67,42,321160,1,2,0:2:0:0:
119,46,321247,1,2,0:2:0:0:
170,50,321333,1,2,0:2:0:0:
221,55,321419,6,0,L|362:27,1,86.2500032901765,14|0,3:2|0:2,0:2:0:0:
342,290,321591,2,0,L|201:318,1,86.2500032901765,14|0,3:2|0:2,0:2:0:0:
399,108,321763,2,0,L|427:249,1,86.2500032901765,14|0,3:2|0:2,0:2:0:0:
164,229,321935,2,0,L|136:88,1,86.2500032901765,14|0,3:2|0:2,0:2:0:0:
289,149,322108,5,2,0:2:0:0:
300,163,322195,1,2,0:2:0:0:
299,179,322281,5,2,0:2:0:0:
276,189,322367,1,2,0:2:0:0:
250,164,322453,5,2,0:2:0:0:
253,119,322539,1,2,0:2:0:0:
294,81,322626,5,2,0:2:0:0:
357,76,322712,1,2,0:2:0:0:
418,113,322798,6,0,B|484:143|446:176|509:198,1,129.375004935265,0|0,3:2|0:2,0:2:0:0:
502,218,323143,6,0,P|452:316|426:326,1,86.2500032901765,12|0,3:2|0:2,0:2:0:0:
171,346,323315,5,2,0:2:0:0:
194,335,323401,1,2,0:2:0:0:
217,324,323488,2,0,L|236:200,1,86.2500032901765,0|0,3:2|0:2,0:2:0:0:
394,380,323660,5,2,0:2:0:0:
371,369,323746,1,2,0:2:0:0:
348,358,323833,2,0,L|329:234,1,86.2500032901765,8|0,3:2|0:2,0:2:0:0:
287,143,324005,5,2,0:2:0:0:
286,166,324091,1,2,0:2:0:0:
287,122,324177,6,0,B|226:118|226:118|193:148|193:148|90:135,1,172.500006580353,2|0,3:2|0:2,0:2:0:0:
114,116,324436,1,0,0:2:0:0:
102,93,324522,2,0,L|127:1,1,86.2500032901765,10|2,3:2|0:2,0:2:0:0:
12,239,324695,5,2,0:2:0:0:
27,218,324781,1,2,0:2:0:0:
41,199,324867,2,0,P|87:209|121:274,1,86.2500032901765,0|0,3:2|0:2,0:2:0:0:
236,348,325039,5,2,0:2:0:0:
221,327,325125,1,2,0:2:0:0:
207,307,325211,2,0,P|161:317|127:382,1,86.2500032901765,10|0,3:2|0:2,0:2:0:0:
275,373,325384,6,0,P|304:294|261:235,1,115,2|0,0:2|0:2,0:2:0:0:
189,93,325557,6,0,P|292:181|515:168,1,345,6|0,3:2|0:2,0:2:0:0:
512,172,325901,1,8,3:2:0:0:
333,101,326074,5,2,0:2:0:0:
348,21,326160,1,2,0:2:0:0:
408,73,326246,1,0,3:2:0:0:
432,258,326419,5,2,0:2:0:0:
372,206,326505,1,2,0:2:0:0:
357,286,326591,1,8,3:2:0:0:
180,225,326763,5,2,0:2:0:0:
240,173,326849,1,2,0:2:0:0:
255,253,326936,2,0,P|241:321|127:356,1,172.500006580353,2|0,3:2|0:2,0:2:0:0:
140,357,327195,1,0,0:2:0:0:
131,349,327281,1,8,3:2:0:0:
164,143,327453,6,0,L|101:126,1,43.1250016450883,2|2,0:2|0:2,0:2:0:0:
163,129,327539,2,0,L|100:112,1,43.1250016450883,2|2,0:2|0:2,0:2:0:0:
163,118,327626,6,0,L|156:22,1,86.2500032901765,2|0,3:2|0:2,0:2:0:0:
65,8,327798,2,0,L|71:94,1,86.2500032901765,2|0,0:2|0:2,0:2:0:0:
246,71,327970,6,0,B|316:63|339:2|339:2|410:77|410:77|441:14|533:12,1,345,2|0,0:2|0:2,0:2:0:0:
458,268,328315,6,0,P|377:249|392:149,1,172.500006580353,6|0,3:2|0:2,0:2:0:0:
371,171,328832,6,0,P|310:176|286:229,1,86.2500032901765,10|0,0:2|0:2,0:2:0:0:
282,188,329005,6,0,P|267:217|270:244,1,43.1250016450883,2|2,0:2|0:2,0:2:0:0:
271,187,329091,2,0,P|256:216|259:243,1,43.1250016450883,2|2,0:2|0:2,0:2:0:0:
260,186,329177,1,2,0:2:0:0:
249,184,329263,1,2,0:2:0:0:
240,183,329350,5,2,0:2:0:0:
231,182,329436,2,0,P|191:228|211:283,1,86.2500032901765,2|0,0:2|0:2,0:2:0:0:
183,252,329608,5,2,0:2:0:0:
175,256,329694,2,0,P|179:316|232:341,1,86.2500032901765,2|0,0:2|0:2,0:2:0:0:
190,348,329867,5,2,0:2:0:0:
186,360,329953,1,2,3:2:0:0:
270,305,330039,6,0,B|376:306|303:360|443:362,1,172.500006580353,10|0,0:2|0:2,0:2:0:0:
496,201,330298,2,0,P|450:178|429:278,1,172.500006580353,2|0,0:2|0:2,0:2:0:0:
320,190,330557,6,0,P|294:160|295:119,1,57.5,2|0,3:2|0:2,0:2:0:0:
400,59,330729,2,0,P|387:95|351:114,1,57.5,10|0,0:2|0:2,0:2:0:0:
301,54,330901,1,2,3:2:0:0:
267,287,331074,6,0,P|101:202|7:224,1,258.75000987053,6|0,3:2|0:2,3:2:0:0:
31,225,331505,1,2,0:2:0:0:
110,186,331591,6,0,B|118:130|118:130|109:122|109:122|125:-16,1,172.500006580353,10|0,0:0|0:2,0:2:0:0:
33,35,331850,2,0,B|2:75|2:75|34:120,1,86.2500032901765,2|0,3:2|0:2,0:2:0:0:
200,92,332108,5,10,0:2:0:0:
212,88,332195,1,2,0:2:0:0:
224,85,332281,1,2,0:2:0:0:
236,82,332367,1,2,0:2:0:0:
298,136,332453,5,2,3:2:0:0:
313,156,332539,2,0,B|325:189|325:189|292:264,1,86.2500032901765,10|0,0:2|0:2,0:2:0:0:
384,273,332712,1,2,3:2:0:0:
380,298,332798,6,0,B|365:329|365:329|272:366|272:366|211:337,1,172.500006580353,10|0,0:2|0:2,0:2:0:0:
158,202,333057,2,0,B|172:233|172:233|265:270|265:270|327:241,1,172.500006580353,2|0,3:2|0:2,0:2:0:0:
381,108,333315,2,0,B|366:139|366:139|273:176|273:176|238:159,1,172.500006580353,10|0,0:2|0:2,0:2:0:0:
460,166,333574,5,2,3:2:0:0:
464,191,333660,1,2,3:2:0:0:
468,216,333746,1,2,3:2:0:0:
472,241,333832,6,0,L|362:262,1,86.2500032901765,6|0,3:2|0:2,0:2:0:0:
358,343,334005,2,0,L|248:364,1,86.2500032901765,6|0,3:2|0:2,0:2:0:0:
217,288,334177,2,0,L|107:309,1,86.2500032901765,6|0,3:2|0:2,0:2:0:0:
30,364,334350,5,2,0:2:0:0:
28,338,334436,1,2,0:2:0:0:
26,312,334522,2,0,P|36:270|54:216,1,86.2500032901765,0|0,3:2|0:2,0:2:0:0:
155,81,334695,5,2,0:2:0:0:
157,107,334781,1,2,0:2:0:0:
159,133,334867,2,0,P|148:174|131:229,1,86.2500032901765,8|0,3:2|0:2,0:2:0:0:
55,36,335039,5,2,0:2:0:0:
47,10,335126,1,2,0:2:0:0:
43,56,335212,6,0,P|138:64|185:-43,1,172.500006580353,2|0,3:2|0:2,0:2:0:0:
170,8,335470,1,0,0:2:0:0:
155,3,335557,1,8,3:2:0:0:
339,161,335729,5,2,0:2:0:0:
344,135,335815,1,2,0:2:0:0:
350,109,335901,2,0,P|310:94|239:88,1,86.2500032901765,0|0,3:2|0:2,0:2:0:0:
488,176,336074,5,2,0:2:0:0:
493,202,336160,1,2,0:2:0:0:
499,228,336246,2,0,P|459:243|388:249,1,86.2500032901765,10|0,3:2|0:2,0:2:0:0:
487,54,336419,2,0,P|447:39|376:33,1,86.2500032901765,2|0,0:2|0:2,0:2:0:0:
267,87,336591,6,0,P|266:152|294:273,1,172.500006580353,2|8,0:2|3:2,0:2:0:0:
126,340,337108,5,2,0:2:0:0:
126,262,337195,1,2,0:2:0:0:
193,301,337281,1,8,3:2:0:0:
435,257,337453,5,2,0:2:0:0:
435,179,337540,1,2,0:2:0:0:
368,218,337626,1,8,3:2:0:0:
110,136,337798,5,2,0:2:0:0:
110,58,337885,1,2,0:2:0:0:
177,97,337971,5,2,3:2:0:0:
191,101,338057,1,2,3:2:0:0:
55,211,338229,5,2,3:2:0:0:
41,215,338315,1,2,3:2:0:0:
193,301,338488,5,2,3:2:0:0:
207,305,338574,1,2,3:2:0:0:
229,353,338660,6,0,P|261:341|296:322,5,43.1250016450883,10|0|0|0|0|0,0:2|0:2|0:2|0:2|0:2|0:2,0:2:0:0:
224,369,339177,2,0,L|232:306,1,43.1250016450883,2|0,0:2|0:2,0:2:0:0:
512,276,339350,6,0,B|389:260|389:260|382:251|382:251|190:224,1,258.75000987053,6|0,3:2|0:2,0:2:0:0:
177,225,339695,1,2,0:3:0:0:
501,39,339867,6,0,B|377:16|377:16|339:79,1,172.500006580353,10|0,0:2|0:2,0:2:0:0:
193,83,340126,2,0,B|317:60|317:60|355:123,1,172.500006580353,2|0,3:2|0:2,0:2:0:0:
425,135,340384,2,0,B|356:151|356:151|315:127,1,86.2500032901765,10|0,0:2|0:2,0:2:0:0:
91,10,340557,6,0,B|-1:41|-1:41|8:210|8:210|135:134,1,345.000013160706,2|0,3:2|0:2,0:2:0:0:
90,164,340988,1,0,3:2:0:0:
142,222,341074,2,0,B|149:250|149:250|120:299,1,86.2500032901765,10|0,0:2|0:2,0:2:0:0:
41,374,341246,6,0,B|74:331|74:331|232:342,1,172.500006580353,2|0,0:2|0:2,0:2:0:0:
286,384,341505,2,0,L|272:299,1,86.2500032901765,2|0,0:2|3:2,0:2:0:0:
493,247,341763,5,10,0:2:0:0:
488,239,341850,1,2,0:2:0:0:
481,244,341936,1,2,0:2:0:0:
475,237,342022,1,2,0:2:0:0:
444,323,342108,6,0,B|403:308|403:308|362:24,1,258.75000987053,6|0,3:2|0:2,0:2:0:0:
359,17,342453,1,2,0:3:0:0:
36,208,342626,6,0,P|43:246|42:209,1,115,10|0,0:2|0:2,0:2:0:0:
252,93,342884,2,0,P|254:54|246:92,1,115,2|0,3:2|0:2,0:2:0:0:
40,83,343143,6,0,P|5:101|42:88,1,115,10|0,0:2|0:2,0:2:0:0:
247,216,343401,2,0,P|280:195|243:209,1,115,2|0,3:2|0:2,0:2:0:0:
138,34,343660,6,0,P|122:-2|150:27,1,115,10|0,0:2|0:2,0:2:0:0:
137,273,343919,2,0,P|173:285|140:268,1,115,2|0,3:2|0:2,0:2:0:0:
148,152,344177,6,0,P|132:147|139:159,11,38.3333333333333,10|0|0|0|0|0|0|0|0|0|0|0,0:2|0:2|0:2|0:2|0:2|0:2|0:2|0:2|0:2|0:2|0:2|0:2,0:2:0:0:
148,152,344867,6,0,B|182:122|182:122|337:179,1,172.500006580353,10|0,3:2|0:2,0:2:0:0:
352,249,345126,2,0,B|386:279|386:279|478:231,1,86.2500032901765,10|0,3:2|0:2,0:2:0:0:
399,180,345298,1,10,3:2:0:0:
337,246,345384,6,0,P|318:304|465:301,1,258.75000987053,10|0,3:2|0:2,0:2:0:0:
461,306,346074,1,2,0:2:0:0:
512,53,346246,6,0,B|444:43|444:43|424:70|424:70|344:57,1,172.500006580353,10|0,3:2|0:2,0:2:0:0:
270,72,346505,2,0,B|264:18|264:18|290:0,1,86.2500032901765,10|0,3:2|0:2,0:2:0:0:
325,139,346677,5,10,3:2:0:0:
245,154,346763,2,0,B|191:159|191:159|172:133,1,86.2500032901765,10|0,3:2|0:2,0:2:0:0:
325,139,346936,5,10,3:2:0:0:
299,218,347022,2,0,B|279:301|279:301|258:229,1,129.375004935265,10|0,3:2|0:2,0:2:0:0:
261,250,347453,1,2,0:2:0:0:
17,77,347626,6,0,B|147:41|50:113|241:53,1,172.500006580353,10|0,3:2|0:2,0:2:0:0:
208,0,347884,2,0,P|237:49|222:73,1,86.2500032901765,10|0,3:2|0:2,0:2:0:0:
135,216,348057,1,10,3:2:0:0:
70,153,348143,6,0,B|40:224|40:224|163:262|163:262|122:194,1,258.75000987053,10|0,3:2|0:2,0:2:0:0:
130,219,348832,1,2,0:2:0:0:
487,358,349005,6,0,B|528:225|528:225|487:189,1,172.500006580353,10|0,3:2|0:2,0:2:0:0:
442,116,349263,2,0,B|458:95|458:95|536:135,1,86.2500032901765,10|0,3:2|0:2,0:2:0:0:
418,289,349436,1,10,3:2:0:0:
348,246,349522,6,0,B|327:228|327:228|342:166,1,86.2500032901765,10|0,3:2|0:2,0:2:0:0:
303,0,349695,1,10,3:2:0:0:
233,43,349781,6,0,B|212:61|212:61|224:110|224:110|287:134,1,129.375004935265,10|0,3:2|0:2,0:2:0:0:
281,121,350212,1,2,0:2:0:0:
216,376,350384,6,0,P|133:337|162:265,1,172.500006580353,10|0,3:2|0:2,0:2:0:0:
210,216,350643,2,0,P|212:242|131:269,1,86.2500032901765,10|0,3:2|0:2,0:2:0:0:
53,234,350815,1,10,3:2:0:0:
98,158,350901,6,0,B|263:139|158:238|357:202,1,258.75000987053,10|0,3:2|0:2,0:2:0:0:
471,384,351763,6,0,B|507:355|507:355|496:199,1,172.500006580353,8|0,3:2|0:2,0:2:0:0:
428,115,352022,2,0,L|522:151,1,86.2500032901765,10|0,3:2|0:2,0:2:0:0:
356,51,352195,1,10,3:2:0:0:
433,101,352281,6,0,B|462:68|462:68|438:2,1,86.2500032901765,10|0,3:2|0:2,0:2:0:0:
252,79,352453,1,10,3:2:0:0:
345,46,352539,6,0,B|274:71|274:71|229:36|229:36|150:64,1,215.625008225441,10|0,3:2|0:2,0:2:0:0:
85,212,353143,6,0,B|160:159|160:159|149:295,1,172.500006580353,10|0,3:2|0:2,0:2:0:0:
119,323,353401,2,0,B|44:376|44:376|55:240,1,172.500006580353,10|10,3:2|3:2,0:2:0:0:
52,287,353660,1,10,3:2:0:0:
52,278,353746,1,10,3:2:0:0:
153,239,353832,6,0,B|196:260|206:307|206:307|248:273|350:286,1,172.500006580353,10|0,3:2|0:2,0:2:0:0:
477,279,354091,2,0,B|434:258|424:211|424:211|382:245|280:232,1,172.500006580353,10|10,3:2|3:2,0:2:0:0:
341,228,354350,2,0,P|302:244|306:336,1,86.2500032901765,10|10,3:2|3:2,0:2:0:0:
343,364,354522,5,8,0:2:0:0:
349,358,354608,1,8,0:2:0:0:
355,352,354695,1,8,0:2:0:0:
360,345,354781,1,8,0:2:0:0:
364,337,354867,1,8,0:2:0:0:
368,329,354953,1,8,0:2:0:0:
371,321,355039,1,8,0:2:0:0:
374,313,355126,1,8,0:2:0:0:
374,304,355212,5,8,0:2:0:0:
363,262,355298,1,8,0:2:0:0:
386,225,355384,1,8,0:2:0:0:
353,175,355470,1,8,0:2:0:0:
390,129,355557,6,0,P|394:106|396:68,1,51.7499984207154,2|0,3:3|0:2,0:2:0:0:
85,191,355901,6,0,B|66:175|50:125|50:125|161:92|280:204,1,258.75000987053,6|0,3:2|0:2,0:2:0:0:
256,275,356246,5,8,0:3:0:0:
248,279,356332,1,8,0:3:0:0:
244,272,356419,1,4,0:3:0:0:
251,266,356505,1,4,0:3:0:0:
336,251,356591,6,0,P|338:290|312:342,1,68.9999978942872,10|0,0:2|0:2,0:2:0:0:
159,299,356763,2,0,P|157:260|183:208,1,68.9999978942872,2|0,0:2|0:2,0:2:0:0:
343,261,356936,6,0,P|345:300|319:352,1,68.9999978942872,2|0,0:2|0:2,0:2:0:0:
166,309,357108,2,0,P|164:270|190:218,1,68.9999978942872,2|0,0:2|0:2,0:2:0:0:
263,108,357281,6,0,P|261:147|287:199,1,68.9999978942872,2|0,3:2|0:2,0:2:0:0:
440,156,357453,2,0,P|442:117|416:65,1,68.9999978942872,2|0,0:2|0:2,0:2:0:0:
256,118,357626,6,0,P|254:157|280:209,1,68.9999978942872,2|0,0:2|0:2,0:2:0:0:
433,166,357798,2,0,P|435:127|409:75,1,68.9999978942872,2|0,0:2|0:2,0:2:0:0:
249,128,357970,6,0,P|247:167|273:219,1,68.9999978942872,10|0,3:2|0:2,0:2:0:0:
426,176,358142,2,0,P|428:137|402:85,1,68.9999978942872,2|0,0:2|0:2,0:2:0:0:
341,132,358315,6,0,P|341:141|342:150,3,17.2499994735718,2|0|0|0,0:2|0:2|0:2|0:2,0:2:0:0:
492,348,358660,6,0,B|321:366|409:242|205:282,1,258.75000987053,6|0,3:2|0:2,0:2:0:0:
36,314,359005,2,0,P|155:368|158:190,1,345,2|0,0:2|0:2,0:2:0:0:
89,218,359350,5,10,3:2:0:0:
110,191,359436,1,2,0:2:0:0:
88,171,359523,1,2,0:2:0:0:
114,152,359609,1,2,0:2:0:0:
100,125,359695,1,2,0:2:0:0:
128,115,359781,1,2,0:2:0:0:
124,83,359868,1,2,0:2:0:0:
152,82,359954,1,2,0:2:0:0:
159,48,360040,1,2,3:2:0:0:
184,56,360126,1,2,0:2:0:0:
201,24,360212,1,2,0:2:0:0:
222,39,360298,1,2,0:2:0:0:
249,11,360385,1,2,0:2:0:0:
263,32,360471,1,2,0:2:0:0:
299,10,360557,1,2,0:2:0:0:
305,36,360643,1,2,0:2:0:0:
383,35,360729,6,0,P|372:88|311:108,1,86.2500032901765,10|0,3:2|0:2,0:2:0:0:
225,234,360901,1,8,0:3:0:0:
225,234,360988,1,8,0:3:0:0:
197,143,361074,6,0,B|294:163|294:163|317:227|317:227|426:250,1,258.75000987053,4|0,0:3|0:2,0:2:0:0:
138,359,361419,6,0,P|126:325|134:303,1,51.7499984207154,6|0,3:2|0:2,0:2:0:0:
141,296,361763,5,8,0:3:0:0:
165,283,361850,1,8,0:3:0:0:
209,282,361936,1,4,0:3:0:0:
269,307,362022,1,4,0:3:0:0:
323,369,362108,6,0,L|418:349,1,86.2500032901765,14|0,3:2|0:2,0:2:0:0:
504,305,362281,2,0,L|419:322,1,86.2500032901765,2|0,0:2|0:2,0:2:0:0:
331,244,362453,6,0,L|426:224,1,86.2500032901765,2|0,0:2|0:2,0:2:0:0:
512,180,362626,2,0,L|427:197,1,86.2500032901765,2|0,0:2|0:2,0:2:0:0:
205,298,362798,6,0,L|120:280,1,68.9999978942872,2|0,3:2|0:2,0:2:0:0:
45,244,362971,2,0,L|129:261,1,68.9999978942872,2|0,0:2|0:2,0:2:0:0:
225,201,363143,6,0,L|168:189,1,57.5,2|0,0:2|0:2,0:2:0:0:
96,156,363316,2,0,L|152:167,1,57.5,2|0,0:2|0:2,0:2:0:0:
255,110,363488,6,0,L|212:100,1,43.1250016450883,10|0,3:2|0:2,0:2:0:0:
161,77,363661,2,0,L|204:86,1,43.1250016450883,2|0,0:2|0:2,0:2:0:0:
243,17,363832,6,0,L|248:-5,3,17.2499994735718,2|0|0|0,0:2|0:2|0:2|0:2,0:2:0:0:
255,110,364177,6,0,B|431:57|431:57|486:142,1,258.75000987053,6|0,3:2|0:2,0:2:0:0:
488,195,364522,6,0,L|497:138,1,51.7499984207154,2|0,0:2|0:2,0:2:0:0:
396,161,364867,5,10,3:2:0:0:
375,188,364953,1,2,0:2:0:0:
397,208,365040,1,2,0:2:0:0:
371,227,365126,1,2,0:2:0:0:
385,254,365212,1,2,0:2:0:0:
357,264,365298,1,2,0:2:0:0:
361,296,365385,1,2,0:2:0:0:
333,297,365471,1,2,0:2:0:0:
326,331,365557,1,2,3:2:0:0:
301,323,365643,1,2,0:2:0:0:
284,355,365729,1,2,0:2:0:0:
263,340,365815,1,2,0:2:0:0:
236,368,365902,1,2,0:2:0:0:
222,347,365988,1,2,0:2:0:0:
186,369,366074,1,2,0:2:0:0:
180,343,366160,1,2,0:2:0:0:
108,365,366246,5,10,3:2:0:0:
131,60,366419,5,4,1:3:0:0:
131,60,366505,1,4,1:3:0:0:
207,83,366591,2,0,P|221:125|57:175,1,258.75000987053,0|0,3:2|0:2,0:2:0:0:
75,177,366936,6,0,B|229:162|151:284|324:250,1,258.75000987053,4|0,3:2|3:2,0:2:0:0:
313,236,367539,1,0,3:2:0:0:
390,305,367626,2,0,P|446:267|403:124,1,230,8|0,0:2|0:2,0:2:0:0:
336,111,368488,5,0,3:2:0:0:
336,111,368660,1,0,3:2:0:0:
496,38,369005,6,0,L|480:156,1,115,10|0,0:2|0:2,0:2:0:0:
282,103,369695,6,0,P|199:98|103:73,1,172.5,2|0,3:2|3:2,0:2:0:0:
105,59,370298,1,0,3:2:0:0:
18,101,370384,2,0,P|-14:173|107:191,1,230,8|0,0:2|0:2,0:2:0:0:
161,131,371246,5,0,3:2:0:0:
161,131,371419,1,0,3:2:0:0:
161,131,371591,1,0,3:2:0:0:
149,302,371763,6,0,L|202:290,1,28.75,10|0,0:2|0:2,0:2:0:0:
194,370,371936,2,0,L|165:376,1,28.75,2|0,0:2|0:2,0:2:0:0:
235,240,372108,6,0,B|355:259|355:259|369:334,1,172.5,2|0,3:2|0:2,0:2:0:0:
475,338,372453,5,4,1:2:0:0:
477,315,372539,1,0,1:2:0:0:
479,291,372626,1,0,1:2:0:0:
481,268,372712,1,0,1:2:0:0:
484,245,372798,1,0,1:2:0:0:
487,222,372884,1,0,1:2:0:0:
489,199,372970,1,0,1:2:0:0:
492,176,373057,1,0,1:2:0:0:
496,153,373143,6,0,L|501:87,3,57.5,0|0|0|0,1:2|1:2|1:2|1:2,1:2:0:0:
418,67,373488,2,0,L|413:1,3,57.5,0|0|0|0,1:2|1:2|1:2|1:2,1:2:0:0:
358,143,373832,5,0,1:2:0:0:
334,168,373918,1,0,1:2:0:0:
303,181,374004,1,0,1:2:0:0:
269,179,374090,1,0,1:2:0:0:
239,162,374176,1,0,1:2:0:0:
208,145,374264,1,0,1:2:0:0:
174,143,374350,1,0,1:2:0:0:
143,156,374436,1,0,1:2:0:0:
120,181,374522,6,0,P|108:219|113:265,3,57.5,0|0|0|0,1:2|1:2|1:2|1:2,1:2:0:0:
21,250,374867,2,0,P|39:285|75:314,3,57.5,0|0|0|0,1:2|1:2|1:2|1:2,1:2:0:0:
65,109,375212,5,8,1:2:0:0:
62,120,375298,1,0,1:2:0:0:
61,131,375385,2,0,L|-15:116,1,57.5,0|0,1:2|1:2,1:2:0:0:
202,318,375557,5,8,1:2:0:0:
199,307,375643,1,0,1:2:0:0:
198,296,375730,2,0,L|122:311,1,57.5,0|0,1:2|1:2,1:2:0:0:
205,70,375901,5,8,1:2:0:0:
202,81,375987,1,0,1:2:0:0:
201,92,376074,2,0,L|125:77,1,57.5,0|0,1:2|1:2,1:2:0:0:
344,346,376246,5,8,1:2:0:0:
341,335,376332,1,0,1:2:0:0:
340,324,376419,2,0,L|264:339,1,57.5,0|0,1:2|1:2,1:2:0:0:
255,212,376591,5,8,3:2:0:0:
290,182,376677,1,8,3:2:0:0:
330,204,376763,1,8,3:2:0:0:
363,172,376850,1,8,3:2:0:0:
421,206,376936,1,8,3:2:0:0:
458,149,377022,1,8,3:2:0:0:
493,174,377108,5,2,1:2:0:0:
494,185,377195,1,2,1:2:0:0:
495,196,377281,1,2,1:2:0:0:
496,207,377367,1,2,1:2:0:0:
497,218,377453,1,2,1:2:0:0:
498,229,377539,1,2,1:2:0:0:
474,268,377626,5,10,0:2:0:0:
473,279,377712,1,10,0:2:0:0:
472,290,377798,1,10,0:2:0:0:
471,301,377884,1,10,0:2:0:0:
411,366,377970,6,0,B|308:358|362:287|246:294,1,172.500006580353,6|0,3:2|0:2,0:2:0:0:
58,257,378229,1,2,0:2:0:0:
42,264,378315,2,0,P|42:350|132:334,1,172.500006580353,10|0,3:2|0:2,0:2:0:0:
172,266,378574,1,0,0:2:0:0:
162,251,378660,2,0,L|147:101,1,86.2500032901765,2|0,3:2|0:2,0:2:0:0:
26,20,378832,5,2,0:2:0:0:
16,51,378919,1,2,0:2:0:0:
29,84,379005,1,10,3:2:0:0:
90,91,379091,1,2,0:2:0:0:
135,63,379177,1,2,0:2:0:0:
166,59,379263,1,2,0:2:0:0:
191,74,379350,6,0,P|299:107|354:32,1,172.500006580353,2|0,3:2|0:2,0:2:0:0:
493,21,379608,1,0,0:2:0:0:
479,31,379695,2,0,P|435:123|441:197,1,172.500006580353,10|0,3:2|0:2,0:2:0:0:
288,357,379953,1,0,0:2:0:0:
302,347,380040,2,0,P|346:255|340:181,1,172.500006580353,2|0,3:2|0:2,0:2:0:0:
428,277,380298,1,0,0:2:0:0:
427,294,380384,6,0,L|527:308,1,86.2500032901765,10|0,3:2|0:2,0:2:0:0:
240,196,380557,1,2,0:2:0:0:
237,212,380643,1,2,0:2:0:0:
235,228,380729,6,0,B|122:251|122:251|87:192,1,172.500006580353,2|0,3:2|0:2,0:2:0:0:
32,43,380988,1,0,0:2:0:0:
42,29,381074,2,0,B|96:-9|164:43|164:43|97:113,1,172.500006580353,10|0,3:2|0:2,0:2:0:0:
92,201,381332,1,0,0:2:0:0:
78,211,381419,2,0,P|41:209|10:141,1,86.2500032901765,2|0,3:2|0:2,0:2:0:0:
218,116,381591,5,2,0:2:0:0:
251,106,381677,1,2,0:2:0:0:
285,108,381763,1,10,3:2:0:0:
317,120,381849,1,2,0:2:0:0:
344,141,381935,1,2,0:2:0:0:
363,169,382022,1,2,0:2:0:0:
344,244,382108,5,2,3:2:0:0:
362,249,382194,1,2,0:2:0:0:
381,248,382280,1,2,0:2:0:0:
399,241,382366,1,2,0:2:0:0:
415,230,382453,6,0,P|443:181|396:100,1,86.2500032901765,10|0,3:2|0:2,0:2:0:0:
279,310,382626,2,0,P|251:261|298:180,1,86.2500032901765,0|0,0:2|0:2,0:2:0:0:
488,290,382798,5,2,3:2:0:0:
487,307,382884,1,0,0:2:0:0:
486,324,382970,2,0,P|442:349|387:349,1,86.2500032901765,0|0,0:2|0:2,0:2:0:0:
252,232,383143,5,10,3:2:0:0:
251,215,383229,1,0,0:2:0:0:
250,198,383315,2,0,P|206:173|151:173,1,86.2500032901765,0|0,0:2|0:2,0:2:0:0:
34,375,383488,6,0,P|-1:276|70:188,1,172.500006580353,2|0,3:2|0:2,0:2:0:0:
0,106,383746,1,0,0:2:0:0:
14,115,383832,2,0,P|108:90|158:13,1,172.500006580353,10|0,3:2|0:2,0:2:0:0:
298,5,384091,1,0,0:2:0:0:
281,8,384177,2,0,P|255:51|264:115,1,86.2500032901765,2|0,3:2|0:2,0:2:0:0:
410,299,384350,5,2,0:2:0:0:
424,289,384436,1,2,0:2:0:0:
434,275,384522,1,10,3:2:0:0:
439,258,384608,1,2,0:2:0:0:
441,240,384695,1,2,0:2:0:0:
437,223,384781,1,2,0:2:0:0:
428,207,384867,5,2,3:2:0:0:
378,193,384953,1,2,0:2:0:0:
327,202,385039,1,2,0:2:0:0:
285,231,385125,1,2,0:2:0:0:
260,275,385212,6,0,P|251:333|260:366,1,86.2500032901765,10|0,3:2|0:2,0:2:0:0:
421,372,385384,2,0,P|430:314|421:281,1,86.2500032901765,0|0,0:2|0:2,0:2:0:0:
327,202,385557,6,0,B|230:197|282:275|124:267,1,172.500006580353,2|0,3:2|0:2,0:2:0:0:
52,340,385815,1,0,0:2:0:0:
38,329,385901,2,0,P|45:240|86:212,1,86.2500032901765,10|0,3:2|0:2,0:2:0:0:
0,172,386074,2,0,P|67:114|116:123,1,86.2500032901765,0|0,0:2|0:2,0:2:0:0:
295,63,386246,6,0,P|215:123|162:-4,1,258.75000987053,2|0,3:2|0:2,0:2:0:0:
241,146,386591,2,0,B|316:183|316:183|329:270|329:270|418:317,1,258.75000987053,10|0,3:2|0:2,0:2:0:0:
512,205,386936,2,0,B|411:215|411:215|401:315,1,172.500006580353,2|0,3:2|0:2,0:2:0:0:
357,368,387195,5,2,0:2:0:0:
329,383,387281,1,10,3:2:0:0:
269,384,387367,1,2,0:2:0:0:
217,335,387453,1,2,0:2:0:0:
214,257,387540,5,2,0:2:0:0:
224,240,387626,2,0,B|181:222|181:222|106:251|106:251|34:217,1,172.500006580353,2|0,3:2|0:2,0:2:0:0:
99,97,387884,1,2,3:2:0:0:
15,140,387970,6,0,P|116:116|135:31,1,172.500006580353,10|0,3:2|0:2,0:2:0:0:
232,13,388229,1,2,0:2:0:0:
243,0,388315,6,0,P|276:106|253:129,1,86.2500032901765,2|0,3:2|0:2,0:2:0:0:
366,38,388488,2,0,P|314:136|282:136,1,86.2500032901765,2|0,3:2|0:2,0:2:0:0:
426,152,388660,2,0,P|320:186|297:163,1,86.2500032901765,10|0,3:2|0:2,0:2:0:0:
272,157,388832,1,2,3:2:0:0:
272,157,388919,1,0,0:2:0:0:
182,185,389005,6,0,P|164:224|183:277,1,86.2500032901765,6|0,3:2|0:2,0:2:0:0:
350,276,389177,2,0,P|367:236|348:183,1,86.2500032901765,6|0,3:2|0:2,0:2:0:0:
85,278,389350,6,0,P|95:319|228:320,1,172.500006580353,14|0,3:2|0:2,0:2:0:0:
68,200,389608,1,0,0:2:0:0:
48,202,389695,2,0,P|10:232|15:316,1,86.2500032901765,2|0,3:2|0:2,3:2:0:0:
185,214,389867,5,2,0:2:0:0:
215,162,389953,1,2,0:2:0:0:
211,101,390039,1,10,3:2:0:0:
170,55,390126,1,2,0:2:0:0:
110,43,390212,1,2,0:2:0:0:
54,65,390298,1,2,0:2:0:0:
35,113,390384,5,2,3:2:0:0:
82,132,390470,1,2,0:2:0:0:
134,137,390556,1,2,0:2:0:0:
185,129,390642,1,2,0:2:0:0:
231,107,390728,1,10,3:2:0:0:
279,88,390815,1,2,0:2:0:0:
330,82,390901,1,2,0:2:0:0:
381,91,390987,1,2,0:2:0:0:
428,112,391074,6,0,P|433:177|398:207,1,86.2500032901765,2|0,3:2|0:2,0:2:0:0:
239,263,391246,2,0,P|253:223|289:201,1,86.2500032901765,2|0,0:2|0:2,0:2:0:0:
482,251,391419,2,0,P|447:275|404:271,1,86.2500032901765,10|0,3:2|0:2,0:2:0:0:
278,117,391591,2,0,P|321:118|352:146,1,86.2500032901765,2|0,0:2|0:2,0:2:0:0:
345,332,391763,6,0,B|226:366|307:294|166:329,1,172.500006580353,2|0,3:2|0:2,0:2:0:0:
89,383,392022,1,0,0:2:0:0:
76,371,392108,2,0,P|65:333|87:189,1,172.500006580353,10|0,3:2|0:2,0:2:0:0:
24,90,392367,1,0,0:2:0:0:
34,76,392453,2,0,P|141:92|158:177,1,172.500006580353,2|2,3:2|0:2,0:2:0:0:
165,159,392712,1,2,0:0:0:0:
163,176,392798,5,8,3:2:0:0:
512,40,392970,5,2,0:2:0:0:
459,12,393056,1,2,0:2:0:0:
400,18,393142,1,2,3:2:0:0:
353,54,393228,1,2,0:2:0:0:
343,96,393315,5,2,0:2:0:0:
311,79,393401,1,2,0:2:0:0:
275,82,393487,1,10,3:2:0:0:
247,104,393573,1,2,0:2:0:0:
223,145,393660,5,2,0:2:0:0:
203,134,393746,1,2,0:2:0:0:
182,136,393832,1,2,3:2:0:0:
165,149,393918,1,2,0:2:0:0:
155,163,394005,6,0,P|136:121|181:44,1,86.2500032901765,2|0,0:2|0:2,0:2:0:0:
189,17,394177,1,10,3:2:0:0:
453,305,394350,1,0,0:2:0:0:
471,230,394436,5,0,3:2:0:0:
471,230,394522,2,0,P|428:228|382:277,1,86.2500032901765,2|0,3:2|0:2,0:2:0:0:
348,176,394695,2,0,P|316:204|318:272,1,86.2500032901765,0|0,3:2|0:2,0:2:0:0:
222,224,394867,2,0,P|220:267|269:313,1,86.2500032901765,10|0,3:2|0:2,0:2:0:0:
328,324,395039,5,2,0:2:0:0:
412,125,395212,2,0,P|387:100|297:135,1,86.2500032901765,2|0,3:2|0:2,0:2:0:0:
129,206,395384,5,2,0:2:0:0:
87,241,395470,1,2,0:2:0:0:
40,247,395557,1,10,3:2:0:0:
8,218,395643,1,2,0:2:0:0:
6,174,395729,1,2,0:2:0:0:
24,159,395815,1,2,0:2:0:0:
51,159,395901,6,0,P|69:202|28:254,1,86.2500032901765,2|0,3:2|0:2,0:2:0:0:
47,367,396074,1,2,0:2:0:0:
39,351,396160,2,0,P|80:326|160:325,1,86.2500032901765,2|8,0:2|3:2,0:2:0:0:
187,231,396332,1,2,0:2:0:0:
179,247,396418,2,0,P|220:272|300:273,1,86.2500032901765,2|0,0:2|0:2,0:2:0:0:
512,255,396591,6,0,P|430:184|341:234,1,172.500006580353,2|0,3:2|0:2,0:2:0:0:
345,384,396850,1,0,0:2:0:0:
361,377,396936,2,0,L|373:270,1,86.2500032901765,10|0,3:2|0:2,0:2:0:0:
388,62,397108,1,0,3:2:0:0:
388,62,397195,1,0,3:2:0:0:
326,119,397281,6,0,P|226:99|206:63,1,115,6|0,3:2|0:2,0:2:0:0:
219,83,397539,2,0,P|151:103|139:177,1,115,2|0,0:2|0:2,0:2:0:0:
138,149,397798,1,2,0:2:0:0:
90,27,397970,1,10,0:2:0:0:
206,215,398143,5,2,0:2:0:0:
209,203,398229,1,2,0:2:0:0:
212,191,398315,1,2,0:2:0:0:
40,154,398488,5,2,0:2:0:0:
37,142,398574,1,2,0:2:0:0:
34,130,398660,1,2,0:2:0:0:
0,312,398832,6,0,P|93:269|150:331,1,172.500006580353,2|0,3:2|0:2,0:2:0:0:
190,384,399091,2,0,P|177:282|254:247,1,172.500006580353,2|0,3:2|0:2,0:2:0:0:
317,225,399350,2,0,P|216:205|206:121,1,172.500006580353,2|0,3:2|0:2,0:2:0:0:
205,55,399608,2,0,P|155:144|72:127,1,172.500006580353,2|0,3:2|0:2,0:2:0:0:
8,108,399867,2,0,P|63:167|30:226,1,86.2500032901765,2|0,3:2|0:2,0:2:0:0:
64,246,400039,5,2,3:2:0:0:
388,112,400212,2,0,P|411:118|427:142,1,43.1250016450883,0|0,3:2|3:2,3:2:0:0:
433,119,400298,2,0,P|445:139|439:167,1,43.1250016450883,0|0,3:2|3:2,3:2:0:0:
464,154,400384,6,0,P|460:233|310:207,1,258.75000987053,14|0,0:2|0:2,0:2:0:0:
233,223,400729,2,0,P|222:199|248:125,1,86.2500032901765,2|0,0:2|0:2,0:2:0:0:
289,88,400901,1,0,3:2:0:0:
183,296,401074,5,10,0:2:0:0:
126,314,401160,1,2,0:2:0:0:
68,300,401246,1,2,0:2:0:0:
25,258,401332,1,2,0:2:0:0:
10,200,401418,5,2,3:2:0:0:
44,210,401505,1,2,0:2:0:0:
78,202,401591,1,2,0:2:0:0:
104,177,401677,1,2,0:2:0:0:
114,141,401763,6,0,L|103:30,1,86.2500032901765,10|0,0:2|0:2,0:2:0:0:
29,0,401936,1,0,0:2:0:0:
27,17,402022,1,0,0:2:0:0:
25,34,402108,2,0,L|14:145,1,86.2500032901765,2|0,0:2|0:2,0:2:0:0:
193,78,402281,2,0,L|303:52,1,86.2500032901765,0|0,3:2|0:2,0:2:0:0:
484,71,402453,5,10,0:2:0:0:
481,88,402539,1,2,0:2:0:0:
479,105,402626,1,2,0:2:0:0:
477,122,402712,1,2,0:2:0:0:
508,207,402798,6,0,B|407:193|407:193|385:161|385:161|241:140,1,258.75000987053,2|0,3:2|0:2,0:2:0:0:
188,172,403143,1,10,0:2:0:0:
233,358,403315,2,0,B|302:321|302:321|266:134,1,258.75000987053,2|0,0:3|0:2,0:2:0:0:
300,67,403660,2,0,B|273:51|273:51|165:77,1,86.2500032901765,2|0,3:2|0:2,0:2:0:0:
49,109,403832,5,10,0:2:0:0:
9,148,403919,1,2,0:2:0:0:
0,200,404005,1,2,0:2:0:0:
32,245,404091,1,2,0:2:0:0:
85,248,404177,1,2,3:2:0:0:
121,220,404263,1,2,0:2:0:0:
126,197,404350,1,2,0:2:0:0:
115,180,404436,1,2,0:2:0:0:
100,177,404522,6,0,P|67:278|216:321,1,258.75000987053,10|0,0:2|0:2,0:2:0:0:
267,369,404867,2,0,P|293:339|284:256,1,86.2500032901765,2|0,0:2|0:2,0:2:0:0:
258,224,405039,1,0,3:2:0:0:
511,364,405212,2,0,P|398:332|428:220,1,258.75000987053,10|0,0:2|0:2,0:2:0:0:
511,83,405557,6,0,B|452:58|355:70|428:132|334:160|220:108,1,258.75000987053,2|0,3:2|0:2,0:2:0:0:
196,74,405901,6,0,P|262:21|291:71,1,129.375004935265,2|0,3:2|0:2,0:2:0:0:
181,164,406246,6,0,P|86:230|40:167,1,172.500006580353,2|2,3:2|0:2,0:2:0:0:
49,191,406505,1,2,0:2:0:0:
54,177,406591,1,2,3:2:0:0:
17,310,406763,5,2,0:2:0:0:
17,310,406850,1,2,0:2:0:0:
64,366,406936,6,0,P|144:318|287:314,1,172.500006580353,2|0,3:2|0:2,0:2:0:0:
236,310,407195,1,2,0:2:0:0:
244,321,407281,5,2,3:2:0:0:
317,333,407453,2,0,P|311:353|289:385,1,43.1250016450883,2|0,0:2|0:2,0:2:0:0:
512,74,407626,6,0,B|406:38|406:38|360:119|360:119,1,172.500006580353,2|0,3:2|0:2,0:2:0:0:
430,209,407884,2,0,B|459:192|459:192|443:94,1,86.2500032901765,2|0,0:2|3:2,0:2:0:0:
310,23,408057,1,2,0:2:0:0:
303,13,408143,2,0,B|274:30|274:30|290:128,1,86.2500032901765,2|0,0:2|0:2,0:2:0:0:
34,136,408315,6,0,B|36:83|36:83|194:62,1,172.500006580353,2|0,3:2|0:2,0:2:0:0:
171,83,408574,1,0,0:2:0:0:
182,97,408660,2,0,B|176:32|176:32|140:119,1,129.375004935265,2|0,3:2|0:2,0:2:0:0:
124,332,409005,6,0,P|46:325|54:248,1,172.500006580353,2|0,3:2|0:2,0:2:0:0:
68,243,409263,1,2,0:2:0:0:
82,246,409350,1,2,3:2:0:0:
157,263,409522,6,0,P|162:237|146:204,1,43.1250016450883,2|0,0:2|0:2,0:2:0:0:
218,356,409695,6,0,P|272:289|404:239,1,172.500006580353,2|0,3:2|0:2,0:2:0:0:
364,249,409953,1,2,0:2:0:0:
379,256,410039,2,0,P|412:318|313:337,1,172.5,2|0,3:2|0:2,0:2:0:0:
452,260,410384,5,2,3:2:0:0:
472,187,410470,1,2,0:2:0:0:
434,122,410556,1,2,0:2:0:0:
361,105,410642,1,2,0:2:0:0:
296,146,410729,5,2,3:2:0:0:
288,161,410815,1,2,0:2:0:0:
288,178,410901,1,2,0:2:0:0:
292,194,410988,1,2,0:2:0:0:
372,187,411074,6,0,P|348:67|203:56,1,258.75000987053,6|0,3:2|0:2,0:2:0:0:
217,122,411419,2,0,P|176:112|152:37,1,86.2500032901765,10|0,0:2|0:2,0:2:0:0:
158,0,411591,1,0,0:2:0:0:
0,159,411763,6,0,P|118:185|129:230,1,172.500006580353,2|0,0:2|3:2,0:2:0:0:
213,361,412108,5,10,0:2:0:0:
262,367,412195,1,2,0:2:0:0:
312,350,412281,1,2,0:2:0:0:
341,312,412367,1,2,0:2:0:0:
350,264,412453,6,0,P|342:223|301:81,1,172.500006580353,2|0,3:2|0:2,0:2:0:0:
462,2,412712,1,0,0:2:0:0:
484,5,412798,2,0,P|534:87|400:97,1,258.75000987053,10|0,0:2|0:2,0:2:0:0:
235,43,413143,2,0,P|268:17|324:25,1,86.2500032901765,2|0,0:2|0:2,0:2:0:0:
343,171,413315,2,0,P|310:197|254:189,1,86.2500032901765,0|0,3:2|0:2,0:2:0:0:
152,149,413488,5,10,0:2:0:0:
139,136,413574,1,2,0:2:0:0:
152,124,413660,1,2,0:2:0:0:
164,136,413746,1,2,0:2:0:0:
185,227,413832,6,0,P|169:334|28:324,1,258.75000987053,2|0,3:2|0:2,0:2:0:0:
176,224,414177,2,0,B|283:222|199:287|348:274,1,172.500006580353,10|0,0:2|0:2,0:2:0:0:
348,270,414436,1,0,0:2:0:0:
360,257,414522,1,2,0:2:0:0:
460,302,414695,5,2,3:2:0:0:
474,304,414781,1,2,0:2:0:0:
503,268,414867,5,10,0:2:0:0:
512,216,414953,1,2,0:2:0:0:
485,168,415039,1,2,0:2:0:0:
441,146,415126,1,2,0:2:0:0:
390,158,415212,6,0,B|373:33|373:33|433:92,1,172.500006580353,2|0,3:2|0:2,0:2:0:0:
297,127,415470,1,0,0:2:0:0:
295,112,415557,2,0,L|279:6,1,86.2500032901765,10|0,0:2|0:2,0:2:0:0:
482,22,415729,2,0,L|494:107,1,86.2500032901765,0|0,0:2|0:2,0:2:0:0:
428,240,415901,6,0,B|315:230|379:300|229:270,1,172.500006580353,2|0,0:2|3:2,0:2:0:0:
2,352,416246,5,10,0:2:0:0:
10,337,416332,1,8,0:2:0:0:
54,306,416419,5,0,3:2:0:0:
46,291,416505,1,8,0:2:0:0:
10,254,416591,5,2,3:2:0:0:
58,237,416677,1,0,3:2:0:0:
107,220,416763,1,0,3:2:0:0:
156,204,416850,1,0,3:2:0:0:
205,188,416936,2,0,B|219:214|219:214|196:283,1,86.2500032901765,2|0,3:2|0:2,0:2:0:0:
380,353,417281,5,2,3:2:0:0:
424,326,417367,1,0,3:2:0:0:
442,277,417453,1,0,3:2:0:0:
434,225,417539,1,0,3:2:0:0:
400,184,417626,2,0,P|343:212|366:281,1,129.375004935265,2|0,3:2|0:2,0:2:0:0:
512,99,417970,5,2,3:2:0:0:
464,82,418056,1,0,3:2:0:0:
415,65,418142,1,0,3:2:0:0:
366,49,418229,1,0,3:2:0:0:
316,33,418315,6,0,L|252:48,1,43.1250016450883,2|0,3:2|0:2,0:2:0:0:
280,123,418488,2,0,L|321:113,1,43.1250016450883,2|0,0:2|0:2,0:2:0:0:
15,115,418660,5,10,3:2:0:0:
29,41,418746,1,8,3:2:0:0:
91,0,418832,1,8,3:2:0:0:
163,17,418918,1,8,3:2:0:0:
201,82,419005,6,0,B|194:153|163:131|158:222,1,129.375004935265,2|0,3:2|0:2,0:2:0:0:
71,375,419350,5,10,3:2:0:0:
40,358,419436,1,0,3:2:0:0:
29,325,419522,2,0,P|31:287|53:233,1,86.2500032901765,0|0,3:2|3:2,3:2:0:0:
155,318,419695,5,10,3:2:0:0:
146,284,419781,1,0,3:2:0:0:
160,252,419867,2,0,P|188:226|242:203,1,86.2500032901765,0|0,3:2|3:2,3:2:0:0:
458,274,420039,5,10,3:2:0:0:
489,257,420125,1,0,3:2:0:0:
500,224,420211,2,0,P|498:186|476:132,1,86.2500032901765,0|0,3:2|3:2,3:2:0:0:
374,217,420384,5,10,3:2:0:0:
383,183,420470,1,0,3:2:0:0:
369,151,420556,2,0,P|340:125|286:102,1,86.2500032901765,0|0,3:2|3:2,3:2:0:0:
74,14,420729,6,0,P|153:141|230:56,1,230,14|0,3:2|0:2,0:2:0:0:
369,151,420988,2,0,P|290:278|213:193,1,230,14|0,3:2|0:2,0:2:0:0:
234,238,421246,1,14,3:2:0:0:
56,302,421419,6,0,B|16:328|18:431|183:424|176:277|76:143,1,345,14|0,3:2|0:2,0:2:0:0:
91,100,421763,5,8,0:3:0:0:
67,101,421850,1,8,0:3:0:0:
47,112,421936,1,4,0:3:0:0:
36,132,422022,1,4,0:3:0:0:
99,177,422108,6,0,B|116:214|116:214|225:189|225:189|230:165|230:165|309:146,1,258.75000987053,6|0,3:2|0:2,0:2:0:0:
504,318,422453,2,0,B|535:366|535:366|382:322|382:322|369:282,1,258.75000987053,2|0,0:2|0:2,0:2:0:0:
431,219,422798,5,10,0:2:0:0:
447,213,422884,1,2,0:2:0:0:
463,207,422970,1,2,0:2:0:0:
479,202,423057,1,2,0:2:0:0:
466,179,423143,5,4,0:3:0:0:
454,174,423229,1,2,0:2:0:0:
443,170,423315,1,2,0:2:0:0:
432,167,423402,1,2,0:2:0:0:
443,152,423488,5,2,0:2:0:0:
451,148,423574,1,2,0:2:0:0:
459,145,423660,1,8,0:3:0:0:
466,143,423747,1,2,0:2:0:0:
476,240,423832,6,0,B|379:220|379:220|332:260|332:260|210:229,1,258.75000987053,6|0,3:2|0:2,0:2:0:0:
233,7,424177,2,0,B|264:101|264:101|322:121|322:121|356:242,1,258.75000987053,10|0,0:2|0:2,0:2:0:0:
153,334,424522,2,0,B|218:259|218:259|207:199|207:199|295:109,1,258.75000987053,2|0,0:2|0:2,0:2:0:0:
41,293,424867,6,0,B|110:300|139:380|139:380|246:265|246:265|279:353|410:353,1,431.250016450883,6|0,3:2|0:2,0:2:0:0:
436,378,425384,5,2,3:2:0:0:
436,378,425470,1,2,3:2:0:0:
497,318,425557,6,0,P|501:296|495:276,1,43.1250016450883,10|0,0:2|0:2,0:2:0:0:
378,259,425729,1,0,0:2:0:0:
384,270,425816,6,0,P|399:284|419:291,1,43.1250016450883,10|0,0:2|0:2,0:2:0:0:
482,199,425988,1,0,0:2:0:0:
473,194,426075,6,0,P|452:199|436:213,1,43.1250016450883,2|0,3:2|0:2,0:2:0:0:
440,221,426246,6,0,B|445:174|445:174|462:158|462:158|467:68,1,129.375004935265,2|0,0:2|0:2,0:2:0:0:
405,360,426591,6,0,P|332:248|56:182,1,345,6|0,3:2|0:2,0:2:0:0:
0,360,426936,6,0,B|240:356|57:156|373:162,1,388.125014805794,14|0,0:2|0:2,0:2:0:0:
337,89,427281,6,0,P|345:46|331:87,1,129.375004935265,2|0,0:2|0:2,0:2:0:0:
88,135,427626,6,0,B|38:103|19:54|19:54|249:36|121:171|325:164,1,431.25,6|0,3:2|0:2,0:2:0:0:
420,335,427970,6,0,B|448:369|467:374|467:374|540:237|431:113|431:113|451:185|394:256,1,431.25,6|0,3:2|0:0,0:0:0:0:
309,340,428315,5,10,0:2:0:0:
254,321,428401,1,2,0:2:0:0:
272,270,428488,1,2,0:2:0:0:
323,288,428574,1,2,0:2:0:0:
299,326,428660,5,8,0:3:0:0:
266,317,428746,1,2,0:2:0:0:
277,285,428833,1,2,0:2:0:0:
306,295,428919,1,2,0:2:0:0:
293,316,429005,5,2,0:2:0:0:
277,312,429091,1,2,0:2:0:0:
281,296,429178,1,4,0:3:0:0:
299,300,429264,1,2,0:2:0:0:
168,338,429350,6,0,B|77:353|50:264|50:264|150:262|170:188|170:188|113:142|145:80,1,431.25,6|0,3:2|0:2,0:2:0:0:
381,206,429695,2,0,B|439:275|376:343|376:343|324:258|250:277|250:277|239:351|168:354,1,431.25,10|0,0:2|0:2,0:2:0:0:
167,87,430039,2,0,B|198:1|288:22|288:22|240:109|294:164|294:164|363:137|401:196,1,431.25,2|0,0:2|0:2,0:2:0:0:
326,378,430384,6,0,L|30:333,1,287.5,6|0,3:2|0:2,0:2:0:0:
3,252,430643,2,0,L|221:218,1,143.75,2|0,3:2|0:2,0:2:0:0:
170,141,430815,5,0,3:2:0:0:
123,108,430901,1,0,3:2:0:0:
72,134,430988,1,0,3:2:0:0:
27,114,431074,6,0,P|20:44|56:5,1,86.2500032901765,10|2,0:2|0:2,0:2:0:0:
38,31,431332,1,0,0:0:0:0:
51,31,431419,2,0,L|181:11,1,129.375004935265,2|0,0:2|0:2,0:2:0:0:
257,0,431763,6,0,L|246:74,1,43.1250016450883,2|0,0:2|0:2,0:2:0:0:
145,285,431936,6,0,B|124:238|33:201|33:201|127:224|179:191,1,287.5,6|0,3:2|0:2,0:2:0:0:
382,246,432195,2,0,B|403:293|494:330|494:330|400:307|347:339,1,287.5,6|0,3:2|0:2,0:2:0:0:
266,261,432453,5,10,0:2:0:0:
266,261,432626,5,2,1:2:0:0:
268,243,432712,1,2,1:2:0:0:
271,225,432798,1,2,1:2:0:0:
274,207,432884,1,2,1:2:0:0:
277,189,432970,1,2,1:2:0:0:
193,301,433143,6,0,B|156:330|113:304|113:304|81:345|81:345|39:324|-8:353,1,215.625008225441,2|0,3:2|0:2,0:2:0:0:
0,364,433660,1,2,0:2:0:0:
46,103,433832,6,0,B|82:100|111:131|111:131|106:59|155:18|221:20|221:20|242:79|309:89|309:89|275:75|271:38,1,431.250016450883,14|0,0:2|0:2,0:2:0:0:
282,36,434350,1,2,0:2:0:0:
429,59,434522,5,2,1:2:0:0:
431,51,434608,1,2,1:2:0:0:
433,43,434695,1,2,1:2:0:0:
435,35,434781,1,2,1:2:0:0:
511,105,434867,6,0,P|384:152|313:318,1,258.75000987053,6|0,3:2|0:2,0:2:0:0:
133,170,435212,2,0,P|260:217|331:383,1,258.75000987053,10|0,0:2|0:2,0:2:0:0:
460,288,435557,2,0,P|371:320|322:435,1,172.500006580353,2|0,0:2|0:2,0:2:0:0:
260,37,435901,6,0,P|169:135|70:22,1,258.75000987053,6|0,3:2|0:2,0:2:0:0:
0,246,436246,2,0,P|46:187|116:212,1,86.2500032901765,2|0,0:2|0:2,0:2:0:0:
106,246,436419,1,8,0:2:0:0:
108,371,436591,5,2,0:2:0:0:
105,362,436677,2,0,P|65:329|12:346,1,86.2500032901765,2|0,0:2|0:2,0:2:0:0:
469,176,436936,6,0,B|424:144|365:154|365:154|346:206|310:228|310:228|265:192|195:210|195:210|226:289|126:351,1,431.250016450883,6|0,3:2|0:2,0:2:0:0:
166,308,437453,1,8,0:2:0:0:
72,65,437626,6,0,B|41:86|29:131|29:131|120:162|189:85,1,258.75000987053,6|0,3:2|0:2,0:2:0:0:
388,64,437970,2,0,B|418:42|430:-2|430:-2|339:-33|270:43,1,258.75000987053,10|0,0:2|0:2,0:2:0:0:
271,137,438315,5,2,1:2:0:0:
279,170,438401,1,2,1:2:0:0:
287,203,438488,1,2,1:2:0:0:
295,237,438574,1,2,1:2:0:0:
312,324,438660,6,0,B|455:353|383:245|545:265,1,230,6|0,3:2|0:2,0:2:0:0:
345,240,439177,1,2,0:2:0:0:
150,384,439350,2,0,P|99:325|128:155,1,230,10|0,0:2|0:2,0:2:0:0:
168,114,439867,1,2,0:2:0:0:
168,114,440039,6,0,P|145:38|18:81,1,230,2|0,0:2|3:2,0:2:0:0:
20,83,440557,1,0,0:2:0:0:
206,204,440729,5,10,0:2:0:0:
239,196,440815,1,0,3:2:0:0:
272,188,440901,1,0,3:2:0:0:
306,180,440988,1,8,0:2:0:0:
412,45,441160,5,0,3:2:0:0:
379,37,441246,1,8,0:2:0:0:
346,29,441332,1,8,0:2:0:0:
266,24,441419,6,0,B|270:90|270:90|279:98|279:98|305:334|305:334|352:369,1,345.000013160706,6|0,3:2|0:2,0:2:0:0:
24,384,442453,6,0,B|28:317|28:317|37:309|37:309|63:73|63:73|110:38,1,345.000013160706,6|0,3:2|0:2,0:2:0:0:
86,56,443717,6,0,B|107:33|107:33|238:52,1,115.000004386902,6|0,3:2|0:2,0:2:0:0:
201,309,443947,2,0,B|222:332|222:332|353:313,1,115.000004386902,6|0,3:2|0:2,0:2:0:0:
369,73,444177,2,0,L|425:68,22,43.1250016450883,6|0|0|0|0|0|0|0|0|0|0|0|0|0|0|0|0|0|0|0|0|0|0,1:2|1:2|1:2|1:2|1:2|1:2|1:2|1:2|1:2|1:2|1:2|1:2|1:2|1:2|1:2|1:2|1:2|1:2|1:2|1:2|1:2|1:2|1:2,1:2:0:0:
468,18,445212,6,0,B|357:65|357:65|444:277,1,345.000013160706,6|0,3:2|0:2,0:2:0:0:
126,106,445786,6,0,P|29:14|-33:52,1,115.000004386902,6|0,3:2|0:2,0:2:0:0:
297,175,446016,2,0,P|425:136|423:64,1,115.000004386902,6|0,3:2|0:2,0:2:0:0:
151,288,446246,2,0,P|119:418|183:452,1,115.000004386902,6|0,3:2|0:2,0:2:0:0:
197,198,446591,5,8,1:2:0:0:
197,198,446677,1,0,1:2:0:0:
197,198,446763,1,0,1:2:0:0:
197,198,446850,1,0,1:2:0:0:
270,152,446936,6,0,B|310:129|310:129|387:158|387:158|462:128,1,172.500006580353,14|0,3:2|0:2,0:2:0:0:
495,55,447195,2,0,B|461:61|461:61|457:138,1,86.2500032901765,10|0,3:2|0:2,0:2:0:0:
485,327,447367,1,10,3:2:0:0:
432,239,447453,6,0,B|492:217|492:217|522:360|522:360|459:303,1,258.75000987053,10|0,3:2|0:2,0:2:0:0:
485,327,448143,1,2,0:2:0:0:
259,136,448315,6,0,P|170:145|166:258,1,172.500006580353,10|0,3:2|0:2,0:2:0:0:
194,284,448574,2,0,P|133:306|89:237,1,86.2500032901765,10|0,3:2|0:2,0:2:0:0:
230,214,448746,1,10,3:2:0:0:
276,280,448832,6,0,P|290:330|264:378,1,86.2500032901765,10|0,3:2|0:2,0:2:0:0:
230,214,449005,1,10,3:2:0:0:
288,287,449091,6,0,P|343:231|410:218,1,129.375004935265,10|0,3:2|0:2,0:2:0:0:
404,234,449522,1,2,0:2:0:0:
384,15,449695,6,0,L|183:57,1,172.500006580353,10|0,3:2|0:2,0:2:0:0:
113,63,449953,2,0,P|140:30|193:24,1,86.2500032901765,10|0,3:2|0:2,0:2:0:0:
170,134,450126,1,10,3:2:0:0:
83,146,450212,6,0,B|56:215|56:215|94:311|94:311|150:214,1,258.75000987053,10|0,3:2|0:2,0:2:0:0:
142,232,450901,1,2,0:2:0:0:
490,217,451074,6,0,P|437:148|292:153,1,172.500006580353,10|0,3:2|0:2,0:2:0:0:
287,169,451332,2,0,P|386:196|398:178,1,86.2500032901765,10|0,3:2|0:2,0:2:0:0:
323,15,451505,1,10,3:2:0:0:
276,84,451591,6,0,P|231:103|174:68,1,86.2500032901765,10|0,3:2|0:2,0:2:0:0:
20,86,451763,1,10,3:2:0:0:
78,145,451850,6,0,B|119:125|119:125|91:38,1,129.375004935265,10|0,3:2|0:2,0:2:0:0:
104,31,452281,1,2,0:2:0:0:
191,283,452453,6,0,P|124:351|59:331,1,172.500006580353,10|0,3:2|0:2,0:2:0:0:
26,256,452712,2,0,P|50:313|85:319,1,86.2500032901765,10|0,3:2|0:2,0:2:0:0:
270,228,452884,1,10,3:2:0:0:
271,324,452970,6,0,B|289:365|289:365|348:290|322:215|322:215|255:232,1,258.75000987053,10|0,3:2|0:2,0:2:0:0:
54,32,453832,6,0,P|116:106|196:149,1,172.500006580353,10|0,3:2|0:2,0:2:0:0:
247,96,454091,2,0,P|254:64|307:27,1,86.2500032901765,10|0,3:2|0:2,0:2:0:0:
385,33,454263,1,10,3:2:0:0:
343,112,454350,6,0,P|424:160|448:211,1,86.2500032901765,10|0,3:2|0:2,0:2:0:0:
464,314,454522,1,10,3:2:0:0:
509,244,454608,6,0,P|414:246|391:359,1,215.625008225441,10|0,3:2|0:2,0:2:0:0:
169,363,455212,6,0,P|220:286|131:184,1,172.500006580353,10|0,3:2|0:2,0:2:0:0:
247,302,455470,2,0,P|235:220|163:179,1,172.500006580353,10|8,3:2|3:2,0:2:0:0:
149,189,455729,1,10,3:2:0:0:
145,205,455815,1,10,3:2:0:0:
238,186,455901,6,0,B|351:168|263:92|417:79,1,172.500006580353,8|0,3:2|0:2,0:2:0:0:
487,156,456160,2,0,B|374:138|462:62|308:49,1,172.500006580353,10|10,3:2|3:2,0:2:0:0:
341,47,456419,2,0,P|394:32|426:75,1,86.2500032901765,10|10,3:2|3:2,0:2:0:0:
490,247,456591,5,10,3:2:0:0:
480,271,456677,1,10,3:2:0:0:
467,293,456763,1,10,3:2:0:0:
451,313,456849,1,10,3:2:0:0:
431,329,456935,1,10,3:2:0:0:
408,342,457022,1,10,3:2:0:0:
384,351,457108,1,10,3:2:0:0:
359,356,457194,1,10,3:2:0:0:
333,356,457280,1,10,3:2:0:0:
307,352,457366,1,10,3:2:0:0:
283,344,457453,1,10,3:2:0:0:
260,331,457539,1,10,3:2:0:0:
240,315,457625,1,10,3:2:0:0:
223,296,457711,1,10,3:2:0:0:
211,273,457798,1,10,3:2:0:0:
208,247,457884,1,10,3:2:0:0:
215,222,457970,6,8,P|209:175|191:161,1,43.1250016450883,8|8,1:2|1:2,1:2:0:0:
234,195,458057,2,8,P|216:151|195:142,1,43.1250016450883,8|8,1:2|1:2,1:2:0:0:
245,164,458143,2,8,P|216:126|193:123,1,43.1250016450883,8|8,1:2|1:2,1:2:0:0:
247,131,458229,2,8,P|209:102|186:104,1,43.1250016450883,8|8,1:2|1:2,1:2:0:0:
240,98,458315,2,8,P|196:79|175:88,1,43.1250016450883,8|8,1:2|1:2,1:2:0:0:
224,68,458401,2,8,P|177:61|158:75,1,43.1250016450883,8|8,1:2|1:2,1:2:0:0:
201,43,458488,2,8,P|154:48|139:67,1,43.1250016450883,8|8,1:2|1:2,1:2:0:0:
172,24,458574,2,8,P|128:41|119:62,1,43.1250016450883,8|8,1:2|1:2,1:2:0:0:
139,13,458660,2,8,P|101:41|98:64,1,43.1250016450883,8|8,1:2|1:2,1:2:0:0:
104,10,458746,2,8,P|75:47|77:70,1,43.1250016450883,8|8,1:2|1:2,1:2:0:0:
69,16,458832,2,8,P|50:59|59:80,1,43.1250016450883,8|8,1:2|1:2,1:2:0:0:
36,30,458919,2,8,P|29:76|43:95,1,43.1250016450883,8|8,1:2|1:2,1:2:0:0:
13,65,459005,6,0,P|16:100|40:127,5,57.500002193451,2|2|2|2|2|2,0:2|0:2|0:2|0:2|0:2|0:2,0:2:0:0:
0,209,459350,6,0,B|49:154|49:154|191:176,1,206.999993682861,6|0,3:2|0:2,0:2:0:0:
270,179,459695,6,0,P|316:89|216:90,1,241.499992630005,2|0,0:2|0:2,0:2:0:0:
267,270,460039,6,0,B|454:274|318:167|446:144|523:154|533:227|502:273,1,345,10|2,0:0|0:2,0:2:0:0:
499,275,460643,1,2,0:2:0:0:
484,284,460729,1,2,0:2:0:0:
512,109,461074,6,0,P|428:97|397:111,1,86.2500032901765,0|2,3:2|0:2,0:2:0:0:
320,164,461419,2,0,P|323:78|357:0,1,172.500006580353,8|2,0:2|0:2,0:2:0:0:
381,3,461936,1,2,0:2:0:0:
301,150,462108,6,0,B|216:122|216:122|211:113|211:113|111:83|111:83|56:130,1,258.75000987053,2|0,3:2|0:2,0:2:0:0:
31,271,462453,6,0,P|91:253|99:203,1,86.2500032901765,2|0,0:3|0:2,0:2:0:0:
131,190,462626,2,0,P|135:232|108:264,1,86.2500032901765,2|0,0:3|0:2,0:2:0:0:
211,337,462798,6,0,P|240:281|211:240,1,74.7499965782167,10|0,0:3|0:2,0:2:0:0:
243,225,462971,2,0,P|260:248|260:277,1,57.5,2|0,0:3|0:2,0:2:0:0:
358,360,463143,6,0,P|440:348|418:203,1,258.75000987053,2|0,0:3|0:2,0:2:0:0:
447,36,463832,6,0,P|438:95|399:117,1,86.2500032901765,0|2,3:2|0:2,0:2:0:0:
180,72,464177,2,0,P|292:53|373:44,1,172.500006580353,8|2,0:2|0:2,0:2:0:0:
230,384,464695,1,2,0:2:0:0:
230,384,464781,1,2,0:2:0:0:
230,384,464867,6,0,B|288:351|288:351|258:202,1,206.999993682861,2|0,3:2|0:2,0:2:0:0:
140,206,465212,6,0,B|290:263|236:113|398:171,1,241.499992630005,2|0,0:2|0:2,0:2:0:0:
506,207,465557,6,0,P|408:202|441:16,1,345,10|2,0:2|0:2,0:2:0:0:
458,18,466160,1,2,0:2:0:0:
469,30,466246,1,2,0:2:0:0:
198,174,466591,6,0,P|131:171|98:135,1,86.2500032901765,0|2,3:2|0:2,0:2:0:0:
33,23,466936,2,0,P|89:10|182:93,1,172.500006580353,8|2,0:2|0:2,0:2:0:0:
175,93,467453,1,2,0:2:0:0:
400,65,467626,6,0,B|299:90|299:90|286:152|286:152|185:177,1,258.75000987053,2|0,3:2|0:2,0:2:0:0:
108,174,467970,6,0,P|85:214|125:283,1,86.2500032901765,2|0,0:3|0:2,0:2:0:0:
288,369,468143,2,0,P|311:329|271:260,1,86.2500032901765,2|0,0:3|0:2,0:2:0:0:
119,243,468315,6,0,P|131:288|208:309,1,74.7499965782167,10|0,0:3|0:2,0:2:0:0:
284,297,468488,2,0,P|273:260|208:242,1,57.5,2|0,0:3|0:2,0:2:0:0:
168,298,468660,6,0,P|292:321|399:254,1,258.75000987053,2|0,0:3|0:2,0:2:0:0:
491,227,469350,2,0,P|493:269|476:309,1,86.2500032901765,0|2,3:2|0:2,0:2:0:0:
196,103,469695,6,0,P|307:164|505:-4,1,413.999987365723,8|2,0:2|0:2,0:2:0:0:
488,9,470298,1,2,0:2:0:0:
503,129,470384,5,6,3:2:0:0:
