osu file format v14

[General]
AudioFilename: audio.mp3
AudioLeadIn: 0
PreviewTime: 216978
Countdown: 0
SampleSet: Normal
StackLeniency: 0.7
Mode: 0
LetterboxInBreaks: 0
WidescreenStoryboard: 1

[Editor]
Bookmarks: 110178,116178,216978,293778
DistanceSpacing: 1.2
BeatDivisor: 4
GridSize: 4
TimelineZoom: 2.1

[Metadata]
Title:Literal Crystal In The Cyphisonia
TitleUnicode:Literal Crystal In The Cyphisonia
Artist:Camellia
ArtistUnicode:Camellia
Creator:VezAgera
Version:Kiai Remap
Source:
Tags:
BeatmapID:1342482
BeatmapSetID:528729

[Difficulty]
HPDrainRate:5.3
CircleSize:4.1
OverallDifficulty:8.5
ApproachRate:9.7
SliderMultiplier:1.4
SliderTickRate:1

[Events]
//Background and Video events
0,0,"8f0e3272b410a64afacc88ebbd94fcd2.jpg",0,0
//Break Periods
2,255578,264483
//Storyboard Layer 0 (Background)
//Storyboard Layer 1 (Fail)
//Storyboard Layer 2 (Pass)
//Storyboard Layer 3 (Foreground)
//Storyboard Sound Samples

[TimingPoints]
24682.8641556832,300,4,1,0,100,1,0
24982,300,4,1,0,100,1,0
110178,-66.6666666666667,4,1,0,100,0,0
111378,300,4,1,0,100,1,0
111378,-66.6666666666667,4,1,0,100,0,0
112578,-66.6666666666667,4,1,0,100,0,0
113778,-66.6666666666667,4,1,0,100,0,0
114978,-66.6666666666667,4,1,0,100,0,0
116178,-66.6666666666667,4,1,0,100,0,0
116628,-66.6666666666667,4,1,0,100,0,0
216978,-58.8235294117647,4,1,0,100,0,1
255378,-58.8235294117647,4,1,0,100,0,0
264978,-100,4,1,0,100,0,0
269778,-58.8235294117647,4,1,0,100,0,0
273978,-50,4,1,0,100,0,0
274578,-58.8235294117647,4,1,0,100,0,1
293778,-66.6666666666667,4,1,0,100,0,0

[Colours]
Combo1 : 251,185,64
Combo2 : 255,255,255
Combo3 : 208,194,21
Combo4 : 128,128,192
Combo5 : 192,192,192

[HitObjects]
164,28,216978,6,0,B|184:100,1,59.5000011348725
316,128,217128,2,0,B|243:146,1,59.5000011348725
124,264,217278,6,0,B|140:204|140:204|204:152,1,119.000002269745
258,142,217503,1,0,0:0:0:0:
274,162,217578,2,0,L|282:230,1,59.5000011348725
272,308,217728,6,0,B|292:316|292:316|408:284,1,119.000002269745
232,132,218028,1,0,0:0:0:0:
332,176,218178,5,0,0:0:0:0:
374,216,218253,1,0,0:0:0:0:
385,274,218328,1,0,0:0:0:0:
361,327,218403,1,0,0:0:0:0:
312,356,218478,2,0,B|280:364|280:364|224:344,1,59.5000011348725
196,188,218628,2,0,B|232:184|232:184|276:204,1,59.5000011348725
316,240,218778,5,0,0:0:0:0:
276,12,218928,1,0,0:0:0:0:
364,164,219078,1,0,0:0:0:0:
96,104,219228,1,0,0:0:0:0:
112,180,219378,6,0,B|144:160|144:160|164:124,1,59.5000011348725
208,32,219528,1,0,0:0:0:0:
64,108,219678,6,0,B|32:172|32:172|40:236,1,119.000002269745
88,296,219903,1,0,0:0:0:0:
112,280,219978,2,0,L|136:204,1,59.5000011348725
156,120,220128,6,0,B|204:168|204:168|268:180,1,119.000002269745
356,196,220428,1,0,0:0:0:0:
356,48,220578,6,0,B|330:57|330:57|306:77,1,59.5000011348725
159,48,220728,2,0,B|186:57|186:57|210:77,1,59.5000011348725
415,32,220878,2,0,B|374:46|374:46|337:77,1,59.5000011348725
108,32,221028,2,0,B|150:46|150:46|187:77,1,59.5000011348725
232,104,221178,5,0,0:0:0:0:
257,118,221253,1,0,0:0:0:0:
286,125,221328,1,0,0:0:0:0:
316,123,221403,1,0,0:0:0:0:
344,116,221478,5,0,0:0:0:0:
306,161,221553,1,0,0:0:0:0:
291,218,221628,1,0,0:0:0:0:
301,276,221703,1,0,0:0:0:0:
336,320,221778,2,0,B|296:332|296:332|248:320,1,59.5000011348725
124,232,221928,2,0,B|164:220|164:220|212:232,1,59.5000011348725
296,184,222078,6,0,B|320:120|320:120|272:24,1,119.000002269745
376,128,222303,1,0,0:0:0:0:
392,152,222378,2,0,L|368:220,1,59.5000011348725
344,328,222528,6,0,B|284:328|284:328|224:272,1,119.000002269745
248,264,222753,1,0,0:0:0:0:
248,264,222828,1,0,0:0:0:0:
388,144,222978,6,0,B|388:208|388:208|332:264,1,119.000002269745
168,264,223278,2,0,B|240:284|240:284|272:340,1,119.000002269745
96,328,223578,5,0,0:0:0:0:
296,236,223728,1,0,0:0:0:0:
196,364,223878,5,0,0:0:0:0:
56,132,224028,1,0,0:0:0:0:
92,264,224178,6,0,L|144:200,1,59.5000011348725
216,112,224328,1,0,0:0:0:0:
316,240,224478,6,0,B|252:224|252:224|216:176,1,119.000002269745
168,124,224703,5,0,0:0:0:0:
168,124,224778,2,0,B|132:144|132:144|112:184,1,59.5000011348725
80,320,224928,2,0,B|144:296|144:296|168:248,1,119.000002269745
284,352,225228,1,0,0:0:0:0:
236,248,225378,6,0,B|248:188|248:188|316:144,1,119.000002269745
384,244,225603,1,0,0:0:0:0:
384,244,225678,2,0,L|308:224,1,59.5000011348725
112,164,225828,1,0,0:0:0:0:
112,164,225903,2,0,B|176:144|176:144|248:168,1,119.000002269745
320,228,226128,5,0,0:0:0:0:
337,283,226203,1,0,0:0:0:0:
316,338,226278,1,0,0:0:0:0:
266,367,226353,1,0,0:0:0:0:
208,360,226428,1,0,0:0:0:0:
216,332,226503,1,0,0:0:0:0:
224,304,226578,2,0,L|308:264,1,59.5000011348725
124,240,226728,2,0,L|108:172,1,59.5000011348725
164,56,226878,2,0,B|208:104|208:104|208:208,1,119.000002269745
152,232,227103,5,0,0:0:0:0:
152,232,227178,2,0,L|240:232,1,59.5000011348725
376,232,227328,2,0,B|408:176|408:176|384:108,1,119.000002269745
448,308,227628,5,0,0:0:0:0:
292,224,227778,2,0,B|256:280|256:280|276:352,1,119.000002269745
332,140,228078,5,0,0:0:0:0:
136,192,228228,1,0,0:0:0:0:
136,192,228303,1,0,0:0:0:0:
136,192,228378,2,0,B|144:152|144:152|188:112,1,59.5000011348725
248,256,228528,2,0,B|240:296|240:296|196:336,1,59.5000011348725
56,304,228678,6,0,P|88:336|136:340,1,59.5000011348725
324,208,228828,2,0,P|324:253|292:290,1,59.5000011348725
236,180,228978,6,0,L|264:128,1,59.5000011348725
364,328,229128,2,0,L|440:312,1,59.5000011348725
432,156,229278,6,0,B|388:204|388:204|304:208,1,119.000002269745
236,180,229503,5,0,0:0:0:0:
236,180,229578,2,0,L|264:256,1,59.5000011348725
324,376,229728,2,0,B|348:320|348:320|332:240,1,119.000002269745
188,284,230028,5,0,0:0:0:0:
288,164,230178,2,0,B|344:140|344:140|404:168,1,119.000002269745
288,296,230478,2,0,B|232:320|232:320|172:292,1,119.000002269745
92,248,230778,6,0,L|104:168,1,59.5000011348725
164,104,230928,2,0,L|172:196,1,59.5000011348725
204,236,231078,1,0,0:0:0:0:
263,234,231153,1,0,0:0:0:0:
322,233,231228,1,0,0:0:0:0:
382,232,231303,1,0,0:0:0:0:
440,232,231378,1,0,0:0:0:0:
448,252,231453,1,0,0:0:0:0:
456,272,231528,2,0,L|432:180,1,59.5000011348725
300,44,231678,2,0,B|296:108|296:108|352:180,1,119.000002269745
408,184,231903,5,0,0:0:0:0:
416,212,231978,2,0,L|364:288,1,59.5000011348725
256,320,232128,2,0,B|268:264|268:264|328:224,1,119.000002269745
336,152,232353,5,0,0:0:0:0:
336,116,232428,2,0,L|300:68,1,59.5000011348725
180,28,232578,2,0,B|160:88|160:88|216:168,1,119.000002269745
264,216,232803,5,0,0:0:0:0:
300,220,232878,2,0,L|352:184,1,59.5000011348725
464,104,233028,1,0,0:0:0:0:
256,140,233178,1,0,0:0:0:0:
424,280,233328,1,0,0:0:0:0:
340,76,233478,1,0,0:0:0:0:
248,280,233628,1,0,0:0:0:0:
168,120,233778,6,0,L|252:160,1,59.5000011348725
360,208,233928,2,0,B|416:176|416:176|424:112,1,119.000002269745
372,52,234153,5,0,0:0:0:0:
312,53,234228,1,0,0:0:0:0:
253,55,234303,1,0,0:0:0:0:
196,56,234378,2,0,L|148:112,1,59.5000011348725
88,260,234528,2,0,B|148:232|148:232|180:176,1,119.000002269745
256,136,234753,5,0,0:0:0:0:
280,160,234828,2,0,L|296:228,1,59.5000011348725
372,320,234978,6,0,B|392:280|392:280|368:164,1,119.000002269745
304,68,235278,6,0,B|276:64|276:64|216:88,1,59.5000011348725
104,152,235428,2,0,B|144:204|144:204|232:220,1,119.000002269745
312,240,235728,5,0,0:0:0:0:
341,245,235803,1,0,0:0:0:0:
370,251,235878,1,0,0:0:0:0:
348,306,235953,1,0,0:0:0:0:
301,340,236028,1,0,0:0:0:0:
242,343,236103,1,0,0:0:0:0:
191,315,236178,2,0,B|184:248|184:248|224:168,1,119.000002269745
352,124,236478,1,0,0:0:0:0:
320,292,236628,6,0,B|306:275|306:275|294:239,1,59.5000011348725
348,128,236778,2,0,B|336:92|336:92|322:75,1,59.5000011348725
184,4,236928,2,0,B|184:68|184:68|228:132,1,119.000002269745
280,160,237228,5,0,0:0:0:0:
280,160,237303,1,0,0:0:0:0:
280,160,237378,1,0,0:0:0:0:
338,158,237453,1,0,0:0:0:0:
391,185,237528,1,0,0:0:0:0:
422,235,237603,1,0,0:0:0:0:
423,294,237678,1,0,0:0:0:0:
394,345,237753,1,0,0:0:0:0:
343,377,237828,6,0,B|335:281,1,59.5000011348725
252,144,237978,2,0,B|288:200|288:200|276:276,1,119.000002269745
216,368,238278,5,0,0:0:0:0:
292,80,238428,1,0,0:0:0:0:
184,200,238578,6,0,B|148:180|148:180|132:144,1,59.5000011348725
168,56,238728,2,0,B|204:76|204:76|220:112,1,59.5000011348725
264,204,238878,2,0,B|256:236|256:236|188:300,1,119.000002269745
324,264,239103,5,0,0:0:0:0:
340,264,239178,2,0,L|400:192,1,59.5000011348725
456,60,239328,2,0,B|388:56|388:56|312:116,1,119.000002269745
296,144,239553,5,0,0:0:0:0:
272,172,239628,2,0,B|228:152|228:152|208:128,1,59.5000011348725
136,104,239778,2,0,B|112:160|112:160|44:200,1,119.000002269745
160,16,240078,6,0,B|192:8|192:8|232:20,1,59.5000011348725
52,80,240228,6,0,B|29:56|29:56|19:15,1,59.5000011348725
156,148,240378,6,0,B|146:179|146:179|116:208,1,59.5000011348725
60,280,240528,5,0,0:0:0:0:
115,299,240603,1,0,0:0:0:0:
174,291,240678,1,0,0:0:0:0:
227,266,240753,1,0,0:0:0:0:
285,256,240828,1,0,0:0:0:0:
342,272,240903,1,0,0:0:0:0:
352,288,240978,2,0,L|368:216,1,59.5000011348725
444,192,241128,2,0,L|428:120,1,59.5000011348725
480,328,241278,2,0,B|432:368|432:368|324:364,1,119.000002269745
296,356,241503,5,0,0:0:0:0:
280,332,241578,2,0,L|308:256,1,59.5000011348725
348,136,241728,2,0,B|296:164|296:164|228:160,1,119.000002269745
144,132,241953,5,0,0:0:0:0:
112,112,242028,2,0,L|84:192,1,59.5000011348725
64,344,242178,2,0,B|104:304|104:304|120:240,1,119.000002269745
160,88,242478,6,0,L|184:192,1,59.5000011348725
232,296,242628,2,0,L|244:220,1,59.5000011348725
312,80,242778,6,0,B|344:140|344:140|332:228,1,119.000002269745
240,280,243078,1,0,0:0:0:0:
392,60,243228,1,0,0:0:0:0:
444,184,243378,6,0,L|364:168,1,59.5000011348725
248,136,243528,1,0,0:0:0:0:
240,8,243678,6,0,B|284:32|284:32|312:104,1,119.000002269745
272,212,243903,5,0,0:0:0:0:
252,240,243978,2,0,L|180:180,1,59.5000011348725
56,120,244128,2,0,B|80:180|80:180|128:208,1,119.000002269745
220,320,244353,5,0,0:0:0:0:
220,320,244428,2,0,L|244:256,1,59.5000011348725
292,76,244578,2,0,B|252:128|252:128|268:232,1,119.000002269745
336,248,244803,5,0,0:0:0:0:
336,248,244878,2,0,L|353:181,1,59.5000011348725
405,23,245028,2,0,B|384:88|384:88|332:133,1,119.000002269745
236,184,245328,5,0,0:0:0:0:
183,210,245403,1,0,0:0:0:0:
152,260,245478,1,0,0:0:0:0:
153,319,245553,1,0,0:0:0:0:
185,368,245628,1,0,0:0:0:0:
204,348,245703,1,0,0:0:0:0:
220,332,245778,6,0,P|264:300|296:296,1,59.5000011348725
112,260,245928,2,0,P|114:230|107:201,1,59.5000011348725
192,32,246078,2,0,B|216:92|216:92|196:176,1,119.000002269745
204,240,246303,5,0,0:0:0:0:
204,240,246378,2,0,L|256:208,1,59.5000011348725
424,144,246528,2,0,B|388:200|388:200|304:220,1,119.000002269745
440,256,246753,5,0,0:0:0:0:
440,256,246828,2,0,L|388:288,1,59.5000011348725
272,356,246978,2,0,B|240:304|240:304|252:220,1,119.000002269745
256,124,247203,5,0,0:0:0:0:
256,124,247278,2,0,L|288:196,1,59.5000011348725
160,316,247428,2,0,L|128:244,1,59.5000011348725
96,200,247578,5,0,0:0:0:0:
304,244,247728,1,0,0:0:0:0:
268,52,247878,1,0,0:0:0:0:
176,312,248028,2,0,B|240:308|240:308|328:340,1,119.000002269745
368,344,248253,5,0,0:0:0:0:
368,344,248328,2,0,L|376:268,1,59.5000011348725
388,144,248478,2,0,B|328:160|328:160|272:144,1,119.000002269745
176,128,248703,5,0,0:0:0:0:
176,128,248778,2,0,L|192:200,1,59.5000011348725
196,368,248928,2,0,B|212:312|212:312|176:252,1,119.000002269745
276,340,249153,5,0,0:0:0:0:
276,340,249228,2,0,L|296:256,1,59.5000011348725
360,136,249378,2,0,B|378:219|378:219|351:274,1,119.000002269745
160,128,249678,2,0,B|141:44|141:44|168:-10,1,119.000002269745
219,53,249978,6,0,B|236:76|236:76|271:93,1,59.5000011348725
244,216,250128,2,0,B|269:229|269:229|288:256,1,59.5000011348725
352,360,250278,1,0,0:0:0:0:
384,310,250353,1,0,0:0:0:0:
397,252,250428,1,0,0:0:0:0:
389,194,250503,1,0,0:0:0:0:
360,142,250578,1,0,0:0:0:0:
280,60,250728,5,0,0:0:0:0:
164,284,250878,1,0,0:0:0:0:
156,168,251028,6,0,L|224:176,1,59.5000011348725
328,188,251178,1,0,0:0:0:0:
240,32,251328,1,0,0:0:0:0:
408,120,251478,6,0,L|328:124,1,59.5000011348725
224,132,251628,1,0,0:0:0:0:
396,272,251778,1,0,0:0:0:0:
280,304,251928,6,0,L|320:220,1,59.5000011348725
392,92,252078,5,0,0:0:0:0:
256,244,252228,1,0,0:0:0:0:
432,264,252378,1,0,0:0:0:0:
276,104,252528,5,0,0:0:0:0:
352,304,252678,1,0,0:0:0:0:
448,116,252828,1,0,0:0:0:0:
356,200,252978,6,0,L|300:148,1,59.5000011348725
200,48,253128,1,0,0:0:0:0:
192,308,253278,1,0,0:0:0:0:
248,128,253428,5,0,0:0:0:0:
248,128,253503,1,0,0:0:0:0:
248,128,253578,1,0,0:0:0:0:
128,268,253728,1,0,0:0:0:0:
284,352,253878,2,0,L|304:264,1,59.5000011348725
404,304,254028,2,0,L|424:224,1,59.5000011348725
444,128,254178,5,0,0:0:0:0:
393,99,254253,1,0,0:0:0:0:
334,102,254328,1,0,0:0:0:0:
285,134,254403,1,0,0:0:0:0:
244,172,254478,5,0,0:0:0:0:
196,205,254553,1,0,0:0:0:0:
137,208,254628,1,0,0:0:0:0:
86,179,254703,1,0,0:0:0:0:
40,144,254778,2,0,L|52:224,1,59.5000011348725
116,244,254928,2,0,L|132:324,1,59.5000011348725
196,360,255078,5,0,0:0:0:0:
249,318,255153,1,0,0:0:0:0:
274,255,255228,1,0,0:0:0:0:
266,188,255303,1,0,0:0:0:0:
225,134,255378,1,0,0:0:0:0:
189,134,264978,5,0,0:0:0:0:
189,134,265128,2,0,P|192:176|176:216,1,70
112,288,265578,2,0,P|154:285|194:301,1,70
260,340,265878,5,0,0:0:0:0:
296,236,266028,1,0,0:0:0:0:
400,264,266178,1,0,0:0:0:0:
400,264,266328,2,0,L|416:180,1,70
384,32,266778,2,0,L|372:116,1,70
332,260,267078,5,0,0:0:0:0:
260,168,267228,1,0,0:0:0:0:
184,72,267378,1,0,0:0:0:0:
100,196,267528,2,0,P|108:236|96:276,1,70
96,104,267828,5,0,0:0:0:0:
192,252,267978,2,0,P|200:292|188:332,1,70
116,232,268278,6,0,P|152:184|176:176,1,70
264,332,268578,2,0,P|228:380|204:388,1,70
159,180,268878,6,0,P|231:164|255:180,1,105
131,244,269178,2,0,P|103:220|91:160,1,70
207,236,269403,2,0,P|207:268|195:284,1,35
156,144,269628,5,0,0:0:0:0:
184,240,269778,5,0,0:0:0:0:
226,280,269853,1,0,0:0:0:0:
284,284,269928,1,0,0:0:0:0:
331,250,270003,1,0,0:0:0:0:
348,200,270078,2,0,P|368:184|424:168,3,59.5000011348725
396,256,270378,5,0,0:0:0:0:
341,276,270453,1,0,0:0:0:0:
290,250,270528,1,0,0:0:0:0:
273,194,270603,1,0,0:0:0:0:
302,145,270678,2,0,P|332:120|380:108,3,59.5000011348725
364,192,270978,5,0,0:0:0:0:
316,227,271053,1,0,0:0:0:0:
258,235,271128,1,0,0:0:0:0:
203,213,271203,1,0,0:0:0:0:
167,167,271278,2,0,P|140:144|76:152,3,59.5000011348725
112,212,271578,5,0,0:0:0:0:
142,269,271653,1,0,0:0:0:0:
198,300,271728,1,0,0:0:0:0:
263,295,271803,1,0,0:0:0:0:
316,256,271878,2,0,P|336:236|384:224,3,59.5000011348725
408,348,272178,22,0,B|396:308|396:308|360:280,1,59.5000011348725
408,36,272328,2,0,B|396:76|396:76|360:104,1,59.5000011348725
304,324,272478,6,0,B|292:289|292:289|256:265,1,59.5000011348725
304,52,272628,2,0,B|292:87|292:87|256:111,1,59.5000011348725
200,332,272778,22,0,B|190:298|190:298|160:275,1,59.5000011348725
200,73,272928,2,0,B|190:106|190:106|160:129,1,59.5000011348725
96,192,273078,6,0,L|112:224,1,29.7500005674362
112,192,273153,2,0,L|128:224,1,29.7500005674362
128,192,273228,2,0,L|144:224,1,29.7500005674362
144,192,273303,2,0,L|160:224,1,29.7500005674362
156,192,273378,21,0,0:0:0:0:
288,100,273528,5,0,0:0:0:0:
317,96,273603,1,0,0:0:0:0:
347,92,273678,1,0,0:0:0:0:
288,232,273828,1,0,0:0:0:0:
258,235,273903,1,0,0:0:0:0:
228,239,273978,6,0,B|192:128|192:128|148:200,1,140
136,312,274278,2,0,B|128:344|128:344|320:316,1,210
332,296,274578,5,0,0:0:0:0:
192,152,274728,1,0,0:0:0:0:
140,352,274878,1,0,0:0:0:0:
380,180,275028,6,0,L|264:204,1,119.000002269745
40,216,275328,2,0,L|168:192,1,119.000002269745
388,188,275628,5,0,0:0:0:0:
192,16,275778,2,0,L|220:156,1,119.000002269745
256,336,276078,5,0,0:0:0:0:
332,196,276228,1,0,0:0:0:0:
332,196,276303,1,0,0:0:0:0:
332,196,276378,2,0,B|268:180|268:180|192:204,1,119.000002269745
88,260,276678,5,0,0:0:0:0:
284,368,276828,1,0,0:0:0:0:
276,112,276978,1,0,0:0:0:0:
208,260,277128,2,0,B|264:284|264:284|348:280,2,119.000002269745
92,228,277578,5,0,0:0:0:0:
244,72,277728,1,0,0:0:0:0:
232,320,277878,2,0,B|260:288|260:288|296:272,1,59.5000011348725
284,184,278028,2,0,B|312:152|312:152|348:136,1,59.5000011348725
424,104,278178,6,0,B|420:192|420:192|384:248,1,119.000002269745
236,336,278478,2,0,B|240:248|240:248|276:192,1,119.000002269745
380,136,278778,5,0,0:0:0:0:
383,165,278853,1,0,0:0:0:0:
386,195,278928,1,0,0:0:0:0:
188,24,279078,1,0,0:0:0:0:
196,288,279228,1,0,0:0:0:0:
308,92,279378,5,0,0:0:0:0:
156,168,279528,1,0,0:0:0:0:
300,244,279678,1,0,0:0:0:0:
344,88,279828,6,0,B|296:116|296:116|276:216,1,119.000002269745
296,288,280128,2,0,B|236:308|236:308|172:280,1,119.000002269745
56,144,280428,5,0,0:0:0:0:
304,176,280578,2,0,B|244:156|244:156|180:184,1,119.000002269745
376,232,280878,2,0,B|396:172|396:172|368:108,1,119.000002269745
252,236,281178,2,0,B|232:296|232:296|260:360,1,119.000002269745
304,72,281478,5,0,0:0:0:0:
80,216,281628,1,0,0:0:0:0:
304,296,281778,1,0,0:0:0:0:
172,120,281928,6,0,B|200:176|200:176|272:204,1,119.000002269745
452,152,282228,2,0,B|424:96|424:96|352:68,1,119.000002269745
384,256,282528,5,0,0:0:0:0:
228,100,282678,1,0,0:0:0:0:
180,324,282828,2,0,B|232:296|232:296|240:236,1,119.000002269745
256,216,283053,1,0,0:0:0:0:
256,216,283128,1,0,0:0:0:0:
144,124,283278,5,0,0:0:0:0:
112,173,283353,1,0,0:0:0:0:
111,232,283428,1,0,0:0:0:0:
141,282,283503,1,0,0:0:0:0:
188,316,283578,2,0,B|248:300|248:300|316:332,1,119.000002269745
400,384,283878,5,0,0:0:0:0:
372,112,284028,1,0,0:0:0:0:
472,356,284178,5,0,0:0:0:0:
216,364,284328,1,0,0:0:0:0:
380,220,284478,1,0,0:0:0:0:
380,220,284553,1,0,0:0:0:0:
380,220,284628,2,0,B|300:216|300:216|256:168,1,119.000002269745
192,40,284928,2,0,B|272:44|272:44|316:92,1,119.000002269745
104,120,285228,5,0,0:0:0:0:
78,104,285303,1,0,0:0:0:0:
60,81,285378,1,0,0:0:0:0:
51,52,285453,1,0,0:0:0:0:
51,23,285528,1,0,0:0:0:0:
188,140,285678,6,0,B|192:208|192:208|144:284,1,119.000002269745
268,92,285978,2,0,B|324:60|324:60|396:80,1,119.000002269745
288,296,286278,5,0,0:0:0:0:
168,120,286428,1,0,0:0:0:0:
384,96,286578,1,0,0:0:0:0:
220,216,286728,6,0,B|128:232|128:232|92:204,1,119.000002269745
320,156,287028,2,0,B|340:220|340:220|300:308,1,119.000002269745
208,96,287328,5,0,0:0:0:0:
208,96,287403,1,0,0:0:0:0:
208,96,287478,2,0,B|188:160|188:160|228:248,1,119.000002269745
292,304,287778,2,0,B|220:288|220:288|152:316,1,119.000002269745
332,368,288078,2,0,B|364:328|364:328|368:208,1,119.000002269745
360,88,288378,5,0,0:0:0:0:
360,88,288453,1,0,0:0:0:0:
360,88,288528,1,0,0:0:0:0:
472,328,288678,1,0,0:0:0:0:
192,280,288828,1,0,0:0:0:0:
312,168,288978,6,0,B|360:124|360:124|288:300,1,238.00000453949
236,364,289428,2,0,B|176:248|176:248|48:232,1,238.00000453949
280,268,289878,2,0,P|352:228|320:88,1,238.00000453949
276,172,290328,2,0,B|172:220|172:220|40:176,1,238.00000453949
144,112,290778,6,0,B|168:152|168:152|160:252,1,119.000002269745
364,253,291078,2,0,B|340:213|340:213|348:113,1,119.000002269745
404,44,291378,6,0,B|356:52|356:52|312:92,1,59.5000011348725
108,44,291528,2,0,B|156:52|156:52|200:92,1,59.5000011348725
384,128,291678,6,0,B|342:136|342:136|304:176,1,59.5000011348725
127,128,291828,2,0,B|168:136|168:136|206:176,1,59.5000011348725
380,212,291978,6,0,B|340:218|340:218|303:251,1,59.5000011348725
134,212,292128,2,0,B|173:218|173:218|210:251,1,59.5000011348725
364,296,292278,6,0,B|329:302|329:302|297:335,1,59.5000011348725
150,296,292428,2,0,B|184:302|184:302|216:335,1,59.5000011348725
396,352,292578,5,0,0:0:0:0:
453,340,292653,1,0,0:0:0:0:
488,294,292728,1,0,0:0:0:0:
484,236,292803,1,0,0:0:0:0:
443,195,292878,1,0,0:0:0:0:
385,191,292953,1,0,0:0:0:0:
339,226,293028,1,0,0:0:0:0:
292,260,293103,1,0,0:0:0:0:
234,272,293178,1,0,0:0:0:0:
175,264,293253,1,0,0:0:0:0:
123,236,293328,1,0,0:0:0:0:
84,192,293403,1,0,0:0:0:0:
64,144,293478,6,0,L|20:156,1,29.7500005674362
64,168,293553,2,0,L|20:180,1,29.7500005674362
64,188,293628,2,0,L|20:200,1,29.7500005674362
64,212,293703,2,0,L|20:224,1,29.7500005674362
64,240,293778,5,0,0:0:0:0:
