osu file format v14

[General]
AudioFilename: audio.mp3
AudioLeadIn: 0
PreviewTime: -13
Countdown: 0
SampleSet: Soft
StackLeniency: 0.6
Mode: 0
LetterboxInBreaks: 0
WidescreenStoryboard: 0

[Editor]
Bookmarks: 1243,8100,14957,20957,23528,28028
DistanceSpacing: 1.5
BeatDivisor: 4
GridSize: 4
TimelineZoom: 6.499996

[Metadata]
Title:Liquated
TitleUnicode:Liquated
Artist:Camellia
ArtistUnicode:Camellia
Creator:Ruruchin
Version:Ru
Source:Camellia
Tags:Beat Kametek Drop
BeatmapID:901621
BeatmapSetID:416200

[Difficulty]
HPDrainRate:6.5
CircleSize:4.3
OverallDifficulty:9.3
ApproachRate:9.6
SliderMultiplier:1.4
SliderTickRate:1

[Events]
//Background and Video events
0,0,"BG.png.jpg",0,0
//Break Periods
//Storyboard Layer 0 (Background)
//Storyboard Layer 1 (Fail)
//Storyboard Layer 2 (Pass)
//Storyboard Layer 3 (Foreground)
//Storyboard Sound Samples

[TimingPoints]
1243,428.571428571429,4,1,0,100,1,0
1243,-108.695652173913,4,2,1,40,0,0
2528,-111.111111111111,4,2,1,40,0,0
2957,-100,4,2,2,20,0,0
4671,-100,4,2,3,60,0,0
6385,-100,4,2,4,20,0,0
7243,-100,4,2,5,40,0,0
8100,-100,4,2,6,40,0,0
9814,-111.111111111111,4,2,2,12,0,0
11528,-100,4,2,2,15,0,0
13243,-100,4,2,4,10,0,0
14100,-100,4,2,5,10,0,0
14957,-107.52688172043,4,2,1,40,0,0
16671,-100,4,2,2,40,0,0
18385,-107.52688172043,4,2,3,40,0,0
20100,-100,4,2,4,40,0,0
20957,-100,4,2,5,40,0,0
21814,-133.333333333333,4,2,1,40,0,0
27814,-133.333333333333,4,2,1,40,0,0
28028,-166.666666666667,4,2,1,40,0,0
28671,-90.9090909090909,4,2,1,40,0,0
31243,-90.9090909090909,4,2,1,40,0,0
33600,-90.9090909090909,4,2,1,40,0,0
35314,-90.9090909090909,4,2,1,40,0,0
37243,-90.9090909090909,4,2,1,40,0,0
39814,-90.9090909090909,4,2,1,40,0,0
44957,-90.9090909090909,4,2,1,40,0,0
55885,-133.333333333333,4,2,1,40,0,0
57600,-90.9090909090909,4,2,1,40,0,0

[HitObjects]
64,248,1243,6,0,B|48:280|56:320|104:344|104:344|152:320|152:264|152:264|192:280|236:264|236:264|280:280|308:264|308:264|323:254,1,386.399987028809,4|0,0:0|0:0,0:0:0:0:
456,112,2957,6,0,B|432:112|392:48|392:48|360:128|344:168|344:168|368:208|360:272|312:280|312:280|280:248|328:208,1,420,4|0,0:0|0:0,0:0:0:0:
80,80,4671,6,0,B|136:40|128:248|320:-32|464:64|360:192|200:80,1,420,4|0,0:0|0:0,0:0:0:0:
80,296,6385,6,0,B|120:320|160:312|160:312|168:280|224:344|280:304,1,210,4|0,0:0|0:0,0:0:0:0:
344,344,7243,2,0,P|344:264|232:240,1,210,4|0,0:0|0:0,0:0:0:0:
384,272,8100,6,0,B|456:240|472:176|472:176|464:88|360:40|384:88|288:96|288:96|328:120,1,420,4|0,0:0|0:0,0:0:0:0:
280,200,9814,2,0,B|240:184|216:192|216:192|240:88|176:144|208:40|208:40|176:72|152:80|152:80|112:88|72:64|72:64|40:128|40:128,1,440.999986541748,4|0,0:0|0:0,0:0:0:0:
56,232,11528,2,0,B|88:192|80:144|80:144|144:232|128:304|72:328|72:328|128:368|144:344|176:304|176:336|264:344,1,490,4|0,0:0|0:0,0:0:0:0:
272,328,13243,6,0,B|304:272|336:352|336:120|304:208|272:144,1,210,4|0,0:0|0:0,0:0:0:0:
207,189,14100,2,0,P|207:117|343:109,1,210,4|0,0:0|0:0,0:0:0:0:
404,120,14957,6,0,B|440:132|488:112|488:112|424:200|436:268|436:268|384:208|312:252,1,390.600012218171,4|0,0:0|0:0,0:0:0:0:
64,240,16671,2,0,B|88:288|72:336|72:336|128:304|176:328|176:328|216:256|256:344|312:344|312:344|344:344|360:328|360:312,1,420,4|0,0:0|0:0,0:0:0:0:
448,184,18385,6,0,B|480:144|336:160|416:48|416:48|256:160|144:40,1,455.700014254532,4|0,0:0|0:0,0:0:0:0:
132,76,20100,2,0,B|172:124|164:172|164:172|124:204|108:252|148:276,1,210,4|0,0:0|0:0,0:0:0:0:
64,288,20957,2,0,P|156:336|208:252,1,210,4|0,0:0|0:0,0:0:0:0:
96,80,21814,6,0,L|112:44,2,26.2500010013581
128,232,22243,2,0,L|136:264,2,26.2500010013581
212,120,22671,2,0,L|204:80,2,26.2500010013581
280,200,23100,2,0,L|264:244,2,26.2500010013581
392,124,23528,1,0,0:0:0:0:
344,296,23743,6,0,L|328:345,1,52.5000020027161
327,345,24171,1,0,0:0:0:0:
360,104,24385,2,0,L|376:48,1,52.5000020027161
374,53,24814,1,0,0:0:0:0:
476,160,25028,1,0,0:0:0:0:
488,296,25243,2,0,L|492:348,1,52.5000020027161
492,348,25671,1,0,0:0:0:0:
256,128,25885,2,0,L|244:64,1,52.5000020027161
246,76,26314,1,0,0:0:0:0:
344,252,26528,2,0,L|356:304,1,52.5000020027161
376,64,26957,5,0,0:0:0:0:
138,205,27814,1,0,0:0:0:0:
272,288,28028,6,0,L|284:296,10,10.4999996795654
237,302,28671,2,0,P|182:315|131:290,1,115.50000352478,8|0,0:0|0:0,0:0:0:0:
112,272,29100,2,0,L|148:256,2,38.5000011749268
96,192,29528,2,0,P|152:176|224:248,1,154.000004699707,8|0,0:0|0:0,0:0:0:0:
320,332,30171,6,0,P|352:332|392:308,1,77.0000023498536,0|8,0:0|0:0,0:0:0:0:
468,196,30600,2,0,L|512:204,3,38.5000011749268
388,180,31028,1,0,0:0:0:0:
236,310,31243,2,0,P|192:307|144:234,1,115.50000352478,8|0,0:0|0:0,0:0:0:0:
184,152,31671,2,0,P|210:129|222:89,1,77.0000023498536
324,56,32100,6,0,P|364:68|416:52,1,77.0000023498536,8|0,0:0|0:0,0:0:0:0:
476,152,32421,2,0,L|524:168,2,38.5000011749268
392,224,32743,1,0,0:0:0:0:
291,299,32957,2,0,P|343:303|387:207,1,154.000004699707,8|0,0:0|0:0,0:0:0:0:
220,192,33600,6,0,P|256:176|296:180,1,77.0000023498536,0|8,0:0|0:0,0:0:0:0:
443,317,34028,2,0,L|479:330,3,38.5000011749268
288,328,34457,1,0,0:0:0:0:
168,256,34671,2,0,P|136:184|176:120,1,154.000004699707,8|0,0:0|0:0,0:0:0:0:
248,184,35314,1,0,0:0:0:0:
372,296,35528,6,0,P|408:316|452:316,1,77.0000023498536,0|8,0:0|0:0,0:0:0:0:
264,280,35957,1,0,0:0:0:0:
407,129,36171,1,0,0:0:0:0:
340,160,36385,2,0,P|380:152|416:116,1,77.0000023498536,8|0,0:0|0:0,0:0:0:0:
452,40,36814,1,0,0:0:0:0:
508,124,37028,1,0,0:0:0:0:
336,56,37243,6,0,B|296:52|296:52|244:80|244:80|180:68,1,154.000004699707,8|0,0:0|0:0,0:0:0:0:
76,120,37885,1,0,0:0:0:0:
156,228,38100,2,0,P|220:240|180:192,1,154.000004699707,8|0,0:0|0:0,0:0:0:0:
160,72,38743,1,0,0:0:0:0:
280,108,38957,6,0,B|320:116|348:76|348:76|416:120,1,154.000004699707,8|0,0:0|0:0,0:0:0:0:
452,232,39600,1,0,0:0:0:0:
348,304,39814,2,0,B|312:304|256:192|368:192|348:304,1,192.500005874634,8|0,0:0|0:0,0:0:0:0:
268,352,40457,1,0,0:0:0:0:
156,348,40671,2,0,B|96:348|96:348|132:304|132:304|188:304|188:304|204:312,1,154.000004699707,8|0,0:0|0:0,0:0:0:0:
232,208,41314,1,0,0:0:0:0:
272,168,41421,1,0,0:0:0:0:
244,120,41528,1,0,0:0:0:0:
268,68,41635,1,0,0:0:0:0:
300,20,41743,1,0,0:0:0:0:
356,32,41850,1,0,0:0:0:0:
376,84,41957,5,0,0:0:0:0:
388,140,42064,1,0,0:0:0:0:
400,196,42171,1,0,0:0:0:0:
412,252,42278,1,0,0:0:0:0:
420,308,42385,1,0,0:0:0:0:
184,344,42600,2,0,L|140:348,3,38.5000011749268
304,328,43028,1,0,0:0:0:0:
232,188,43243,2,0,P|216:144|216:100,1,77.0000023498536,8|0,0:0|0:0,0:0:0:0:
308,36,43671,5,0,0:0:0:0:
420,56,43885,2,0,L|509:51,1,77.0000023498536
441,253,44314,2,0,L|461:298,3,38.5000011749268
343,177,44743,1,0,0:0:0:0:
212,140,44957,2,0,B|176:124|176:124|108:152|108:152|52:144,1,154.000004699707,8|0,0:0|0:0,0:0:0:0:
67,146,45600,1,0,0:0:0:0:
196,216,45814,2,0,P|260:212|288:164,1,115.50000352478
348,36,46243,2,0,L|368:-8,2,38.5000011749268
294,302,46671,2,0,B|344:264|344:264|384:306|384:306|428:304,1,154.000004699707,8|0,0:0|0:0,0:0:0:0:
497,207,47314,1,0,0:0:0:0:
401,156,47528,6,0,P|371:122|377:12,1,154.000004699707,8|0,0:0|0:0,0:0:0:0:
341,232,48171,1,0,0:0:0:0:
341,232,48385,2,0,P|297:257|195:224,1,154.000004699707,8|0,0:0|0:0,0:0:0:0:
148,156,49028,1,0,0:0:0:0:
220,72,49243,2,0,L|244:40,2,38.5000011749268
264,80,49564,1,0,0:0:0:0:
312,80,49671,1,0,0:0:0:0:
360,80,49778,1,0,0:0:0:0:
412,80,49885,1,0,0:0:0:0:
416,184,49993,5,0,0:0:0:0:
264,284,50100,5,0,0:0:0:0:
316,284,50207,1,0,0:0:0:0:
368,284,50314,1,0,0:0:0:0:
420,288,50421,1,0,0:0:0:0:
264,184,50528,5,0,0:0:0:0:
176,92,50635,1,0,0:0:0:0:
140,132,50743,1,0,0:0:0:0:
124,184,50850,1,0,0:0:0:0:
128,236,50957,1,0,0:0:0:0:
76,332,51064,5,0,0:0:0:0:
128,344,51171,1,0,0:0:0:0:
180,332,51278,1,0,0:0:0:0:
216,292,51385,1,0,0:0:0:0:
228,188,51493,5,0,0:0:0:0:
296,44,51600,5,0,0:0:0:0:
344,68,51707,1,0,0:0:0:0:
376,112,51814,1,0,0:0:0:0:
376,164,51921,1,0,0:0:0:0:
264,188,52028,5,0,0:0:0:0:
464,224,52135,5,0,0:0:0:0:
444,276,52242,1,0,0:0:0:0:
392,292,52349,1,0,0:0:0:0:
340,280,52457,1,0,0:0:0:0:
272,136,52564,5,0,0:0:0:0:
244,88,52671,1,0,0:0:0:0:
196,68,52778,1,0,0:0:0:0:
144,60,52885,1,0,0:0:0:0:
92,88,52993,1,0,0:0:0:0:
160,180,53100,5,0,0:0:0:0:
272,328,53207,1,0,0:0:0:0:
268,276,53314,1,0,0:0:0:0:
276,224,53421,1,0,0:0:0:0:
252,176,53528,1,0,0:0:0:0:
288,136,53635,1,0,0:0:0:0:
248,100,53743,1,0,0:0:0:0:
288,64,53850,1,0,0:0:0:0:
340,52,53957,1,0,0:0:0:0:
392,64,54064,1,0,0:0:0:0:
432,96,54171,1,0,0:0:0:0:
448,148,54278,1,0,0:0:0:0:
448,200,54385,1,0,0:0:0:0:
416,244,54493,1,0,0:0:0:0:
368,268,54600,1,0,0:0:0:0:
316,280,54707,1,0,0:0:0:0:
264,272,54814,1,0,0:0:0:0:
216,248,54921,1,0,0:0:0:0:
184,204,55028,1,0,0:0:0:0:
180,152,55135,1,0,0:0:0:0:
244,64,55243,6,0,L|272:28,1,38.5000011749268
328,136,55458,2,0,L|288:188,1,38.5000011749268
72,144,55671,2,0,L|112:108,1,38.5000011749268
172,312,55885,2,0,L|136:344,1,26.2500010013581
96,376,56100,2,0,P|96:252|216:244,1,262.500010013581
276,288,57385,1,0,0:0:0:0:
340,220,57600,2,0,B|340:176|340:80|392:80|392:80|392:136|264:136,1,308.000009399414
188,136,58671,1,0,0:0:0:0:
232,136,58993,1,0,0:0:0:0:
392,80,59314,1,0,0:0:0:0:
456,208,59421,1,0,0:0:0:0:
456,208,59528,1,0,0:0:0:0:
