osu file format v14

[General]
AudioFilename: audio.mp3
AudioLeadIn: 0
PreviewTime: 275341
Countdown: 0
SampleSet: Normal
StackLeniency: 0.7
Mode: 1
LetterboxInBreaks: 0
WidescreenStoryboard: 0

[Editor]
Bookmarks: 23083,55998,88912,110855,154741,176683,187655,231541,253483,275426,319312,363198
DistanceSpacing: 1.6
BeatDivisor: 4
GridSize: 32
TimelineZoom: 3.399999

[Metadata]
Title:Light it up
TitleUnicode:Light it up
Artist:Camellia
ArtistUnicode:かめりあ
Creator:_DUSK_
Version:Luminescence
Source:osu!
Tags:かめるかめりあ kamelcamellia cametek crystallized dubstep drum and bass dnb wubstep artcore melodic marathon featured artist mappers guild Masaya Oya fa
BeatmapID:2124942
BeatmapSetID:1015345

[Difficulty]
HPDrainRate:4
CircleSize:5
OverallDifficulty:7.5
ApproachRate:9
SliderMultiplier:1.4
SliderTickRate:1

[Events]
//Background and Video events
0,0,"liubg.jpg",0,-20
//Break Periods
2,176541,185683
//Storyboard Layer 0 (Background)
//Storyboard Layer 1 (Fail)
//Storyboard Layer 2 (Pass)
//Storyboard Layer 3 (Foreground)
//Storyboard Layer 4 (Overlay)
//Storyboard Sound Samples

[TimingPoints]
1141,342.857142857143,4,1,0,100,1,0
23083,-95.2380952380952,4,1,0,100,0,0
23255,-100,4,1,0,100,0,0
33369,-99.009900990099,4,1,0,100,0,0
33454,-98.0392156862745,4,1,0,100,0,0
33540,-97.0873786407767,4,1,0,100,0,0
33626,-96.1538461538461,4,1,0,100,0,0
33711,-95.2380952380952,4,1,0,100,0,0
33883,-94.3396226415094,4,1,0,100,0,0
34054,-93.4579439252336,4,1,0,100,0,0
40569,-92.5925925925926,4,1,0,100,0,0
40741,-91.743119266055,4,1,0,100,0,0
42369,-90.9090909090909,4,1,0,100,0,0
42455,-90.0900900900901,4,1,0,100,0,0
42541,-89.2857142857143,4,1,0,100,0,0
42626,-88.4955752212389,4,1,0,100,0,0
42712,-87.719298245614,4,1,0,100,0,0
42798,-86.9565217391304,4,1,0,100,0,0
42883,-86.2068965517241,4,1,0,100,0,0
42969,-85.4700854700855,4,1,0,100,0,0
43055,-84.7457627118644,4,1,0,100,0,0
43141,-84.0336134453781,4,1,0,100,0,0
43226,-83.3333333333333,4,1,0,100,0,0
43312,-82.6446280991736,4,1,0,100,0,0
43398,-81.9672131147541,4,1,0,100,0,0
43483,-81.3008130081301,4,1,0,100,0,0
43569,-80.6451612903226,4,1,0,100,0,0
43655,-80,4,1,0,100,0,0
43998,-79.3650793650794,4,1,0,100,0,0
44341,-78.7401574803149,4,1,0,100,0,0
44683,-78.125,4,1,0,100,0,0
45369,-80,4,1,0,100,0,0
46398,-86.9565217391304,4,1,0,100,0,0
49141,-95.2380952380952,4,1,0,100,0,0
51883,-105.263157894737,4,1,0,100,0,0
53255,-117.647058823529,4,1,0,100,0,0
54626,-125,4,1,0,100,0,0
63541,-123.456790123457,4,1,0,100,0,0
63883,-121.951219512195,4,1,0,100,0,0
64226,-120.481927710843,4,1,0,100,0,0
64569,-119.047619047619,4,1,0,100,0,0
64741,-117.647058823529,4,1,0,100,0,0
65426,-116.279069767442,4,1,0,100,0,0
65512,-114.942528735632,4,1,0,100,0,0
65598,-113.636363636364,4,1,0,100,0,0
65941,-112.359550561798,4,1,0,100,0,0
66112,-111.111111111111,4,1,0,100,0,0
66626,-109.89010989011,4,1,0,100,0,0
72455,-107.52688172043,4,1,0,100,0,0
72798,-105.263157894737,4,1,0,100,0,0
72969,-103.092783505155,4,1,0,100,0,0
73312,-101.010101010101,4,1,0,100,0,0
73483,-99.009900990099,4,1,0,100,0,0
73826,-97.0873786407767,4,1,0,100,0,0
74169,-95.2380952380952,4,1,0,100,0,0
74512,-93.4579439252336,4,1,0,100,0,0
74855,-91.743119266055,4,1,0,100,0,0
75198,-90.0900900900901,4,1,0,100,0,0
75541,-88.4955752212389,4,1,0,100,0,0
75712,-86.9565217391304,4,1,0,100,0,0
76055,-85.4700854700855,4,1,0,100,0,0
76226,-84.0336134453781,4,1,0,100,0,0
77855,-76.9230769230769,4,1,0,100,0,0
79312,-90.9090909090909,4,1,0,100,0,0
80341,-83.3333333333333,4,1,0,100,0,0
80398,-84.7457627118644,4,1,0,100,0,0
80455,-86.2068965517241,4,1,0,100,0,0
80512,-87.719298245614,4,1,0,100,0,0
80683,-76.9230769230769,4,1,0,100,0,0
84798,-90.9090909090909,4,1,0,100,0,0
85826,-84.7457627118644,4,1,0,100,0,0
85883,-83.3333333333333,4,1,0,100,0,0
85941,-81.9672131147541,4,1,0,100,0,0
85998,-80.6451612903226,4,1,0,100,0,0
86055,-79.3650793650794,4,1,0,100,0,0
86112,-78.125,4,1,0,100,0,0
86169,-76.9230769230769,4,1,0,100,0,0
88226,-100,4,1,0,100,0,0
88569,-99.009900990099,4,1,0,100,0,0
88655,-98.0392156862745,4,1,0,100,0,0
88741,-97.0873786407767,4,1,0,100,0,0
88826,-96.1538461538461,4,1,0,100,0,0
88912,-95.2380952380952,4,1,0,100,0,0
97483,-94.3396226415094,4,1,0,100,0,0
97655,-93.4579439252336,4,1,0,100,0,0
97826,-92.5925925925926,4,1,0,100,0,0
97998,-91.743119266055,4,1,0,100,0,0
98083,-90.9090909090909,4,1,0,100,0,0
98169,-90.0900900900901,4,1,0,100,0,0
98341,-89.2857142857143,4,1,0,100,0,0
98512,-88.4955752212389,4,1,0,100,0,0
98683,-87.719298245614,4,1,0,100,0,0
98855,-86.9565217391304,4,1,0,100,0,0
99026,-86.2068965517241,4,1,0,100,0,0
99198,-85.4700854700855,4,1,0,100,0,0
99369,-84.7457627118644,4,1,0,100,0,0
99541,-84.0336134453781,4,1,0,100,0,0
99883,-95.2380952380952,4,1,0,100,0,0
100912,-94.3396226415094,4,1,0,100,0,0
100969,-93.4579439252336,4,1,0,100,0,0
101026,-92.5925925925926,4,1,0,100,0,0
101083,-91.743119266055,4,1,0,100,0,0
101141,-90.9090909090909,4,1,0,100,0,0
101198,-90.0900900900901,4,1,0,100,0,0
101255,-89.2857142857143,4,1,0,100,0,0
101426,-95.2380952380952,4,1,0,100,0,0
102283,-94.3396226415094,4,1,0,100,0,0
102455,-93.4579439252336,4,1,0,100,0,0
102626,-95.2380952380952,4,1,0,100,0,0
103655,-94.3396226415094,4,1,0,100,0,0
103741,-93.4579439252336,4,1,0,100,0,0
103826,-92.5925925925926,4,1,0,100,0,0
103912,-91.743119266055,4,1,0,100,0,0
103998,-90.9090909090909,4,1,0,100,0,0
104169,-95.2380952380952,4,1,0,100,0,0
105369,-94.3396226415094,4,1,0,100,0,0
105455,-93.4579439252336,4,1,0,100,0,0
105541,-92.5925925925926,4,1,0,100,0,0
105626,-91.743119266055,4,1,0,100,0,0
105712,-90.9090909090909,4,1,0,100,0,0
105797,-90.0900900900901,4,1,0,100,0,0
105883,-89.2857142857143,4,1,0,100,0,0
105969,-88.4955752212389,4,1,0,100,0,0
106054,-87.719298245614,4,1,0,100,0,0
106140,-86.9565217391304,4,1,0,100,0,0
106226,-86.2068965517241,4,1,0,100,0,0
106312,-85.4700854700855,4,1,0,100,0,0
106397,-84.7457627118644,4,1,0,100,0,0
106483,-84.0336134453781,4,1,0,100,0,0
106569,-83.3333333333333,4,1,0,100,0,0
106654,-82.6446280991736,4,1,0,100,0,0
106740,-81.9672131147541,4,1,0,100,0,0
106826,-81.3008130081301,4,1,0,100,0,0
106912,-80.6451612903226,4,1,0,100,0,0
106997,-80,4,1,0,100,0,0
107083,-79.3650793650794,4,1,0,100,0,0
107168,-78.7401574803149,4,1,0,100,0,0
107254,-78.125,4,1,0,100,0,0
107340,-77.5193798449612,4,1,0,100,0,0
107425,-76.9230769230769,4,1,0,100,0,0
107511,-76.3358778625954,4,1,0,100,0,0
107597,-75.7575757575758,4,1,0,100,0,0
107683,-75.187969924812,4,1,0,100,0,0
107768,-74.6268656716418,4,1,0,100,0,0
107854,-74.0740740740741,4,1,0,100,0,0
107940,-73.5294117647059,4,1,0,100,0,0
108025,-72.992700729927,4,1,0,100,0,0
108111,-72.463768115942,4,1,0,100,0,0
108454,-71.9424460431655,4,1,0,100,0,0
108797,-71.4285714285714,4,1,0,100,0,0
109140,-70.9219858156028,4,1,0,100,0,0
110855,-90.9090909090909,4,1,0,100,0,0
111198,-95.2380952380952,4,1,0,100,0,0
120112,-93.4579439252336,4,1,0,100,0,0
120198,-91.743119266055,4,1,0,100,0,0
120283,-90.0900900900901,4,1,0,100,0,0
120369,-88.4955752212389,4,1,0,100,0,0
120455,-86.9565217391304,4,1,0,100,0,0
120541,-100,4,1,0,100,0,0
121826,-90.9090909090909,4,1,0,100,0,0
122169,-95.2380952380952,4,1,0,100,0,0
127655,-90.9090909090909,4,1,0,100,0,0
129883,-90.0900900900901,4,1,0,100,0,0
129969,-90.0900900900901,4,1,0,100,0,0
130055,-89.2857142857143,4,1,0,100,0,0
130141,-88.4955752212389,4,1,0,100,0,0
130226,-87.719298245614,4,1,0,100,0,0
130312,-86.9565217391304,4,1,0,100,0,0
130398,-86.2068965517241,4,1,0,100,0,0
130483,-85.4700854700855,4,1,0,100,0,0
130569,-84.7457627118644,4,1,0,100,0,0
130655,-84.0336134453781,4,1,0,100,0,0
130741,-83.3333333333333,4,1,0,100,0,0
131083,-82.6446280991736,4,1,0,100,0,0
131512,-100,4,1,0,100,0,0
132798,-90.9090909090909,4,1,0,100,0,0
133141,-95.2380952380952,4,1,0,100,0,0
143769,-90.9090909090909,4,1,0,100,0,0
144112,-95.2380952380952,4,1,0,100,0,0
148912,-94.3396226415094,4,1,0,100,0,0
148969,-94.3396226415094,4,1,0,100,0,0
149026,-93.4579439252336,4,1,0,100,0,0
149083,-92.5925925925926,4,1,0,100,0,0
149141,-91.743119266055,4,1,0,100,0,0
149198,-90.9090909090909,4,1,0,100,0,0
149255,-90.0900900900901,4,1,0,100,0,0
151998,-89.2857142857143,4,1,0,100,0,0
152083,-88.4955752212389,4,1,0,100,0,0
152169,-87.719298245614,4,1,0,100,0,0
152255,-86.9565217391304,4,1,0,100,0,0
152426,-86.2068965517241,4,1,0,100,0,0
152512,-85.4700854700855,4,1,0,100,0,0
152598,-84.7457627118644,4,1,0,100,0,0
152683,-84.0336134453781,4,1,0,100,0,0
152769,-83.3333333333333,4,1,0,100,0,0
152855,-82.6446280991736,4,1,0,100,0,0
152941,-81.9672131147541,4,1,0,100,0,0
153112,-81.3008130081301,4,1,0,100,0,0
153198,-80.6451612903226,4,1,0,100,0,0
153283,-80,4,1,0,100,0,0
153369,-79.3650793650794,4,1,0,100,0,0
153455,-78.7401574803149,4,1,0,100,0,0
153541,-78.125,4,1,0,100,0,0
153626,-77.5193798449612,4,1,0,100,0,0
153712,-76.9230769230769,4,1,0,100,0,0
153798,-76.3358778625954,4,1,0,100,0,0
153883,-75.7575757575758,4,1,0,100,0,0
153969,-75.187969924812,4,1,0,100,0,0
154055,-74.6268656716418,4,1,0,100,0,0
154398,-74.0740740740741,4,1,0,100,0,0
154826,-125,4,1,0,100,0,0
162283,-123.456790123457,4,1,0,100,0,0
162626,-121.951219512195,4,1,0,100,0,0
162969,-120.481927710843,4,1,0,100,0,0
163312,-119.047619047619,4,1,0,100,0,0
163483,-117.647058823529,4,1,0,100,0,0
164169,-116.279069767442,4,1,0,100,0,0
164255,-114.942528735632,4,1,0,100,0,0
164341,-113.636363636364,4,1,0,100,0,0
164683,-112.359550561798,4,1,0,100,0,0
164855,-111.111111111111,4,1,0,100,0,0
165369,-109.89010989011,4,1,0,100,0,0
165712,-108.695652173913,4,1,0,100,0,0
171198,-107.52688172043,4,1,0,100,0,0
171541,-106.382978723404,4,1,0,100,0,0
171712,-105.263157894737,4,1,0,100,0,0
172055,-104.166666666667,4,1,0,100,0,0
172226,-103.092783505155,4,1,0,100,0,0
172569,-102.040816326531,4,1,0,100,0,0
172912,-101.010101010101,4,1,0,100,0,0
173255,-100,4,1,0,100,0,0
173598,-99.009900990099,4,1,0,100,0,0
173941,-98.0392156862745,4,1,0,100,0,0
174283,-97.0873786407767,4,1,0,100,0,0
174455,-96.1538461538461,4,1,0,100,0,0
174798,-95.2380952380952,4,1,0,100,0,0
174969,-94.3396226415094,4,1,0,100,0,0
175655,-93.4579439252336,4,1,0,100,0,0
175998,-92.5925925925926,4,1,0,100,0,0
176341,-91.743119266055,4,1,0,100,0,0
176683,-90.9090909090909,4,1,0,70,0,0
178055,-142.857142857143,4,1,0,70,0,0
184912,-125,4,1,0,70,0,0
186283,-111.111111111111,4,1,0,70,0,0
187655,-76.9230769230769,4,1,0,100,0,0
189026,-90.9090909090909,4,1,0,100,0,0
190055,-83.3333333333333,4,1,0,100,0,0
190112,-84.7457627118644,4,1,0,100,0,0
190169,-86.2068965517241,4,1,0,100,0,0
190226,-87.719298245614,4,1,0,100,0,0
190398,-76.9230769230769,4,1,0,100,0,0
195541,-84.7457627118644,4,1,0,100,0,0
195598,-83.3333333333333,4,1,0,100,0,0
195655,-81.9672131147541,4,1,0,100,0,0
195712,-80.6451612903226,4,1,0,100,0,0
195769,-79.3650793650794,4,1,0,100,0,0
195826,-78.125,4,1,0,100,0,0
195883,-76.9230769230769,4,1,0,100,0,0
197855,-100,4,1,0,100,0,0
198283,-99.009900990099,4,1,0,100,0,0
198369,-98.0392156862745,4,1,0,100,0,0
198455,-97.0873786407767,4,1,0,100,0,0
198541,-96.1538461538461,4,1,0,100,0,0
198626,-95.2380952380952,4,1,0,100,0,0
207198,-94.3396226415094,4,1,0,100,0,0
207369,-93.4579439252336,4,1,0,100,0,0
207541,-92.5925925925926,4,1,0,100,0,0
207712,-91.743119266055,4,1,0,100,0,0
207798,-90.9090909090909,4,1,0,100,0,0
207883,-90.0900900900901,4,1,0,100,0,0
208055,-89.2857142857143,4,1,0,100,0,0
208226,-88.4955752212389,4,1,0,100,0,0
208398,-87.719298245614,4,1,0,100,0,0
208569,-86.9565217391304,4,1,0,100,0,0
208741,-86.2068965517241,4,1,0,100,0,0
208912,-85.4700854700855,4,1,0,100,0,0
209083,-84.7457627118644,4,1,0,100,0,0
209255,-84.0336134453781,4,1,0,100,0,0
209598,-95.2380952380952,4,1,0,100,0,0
210283,-94.3396226415094,4,1,0,100,0,0
210969,-93.4579439252336,4,1,0,100,0,0
211655,-92.5925925925926,4,1,0,100,0,0
212341,-91.743119266055,4,1,0,100,0,0
213026,-90.9090909090909,4,1,0,100,0,0
213712,-90.0900900900901,4,1,0,100,0,0
214398,-89.2857142857143,4,1,0,100,0,0
215083,-88.4955752212389,4,1,0,100,0,0
215769,-87.719298245614,4,1,0,100,0,0
216455,-86.9565217391304,4,1,0,100,0,0
217141,-86.2068965517241,4,1,0,100,0,0
217826,-85.4700854700855,4,1,0,100,0,0
218512,-84.7457627118644,4,1,0,100,0,0
219198,-84.0336134453781,4,1,0,100,0,0
219883,-83.3333333333333,4,1,0,100,0,0
220569,-82.6446280991736,4,1,0,100,0,0
221598,-81.9672131147541,4,1,0,100,0,0
221655,-81.3008130081301,4,1,0,100,0,0
221712,-80.6451612903226,4,1,0,100,0,0
221769,-80,4,1,0,100,0,0
221826,-79.3650793650794,4,1,0,100,0,0
221883,-78.7401574803149,4,1,0,100,0,0
221941,-78.125,4,1,0,100,0,0
222112,-82.6446280991736,4,1,0,100,0,0
222969,-81.9672131147541,4,1,0,100,0,0
223141,-81.3008130081301,4,1,0,100,0,0
223312,-82.6446280991736,4,1,0,100,0,0
224341,-83.3333333333333,4,1,0,100,0,0
224426,-84.0336134453781,4,1,0,100,0,0
224512,-84.7457627118644,4,1,0,100,0,0
224598,-85.4700854700855,4,1,0,100,0,0
224683,-86.2068965517241,4,1,0,100,0,0
224855,-85.4700854700855,4,1,0,100,0,0
224941,-84.7457627118644,4,1,0,100,0,0
225026,-84.0336134453781,4,1,0,100,0,0
225112,-83.3333333333333,4,1,0,100,0,0
225198,-82.6446280991736,4,1,0,100,0,0
226055,-81.3008130081301,4,1,0,100,0,0
226141,-80.6451612903226,4,1,0,100,0,0
226226,-80,4,1,0,100,0,0
226312,-79.3650793650794,4,1,0,100,0,0
226398,-78.7401574803149,4,1,0,100,0,0
226483,-78.125,4,1,0,100,0,0
226569,-77.5193798449612,4,1,0,100,0,0
226655,-76.9230769230769,4,1,0,100,0,0
226741,-76.3358778625954,4,1,0,100,0,0
226826,-75.7575757575758,4,1,0,100,0,0
226912,-75.187969924812,4,1,0,100,0,0
226998,-74.6268656716418,4,1,0,100,0,0
227083,-74.0740740740741,4,1,0,100,0,0
227169,-73.5294117647059,4,1,0,100,0,0
227255,-72.992700729927,4,1,0,100,0,0
227341,-72.463768115942,4,1,0,100,0,0
227426,-71.9424460431655,4,1,0,100,0,0
227512,-71.4285714285714,4,1,0,100,0,0
227598,-70.9219858156028,4,1,0,100,0,0
227683,-70.4225352112676,4,1,0,100,0,0
227769,-69.9300699300699,4,1,0,100,0,0
227855,-69.4444444444444,4,1,0,100,0,0
227941,-68.9655172413793,4,1,0,100,0,0
228026,-68.4931506849315,4,1,0,100,0,0
228112,-68.0272108843537,4,1,0,100,0,0
228198,-67.5675675675676,4,1,0,100,0,0
228283,-67.1140939597315,4,1,0,100,0,0
228369,-66.6666666666667,4,1,0,100,0,0
228455,-66.2251655629139,4,1,0,100,0,0
228541,-65.7894736842105,4,1,0,100,0,0
228626,-65.359477124183,4,1,0,100,0,0
228712,-64.9350649350649,4,1,0,100,0,0
228798,-64.5161290322581,4,1,0,100,0,0
229141,-64.1025641025641,4,1,0,100,0,0
229483,-63.6942675159236,4,1,0,100,0,0
229826,-63.2911392405063,4,1,0,100,0,0
230255,-100,4,1,0,100,0,0
231541,-90.9090909090909,4,1,0,100,0,1
242169,-86.9565217391304,4,1,0,100,0,1
242512,-90.9090909090909,4,1,0,100,0,1
247655,-90.0900900900901,4,1,0,100,0,1
247712,-89.2857142857143,4,1,0,100,0,1
247769,-88.4955752212389,4,1,0,100,0,1
247826,-87.719298245614,4,1,0,100,0,1
247883,-86.9565217391304,4,1,0,100,0,1
247941,-86.2068965517241,4,1,0,100,0,1
247998,-85.4700854700855,4,1,0,100,0,1
250741,-84.7457627118644,4,1,0,100,0,1
250826,-84.0336134453781,4,1,0,100,0,1
250998,-83.3333333333333,4,1,0,100,0,1
251083,-82.6446280991736,4,1,0,100,0,1
251169,-81.9672131147541,4,1,0,100,0,1
251255,-81.3008130081301,4,1,0,100,0,1
251426,-80.6451612903226,4,1,0,100,0,1
251512,-80,4,1,0,100,0,1
251683,-79.3650793650794,4,1,0,100,0,1
251769,-78.7401574803149,4,1,0,100,0,1
251855,-78.125,4,1,0,100,0,1
251941,-77.5193798449612,4,1,0,100,0,1
252112,-76.9230769230769,4,1,0,100,0,1
252198,-76.3358778625954,4,1,0,100,0,1
252283,-75.7575757575758,4,1,0,100,0,1
252369,-75.187969924812,4,1,0,100,0,1
252455,-74.6268656716418,4,1,0,100,0,1
252541,-74.0740740740741,4,1,0,100,0,1
252626,-73.5294117647059,4,1,0,100,0,1
252712,-72.992700729927,4,1,0,100,0,0
252798,-100,4,1,0,100,0,0
253483,-90.9090909090909,4,1,0,100,0,1
263083,-90.9090909090909,4,1,0,100,0,0
263341,-91.743119266055,4,1,0,100,0,0
263426,-92.5925925925926,4,1,0,100,0,0
263512,-93.4579439252336,4,1,0,100,0,0
263598,-94.3396226415094,4,1,0,100,0,0
263855,-95.2380952380952,4,1,0,100,0,0
263941,-96.1538461538461,4,1,0,100,0,0
264026,-97.0873786407767,4,1,0,100,0,0
264112,-98.0392156862745,4,1,0,100,0,0
264798,-95.2380952380952,4,1,0,100,0,0
269941,-94.3396226415094,4,1,0,100,0,0
269998,-93.4579439252336,4,1,0,100,0,0
270055,-92.5925925925926,4,1,0,100,0,0
270112,-91.743119266055,4,1,0,100,0,0
270198,-90.9090909090909,4,1,0,100,0,0
270283,-90.0900900900901,4,1,0,100,0,0
271312,-89.2857142857143,4,1,0,100,0,0
271398,-88.4955752212389,4,1,0,100,0,0
271483,-87.719298245614,4,1,0,100,0,0
271569,-86.9565217391304,4,1,0,100,0,0
271655,-86.2068965517241,4,1,0,100,0,0
272683,-85.4700854700855,4,1,0,100,0,1
272769,-84.7457627118644,4,1,0,100,0,1
272855,-84.0336134453781,4,1,0,100,0,1
272941,-83.3333333333333,4,1,0,100,0,1
273026,-82.6446280991736,4,1,0,100,0,1
273112,-81.9672131147541,4,1,0,100,0,1
273198,-81.3008130081301,4,1,0,100,0,1
273283,-80.6451612903226,4,1,0,100,0,1
273369,-80,4,1,0,100,0,1
273455,-79.3650793650794,4,1,0,100,0,1
273541,-78.7401574803149,4,1,0,100,0,1
273626,-78.125,4,1,0,100,0,1
273712,-77.5193798449612,4,1,0,100,0,1
273798,-76.9230769230769,4,1,0,100,0,1
273883,-76.3358778625954,4,1,0,100,0,1
273969,-75.7575757575758,4,1,0,100,0,1
274055,-75.187969924812,4,1,0,100,0,1
275426,-95.2380952380952,4,1,0,100,0,0
291541,-94.3396226415094,4,1,0,100,0,0
291598,-93.4579439252336,4,1,0,100,0,0
291655,-92.5925925925926,4,1,0,100,0,0
291712,-91.743119266055,4,1,0,100,0,0
291769,-90.9090909090909,4,1,0,100,0,0
291826,-90.0900900900901,4,1,0,100,0,0
291883,-89.2857142857143,4,1,0,100,0,0
294283,-88.4955752212389,4,1,0,100,0,0
294341,-87.719298245614,4,1,0,100,0,0
294398,-86.9565217391304,4,1,0,100,0,0
294455,-86.2068965517241,4,1,0,100,0,0
294512,-85.4700854700855,4,1,0,100,0,0
294569,-84.7457627118644,4,1,0,100,0,0
294626,-84.0336134453781,4,1,0,100,0,0
294712,-83.3333333333333,4,1,0,100,0,0
294798,-82.6446280991736,4,1,0,100,0,0
294883,-81.9672131147541,4,1,0,100,0,0
294969,-81.3008130081301,4,1,0,100,0,0
295055,-80.6451612903226,4,1,0,100,0,0
295141,-80,4,1,0,100,0,0
295226,-79.3650793650794,4,1,0,100,0,0
295312,-78.7401574803149,4,1,0,100,0,0
295398,-78.125,4,1,0,100,0,0
295483,-77.5193798449612,4,1,0,100,0,0
295569,-76.9230769230769,4,1,0,100,0,0
295655,-76.3358778625954,4,1,0,100,0,0
295741,-75.7575757575758,4,1,0,100,0,0
295826,-75.187969924812,4,1,0,100,0,0
295912,-74.6268656716418,4,1,0,100,0,0
295998,-74.0740740740741,4,1,0,100,0,0
296083,-73.5294117647059,4,1,0,100,0,0
296169,-72.992700729927,4,1,0,100,0,0
296255,-72.463768115942,4,1,0,100,0,0
296341,-71.9424460431655,4,1,0,100,0,0
296426,-71.4285714285714,4,1,0,100,0,0
296512,-70.9219858156028,4,1,0,100,0,0
296598,-70.4225352112676,4,1,0,100,0,0
296683,-69.9300699300699,4,1,0,100,0,0
297026,-69.4444444444444,4,1,0,100,0,0
297455,-90.9090909090909,4,1,0,100,0,0
307998,-89.2857142857143,4,1,0,100,0,0
308083,-88.4955752212389,4,1,0,100,0,0
308169,-87.719298245614,4,1,0,100,0,0
308255,-86.9565217391304,4,1,0,100,0,0
308341,-86.2068965517241,4,1,0,100,0,0
313826,-86.9565217391304,4,1,0,100,0,0
316226,-86.2068965517241,4,1,0,100,0,0
316283,-85.4700854700855,4,1,0,100,0,0
316341,-84.7457627118644,4,1,0,100,0,0
316398,-84.0336134453781,4,1,0,100,0,0
316455,-83.3333333333333,4,1,0,100,0,0
316512,-82.6446280991736,4,1,0,100,0,0
316569,-81.9672131147541,4,1,0,100,0,0
316655,-81.3008130081301,4,1,0,100,0,0
316741,-80.6451612903226,4,1,0,100,0,0
316826,-80,4,1,0,100,0,0
316912,-80,4,1,0,100,0,0
316998,-79.3650793650794,4,1,0,100,0,0
317083,-78.7401574803149,4,1,0,100,0,0
317169,-78.125,4,1,0,100,0,0
317255,-77.5193798449612,4,1,0,100,0,0
317341,-76.9230769230769,4,1,0,100,0,0
317426,-76.3358778625954,4,1,0,100,0,0
317512,-75.7575757575758,4,1,0,100,0,0
317598,-75.187969924812,4,1,0,100,0,0
317683,-74.6268656716418,4,1,0,100,0,0
317769,-74.0740740740741,4,1,0,100,0,0
317855,-73.5294117647059,4,1,0,100,0,0
317941,-72.992700729927,4,1,0,100,0,0
318283,-72.463768115942,4,1,0,100,0,0
318626,-71.9424460431655,4,1,0,100,0,0
318969,-71.4285714285714,4,1,0,100,0,0
319483,-80,4,1,0,100,0,0
319569,-80.6451612903226,4,1,0,100,0,0
319655,-81.3008130081301,4,1,0,100,0,0
319826,-81.9672131147541,4,1,0,100,0,0
319998,-82.6446280991736,4,1,0,100,0,0
320083,-83.3333333333333,4,1,0,100,0,0
320169,-84.0336134453781,4,1,0,100,0,0
320341,-84.7457627118644,4,1,0,100,0,0
320512,-85.4700854700855,4,1,0,100,0,0
320683,-86.2068965517241,4,1,0,100,0,0
320769,-86.9565217391304,4,1,0,100,0,0
320855,-87.719298245614,4,1,0,100,0,0
320941,-88.4955752212389,4,1,0,100,0,0
321026,-89.2857142857143,4,1,0,100,0,0
321198,-90.0900900900901,4,1,0,100,0,0
321369,-90.9090909090909,4,1,0,100,0,0
335941,-90.0900900900901,4,1,0,100,0,0
336798,-89.2857142857143,4,1,0,100,0,0
336969,-88.4955752212389,4,1,0,100,0,0
338512,-87.719298245614,4,1,0,100,0,0
338598,-86.9565217391304,4,1,0,100,0,0
338683,-86.2068965517241,4,1,0,100,0,0
338769,-85.4700854700855,4,1,0,100,0,0
338855,-84.7457627118644,4,1,0,100,0,0
338941,-84.0336134453781,4,1,0,100,0,0
339026,-83.3333333333333,4,1,0,100,0,0
339112,-82.6446280991736,4,1,0,100,0,0
339198,-81.9672131147541,4,1,0,100,0,0
339283,-81.3008130081301,4,1,0,100,0,0
339369,-80.6451612903226,4,1,0,100,0,0
339455,-80,4,1,0,100,0,0
339541,-79.3650793650794,4,1,0,100,0,0
339626,-78.7401574803149,4,1,0,100,0,0
339712,-78.125,4,1,0,100,0,0
339798,-77.5193798449612,4,1,0,100,0,0
339883,-76.9230769230769,4,1,0,100,0,0
340226,-76.3358778625954,4,1,0,100,0,0
340569,-75.7575757575758,4,1,0,100,0,0
340912,-75.187969924812,4,1,0,100,0,0
341598,-76.3358778625954,4,1,0,100,0,0
341941,-77.5193798449612,4,1,0,100,0,0
342283,-78.7401574803149,4,1,0,100,0,0
342626,-80,4,1,0,100,0,0
342969,-81.3008130081301,4,1,0,100,0,0
343312,-82.6446280991736,4,1,0,100,0,0
343483,-84.0336134453781,4,1,0,100,0,0
343655,-85.4700854700855,4,1,0,100,0,0
343826,-86.9565217391304,4,1,0,100,0,0
343998,-88.4955752212389,4,1,0,100,0,0
344341,-90.0900900900901,4,1,0,100,0,0
344683,-91.743119266055,4,1,0,100,0,0
345026,-93.4579439252336,4,1,0,100,0,0
345369,-95.2380952380952,4,1,0,100,0,0
345712,-97.0873786407767,4,1,0,100,0,0
346055,-99.009900990099,4,1,0,100,0,0
346226,-101.010101010101,4,1,0,100,0,0
346398,-103.092783505155,4,1,0,100,0,0
346741,-105.263157894737,4,1,0,100,0,0
349826,-103.092783505155,4,1,0,100,0,0
350169,-102.040816326531,4,1,0,100,0,0
350512,-101.010101010101,4,1,0,100,0,0
350855,-100,4,1,0,100,0,0
352226,-99.009900990099,4,1,0,100,0,0
352569,-98.0392156862745,4,1,0,100,0,0
352912,-97.0873786407767,4,1,0,100,0,0
353255,-96.1538461538461,4,1,0,100,0,0
353598,-95.2380952380952,4,1,0,100,0,0
353941,-94.3396226415094,4,1,0,100,0,0
354283,-93.4579439252336,4,1,0,100,0,0
354455,-92.5925925925926,4,1,0,100,0,0
354626,-91.743119266055,4,1,0,100,0,0
354798,-90.9090909090909,4,1,0,100,0,0
354969,-90.0900900900901,4,1,0,100,0,0
355312,-89.2857142857143,4,1,0,100,0,0
355655,-88.4955752212389,4,1,0,100,0,0
355998,-87.719298245614,4,1,0,100,0,0
356341,-86.9565217391304,4,1,0,100,0,0
356683,-86.2068965517241,4,1,0,100,0,0
357026,-85.4700854700855,4,1,0,100,0,0
357198,-84.7457627118644,4,1,0,100,0,0
357369,-84.0336134453781,4,1,0,100,0,0
357712,-83.3333333333333,4,1,0,100,0,0
358055,-82.6446280991736,4,1,0,100,0,0
358398,-81.9672131147541,4,1,0,100,0,0
358741,-81.3008130081301,4,1,0,100,0,0
359083,-80.6451612903226,4,1,0,100,0,0
359426,-80,4,1,0,100,0,0
359769,-79.3650793650794,4,1,0,100,0,0
359941,-78.7401574803149,4,1,0,100,0,0
360112,-78.125,4,1,0,100,0,0
360283,-77.5193798449612,4,1,0,100,0,0
360455,-76.9230769230769,4,1,0,100,0,0
360798,-76.3358778625954,4,1,0,100,0,0
361141,-75.7575757575758,4,1,0,100,0,0
361483,-75.187969924812,4,1,0,100,0,0

[HitObjects]
256,192,23083,5,4,0:0:0:0:
256,192,23255,1,0,0:0:0:0:
256,192,23341,1,0,0:0:0:0:
256,192,23426,1,2,0:0:0:0:
256,192,23598,1,0,0:0:0:0:
256,192,23769,1,2,0:0:0:0:
256,192,23855,1,2,0:0:0:0:
256,192,23941,1,0,0:0:0:0:
256,192,24112,1,2,0:0:0:0:
256,192,24283,1,0,0:0:0:0:
256,192,24455,1,2,0:0:0:0:
256,192,24541,1,2,0:0:0:0:
256,192,24626,1,0,0:0:0:0:
256,192,24712,1,0,0:0:0:0:
256,192,24798,1,2,0:0:0:0:
256,192,24969,1,0,0:0:0:0:
256,192,25141,1,2,0:0:0:0:
256,192,25312,1,8,0:0:0:0:
256,192,25398,1,8,0:0:0:0:
256,192,25483,1,0,0:0:0:0:
256,192,25541,1,0,0:0:0:0:
256,192,25598,1,0,0:0:0:0:
256,192,25655,1,2,0:0:0:0:
256,192,25712,1,2,0:0:0:0:
256,192,25769,1,2,0:0:0:0:
256,192,25826,1,0,0:0:0:0:
256,192,26169,1,2,0:0:0:0:
256,192,26341,1,2,0:0:0:0:
256,192,26426,1,2,0:0:0:0:
256,192,26512,1,0,0:0:0:0:
256,192,26683,1,0,0:0:0:0:
256,192,26855,1,2,0:0:0:0:
256,192,26941,1,0,0:0:0:0:
256,192,27026,1,0,0:0:0:0:
256,192,27112,1,0,0:0:0:0:
256,192,27198,1,2,0:0:0:0:
256,192,27369,1,0,0:0:0:0:
256,192,27541,1,2,0:0:0:0:
256,192,27712,1,0,0:0:0:0:
256,192,27798,1,0,0:0:0:0:
256,192,27883,1,2,0:0:0:0:
256,192,28055,1,0,0:0:0:0:
256,192,28141,1,0,0:0:0:0:
256,192,28226,1,2,0:0:0:0:
256,192,28283,1,2,0:0:0:0:
256,192,28341,1,2,0:0:0:0:
256,192,28398,1,0,0:0:0:0:
256,192,28483,1,2,0:0:0:0:
256,192,28569,1,0,0:0:0:0:
256,192,28912,1,2,0:0:0:0:
256,192,29083,1,0,0:0:0:0:
256,192,29255,1,8,0:0:0:0:
256,192,29341,1,0,0:0:0:0:
256,192,29426,1,0,0:0:0:0:
256,192,29598,1,2,0:0:0:0:
256,192,29769,1,2,0:0:0:0:
256,192,29855,1,2,0:0:0:0:
256,192,29941,1,0,0:0:0:0:
256,192,30112,1,2,0:0:0:0:
256,192,30155,1,2,0:0:0:0:
256,192,30283,1,2,0:0:0:0:
256,192,30326,1,2,0:0:0:0:
256,192,30455,1,2,0:0:0:0:
256,192,30498,1,2,0:0:0:0:
256,192,30626,1,0,0:0:0:0:
256,192,30798,1,2,0:0:0:0:
256,192,30883,1,2,0:0:0:0:
256,192,30969,1,0,0:0:0:0:
256,192,31141,1,2,0:0:0:0:
256,192,31312,1,0,0:0:0:0:
256,192,31483,1,0,0:0:0:0:
256,192,31569,1,0,0:0:0:0:
256,192,31655,1,2,0:0:0:0:
256,192,31826,1,0,0:0:0:0:
256,192,31998,1,2,0:0:0:0:
256,192,32083,1,2,0:0:0:0:
256,192,32169,1,0,0:0:0:0:
256,192,32255,1,0,0:0:0:0:
256,192,32341,1,2,0:0:0:0:
256,192,32512,1,0,0:0:0:0:
256,192,32683,1,2,0:0:0:0:
256,192,32855,1,0,0:0:0:0:
256,192,32941,1,0,0:0:0:0:
256,192,33026,1,2,0:0:0:0:
256,192,33198,1,0,0:0:0:0:
256,192,33369,1,2,0:0:0:0:
256,192,33455,1,2,0:0:0:0:
256,192,33541,1,2,0:0:0:0:
256,192,33626,1,2,0:0:0:0:
256,192,33712,1,2,0:0:0:0:
256,192,33883,1,2,0:0:0:0:
256,192,34055,5,4,0:0:0:0:
256,192,34398,1,8,0:0:0:0:
256,192,34569,1,0,0:0:0:0:
256,192,34741,1,8,0:0:0:0:
256,192,34912,1,8,0:0:0:0:
256,192,35083,1,8,0:0:0:0:
256,192,35169,1,0,0:0:0:0:
256,192,35255,1,0,0:0:0:0:
256,192,35426,1,8,0:0:0:0:
256,192,35598,1,0,0:0:0:0:
256,192,35769,1,8,0:0:0:0:
256,192,35941,1,0,0:0:0:0:
256,192,36112,1,8,0:0:0:0:
256,192,36198,1,8,0:0:0:0:
256,192,36283,1,0,0:0:0:0:
256,192,36455,1,8,0:0:0:0:
256,192,36512,1,8,0:0:0:0:
256,192,36569,1,8,0:0:0:0:
256,192,36626,1,8,0:0:0:0:
256,192,36683,1,8,0:0:0:0:
256,192,36741,1,8,0:0:0:0:
256,192,36798,1,0,0:0:0:0:
256,192,37141,1,8,0:0:0:0:
256,192,37312,1,0,0:0:0:0:
256,192,37483,1,8,0:0:0:0:
256,192,37569,1,8,0:0:0:0:
256,192,37655,1,0,0:0:0:0:
256,192,37826,1,8,0:0:0:0:
256,192,37998,1,8,0:0:0:0:
256,192,38169,1,0,0:0:0:0:
256,192,38341,1,0,0:0:0:0:
256,192,38426,1,0,0:0:0:0:
256,192,38512,1,8,0:0:0:0:
256,192,38683,1,0,0:0:0:0:
256,192,38855,1,8,0:0:0:0:
256,192,38941,1,8,0:0:0:0:
256,192,39026,1,0,0:0:0:0:
256,192,39112,1,0,0:0:0:0:
256,192,39198,1,8,0:0:0:0:
256,192,39255,1,8,0:0:0:0:
256,192,39312,1,8,0:0:0:0:
256,192,39369,1,0,0:0:0:0:
256,192,39455,1,0,0:0:0:0:
256,192,39541,5,8,0:0:0:0:
256,192,39712,1,8,0:0:0:0:
256,192,39798,1,0,0:0:0:0:
256,192,39883,1,8,0:0:0:0:
256,192,39969,1,8,0:0:0:0:
256,192,40055,1,0,0:0:0:0:
256,192,40141,1,8,0:0:0:0:
256,192,40226,1,8,0:0:0:0:
256,192,40312,1,8,0:0:0:0:
256,192,40398,1,0,0:0:0:0:
256,192,40483,1,0,0:0:0:0:
256,192,40569,1,8,0:0:0:0:
256,192,40612,1,8,0:0:0:0:
256,192,40741,1,8,0:0:0:0:
256,192,40783,1,8,0:0:0:0:
256,192,40912,1,0,0:0:0:0:
256,192,40998,1,0,0:0:0:0:
256,192,41083,1,8,0:0:0:0:
256,192,41169,1,0,0:0:0:0:
256,192,41255,1,8,0:0:0:0:
256,192,41341,1,0,0:0:0:0:
256,192,41426,1,8,0:0:0:0:
256,192,41512,1,8,0:0:0:0:
256,192,41598,1,8,0:0:0:0:
256,192,41683,1,8,0:0:0:0:
256,192,41769,1,0,0:0:0:0:
256,192,41855,1,0,0:0:0:0:
256,192,41941,1,8,0:0:0:0:
256,192,41998,1,8,0:0:0:0:
256,192,42055,1,8,0:0:0:0:
256,192,42112,1,8,0:0:0:0:
256,192,42169,1,8,0:0:0:0:
256,192,42226,1,8,0:0:0:0:
256,192,42283,1,0,0:0:0:0:
256,192,42369,1,0,0:0:0:0:
256,192,42455,1,0,0:0:0:0:
256,192,42541,1,8,0:0:0:0:
256,192,42626,1,0,0:0:0:0:
256,192,42712,1,0,0:0:0:0:
256,192,42798,1,8,0:0:0:0:
256,192,42883,1,8,0:0:0:0:
256,192,42969,1,0,0:0:0:0:
256,192,43055,1,0,0:0:0:0:
256,192,43141,1,0,0:0:0:0:
256,192,43226,1,8,0:0:0:0:
256,192,43312,1,0,0:0:0:0:
256,192,43398,1,0,0:0:0:0:
256,192,43483,1,8,0:0:0:0:
256,192,43569,1,8,0:0:0:0:
256,192,43655,1,0,0:0:0:0:
256,192,43712,1,0,0:0:0:0:
256,192,43769,1,0,0:0:0:0:
256,192,43826,1,8,0:0:0:0:
256,192,43912,1,0,0:0:0:0:
256,192,43998,1,8,0:0:0:0:
256,192,44055,1,8,0:0:0:0:
256,192,44112,1,8,0:0:0:0:
256,192,44169,1,0,0:0:0:0:
256,192,44255,1,0,0:0:0:0:
256,192,44341,1,8,0:0:0:0:
256,192,44398,1,0,0:0:0:0:
256,192,44455,1,0,0:0:0:0:
256,192,44512,1,8,0:0:0:0:
256,192,44598,1,0,0:0:0:0:
256,192,44683,1,8,0:0:0:0:
256,192,44741,1,8,0:0:0:0:
256,192,44798,1,8,0:0:0:0:
256,192,44855,1,8,0:0:0:0:
256,192,44912,1,8,0:0:0:0:
256,192,44969,1,8,0:0:0:0:
256,192,45026,1,0,0:0:0:0:
256,192,45541,1,8,0:0:0:0:
256,192,47769,1,0,0:0:0:0:
256,192,48283,1,8,0:0:0:0:
256,192,50512,1,0,0:0:0:0:
256,192,51026,1,8,0:0:0:0:
256,192,55998,1,8,0:0:0:0:
256,192,56512,1,8,0:0:0:0:
256,192,57026,1,8,0:0:0:0:
256,192,57712,1,8,0:0:0:0:
256,192,58055,1,8,0:0:0:0:
256,192,58398,1,8,0:0:0:0:
256,192,58741,1,8,0:0:0:0:
256,192,59255,1,8,0:0:0:0:
256,192,59769,1,8,0:0:0:0:
256,192,60455,1,8,0:0:0:0:
256,192,60798,1,8,0:0:0:0:
256,192,61141,1,8,0:0:0:0:
256,192,61483,1,8,0:0:0:0:
256,192,61998,1,8,0:0:0:0:
256,192,62512,1,8,0:0:0:0:
256,192,63198,1,8,0:0:0:0:
256,192,63541,1,8,0:0:0:0:
256,192,63883,1,8,0:0:0:0:
256,192,64226,1,8,0:0:0:0:
256,192,64569,1,8,0:0:0:0:
256,192,64741,1,8,0:0:0:0:
256,192,65426,1,8,0:0:0:0:
256,192,65512,1,8,0:0:0:0:
256,192,65598,1,8,0:0:0:0:
256,192,65941,1,8,0:0:0:0:
256,192,66112,1,8,0:0:0:0:
256,192,66626,1,8,0:0:0:0:
256,192,66969,1,8,0:0:0:0:
256,192,67312,1,8,0:0:0:0:
256,192,67483,1,8,0:0:0:0:
256,192,67826,1,8,0:0:0:0:
256,192,67998,1,8,0:0:0:0:
256,192,68683,1,8,0:0:0:0:
256,192,69026,1,8,0:0:0:0:
256,192,69369,1,8,0:0:0:0:
256,192,69712,1,8,0:0:0:0:
256,192,70055,1,8,0:0:0:0:
256,192,70226,1,8,0:0:0:0:
256,192,70569,1,8,0:0:0:0:
256,192,70741,1,8,0:0:0:0:
256,192,71426,1,8,0:0:0:0:
256,192,71769,1,8,0:0:0:0:
256,192,72112,1,8,0:0:0:0:
256,192,72455,1,0,0:0:0:0:
256,192,72798,1,8,0:0:0:0:
256,192,72969,1,8,0:0:0:0:
256,192,73312,1,8,0:0:0:0:
256,192,73483,1,8,0:0:0:0:
256,192,73826,1,0,0:0:0:0:
256,192,74169,1,8,0:0:0:0:
256,192,74512,1,8,0:0:0:0:
256,192,74855,1,8,0:0:0:0:
256,192,75198,1,0,0:0:0:0:
256,192,75541,1,8,0:0:0:0:
256,192,75712,1,8,0:0:0:0:
256,192,76055,1,8,0:0:0:0:
256,192,76226,1,8,0:0:0:0:
256,192,76398,12,0,77255,0:0:0:0:
256,192,77941,5,12,0:0:0:0:
256,192,78455,1,4,0:0:0:0:
256,192,78969,1,4,0:0:0:0:
256,192,80341,1,8,0:0:0:0:
256,192,80398,1,8,0:0:0:0:
256,192,80455,1,8,0:0:0:0:
256,192,80512,1,0,0:0:0:0:
256,192,80683,1,4,0:0:0:0:
256,192,81198,1,12,0:0:0:0:
256,192,82055,1,4,0:0:0:0:
256,192,82569,1,4,0:0:0:0:
256,192,83426,1,12,0:0:0:0:
256,192,83941,1,4,0:0:0:0:
256,192,84455,1,4,0:0:0:0:
256,192,85826,1,0,0:0:0:0:
256,192,85883,1,0,0:0:0:0:
256,192,85941,1,0,0:0:0:0:
256,192,85998,1,8,0:0:0:0:
256,192,86055,1,8,0:0:0:0:
256,192,86112,1,8,0:0:0:0:
256,192,86169,1,4,0:0:0:0:
256,192,86683,1,12,0:0:0:0:
256,192,87541,1,4,0:0:0:0:
256,192,88055,1,4,0:0:0:0:
256,192,88569,1,8,0:0:0:0:
256,192,88655,1,8,0:0:0:0:
256,192,88741,1,0,0:0:0:0:
256,192,88826,1,8,0:0:0:0:
256,192,88912,1,0,0:0:0:0:
256,192,89255,1,8,0:0:0:0:
256,192,89426,1,8,0:0:0:0:
256,192,89598,1,0,0:0:0:0:
256,192,89769,1,0,0:0:0:0:
256,192,89855,1,0,0:0:0:0:
256,192,89941,1,8,0:0:0:0:
256,192,90112,1,8,0:0:0:0:
256,192,90283,1,0,0:0:0:0:
256,192,90455,1,0,0:0:0:0:
256,192,90541,1,8,0:0:0:0:
256,192,90626,1,8,0:0:0:0:
256,192,90798,1,8,0:0:0:0:
256,192,90969,1,0,0:0:0:0:
256,192,91141,1,0,0:0:0:0:
256,192,91226,1,0,0:0:0:0:
256,192,91312,1,8,0:0:0:0:
256,192,91369,1,8,0:0:0:0:
256,192,91426,1,8,0:0:0:0:
256,192,91483,1,0,0:0:0:0:
256,192,91569,1,0,0:0:0:0:
256,192,91655,1,8,0:0:0:0:
256,192,91998,1,8,0:0:0:0:
256,192,92169,1,0,0:0:0:0:
256,192,92255,1,0,0:0:0:0:
256,192,92341,1,8,0:0:0:0:
256,192,92512,1,0,0:0:0:0:
256,192,92683,1,8,0:0:0:0:
256,192,92855,1,8,0:0:0:0:
256,192,93026,1,0,0:0:0:0:
256,192,93198,1,8,0:0:0:0:
256,192,93283,1,8,0:0:0:0:
256,192,93369,1,0,0:0:0:0:
256,192,93541,1,8,0:0:0:0:
256,192,93712,1,0,0:0:0:0:
256,192,93883,1,0,0:0:0:0:
256,192,94055,1,8,0:0:0:0:
256,192,94226,1,8,0:0:0:0:
256,192,94398,1,0,0:0:0:0:
256,192,94741,1,8,0:0:0:0:
256,192,94912,1,8,0:0:0:0:
256,192,94998,1,8,0:0:0:0:
256,192,95083,1,0,0:0:0:0:
256,192,95255,1,0,0:0:0:0:
256,192,95426,1,8,0:0:0:0:
256,192,95598,1,0,0:0:0:0:
256,192,95683,1,8,0:0:0:0:
256,192,95769,1,0,0:0:0:0:
256,192,95941,1,0,0:0:0:0:
256,192,96112,1,8,0:0:0:0:
256,192,96283,1,0,0:0:0:0:
256,192,96369,1,0,0:0:0:0:
256,192,96455,1,8,0:0:0:0:
256,192,96626,1,0,0:0:0:0:
256,192,96798,1,8,0:0:0:0:
256,192,96855,1,8,0:0:0:0:
256,192,96912,1,8,0:0:0:0:
256,192,96969,1,0,0:0:0:0:
256,192,97026,1,8,0:0:0:0:
256,192,97083,1,8,0:0:0:0:
256,192,97141,1,0,0:0:0:0:
256,192,97483,1,8,0:0:0:0:
256,192,97655,1,8,0:0:0:0:
256,192,97826,1,0,0:0:0:0:
256,192,97998,1,0,0:0:0:0:
256,192,98083,1,0,0:0:0:0:
256,192,98169,1,8,0:0:0:0:
256,192,98341,1,8,0:0:0:0:
256,192,98512,1,0,0:0:0:0:
256,192,98683,1,0,0:0:0:0:
256,192,98855,1,0,0:0:0:0:
256,192,99026,1,8,0:0:0:0:
256,192,99198,1,0,0:0:0:0:
256,192,99369,1,8,0:0:0:0:
256,192,99541,1,8,0:0:0:0:
256,192,99883,1,4,0:0:0:0:
256,192,100055,1,0,0:0:0:0:
256,192,100226,1,8,0:0:0:0:
256,192,100398,1,8,0:0:0:0:
256,192,100569,1,0,0:0:0:0:
256,192,100741,1,0,0:0:0:0:
256,192,100912,1,8,0:0:0:0:
256,192,100969,1,8,0:0:0:0:
256,192,101026,1,8,0:0:0:0:
256,192,101083,1,8,0:0:0:0:
256,192,101141,1,8,0:0:0:0:
256,192,101198,1,8,0:0:0:0:
256,192,101255,1,0,0:0:0:0:
256,192,101426,1,0,0:0:0:0:
256,192,101598,1,8,0:0:0:0:
256,192,101769,1,0,0:0:0:0:
256,192,101941,1,8,0:0:0:0:
256,192,102026,1,8,0:0:0:0:
256,192,102112,1,0,0:0:0:0:
256,192,102283,1,8,0:0:0:0:
256,192,102326,1,8,0:0:0:0:
256,192,102455,1,8,0:0:0:0:
256,192,102498,1,8,0:0:0:0:
256,192,102626,1,0,0:0:0:0:
256,192,102798,1,8,0:0:0:0:
256,192,102969,1,0,0:0:0:0:
256,192,103055,1,0,0:0:0:0:
256,192,103141,1,8,0:0:0:0:
256,192,103312,1,8,0:0:0:0:
256,192,103398,1,0,0:0:0:0:
256,192,103483,1,8,0:0:0:0:
256,192,103655,1,8,0:0:0:0:
256,192,103741,1,8,0:0:0:0:
256,192,103826,1,8,0:0:0:0:
256,192,103912,1,8,0:0:0:0:
256,192,103998,1,0,0:0:0:0:
256,192,104169,1,8,0:0:0:0:
256,192,104341,1,0,0:0:0:0:
256,192,104426,1,0,0:0:0:0:
256,192,104512,1,8,0:0:0:0:
256,192,104598,1,8,0:0:0:0:
256,192,104683,1,0,0:0:0:0:
256,192,104769,1,8,0:0:0:0:
256,192,104941,1,0,0:0:0:0:
256,192,105198,1,8,0:0:0:0:
256,192,105369,1,0,0:0:0:0:
256,192,105455,1,0,0:0:0:0:
256,192,105541,1,8,0:0:0:0:
256,192,105626,1,0,0:0:0:0:
256,192,105712,1,8,0:0:0:0:
256,192,105798,1,8,0:0:0:0:
256,192,105883,1,8,0:0:0:0:
256,192,105969,1,0,0:0:0:0:
256,192,106055,1,8,0:0:0:0:
256,192,106141,1,8,0:0:0:0:
256,192,106226,1,0,0:0:0:0:
256,192,106312,1,8,0:0:0:0:
256,192,106398,1,0,0:0:0:0:
256,192,106483,1,0,0:0:0:0:
256,192,106569,1,0,0:0:0:0:
256,192,106655,1,8,0:0:0:0:
256,192,106741,1,0,0:0:0:0:
256,192,106826,1,0,0:0:0:0:
256,192,106912,1,8,0:0:0:0:
256,192,106998,1,0,0:0:0:0:
256,192,107083,1,8,0:0:0:0:
256,192,107169,1,8,0:0:0:0:
256,192,107255,1,8,0:0:0:0:
256,192,107341,1,0,0:0:0:0:
256,192,107426,1,0,0:0:0:0:
256,192,107512,1,0,0:0:0:0:
256,192,107598,1,8,0:0:0:0:
256,192,107683,1,0,0:0:0:0:
256,192,107769,1,8,0:0:0:0:
256,192,107855,1,8,0:0:0:0:
256,192,107941,1,0,0:0:0:0:
256,192,108026,1,0,0:0:0:0:
256,192,108112,1,8,0:0:0:0:
256,192,108169,1,8,0:0:0:0:
256,192,108226,1,8,0:0:0:0:
256,192,108283,1,0,0:0:0:0:
256,192,108369,1,0,0:0:0:0:
256,192,108455,1,8,0:0:0:0:
256,192,108512,1,8,0:0:0:0:
256,192,108569,1,8,0:0:0:0:
256,192,108626,1,0,0:0:0:0:
256,192,108712,1,0,0:0:0:0:
256,192,108798,1,8,0:0:0:0:
256,192,108855,1,0,0:0:0:0:
256,192,108912,1,0,0:0:0:0:
256,192,108969,1,8,0:0:0:0:
256,192,109055,1,0,0:0:0:0:
256,192,109141,1,8,0:0:0:0:
256,192,109198,1,8,0:0:0:0:
256,192,109255,1,8,0:0:0:0:
256,192,109312,1,8,0:0:0:0:
256,192,109369,1,8,0:0:0:0:
256,192,109426,1,8,0:0:0:0:
256,192,109483,1,0,0:0:0:0:
256,192,110855,1,4,0:0:0:0:
256,192,111198,1,0,0:0:0:0:
256,192,111369,1,8,0:0:0:0:
256,192,111455,1,8,0:0:0:0:
256,192,111541,1,0,0:0:0:0:
256,192,111712,1,0,0:0:0:0:
256,192,111798,1,8,0:0:0:0:
256,192,112055,1,8,0:0:0:0:
256,192,112226,1,0,0:0:0:0:
256,192,112312,1,0,0:0:0:0:
256,192,112398,1,8,0:0:0:0:
256,192,112483,1,8,0:0:0:0:
256,192,112569,1,0,0:0:0:0:
256,192,112741,1,8,0:0:0:0:
256,192,112912,1,0,0:0:0:0:
256,192,112998,1,8,0:0:0:0:
256,192,113083,1,8,0:0:0:0:
256,192,113169,1,8,0:0:0:0:
256,192,113341,1,0,0:0:0:0:
256,192,113426,1,8,0:0:0:0:
256,192,113598,1,4,0:0:0:0:
256,192,113941,1,0,0:0:0:0:
256,192,114112,1,8,0:0:0:0:
256,192,114198,1,8,0:0:0:0:
256,192,114283,1,0,0:0:0:0:
256,192,114455,1,0,0:0:0:0:
256,192,114541,1,8,0:0:0:0:
256,192,114798,1,8,0:0:0:0:
256,192,114969,1,0,0:0:0:0:
256,192,115055,1,8,0:0:0:0:
256,192,115141,1,8,0:0:0:0:
256,192,115226,1,8,0:0:0:0:
256,192,115312,1,0,0:0:0:0:
256,192,115483,1,0,0:0:0:0:
256,192,115655,1,0,0:0:0:0:
256,192,115712,1,0,0:0:0:0:
256,192,115769,1,0,0:0:0:0:
256,192,115826,1,8,0:0:0:0:
256,192,115912,1,8,0:0:0:0:
256,192,115998,1,0,0:0:0:0:
256,192,116083,1,8,0:0:0:0:
256,192,116169,1,0,0:0:0:0:
256,192,116341,1,4,0:0:0:0:
256,192,116683,1,0,0:0:0:0:
256,192,116855,1,8,0:0:0:0:
256,192,116941,1,8,0:0:0:0:
256,192,117026,1,0,0:0:0:0:
256,192,117198,1,0,0:0:0:0:
256,192,117283,1,8,0:0:0:0:
256,192,117541,1,8,0:0:0:0:
256,192,117712,1,0,0:0:0:0:
256,192,117798,1,0,0:0:0:0:
256,192,117883,1,8,0:0:0:0:
256,192,117969,1,0,0:0:0:0:
256,192,118055,1,0,0:0:0:0:
256,192,118226,1,8,0:0:0:0:
256,192,118398,1,0,0:0:0:0:
256,192,118483,1,8,0:0:0:0:
256,192,118569,1,8,0:0:0:0:
256,192,118655,1,8,0:0:0:0:
256,192,118826,1,0,0:0:0:0:
256,192,118912,1,8,0:0:0:0:
256,192,119083,1,0,0:0:0:0:
256,192,119255,1,8,0:0:0:0:
256,192,119312,1,8,0:0:0:0:
256,192,119369,1,8,0:0:0:0:
256,192,119426,1,0,0:0:0:0:
256,192,119598,1,8,0:0:0:0:
256,192,119769,1,0,0:0:0:0:
256,192,119855,1,8,0:0:0:0:
256,192,120112,1,0,0:0:0:0:
256,192,120198,1,8,0:0:0:0:
256,192,120283,1,8,0:0:0:0:
256,192,120369,1,8,0:0:0:0:
256,192,120455,1,0,0:0:0:0:
256,192,121826,1,4,0:0:0:0:
256,192,122169,1,8,0:0:0:0:
256,192,122341,1,0,0:0:0:0:
256,192,122426,1,0,0:0:0:0:
256,192,122512,1,8,0:0:0:0:
256,192,122598,1,0,0:0:0:0:
256,192,122769,1,8,0:0:0:0:
256,192,122855,1,0,0:0:0:0:
256,192,123026,1,8,0:0:0:0:
256,192,123198,1,0,0:0:0:0:
256,192,123283,1,0,0:0:0:0:
256,192,123369,1,8,0:0:0:0:
256,192,123455,1,8,0:0:0:0:
256,192,123541,1,0,0:0:0:0:
256,192,123712,1,8,0:0:0:0:
256,192,123883,1,0,0:0:0:0:
256,192,123969,1,0,0:0:0:0:
256,192,124055,1,0,0:0:0:0:
256,192,124141,1,8,0:0:0:0:
256,192,124312,1,0,0:0:0:0:
256,192,124398,1,8,0:0:0:0:
256,192,124569,1,4,0:0:0:0:
256,192,124912,1,8,0:0:0:0:
256,192,125083,1,0,0:0:0:0:
256,192,125169,1,0,0:0:0:0:
256,192,125255,1,8,0:0:0:0:
256,192,125341,1,8,0:0:0:0:
256,192,125512,1,8,0:0:0:0:
256,192,125598,1,0,0:0:0:0:
256,192,125769,1,8,0:0:0:0:
256,192,125941,1,0,0:0:0:0:
256,192,126026,1,8,0:0:0:0:
256,192,126112,1,8,0:0:0:0:
256,192,126198,1,8,0:0:0:0:
256,192,126283,1,0,0:0:0:0:
256,192,126455,1,0,0:0:0:0:
256,192,126541,1,0,0:0:0:0:
256,192,126626,1,8,0:0:0:0:
256,192,126683,1,0,0:0:0:0:
256,192,126741,1,0,0:0:0:0:
256,192,126798,1,8,0:0:0:0:
256,192,126883,1,8,0:0:0:0:
256,192,126969,1,0,0:0:0:0:
256,192,127141,1,8,0:0:0:0:
256,192,127655,1,4,0:0:0:0:
256,192,127826,1,0,0:0:0:0:
256,192,127912,1,0,0:0:0:0:
256,192,127998,1,8,0:0:0:0:
256,192,128083,1,0,0:0:0:0:
256,192,128255,1,0,0:0:0:0:
256,192,128341,1,8,0:0:0:0:
256,192,128512,1,8,0:0:0:0:
256,192,128598,1,8,0:0:0:0:
256,192,128683,1,0,0:0:0:0:
256,192,128855,1,8,0:0:0:0:
256,192,128941,1,0,0:0:0:0:
256,192,129026,1,8,0:0:0:0:
256,192,129112,1,8,0:0:0:0:
256,192,129198,1,0,0:0:0:0:
256,192,129369,1,0,0:0:0:0:
256,192,129455,1,0,0:0:0:0:
256,192,129541,1,8,0:0:0:0:
256,192,129626,1,8,0:0:0:0:
256,192,129712,1,0,0:0:0:0:
256,192,129883,1,8,0:0:0:0:
256,192,129969,1,8,0:0:0:0:
256,192,130055,1,0,0:0:0:0:
256,192,130141,1,0,0:0:0:0:
256,192,130226,1,8,0:0:0:0:
256,192,130312,1,0,0:0:0:0:
256,192,130398,1,8,0:0:0:0:
256,192,130483,1,8,0:0:0:0:
256,192,130569,1,0,0:0:0:0:
256,192,130655,1,8,0:0:0:0:
256,192,130741,1,0,0:0:0:0:
256,192,130798,1,8,0:0:0:0:
256,192,130855,1,8,0:0:0:0:
256,192,130912,1,0,0:0:0:0:
256,192,130998,1,0,0:0:0:0:
256,192,131083,1,8,0:0:0:0:
256,192,131141,1,8,0:0:0:0:
256,192,131198,1,8,0:0:0:0:
256,192,131255,1,8,0:0:0:0:
256,192,131312,1,8,0:0:0:0:
256,192,131369,1,8,0:0:0:0:
256,192,131426,1,0,0:0:0:0:
256,192,132798,1,4,0:0:0:0:
256,192,133141,1,8,0:0:0:0:
256,192,133312,1,0,0:0:0:0:
256,192,133483,1,8,0:0:0:0:
256,192,133569,1,8,0:0:0:0:
256,192,133741,1,8,0:0:0:0:
256,192,133826,1,0,0:0:0:0:
256,192,133998,1,8,0:0:0:0:
256,192,134169,1,0,0:0:0:0:
256,192,134341,1,0,0:0:0:0:
256,192,134426,1,0,0:0:0:0:
256,192,134512,1,8,0:0:0:0:
256,192,134683,1,0,0:0:0:0:
256,192,134855,1,8,0:0:0:0:
256,192,134941,1,8,0:0:0:0:
256,192,135026,1,0,0:0:0:0:
256,192,135112,1,0,0:0:0:0:
256,192,135198,1,8,0:0:0:0:
256,192,135369,1,8,0:0:0:0:
256,192,135541,1,4,0:0:0:0:
256,192,135712,1,0,0:0:0:0:
256,192,135798,1,0,0:0:0:0:
256,192,135883,1,8,0:0:0:0:
256,192,136055,1,0,0:0:0:0:
256,192,136141,1,0,0:0:0:0:
256,192,136226,1,8,0:0:0:0:
256,192,136312,1,0,0:0:0:0:
256,192,136483,1,8,0:0:0:0:
256,192,136569,1,0,0:0:0:0:
256,192,136741,1,8,0:0:0:0:
256,192,136912,1,0,0:0:0:0:
256,192,137083,1,8,0:0:0:0:
256,192,137169,1,0,0:0:0:0:
256,192,137255,1,8,0:0:0:0:
256,192,137341,1,0,0:0:0:0:
256,192,137426,1,8,0:0:0:0:
256,192,137598,1,8,0:0:0:0:
256,192,137683,1,8,0:0:0:0:
256,192,137769,1,0,0:0:0:0:
256,192,137855,1,0,0:0:0:0:
256,192,137941,1,8,0:0:0:0:
256,192,138283,1,4,0:0:0:0:
256,192,138455,1,0,0:0:0:0:
256,192,138541,1,0,0:0:0:0:
256,192,138626,1,8,0:0:0:0:
256,192,138798,1,0,0:0:0:0:
256,192,138883,1,0,0:0:0:0:
256,192,138969,1,8,0:0:0:0:
256,192,139055,1,0,0:0:0:0:
256,192,139226,1,8,0:0:0:0:
256,192,139312,1,0,0:0:0:0:
256,192,139483,1,8,0:0:0:0:
256,192,139655,1,0,0:0:0:0:
256,192,139826,1,0,0:0:0:0:
256,192,139912,1,8,0:0:0:0:
256,192,139998,1,0,0:0:0:0:
256,192,140169,1,8,0:0:0:0:
256,192,140341,1,8,0:0:0:0:
256,192,140426,1,0,0:0:0:0:
256,192,140512,1,8,0:0:0:0:
256,192,140598,1,8,0:0:0:0:
256,192,140683,1,0,0:0:0:0:
256,192,140855,1,8,0:0:0:0:
256,192,141026,1,0,0:0:0:0:
256,192,141198,1,0,0:0:0:0:
256,192,141283,1,0,0:0:0:0:
256,192,141369,1,8,0:0:0:0:
256,192,141541,1,0,0:0:0:0:
256,192,141712,1,8,0:0:0:0:
256,192,141798,1,8,0:0:0:0:
256,192,141883,1,0,0:0:0:0:
256,192,141969,1,0,0:0:0:0:
256,192,142055,1,8,0:0:0:0:
256,192,142226,1,0,0:0:0:0:
256,192,142398,1,8,0:0:0:0:
256,192,142569,1,0,0:0:0:0:
256,192,142655,1,0,0:0:0:0:
256,192,142741,1,8,0:0:0:0:
256,192,142912,1,0,0:0:0:0:
256,192,143083,1,8,0:0:0:0:
256,192,143169,1,0,0:0:0:0:
256,192,143255,1,0,0:0:0:0:
256,192,143341,1,0,0:0:0:0:
256,192,143426,1,8,0:0:0:0:
256,192,143769,1,4,0:0:0:0:
256,192,144112,1,8,0:0:0:0:
256,192,144283,1,0,0:0:0:0:
256,192,144369,1,8,0:0:0:0:
256,192,144455,1,8,0:0:0:0:
256,192,144541,1,0,0:0:0:0:
256,192,144712,1,8,0:0:0:0:
256,192,144798,1,0,0:0:0:0:
256,192,144969,1,8,0:0:0:0:
256,192,145141,1,0,0:0:0:0:
256,192,145312,1,0,0:0:0:0:
256,192,145398,1,8,0:0:0:0:
256,192,145483,1,8,0:0:0:0:
256,192,145655,1,0,0:0:0:0:
256,192,145826,1,8,0:0:0:0:
256,192,145912,1,0,0:0:0:0:
256,192,145998,1,0,0:0:0:0:
256,192,146169,1,8,0:0:0:0:
256,192,146255,1,8,0:0:0:0:
256,192,146341,1,0,0:0:0:0:
256,192,146426,1,8,0:0:0:0:
256,192,146512,1,4,0:0:0:0:
256,192,146683,1,0,0:0:0:0:
256,192,146769,1,8,0:0:0:0:
256,192,146855,1,8,0:0:0:0:
256,192,147026,1,0,0:0:0:0:
256,192,147112,1,0,0:0:0:0:
256,192,147198,1,8,0:0:0:0:
256,192,147283,1,8,0:0:0:0:
256,192,147455,1,8,0:0:0:0:
256,192,147541,1,0,0:0:0:0:
256,192,147712,1,8,0:0:0:0:
256,192,147883,1,8,0:0:0:0:
256,192,147969,1,0,0:0:0:0:
256,192,148055,1,8,0:0:0:0:
256,192,148141,1,0,0:0:0:0:
256,192,148226,1,8,0:0:0:0:
256,192,148398,1,8,0:0:0:0:
256,192,148569,1,0,0:0:0:0:
256,192,148741,1,8,0:0:0:0:
256,192,148826,1,0,0:0:0:0:
256,192,148912,5,8,0:0:0:0:
256,192,148969,1,0,0:0:0:0:
256,192,149026,1,0,0:0:0:0:
256,192,149083,1,8,0:0:0:0:
256,192,149141,1,0,0:0:0:0:
256,192,149198,1,0,0:0:0:0:
256,192,149255,5,8,0:0:0:0:
256,192,149426,1,0,0:0:0:0:
256,192,149512,1,8,0:0:0:0:
256,192,149598,1,8,0:0:0:0:
256,192,149769,1,8,0:0:0:0:
256,192,149855,1,0,0:0:0:0:
256,192,149941,1,0,0:0:0:0:
256,192,150026,1,8,0:0:0:0:
256,192,150198,1,0,0:0:0:0:
256,192,150283,1,8,0:0:0:0:
256,192,150369,1,0,0:0:0:0:
256,192,150455,1,8,0:0:0:0:
256,192,150626,1,8,0:0:0:0:
256,192,150712,1,0,0:0:0:0:
256,192,150798,1,0,0:0:0:0:
256,192,150883,1,8,0:0:0:0:
256,192,150969,1,8,0:0:0:0:
256,192,151141,1,8,0:0:0:0:
256,192,151226,1,8,0:0:0:0:
256,192,151312,1,0,0:0:0:0:
256,192,151398,1,8,0:0:0:0:
256,192,151569,1,8,0:0:0:0:
256,192,151655,1,8,0:0:0:0:
256,192,151741,1,0,0:0:0:0:
256,192,151826,1,8,0:0:0:0:
256,192,151912,1,0,0:0:0:0:
256,192,151998,1,8,0:0:0:0:
256,192,152083,1,0,0:0:0:0:
256,192,152169,1,0,0:0:0:0:
256,192,152255,1,8,0:0:0:0:
256,192,152426,1,0,0:0:0:0:
256,192,152512,1,8,0:0:0:0:
256,192,152598,1,0,0:0:0:0:
256,192,152683,1,8,0:0:0:0:
256,192,152769,1,0,0:0:0:0:
256,192,152855,1,0,0:0:0:0:
256,192,152941,1,8,0:0:0:0:
256,192,153112,1,0,0:0:0:0:
256,192,153198,1,8,0:0:0:0:
256,192,153283,1,0,0:0:0:0:
256,192,153369,1,8,0:0:0:0:
256,192,153455,1,0,0:0:0:0:
256,192,153541,1,0,0:0:0:0:
256,192,153626,1,8,0:0:0:0:
256,192,153712,1,0,0:0:0:0:
256,192,153798,1,0,0:0:0:0:
256,192,153883,1,8,0:0:0:0:
256,192,153969,1,8,0:0:0:0:
256,192,154055,1,0,0:0:0:0:
256,192,154112,1,0,0:0:0:0:
256,192,154169,1,0,0:0:0:0:
256,192,154226,1,8,0:0:0:0:
256,192,154312,1,0,0:0:0:0:
256,192,154398,1,8,0:0:0:0:
256,192,154455,1,8,0:0:0:0:
256,192,154512,1,8,0:0:0:0:
256,192,154569,1,8,0:0:0:0:
256,192,154626,1,8,0:0:0:0:
256,192,154683,1,8,0:0:0:0:
256,192,154741,1,0,0:0:0:0:
256,192,155255,1,8,0:0:0:0:
256,192,155769,1,8,0:0:0:0:
256,192,156455,1,8,0:0:0:0:
256,192,156798,1,8,0:0:0:0:
256,192,157141,1,8,0:0:0:0:
256,192,157483,1,8,0:0:0:0:
256,192,157998,1,8,0:0:0:0:
256,192,158512,1,8,0:0:0:0:
256,192,159198,1,8,0:0:0:0:
256,192,159541,1,8,0:0:0:0:
256,192,159883,1,8,0:0:0:0:
256,192,160226,1,8,0:0:0:0:
256,192,160741,1,8,0:0:0:0:
256,192,161255,1,8,0:0:0:0:
256,192,161941,1,8,0:0:0:0:
256,192,162283,1,8,0:0:0:0:
256,192,162626,1,8,0:0:0:0:
256,192,162969,1,8,0:0:0:0:
256,192,163312,1,8,0:0:0:0:
256,192,163483,1,8,0:0:0:0:
256,192,164169,1,8,0:0:0:0:
256,192,164255,1,8,0:0:0:0:
256,192,164341,1,8,0:0:0:0:
256,192,164683,1,8,0:0:0:0:
256,192,164855,1,8,0:0:0:0:
256,192,165369,1,8,0:0:0:0:
256,192,165712,1,8,0:0:0:0:
256,192,166055,1,8,0:0:0:0:
256,192,166226,1,8,0:0:0:0:
256,192,166569,1,8,0:0:0:0:
256,192,166741,1,8,0:0:0:0:
256,192,167426,1,8,0:0:0:0:
256,192,167769,1,8,0:0:0:0:
256,192,168112,1,8,0:0:0:0:
256,192,168455,1,8,0:0:0:0:
256,192,168798,1,8,0:0:0:0:
256,192,168969,1,8,0:0:0:0:
256,192,169312,1,8,0:0:0:0:
256,192,169483,1,8,0:0:0:0:
256,192,170169,1,8,0:0:0:0:
256,192,170512,1,8,0:0:0:0:
256,192,170683,1,8,0:0:0:0:
256,192,170855,1,8,0:0:0:0:
256,192,171026,1,8,0:0:0:0:
256,192,171198,1,0,0:0:0:0:
256,192,171541,1,8,0:0:0:0:
256,192,171712,1,8,0:0:0:0:
256,192,172055,1,8,0:0:0:0:
256,192,172226,1,8,0:0:0:0:
256,192,172569,1,0,0:0:0:0:
256,192,172912,1,8,0:0:0:0:
256,192,173255,1,8,0:0:0:0:
256,192,173598,1,8,0:0:0:0:
256,192,173941,1,0,0:0:0:0:
256,192,174283,1,8,0:0:0:0:
256,192,174455,1,8,0:0:0:0:
256,192,174798,1,8,0:0:0:0:
256,192,174969,1,8,0:0:0:0:
256,192,175655,1,8,0:0:0:0:
256,192,175998,1,8,0:0:0:0:
256,192,176341,1,8,0:0:0:0:
256,192,186283,12,0,187312,0:0:0:0:
256,192,187655,5,12,0:0:0:0:
256,192,188169,1,4,0:0:0:0:
256,192,188683,1,4,0:0:0:0:
256,192,190055,1,8,0:0:0:0:
256,192,190112,1,8,0:0:0:0:
256,192,190169,1,8,0:0:0:0:
256,192,190226,1,0,0:0:0:0:
256,192,190398,1,4,0:0:0:0:
256,192,190912,1,12,0:0:0:0:
256,192,191769,1,4,0:0:0:0:
256,192,192283,1,4,0:0:0:0:
256,192,193140,1,12,0:0:0:0:
256,192,193655,1,4,0:0:0:0:
256,192,194169,1,4,0:0:0:0:
256,192,195541,1,0,0:0:0:0:
256,192,195598,1,0,0:0:0:0:
256,192,195655,1,0,0:0:0:0:
256,192,195712,1,8,0:0:0:0:
256,192,195769,1,8,0:0:0:0:
256,192,195826,1,8,0:0:0:0:
256,192,195883,1,4,0:0:0:0:
256,192,196397,1,12,0:0:0:0:
256,192,197255,1,4,0:0:0:0:
256,192,197769,1,4,0:0:0:0:
256,192,198283,1,8,0:0:0:0:
256,192,198369,1,8,0:0:0:0:
256,192,198455,1,0,0:0:0:0:
256,192,198541,1,8,0:0:0:0:
256,192,198626,1,0,0:0:0:0:
256,192,198969,1,8,0:0:0:0:
256,192,199140,1,8,0:0:0:0:
256,192,199312,1,0,0:0:0:0:
256,192,199483,1,8,0:0:0:0:
256,192,199569,1,0,0:0:0:0:
256,192,199655,1,8,0:0:0:0:
256,192,199826,1,8,0:0:0:0:
256,192,199997,1,0,0:0:0:0:
256,192,200169,1,8,0:0:0:0:
256,192,200255,1,8,0:0:0:0:
256,192,200341,1,0,0:0:0:0:
256,192,200512,1,8,0:0:0:0:
256,192,200683,1,0,0:0:0:0:
256,192,200855,1,8,0:0:0:0:
256,192,200941,1,8,0:0:0:0:
256,192,201026,1,0,0:0:0:0:
256,192,201083,1,8,0:0:0:0:
256,192,201140,1,8,0:0:0:0:
256,192,201197,1,0,0:0:0:0:
256,192,201283,1,8,0:0:0:0:
256,192,201369,1,0,0:0:0:0:
256,192,201712,1,8,0:0:0:0:
256,192,201883,1,0,0:0:0:0:
256,192,201969,1,0,0:0:0:0:
256,192,202055,1,8,0:0:0:0:
256,192,202226,1,0,0:0:0:0:
256,192,202397,1,8,0:0:0:0:
256,192,202569,1,8,0:0:0:0:
256,192,202740,1,0,0:0:0:0:
256,192,202912,1,8,0:0:0:0:
256,192,202998,1,0,0:0:0:0:
256,192,203083,1,0,0:0:0:0:
256,192,203255,1,8,0:0:0:0:
256,192,203341,1,8,0:0:0:0:
256,192,203426,1,0,0:0:0:0:
256,192,203597,1,0,0:0:0:0:
256,192,203769,1,8,0:0:0:0:
256,192,203940,1,8,0:0:0:0:
256,192,204112,1,0,0:0:0:0:
256,192,204455,1,8,0:0:0:0:
256,192,204626,1,8,0:0:0:0:
256,192,204712,1,8,0:0:0:0:
256,192,204797,1,0,0:0:0:0:
256,192,204969,1,0,0:0:0:0:
256,192,205140,1,8,0:0:0:0:
256,192,205312,1,0,0:0:0:0:
256,192,205397,1,8,0:0:0:0:
256,192,205483,1,0,0:0:0:0:
256,192,205655,1,0,0:0:0:0:
256,192,205826,1,8,0:0:0:0:
256,192,205997,1,0,0:0:0:0:
256,192,206083,1,0,0:0:0:0:
256,192,206169,1,8,0:0:0:0:
256,192,206340,1,0,0:0:0:0:
256,192,206512,1,8,0:0:0:0:
256,192,206569,1,8,0:0:0:0:
256,192,206626,1,8,0:0:0:0:
256,192,206683,1,0,0:0:0:0:
256,192,206740,1,8,0:0:0:0:
256,192,206797,1,8,0:0:0:0:
256,192,206855,1,0,0:0:0:0:
256,192,207198,1,8,0:0:0:0:
256,192,207369,1,8,0:0:0:0:
256,192,207541,1,0,0:0:0:0:
256,192,207712,1,0,0:0:0:0:
256,192,207798,1,0,0:0:0:0:
256,192,207883,1,8,0:0:0:0:
256,192,208055,1,8,0:0:0:0:
256,192,208226,1,0,0:0:0:0:
256,192,208398,1,0,0:0:0:0:
256,192,208569,1,0,0:0:0:0:
256,192,208741,1,8,0:0:0:0:
256,192,208912,1,0,0:0:0:0:
256,192,209083,1,8,0:0:0:0:
256,192,209255,1,8,0:0:0:0:
256,192,209598,1,4,0:0:0:0:
256,192,209769,1,0,0:0:0:0:
256,192,209855,1,8,0:0:0:0:
256,192,210026,1,8,0:0:0:0:
256,192,210112,1,0,0:0:0:0:
256,192,210283,1,0,0:0:0:0:
256,192,210369,1,8,0:0:0:0:
256,192,210455,1,8,0:0:0:0:
256,192,210541,1,0,0:0:0:0:
256,192,210712,1,0,0:0:0:0:
256,192,210798,1,8,0:0:0:0:
256,192,210969,1,8,0:0:0:0:
256,192,211141,1,0,0:0:0:0:
256,192,211226,1,8,0:0:0:0:
256,192,211398,1,8,0:0:0:0:
256,192,211483,1,0,0:0:0:0:
256,192,211655,1,0,0:0:0:0:
256,192,211741,1,8,0:0:0:0:
256,192,211826,1,8,0:0:0:0:
256,192,211912,1,8,0:0:0:0:
256,192,211998,1,0,0:0:0:0:
256,192,212169,1,8,0:0:0:0:
256,192,212341,1,0,0:0:0:0:
256,192,212512,1,0,0:0:0:0:
256,192,212598,1,8,0:0:0:0:
256,192,212769,1,8,0:0:0:0:
256,192,212855,1,0,0:0:0:0:
256,192,213026,1,8,0:0:0:0:
256,192,213112,1,0,0:0:0:0:
256,192,213198,1,0,0:0:0:0:
256,192,213283,1,8,0:0:0:0:
256,192,213455,1,8,0:0:0:0:
256,192,213541,1,0,0:0:0:0:
256,192,213712,1,8,0:0:0:0:
256,192,213883,1,0,0:0:0:0:
256,192,213969,1,8,0:0:0:0:
256,192,214141,1,8,0:0:0:0:
256,192,214226,1,0,0:0:0:0:
256,192,214398,1,8,0:0:0:0:
256,192,214483,1,0,0:0:0:0:
256,192,214569,1,0,0:0:0:0:
256,192,214655,1,0,0:0:0:0:
256,192,214741,1,8,0:0:0:0:
256,192,214798,1,8,0:0:0:0:
256,192,214855,1,8,0:0:0:0:
256,192,214912,1,8,0:0:0:0:
256,192,214969,1,8,0:0:0:0:
256,192,215026,1,8,0:0:0:0:
256,192,215083,1,0,0:0:0:0:
256,192,215255,1,8,0:0:0:0:
256,192,215341,1,0,0:0:0:0:
256,192,215512,1,0,0:0:0:0:
256,192,215598,1,8,0:0:0:0:
256,192,215769,1,0,0:0:0:0:
256,192,215855,1,8,0:0:0:0:
256,192,215941,1,8,0:0:0:0:
256,192,216026,1,0,0:0:0:0:
256,192,216198,1,8,0:0:0:0:
256,192,216283,1,0,0:0:0:0:
256,192,216455,1,8,0:0:0:0:
256,192,216626,1,0,0:0:0:0:
256,192,216712,1,0,0:0:0:0:
256,192,216883,1,8,0:0:0:0:
256,192,216969,1,8,0:0:0:0:
256,192,217141,1,8,0:0:0:0:
256,192,217226,1,8,0:0:0:0:
256,192,217312,1,0,0:0:0:0:
256,192,217398,1,8,0:0:0:0:
256,192,217483,1,0,0:0:0:0:
256,192,217655,1,8,0:0:0:0:
256,192,217826,1,8,0:0:0:0:
256,192,217998,1,0,0:0:0:0:
256,192,218083,1,8,0:0:0:0:
256,192,218255,1,8,0:0:0:0:
256,192,218341,1,0,0:0:0:0:
256,192,218512,1,8,0:0:0:0:
256,192,218598,1,8,0:0:0:0:
256,192,218683,1,0,0:0:0:0:
256,192,218769,1,8,0:0:0:0:
256,192,218941,1,0,0:0:0:0:
256,192,219026,1,8,0:0:0:0:
256,192,219198,1,0,0:0:0:0:
256,192,219369,1,8,0:0:0:0:
256,192,219455,1,0,0:0:0:0:
256,192,219626,1,0,0:0:0:0:
256,192,219712,1,8,0:0:0:0:
256,192,219798,1,8,0:0:0:0:
256,192,219883,1,0,0:0:0:0:
256,192,219941,1,0,0:0:0:0:
256,192,219998,1,0,0:0:0:0:
256,192,220055,1,8,0:0:0:0:
256,192,220141,1,0,0:0:0:0:
256,192,220226,1,8,0:0:0:0:
256,192,220283,1,0,0:0:0:0:
256,192,220341,1,0,0:0:0:0:
256,192,220398,1,8,0:0:0:0:
256,192,220455,1,0,0:0:0:0:
256,192,220512,1,0,0:0:0:0:
256,192,220569,1,8,0:0:0:0:
256,192,220741,1,0,0:0:0:0:
256,192,220826,1,8,0:0:0:0:
256,192,220912,1,0,0:0:0:0:
256,192,221083,1,8,0:0:0:0:
256,192,221255,1,0,0:0:0:0:
256,192,221426,1,8,0:0:0:0:
256,192,221598,5,0,0:0:0:0:
256,192,221655,5,0,0:0:0:0:
256,192,221712,1,0,0:0:0:0:
256,192,221769,1,8,0:0:0:0:
256,192,221826,1,8,0:0:0:0:
256,192,221883,1,8,0:0:0:0:
256,192,221941,1,0,0:0:0:0:
256,192,222112,1,8,0:0:0:0:
256,192,222198,1,8,0:0:0:0:
256,192,222283,1,0,0:0:0:0:
256,192,222455,1,8,0:0:0:0:
256,192,222626,1,0,0:0:0:0:
256,192,222798,1,8,0:0:0:0:
256,192,222969,1,8,0:0:0:0:
256,192,223012,1,8,0:0:0:0:
256,192,223141,1,8,0:0:0:0:
256,192,223183,1,8,0:0:0:0:
256,192,223312,1,0,0:0:0:0:
256,192,223483,1,8,0:0:0:0:
256,192,223569,1,0,0:0:0:0:
256,192,223655,1,0,0:0:0:0:
256,192,223826,1,8,0:0:0:0:
256,192,223998,1,0,0:0:0:0:
256,192,224083,1,8,0:0:0:0:
256,192,224255,1,8,0:0:0:0:
256,192,224341,1,0,0:0:0:0:
256,192,224426,1,0,0:0:0:0:
256,192,224512,1,0,0:0:0:0:
256,192,224598,1,0,0:0:0:0:
256,192,224683,1,8,0:0:0:0:
256,192,224855,1,0,0:0:0:0:
256,192,224941,1,0,0:0:0:0:
256,192,225026,1,8,0:0:0:0:
256,192,225112,1,8,0:0:0:0:
256,192,225198,1,8,0:0:0:0:
256,192,225283,1,0,0:0:0:0:
256,192,225369,1,8,0:0:0:0:
256,192,225455,1,8,0:0:0:0:
256,192,225626,1,0,0:0:0:0:
256,192,225883,1,8,0:0:0:0:
256,192,226055,1,0,0:0:0:0:
256,192,226141,1,8,0:0:0:0:
256,192,226226,1,8,0:0:0:0:
256,192,226312,1,0,0:0:0:0:
256,192,226398,1,8,0:0:0:0:
256,192,226483,1,8,0:0:0:0:
256,192,226569,1,0,0:0:0:0:
256,192,226655,1,0,0:0:0:0:
256,192,226741,1,0,0:0:0:0:
256,192,226826,1,8,0:0:0:0:
256,192,226912,1,0,0:0:0:0:
256,192,226998,1,0,0:0:0:0:
256,192,227083,1,8,0:0:0:0:
256,192,227169,1,0,0:0:0:0:
256,192,227255,1,8,0:0:0:0:
256,192,227341,1,8,0:0:0:0:
256,192,227426,1,0,0:0:0:0:
256,192,227512,1,0,0:0:0:0:
256,192,227598,1,0,0:0:0:0:
256,192,227683,1,8,0:0:0:0:
256,192,227769,1,0,0:0:0:0:
256,192,227855,1,0,0:0:0:0:
256,192,227941,1,8,0:0:0:0:
256,192,228026,1,0,0:0:0:0:
256,192,228112,1,8,0:0:0:0:
256,192,228198,1,8,0:0:0:0:
256,192,228283,1,0,0:0:0:0:
256,192,228369,1,8,0:0:0:0:
256,192,228455,1,0,0:0:0:0:
256,192,228541,1,0,0:0:0:0:
256,192,228626,1,8,0:0:0:0:
256,192,228712,1,0,0:0:0:0:
256,192,228798,5,8,0:0:0:0:
256,192,228855,5,8,0:0:0:0:
256,192,228912,1,8,0:0:0:0:
256,192,228969,1,0,0:0:0:0:
256,192,229055,1,0,0:0:0:0:
256,192,229141,1,8,0:0:0:0:
256,192,229198,1,8,0:0:0:0:
256,192,229255,1,8,0:0:0:0:
256,192,229312,1,0,0:0:0:0:
256,192,229398,1,0,0:0:0:0:
256,192,229483,1,8,0:0:0:0:
256,192,229541,1,0,0:0:0:0:
256,192,229598,1,0,0:0:0:0:
256,192,229655,1,8,0:0:0:0:
256,192,229741,1,0,0:0:0:0:
256,192,229826,1,8,0:0:0:0:
256,192,229883,1,8,0:0:0:0:
256,192,229941,1,8,0:0:0:0:
256,192,229998,1,8,0:0:0:0:
256,192,230055,1,8,0:0:0:0:
256,192,230112,1,8,0:0:0:0:
256,192,230169,1,0,0:0:0:0:
256,192,231541,5,12,0:0:0:0:
256,192,231712,1,0,0:0:0:0:
256,192,231798,1,8,0:0:0:0:
256,192,231883,1,0,0:0:0:0:
256,192,231969,1,0,0:0:0:0:
256,192,232055,1,8,0:0:0:0:
256,192,232226,1,8,0:0:0:0:
256,192,232312,1,0,0:0:0:0:
256,192,232483,1,8,0:0:0:0:
256,192,232569,1,0,0:0:0:0:
256,192,232655,1,0,0:0:0:0:
256,192,232741,1,8,0:0:0:0:
256,192,232912,1,8,0:0:0:0:
256,192,233083,1,8,0:0:0:0:
256,192,233169,1,8,0:0:0:0:
256,192,233255,1,0,0:0:0:0:
256,192,233341,1,0,0:0:0:0:
256,192,233426,1,8,0:0:0:0:
256,192,233598,1,8,0:0:0:0:
256,192,233683,1,0,0:0:0:0:
256,192,233769,1,0,0:0:0:0:
256,192,233855,1,8,0:0:0:0:
256,192,234026,1,0,0:0:0:0:
256,192,234112,1,8,0:0:0:0:
256,192,234198,1,8,0:0:0:0:
256,192,234283,1,0,0:0:0:0:
256,192,234455,1,0,0:0:0:0:
256,192,234541,1,8,0:0:0:0:
256,192,234626,1,8,0:0:0:0:
256,192,234712,1,0,0:0:0:0:
256,192,234798,1,8,0:0:0:0:
256,192,234969,1,8,0:0:0:0:
256,192,235055,1,0,0:0:0:0:
256,192,235226,1,8,0:0:0:0:
256,192,235312,1,0,0:0:0:0:
256,192,235398,1,8,0:0:0:0:
256,192,235483,1,8,0:0:0:0:
256,192,235655,1,8,0:0:0:0:
256,192,235826,1,0,0:0:0:0:
256,192,235912,1,8,0:0:0:0:
256,192,235998,1,0,0:0:0:0:
256,192,236083,1,8,0:0:0:0:
256,192,236169,1,8,0:0:0:0:
256,192,236341,1,8,0:0:0:0:
256,192,236426,1,0,0:0:0:0:
256,192,236598,1,0,0:0:0:0:
256,192,236683,1,8,0:0:0:0:
256,192,236769,1,8,0:0:0:0:
256,192,236855,1,0,0:0:0:0:
256,192,236941,1,0,0:0:0:0:
256,192,237026,1,8,0:0:0:0:
256,192,237198,1,8,0:0:0:0:
256,192,237283,1,0,0:0:0:0:
256,192,237369,1,8,0:0:0:0:
256,192,237455,1,8,0:0:0:0:
256,192,237541,1,0,0:0:0:0:
256,192,237712,1,0,0:0:0:0:
256,192,237798,1,8,0:0:0:0:
256,192,237969,1,8,0:0:0:0:
256,192,238055,1,0,0:0:0:0:
256,192,238141,1,0,0:0:0:0:
256,192,238226,1,8,0:0:0:0:
256,192,238398,1,8,0:0:0:0:
256,192,238569,1,8,0:0:0:0:
256,192,238655,1,0,0:0:0:0:
256,192,238826,1,0,0:0:0:0:
256,192,238912,1,8,0:0:0:0:
256,192,239083,1,8,0:0:0:0:
256,192,239169,1,8,0:0:0:0:
256,192,239255,1,0,0:0:0:0:
256,192,239341,1,8,0:0:0:0:
256,192,239512,1,0,0:0:0:0:
256,192,239598,1,8,0:0:0:0:
256,192,239769,1,8,0:0:0:0:
256,192,239855,1,0,0:0:0:0:
256,192,239941,1,8,0:0:0:0:
256,192,240026,1,8,0:0:0:0:
256,192,240198,1,0,0:0:0:0:
256,192,240283,1,8,0:0:0:0:
256,192,240369,1,8,0:0:0:0:
256,192,240455,1,0,0:0:0:0:
256,192,240541,1,0,0:0:0:0:
256,192,240712,1,8,0:0:0:0:
256,192,240798,1,0,0:0:0:0:
256,192,240883,1,8,0:0:0:0:
256,192,240969,1,8,0:0:0:0:
256,192,241141,1,0,0:0:0:0:
256,192,241226,1,0,0:0:0:0:
256,192,241312,1,8,0:0:0:0:
256,192,241398,1,8,0:0:0:0:
256,192,241569,1,0,0:0:0:0:
256,192,241655,1,8,0:0:0:0:
256,192,241741,1,8,0:0:0:0:
256,192,241826,1,0,0:0:0:0:
256,192,241912,1,0,0:0:0:0:
256,192,241998,1,8,0:0:0:0:
256,192,242169,1,12,0:0:0:0:
256,192,242512,1,4,0:0:0:0:
256,192,242683,1,8,0:0:0:0:
256,192,242769,1,0,0:0:0:0:
256,192,242941,1,0,0:0:0:0:
256,192,243026,1,8,0:0:0:0:
256,192,243112,1,8,0:0:0:0:
256,192,243198,1,0,0:0:0:0:
256,192,243283,1,8,0:0:0:0:
256,192,243455,1,0,0:0:0:0:
256,192,243541,1,8,0:0:0:0:
256,192,243626,1,0,0:0:0:0:
256,192,243712,1,0,0:0:0:0:
256,192,243883,1,8,0:0:0:0:
256,192,244055,1,8,0:0:0:0:
256,192,244141,1,0,0:0:0:0:
256,192,244312,1,8,0:0:0:0:
256,192,244398,1,8,0:0:0:0:
256,192,244483,1,0,0:0:0:0:
256,192,244569,1,0,0:0:0:0:
256,192,244655,1,8,0:0:0:0:
256,192,244826,1,8,0:0:0:0:
256,192,244912,1,0,0:0:0:0:
256,192,244998,1,8,0:0:0:0:
256,192,245083,1,0,0:0:0:0:
256,192,245169,1,8,0:0:0:0:
256,192,245255,1,8,0:0:0:0:
256,192,245426,1,0,0:0:0:0:
256,192,245512,1,8,0:0:0:0:
256,192,245683,1,8,0:0:0:0:
256,192,245769,1,0,0:0:0:0:
256,192,245855,1,0,0:0:0:0:
256,192,245941,1,8,0:0:0:0:
256,192,246026,1,8,0:0:0:0:
256,192,246198,1,8,0:0:0:0:
256,192,246283,1,0,0:0:0:0:
256,192,246369,1,8,0:0:0:0:
256,192,246455,1,0,0:0:0:0:
256,192,246626,1,8,0:0:0:0:
256,192,246798,1,0,0:0:0:0:
256,192,246883,1,8,0:0:0:0:
256,192,246969,1,8,0:0:0:0:
256,192,247055,1,0,0:0:0:0:
256,192,247141,1,0,0:0:0:0:
256,192,247312,1,8,0:0:0:0:
256,192,247398,1,0,0:0:0:0:
256,192,247569,1,0,0:0:0:0:
256,192,247655,1,8,0:0:0:0:
256,192,247712,1,8,0:0:0:0:
256,192,247769,1,8,0:0:0:0:
256,192,247826,1,8,0:0:0:0:
256,192,247883,1,8,0:0:0:0:
256,192,247941,1,8,0:0:0:0:
256,192,247998,1,0,0:0:0:0:
256,192,248169,1,8,0:0:0:0:
256,192,248255,1,0,0:0:0:0:
256,192,248341,1,8,0:0:0:0:
256,192,248512,1,0,0:0:0:0:
256,192,248598,1,8,0:0:0:0:
256,192,248683,1,8,0:0:0:0:
256,192,248769,1,0,0:0:0:0:
256,192,248941,1,8,0:0:0:0:
256,192,249026,1,0,0:0:0:0:
256,192,249198,1,0,0:0:0:0:
256,192,249283,1,8,0:0:0:0:
256,192,249369,1,8,0:0:0:0:
256,192,249541,1,0,0:0:0:0:
256,192,249626,1,8,0:0:0:0:
256,192,249712,1,0,0:0:0:0:
256,192,249883,1,8,0:0:0:0:
256,192,249969,1,0,0:0:0:0:
256,192,250055,1,0,0:0:0:0:
256,192,250141,1,8,0:0:0:0:
256,192,250312,1,0,0:0:0:0:
256,192,250398,1,8,0:0:0:0:
256,192,250483,1,0,0:0:0:0:
256,192,250569,1,8,0:0:0:0:
256,192,250655,1,8,0:0:0:0:
256,192,250741,1,0,0:0:0:0:
256,192,250826,1,0,0:0:0:0:
256,192,250998,1,8,0:0:0:0:
256,192,251083,1,0,0:0:0:0:
256,192,251169,1,0,0:0:0:0:
256,192,251255,1,8,0:0:0:0:
256,192,251426,1,0,0:0:0:0:
256,192,251512,1,8,0:0:0:0:
256,192,251683,1,8,0:0:0:0:
256,192,251769,1,0,0:0:0:0:
256,192,251855,1,0,0:0:0:0:
256,192,251941,1,8,0:0:0:0:
256,192,252112,1,0,0:0:0:0:
256,192,252198,1,0,0:0:0:0:
256,192,252283,1,0,0:0:0:0:
256,192,252369,1,8,0:0:0:0:
256,192,252455,1,8,0:0:0:0:
256,192,252541,1,0,0:0:0:0:
256,192,252626,1,8,0:0:0:0:
256,192,252712,1,8,0:0:0:0:
256,192,253483,1,4,0:0:0:0:
256,192,253655,1,8,0:0:0:0:
256,192,253741,1,8,0:0:0:0:
256,192,253826,1,0,0:0:0:0:
256,192,253912,1,8,0:0:0:0:
256,192,253998,1,8,0:0:0:0:
256,192,254169,1,0,0:0:0:0:
256,192,254255,1,8,0:0:0:0:
256,192,254426,1,8,0:0:0:0:
256,192,254512,1,0,0:0:0:0:
256,192,254598,1,0,0:0:0:0:
256,192,254683,1,8,0:0:0:0:
256,192,254769,1,8,0:0:0:0:
256,192,254855,1,0,0:0:0:0:
256,192,255026,1,0,0:0:0:0:
256,192,255112,1,8,0:0:0:0:
256,192,255198,1,0,0:0:0:0:
256,192,255283,1,8,0:0:0:0:
256,192,255369,1,8,0:0:0:0:
256,192,255541,1,0,0:0:0:0:
256,192,255626,1,0,0:0:0:0:
256,192,255798,1,0,0:0:0:0:
256,192,255883,1,8,0:0:0:0:
256,192,255969,1,8,0:0:0:0:
256,192,256055,1,8,0:0:0:0:
256,192,256141,1,0,0:0:0:0:
256,192,256226,1,8,0:0:0:0:
256,192,256398,1,0,0:0:0:0:
256,192,256483,1,8,0:0:0:0:
256,192,256655,1,8,0:0:0:0:
256,192,256741,1,0,0:0:0:0:
256,192,256912,1,8,0:0:0:0:
256,192,256998,1,0,0:0:0:0:
256,192,257083,1,0,0:0:0:0:
256,192,257169,1,8,0:0:0:0:
256,192,257341,1,0,0:0:0:0:
256,192,257426,1,8,0:0:0:0:
256,192,257512,1,8,0:0:0:0:
256,192,257598,1,0,0:0:0:0:
256,192,257769,1,8,0:0:0:0:
256,192,257855,1,8,0:0:0:0:
256,192,257941,1,0,0:0:0:0:
256,192,258026,1,0,0:0:0:0:
256,192,258112,1,8,0:0:0:0:
256,192,258283,1,8,0:0:0:0:
256,192,258369,1,8,0:0:0:0:
256,192,258455,1,0,0:0:0:0:
256,192,258626,1,8,0:0:0:0:
256,192,258712,1,0,0:0:0:0:
256,192,258798,1,8,0:0:0:0:
256,192,258883,1,8,0:0:0:0:
256,192,258969,1,0,0:0:0:0:
256,192,259141,1,0,0:0:0:0:
256,192,259226,1,8,0:0:0:0:
256,192,259312,1,0,0:0:0:0:
256,192,259398,1,0,0:0:0:0:
256,192,259483,1,8,0:0:0:0:
256,192,259655,1,8,0:0:0:0:
256,192,259741,1,8,0:0:0:0:
256,192,259912,1,8,0:0:0:0:
256,192,259998,1,0,0:0:0:0:
256,192,260083,1,0,0:0:0:0:
256,192,260169,1,8,0:0:0:0:
256,192,260341,1,8,0:0:0:0:
256,192,260512,1,0,0:0:0:0:
256,192,260598,1,8,0:0:0:0:
256,192,260683,1,8,0:0:0:0:
256,192,260769,1,0,0:0:0:0:
256,192,260855,1,8,0:0:0:0:
256,192,261026,1,0,0:0:0:0:
256,192,261112,1,0,0:0:0:0:
256,192,261283,1,8,0:0:0:0:
256,192,261369,1,0,0:0:0:0:
256,192,261455,1,0,0:0:0:0:
256,192,261541,1,8,0:0:0:0:
256,192,261626,1,8,0:0:0:0:
256,192,261712,1,0,0:0:0:0:
256,192,261883,1,8,0:0:0:0:
256,192,261969,1,0,0:0:0:0:
256,192,262055,1,0,0:0:0:0:
256,192,262226,1,8,0:0:0:0:
256,192,262312,1,8,0:0:0:0:
256,192,262398,1,0,0:0:0:0:
256,192,262483,1,0,0:0:0:0:
256,192,262569,1,8,0:0:0:0:
256,192,262655,1,8,0:0:0:0:
256,192,262826,1,8,0:0:0:0:
256,192,262912,1,0,0:0:0:0:
256,192,262998,1,0,0:0:0:0:
256,192,263083,1,8,0:0:0:0:
256,192,263255,1,8,0:0:0:0:
256,192,263341,1,0,0:0:0:0:
256,192,263426,1,8,0:0:0:0:
256,192,263512,1,0,0:0:0:0:
256,192,263598,1,8,0:0:0:0:
256,192,263769,1,8,0:0:0:0:
256,192,263855,1,0,0:0:0:0:
256,192,263941,1,0,0:0:0:0:
256,192,264026,1,0,0:0:0:0:
256,192,264112,1,8,0:0:0:0:
256,192,264455,1,0,0:0:0:0:
256,192,264541,1,0,0:0:0:0:
256,192,264626,1,8,0:0:0:0:
256,192,264798,1,12,0:0:0:0:
256,192,264969,1,8,0:0:0:0:
256,192,265055,1,0,0:0:0:0:
256,192,265141,1,8,0:0:0:0:
256,192,265226,1,8,0:0:0:0:
256,192,265312,1,0,0:0:0:0:
256,192,265398,1,8,0:0:0:0:
256,192,265483,1,0,0:0:0:0:
256,192,265569,1,0,0:0:0:0:
256,192,265655,1,0,0:0:0:0:
256,192,265741,1,8,0:0:0:0:
256,192,265826,1,0,0:0:0:0:
256,192,265912,1,0,0:0:0:0:
256,192,265998,1,0,0:0:0:0:
256,192,266083,1,8,0:0:0:0:
256,192,266169,1,8,0:0:0:0:
256,192,266255,1,0,0:0:0:0:
256,192,266341,1,8,0:0:0:0:
256,192,266426,1,8,0:0:0:0:
256,192,266512,1,8,0:0:0:0:
256,192,266598,1,0,0:0:0:0:
256,192,266683,1,8,0:0:0:0:
256,192,266769,1,8,0:0:0:0:
256,192,266855,1,0,0:0:0:0:
256,192,266941,1,8,0:0:0:0:
256,192,267026,1,0,0:0:0:0:
256,192,267112,1,0,0:0:0:0:
256,192,267198,1,0,0:0:0:0:
256,192,267283,1,8,0:0:0:0:
256,192,267369,1,8,0:0:0:0:
256,192,267455,1,0,0:0:0:0:
256,192,267541,1,8,0:0:0:0:
256,192,267626,1,8,0:0:0:0:
256,192,267712,1,8,0:0:0:0:
256,192,267798,1,0,0:0:0:0:
256,192,267883,1,8,0:0:0:0:
256,192,267969,1,8,0:0:0:0:
256,192,268055,1,0,0:0:0:0:
256,192,268141,1,8,0:0:0:0:
256,192,268226,1,0,0:0:0:0:
256,192,268312,1,0,0:0:0:0:
256,192,268398,1,8,0:0:0:0:
256,192,268483,1,0,0:0:0:0:
256,192,268569,1,8,0:0:0:0:
256,192,268655,1,8,0:0:0:0:
256,192,268741,1,0,0:0:0:0:
256,192,268826,1,0,0:0:0:0:
256,192,268912,1,0,0:0:0:0:
256,192,268998,1,8,0:0:0:0:
256,192,269083,1,8,0:0:0:0:
256,192,269169,1,0,0:0:0:0:
256,192,269255,1,8,0:0:0:0:
256,192,269341,1,8,0:0:0:0:
256,192,269426,1,8,0:0:0:0:
256,192,269512,1,0,0:0:0:0:
256,192,269598,1,8,0:0:0:0:
256,192,269683,1,0,0:0:0:0:
256,192,269769,1,8,0:0:0:0:
256,192,269855,1,8,0:0:0:0:
256,192,269941,1,0,0:0:0:0:
256,192,269998,1,0,0:0:0:0:
256,192,270055,1,0,0:0:0:0:
256,192,270112,1,8,0:0:0:0:
256,192,270198,1,8,0:0:0:0:
256,192,270283,1,0,0:0:0:0:
256,192,270369,1,8,0:0:0:0:
256,192,270455,1,0,0:0:0:0:
256,192,270541,1,8,0:0:0:0:
256,192,270626,1,8,0:0:0:0:
256,192,270712,1,0,0:0:0:0:
256,192,270798,1,8,0:0:0:0:
256,192,270883,1,0,0:0:0:0:
256,192,270969,1,0,0:0:0:0:
256,192,271055,1,8,0:0:0:0:
256,192,271141,1,0,0:0:0:0:
256,192,271226,1,8,0:0:0:0:
256,192,271312,1,8,0:0:0:0:
256,192,271398,1,0,0:0:0:0:
256,192,271483,1,0,0:0:0:0:
256,192,271569,1,0,0:0:0:0:
256,192,271655,1,8,0:0:0:0:
256,192,271741,1,8,0:0:0:0:
256,192,271826,1,0,0:0:0:0:
256,192,271912,1,8,0:0:0:0:
256,192,271998,1,0,0:0:0:0:
256,192,272083,1,8,0:0:0:0:
256,192,272169,1,8,0:0:0:0:
256,192,272255,1,8,0:0:0:0:
256,192,272341,1,0,0:0:0:0:
256,192,272426,1,0,0:0:0:0:
256,192,272512,1,8,0:0:0:0:
256,192,272598,1,8,0:0:0:0:
256,192,272683,1,0,0:0:0:0:
256,192,272769,1,0,0:0:0:0:
256,192,272855,1,8,0:0:0:0:
256,192,272941,1,0,0:0:0:0:
256,192,273026,1,8,0:0:0:0:
256,192,273112,1,8,0:0:0:0:
256,192,273198,1,0,0:0:0:0:
256,192,273283,1,8,0:0:0:0:
256,192,273369,1,8,0:0:0:0:
256,192,273455,1,0,0:0:0:0:
256,192,273541,1,8,0:0:0:0:
256,192,273626,1,0,0:0:0:0:
256,192,273712,1,8,0:0:0:0:
256,192,273798,1,8,0:0:0:0:
256,192,273883,1,0,0:0:0:0:
256,192,273969,1,0,0:0:0:0:
256,192,274055,1,12,0:0:0:0:
256,192,274226,12,0,275255,0:0:0:0:
256,192,275426,5,4,0:0:0:0:
256,192,275598,1,0,0:0:0:0:
256,192,275683,1,0,0:0:0:0:
256,192,275769,1,8,0:0:0:0:
256,192,275941,1,0,0:0:0:0:
256,192,276112,1,8,0:0:0:0:
256,192,276283,1,8,0:0:0:0:
256,192,276369,1,8,0:0:0:0:
256,192,276455,1,0,0:0:0:0:
256,192,276626,1,8,0:0:0:0:
256,192,276798,1,0,0:0:0:0:
256,192,276969,1,0,0:0:0:0:
256,192,277055,1,0,0:0:0:0:
256,192,277141,1,8,0:0:0:0:
256,192,277312,1,0,0:0:0:0:
256,192,277483,1,8,0:0:0:0:
256,192,277569,1,8,0:0:0:0:
256,192,277655,1,0,0:0:0:0:
256,192,277741,1,0,0:0:0:0:
256,192,277826,1,8,0:0:0:0:
256,192,277883,1,8,0:0:0:0:
256,192,277941,1,8,0:0:0:0:
256,192,277998,1,0,0:0:0:0:
256,192,278083,1,8,0:0:0:0:
256,192,278169,1,0,0:0:0:0:
256,192,278341,1,8,0:0:0:0:
256,192,278426,1,0,0:0:0:0:
256,192,278512,1,8,0:0:0:0:
256,192,278683,1,8,0:0:0:0:
256,192,278855,1,0,0:0:0:0:
256,192,279026,1,8,0:0:0:0:
256,192,279112,1,8,0:0:0:0:
256,192,279198,1,0,0:0:0:0:
256,192,279283,1,0,0:0:0:0:
256,192,279369,1,8,0:0:0:0:
256,192,279541,1,0,0:0:0:0:
256,192,279712,1,0,0:0:0:0:
256,192,279798,1,0,0:0:0:0:
256,192,279883,1,8,0:0:0:0:
256,192,280055,1,0,0:0:0:0:
256,192,280226,1,8,0:0:0:0:
256,192,280312,1,0,0:0:0:0:
256,192,280398,1,0,0:0:0:0:
256,192,280569,1,8,0:0:0:0:
256,192,280655,1,0,0:0:0:0:
256,192,280741,1,0,0:0:0:0:
256,192,280826,1,0,0:0:0:0:
256,192,280912,1,8,0:0:0:0:
256,192,281083,1,0,0:0:0:0:
256,192,281169,1,0,0:0:0:0:
256,192,281255,1,8,0:0:0:0:
256,192,281426,1,0,0:0:0:0:
256,192,281598,1,8,0:0:0:0:
256,192,281683,1,8,0:0:0:0:
256,192,281769,1,0,0:0:0:0:
256,192,281941,1,8,0:0:0:0:
256,192,282026,1,0,0:0:0:0:
256,192,282112,1,8,0:0:0:0:
256,192,282198,1,8,0:0:0:0:
256,192,282283,1,0,0:0:0:0:
256,192,282455,1,8,0:0:0:0:
256,192,282541,1,0,0:0:0:0:
256,192,282626,1,0,0:0:0:0:
256,192,282798,1,8,0:0:0:0:
256,192,282969,1,0,0:0:0:0:
256,192,283141,1,8,0:0:0:0:
256,192,283312,1,0,0:0:0:0:
256,192,283369,1,0,0:0:0:0:
256,192,283426,1,0,0:0:0:0:
256,192,283483,1,8,0:0:0:0:
256,192,283541,1,8,0:0:0:0:
256,192,283598,1,8,0:0:0:0:
256,192,283655,1,0,0:0:0:0:
256,192,283826,1,0,0:0:0:0:
256,192,283998,1,8,0:0:0:0:
256,192,284169,1,8,0:0:0:0:
256,192,284255,1,8,0:0:0:0:
256,192,284341,1,0,0:0:0:0:
256,192,284512,1,0,0:0:0:0:
256,192,284683,1,8,0:0:0:0:
256,192,284769,1,0,0:0:0:0:
256,192,284855,1,0,0:0:0:0:
256,192,284941,1,0,0:0:0:0:
256,192,285026,1,8,0:0:0:0:
256,192,285198,1,0,0:0:0:0:
256,192,285369,1,8,0:0:0:0:
256,192,285541,1,8,0:0:0:0:
256,192,285712,1,0,0:0:0:0:
256,192,285883,1,0,0:0:0:0:
256,192,285969,1,0,0:0:0:0:
256,192,286055,1,8,0:0:0:0:
256,192,286141,1,8,0:0:0:0:
256,192,286226,1,0,0:0:0:0:
256,192,286398,1,0,0:0:0:0:
256,192,286569,1,8,0:0:0:0:
256,192,286655,1,0,0:0:0:0:
256,192,286741,1,8,0:0:0:0:
256,192,286912,1,0,0:0:0:0:
256,192,287083,1,8,0:0:0:0:
256,192,287255,1,8,0:0:0:0:
256,192,287341,1,8,0:0:0:0:
256,192,287426,1,0,0:0:0:0:
256,192,287512,1,0,0:0:0:0:
256,192,287598,1,8,0:0:0:0:
256,192,287769,1,0,0:0:0:0:
256,192,287941,1,0,0:0:0:0:
256,192,288026,1,0,0:0:0:0:
256,192,288112,1,8,0:0:0:0:
256,192,288283,1,0,0:0:0:0:
256,192,288455,1,8,0:0:0:0:
256,192,288541,1,0,0:0:0:0:
256,192,288626,1,0,0:0:0:0:
256,192,288712,1,0,0:0:0:0:
256,192,288798,1,8,0:0:0:0:
256,192,288855,1,0,0:0:0:0:
256,192,288912,1,0,0:0:0:0:
256,192,288969,1,8,0:0:0:0:
256,192,289055,1,0,0:0:0:0:
256,192,289141,1,8,0:0:0:0:
256,192,289312,1,0,0:0:0:0:
256,192,289398,1,0,0:0:0:0:
256,192,289483,1,8,0:0:0:0:
256,192,289655,1,8,0:0:0:0:
256,192,289826,1,0,0:0:0:0:
256,192,289998,1,8,0:0:0:0:
256,192,290083,1,8,0:0:0:0:
256,192,290169,1,0,0:0:0:0:
256,192,290255,1,0,0:0:0:0:
256,192,290341,1,8,0:0:0:0:
256,192,290512,1,0,0:0:0:0:
256,192,290683,1,8,0:0:0:0:
256,192,290769,1,0,0:0:0:0:
256,192,290855,1,8,0:0:0:0:
256,192,291026,1,8,0:0:0:0:
256,192,291198,1,0,0:0:0:0:
256,192,291369,1,0,0:0:0:0:
256,192,291455,1,0,0:0:0:0:
256,192,291541,1,8,0:0:0:0:
256,192,291598,1,8,0:0:0:0:
256,192,291655,1,8,0:0:0:0:
256,192,291712,1,0,0:0:0:0:
256,192,291769,1,0,0:0:0:0:
256,192,291826,1,0,0:0:0:0:
256,192,291883,1,8,0:0:0:0:
256,192,292141,1,8,0:0:0:0:
256,192,292226,1,0,0:0:0:0:
256,192,292398,1,8,0:0:0:0:
256,192,292569,1,0,0:0:0:0:
256,192,292655,1,8,0:0:0:0:
256,192,292826,1,8,0:0:0:0:
256,192,292912,1,0,0:0:0:0:
256,192,292998,1,0,0:0:0:0:
256,192,293083,1,8,0:0:0:0:
256,192,293255,1,0,0:0:0:0:
256,192,293512,1,8,0:0:0:0:
256,192,293598,1,0,0:0:0:0:
256,192,293769,1,8,0:0:0:0:
256,192,293941,1,8,0:0:0:0:
256,192,294026,1,8,0:0:0:0:
256,192,294112,1,0,0:0:0:0:
256,192,294283,1,0,0:0:0:0:
256,192,294341,1,0,0:0:0:0:
256,192,294398,1,0,0:0:0:0:
256,192,294455,1,8,0:0:0:0:
256,192,294512,1,8,0:0:0:0:
256,192,294569,1,8,0:0:0:0:
256,192,294626,1,0,0:0:0:0:
256,192,294712,1,0,0:0:0:0:
256,192,294798,1,0,0:0:0:0:
256,192,294883,1,8,0:0:0:0:
256,192,294969,1,0,0:0:0:0:
256,192,295055,1,0,0:0:0:0:
256,192,295141,1,8,0:0:0:0:
256,192,295226,1,8,0:0:0:0:
256,192,295312,1,0,0:0:0:0:
256,192,295398,1,0,0:0:0:0:
256,192,295483,1,8,0:0:0:0:
256,192,295569,1,0,0:0:0:0:
256,192,295655,1,0,0:0:0:0:
256,192,295741,1,8,0:0:0:0:
256,192,295826,1,0,0:0:0:0:
256,192,295912,1,0,0:0:0:0:
256,192,295998,1,8,0:0:0:0:
256,192,296083,1,0,0:0:0:0:
256,192,296169,1,8,0:0:0:0:
256,192,296255,1,8,0:0:0:0:
256,192,296341,1,8,0:0:0:0:
256,192,296426,1,0,0:0:0:0:
256,192,296512,1,8,0:0:0:0:
256,192,296598,1,8,0:0:0:0:
256,192,296683,1,0,0:0:0:0:
256,192,296741,1,0,0:0:0:0:
256,192,296798,1,0,0:0:0:0:
256,192,296855,1,8,0:0:0:0:
256,192,296941,1,0,0:0:0:0:
256,192,297026,1,8,0:0:0:0:
256,192,297083,1,8,0:0:0:0:
256,192,297141,1,8,0:0:0:0:
256,192,297198,1,8,0:0:0:0:
256,192,297255,1,8,0:0:0:0:
256,192,297312,1,8,0:0:0:0:
256,192,297369,1,0,0:0:0:0:
256,192,297712,1,8,0:0:0:0:
256,192,297883,1,0,0:0:0:0:
256,192,297969,1,0,0:0:0:0:
256,192,298055,1,8,0:0:0:0:
256,192,298226,1,0,0:0:0:0:
256,192,298398,1,8,0:0:0:0:
256,192,298483,1,0,0:0:0:0:
256,192,298569,1,8,0:0:0:0:
256,192,298655,1,8,0:0:0:0:
256,192,298741,1,0,0:0:0:0:
256,192,298912,1,0,0:0:0:0:
256,192,299083,1,8,0:0:0:0:
256,192,299255,1,0,0:0:0:0:
256,192,299426,1,8,0:0:0:0:
256,192,299512,1,8,0:0:0:0:
256,192,299598,1,0,0:0:0:0:
256,192,299683,1,0,0:0:0:0:
256,192,299769,1,8,0:0:0:0:
256,192,299826,1,0,0:0:0:0:
256,192,299883,1,0,0:0:0:0:
256,192,299941,1,8,0:0:0:0:
256,192,300026,1,8,0:0:0:0:
256,192,300112,1,0,0:0:0:0:
256,192,300369,1,0,0:0:0:0:
256,192,300455,1,8,0:0:0:0:
256,192,300626,1,8,0:0:0:0:
256,192,300712,1,0,0:0:0:0:
256,192,300798,1,8,0:0:0:0:
256,192,300969,1,0,0:0:0:0:
256,192,301141,1,8,0:0:0:0:
256,192,301226,1,8,0:0:0:0:
256,192,301312,1,0,0:0:0:0:
256,192,301398,1,0,0:0:0:0:
256,192,301483,1,8,0:0:0:0:
256,192,301655,1,0,0:0:0:0:
256,192,301741,1,0,0:0:0:0:
256,192,301826,1,8,0:0:0:0:
256,192,301998,1,0,0:0:0:0:
256,192,302169,1,8,0:0:0:0:
256,192,302255,1,8,0:0:0:0:
256,192,302341,1,0,0:0:0:0:
256,192,302512,1,8,0:0:0:0:
256,192,302598,1,0,0:0:0:0:
256,192,302683,1,0,0:0:0:0:
256,192,302769,1,0,0:0:0:0:
256,192,302855,1,8,0:0:0:0:
256,192,303112,1,0,0:0:0:0:
256,192,303198,1,8,0:0:0:0:
256,192,303369,1,0,0:0:0:0:
256,192,303455,1,0,0:0:0:0:
256,192,303541,1,8,0:0:0:0:
256,192,303626,1,0,0:0:0:0:
256,192,303712,1,8,0:0:0:0:
256,192,303798,1,8,0:0:0:0:
256,192,303883,1,0,0:0:0:0:
256,192,304055,1,8,0:0:0:0:
256,192,304141,1,8,0:0:0:0:
256,192,304226,1,0,0:0:0:0:
256,192,304398,1,0,0:0:0:0:
256,192,304569,1,8,0:0:0:0:
256,192,304741,1,0,0:0:0:0:
256,192,304912,1,8,0:0:0:0:
256,192,304998,1,0,0:0:0:0:
256,192,305083,1,8,0:0:0:0:
256,192,305169,1,8,0:0:0:0:
256,192,305255,1,0,0:0:0:0:
256,192,305312,1,0,0:0:0:0:
256,192,305369,1,0,0:0:0:0:
256,192,305426,1,8,0:0:0:0:
256,192,305483,1,8,0:0:0:0:
256,192,305541,1,8,0:0:0:0:
256,192,305598,1,0,0:0:0:0:
256,192,305855,1,0,0:0:0:0:
256,192,305941,1,8,0:0:0:0:
256,192,306112,1,0,0:0:0:0:
256,192,306198,1,0,0:0:0:0:
256,192,306283,1,8,0:0:0:0:
256,192,306455,1,0,0:0:0:0:
256,192,306626,1,8,0:0:0:0:
256,192,306798,1,8,0:0:0:0:
256,192,306883,1,8,0:0:0:0:
256,192,306969,1,0,0:0:0:0:
256,192,307141,1,0,0:0:0:0:
256,192,307312,1,8,0:0:0:0:
256,192,307483,1,0,0:0:0:0:
256,192,307569,1,0,0:0:0:0:
256,192,307655,1,8,0:0:0:0:
256,192,307826,1,0,0:0:0:0:
256,192,307998,1,8,0:0:0:0:
256,192,308083,1,8,0:0:0:0:
256,192,308169,1,8,0:0:0:0:
256,192,308255,1,8,0:0:0:0:
256,192,308341,1,4,0:0:0:0:
256,192,308512,1,0,0:0:0:0:
256,192,308598,1,0,0:0:0:0:
256,192,308683,1,8,0:0:0:0:
256,192,308769,1,0,0:0:0:0:
256,192,308855,1,8,0:0:0:0:
256,192,308941,1,8,0:0:0:0:
256,192,309026,1,8,0:0:0:0:
256,192,309112,1,0,0:0:0:0:
256,192,309198,1,8,0:0:0:0:
256,192,309283,1,8,0:0:0:0:
256,192,309369,1,0,0:0:0:0:
256,192,309541,1,0,0:0:0:0:
256,192,309712,1,0,0:0:0:0:
256,192,309798,1,8,0:0:0:0:
256,192,309883,1,8,0:0:0:0:
256,192,309969,1,0,0:0:0:0:
256,192,310055,1,0,0:0:0:0:
256,192,310141,1,0,0:0:0:0:
256,192,310226,1,8,0:0:0:0:
256,192,310312,1,0,0:0:0:0:
256,192,310398,1,8,0:0:0:0:
256,192,310483,1,8,0:0:0:0:
256,192,310569,1,0,0:0:0:0:
256,192,310655,1,0,0:0:0:0:
256,192,310741,1,8,0:0:0:0:
256,192,310798,1,8,0:0:0:0:
256,192,310855,1,8,0:0:0:0:
256,192,310912,1,0,0:0:0:0:
256,192,310969,1,0,0:0:0:0:
256,192,311026,1,0,0:0:0:0:
256,192,311083,1,8,0:0:0:0:
256,192,311169,1,8,0:0:0:0:
256,192,311255,1,0,0:0:0:0:
256,192,311341,1,0,0:0:0:0:
256,192,311426,1,8,0:0:0:0:
256,192,311512,1,0,0:0:0:0:
256,192,311598,1,8,0:0:0:0:
256,192,311683,1,8,0:0:0:0:
256,192,311769,1,8,0:0:0:0:
256,192,311855,1,0,0:0:0:0:
256,192,311941,1,8,0:0:0:0:
256,192,312026,1,0,0:0:0:0:
256,192,312112,1,8,0:0:0:0:
256,192,312283,1,8,0:0:0:0:
256,192,312455,1,8,0:0:0:0:
256,192,312541,1,0,0:0:0:0:
256,192,312626,1,8,0:0:0:0:
256,192,312712,1,0,0:0:0:0:
256,192,312798,1,8,0:0:0:0:
256,192,312883,1,0,0:0:0:0:
256,192,312969,1,8,0:0:0:0:
256,192,313055,1,8,0:0:0:0:
256,192,313141,1,0,0:0:0:0:
256,192,313198,1,0,0:0:0:0:
256,192,313255,1,0,0:0:0:0:
256,192,313312,1,0,0:0:0:0:
256,192,313369,1,0,0:0:0:0:
256,192,313426,1,0,0:0:0:0:
256,192,313483,1,8,0:0:0:0:
256,192,313826,1,12,0:0:0:0:
256,192,313998,1,0,0:0:0:0:
256,192,314169,1,8,0:0:0:0:
256,192,314341,1,0,0:0:0:0:
256,192,314426,1,0,0:0:0:0:
256,192,314512,1,8,0:0:0:0:
256,192,314683,1,0,0:0:0:0:
256,192,314855,1,8,0:0:0:0:
256,192,315026,1,8,0:0:0:0:
256,192,315112,1,8,0:0:0:0:
256,192,315198,1,0,0:0:0:0:
256,192,315369,1,0,0:0:0:0:
256,192,315541,1,8,0:0:0:0:
256,192,315712,1,0,0:0:0:0:
256,192,315798,1,0,0:0:0:0:
256,192,315883,1,8,0:0:0:0:
256,192,316055,1,0,0:0:0:0:
256,192,316226,1,0,0:0:0:0:
256,192,316283,1,0,0:0:0:0:
256,192,316341,1,0,0:0:0:0:
256,192,316398,1,8,0:0:0:0:
256,192,316455,1,8,0:0:0:0:
256,192,316512,1,8,0:0:0:0:
256,192,316569,1,0,0:0:0:0:
256,192,316655,1,0,0:0:0:0:
256,192,316741,1,0,0:0:0:0:
256,192,316826,1,8,0:0:0:0:
256,192,316912,1,0,0:0:0:0:
256,192,316998,1,0,0:0:0:0:
256,192,317083,1,8,0:0:0:0:
256,192,317169,1,8,0:0:0:0:
256,192,317255,1,0,0:0:0:0:
256,192,317341,1,0,0:0:0:0:
256,192,317426,1,0,0:0:0:0:
256,192,317512,1,8,0:0:0:0:
256,192,317598,1,0,0:0:0:0:
256,192,317683,1,0,0:0:0:0:
256,192,317769,1,8,0:0:0:0:
256,192,317855,1,8,0:0:0:0:
256,192,317941,1,0,0:0:0:0:
256,192,317998,1,0,0:0:0:0:
256,192,318055,1,0,0:0:0:0:
256,192,318112,1,8,0:0:0:0:
256,192,318198,1,0,0:0:0:0:
256,192,318283,1,8,0:0:0:0:
256,192,318341,1,8,0:0:0:0:
256,192,318398,1,8,0:0:0:0:
256,192,318455,1,0,0:0:0:0:
256,192,318541,1,0,0:0:0:0:
256,192,318626,1,8,0:0:0:0:
256,192,318683,1,0,0:0:0:0:
256,192,318741,1,0,0:0:0:0:
256,192,318798,1,8,0:0:0:0:
256,192,318883,1,0,0:0:0:0:
256,192,318969,1,8,0:0:0:0:
256,192,319026,1,8,0:0:0:0:
256,192,319083,1,8,0:0:0:0:
256,192,319141,1,8,0:0:0:0:
256,192,319198,1,8,0:0:0:0:
256,192,319255,1,8,0:0:0:0:
256,192,319312,5,0,0:0:0:0:
256,192,319483,1,0,0:0:0:0:
256,192,319569,1,0,0:0:0:0:
256,192,319655,1,2,0:0:0:0:
256,192,319826,1,0,0:0:0:0:
256,192,319998,1,2,0:0:0:0:
256,192,320083,1,2,0:0:0:0:
256,192,320169,1,0,0:0:0:0:
256,192,320341,1,2,0:0:0:0:
256,192,320512,1,0,0:0:0:0:
256,192,320683,1,2,0:0:0:0:
256,192,320769,1,2,0:0:0:0:
256,192,320855,1,0,0:0:0:0:
256,192,320941,1,0,0:0:0:0:
256,192,321026,1,2,0:0:0:0:
256,192,321198,1,0,0:0:0:0:
256,192,321369,1,2,0:0:0:0:
256,192,321455,1,0,0:0:0:0:
256,192,321541,1,8,0:0:0:0:
256,192,321626,1,8,0:0:0:0:
256,192,321712,1,0,0:0:0:0:
256,192,321769,1,0,0:0:0:0:
256,192,321826,1,0,0:0:0:0:
256,192,321883,1,2,0:0:0:0:
256,192,321941,1,2,0:0:0:0:
256,192,321998,1,2,0:0:0:0:
256,192,322055,1,0,0:0:0:0:
256,192,322398,1,2,0:0:0:0:
256,192,322569,1,2,0:0:0:0:
256,192,322655,1,2,0:0:0:0:
256,192,322741,1,0,0:0:0:0:
256,192,322912,1,0,0:0:0:0:
256,192,323083,1,2,0:0:0:0:
256,192,323169,1,0,0:0:0:0:
256,192,323255,1,0,0:0:0:0:
256,192,323341,1,0,0:0:0:0:
256,192,323426,1,2,0:0:0:0:
256,192,323598,1,0,0:0:0:0:
256,192,323769,1,2,0:0:0:0:
256,192,323941,1,0,0:0:0:0:
256,192,324026,1,0,0:0:0:0:
256,192,324112,1,2,0:0:0:0:
256,192,324283,1,0,0:0:0:0:
256,192,324369,1,0,0:0:0:0:
256,192,324455,1,2,0:0:0:0:
256,192,324512,1,2,0:0:0:0:
256,192,324569,1,2,0:0:0:0:
256,192,324626,1,0,0:0:0:0:
256,192,324712,1,2,0:0:0:0:
256,192,324798,1,0,0:0:0:0:
256,192,325141,1,2,0:0:0:0:
256,192,325226,1,2,0:0:0:0:
256,192,325312,1,0,0:0:0:0:
256,192,325483,1,0,0:0:0:0:
256,192,325655,1,0,0:0:0:0:
256,192,325826,1,2,0:0:0:0:
256,192,325998,1,2,0:0:0:0:
256,192,326083,1,2,0:0:0:0:
256,192,326169,1,0,0:0:0:0:
256,192,326341,1,2,0:0:0:0:
256,192,326383,1,2,0:0:0:0:
256,192,326512,1,2,0:0:0:0:
256,192,326555,1,2,0:0:0:0:
256,192,326683,1,2,0:0:0:0:
256,192,326726,1,2,0:0:0:0:
256,192,326855,1,0,0:0:0:0:
256,192,326941,1,8,0:0:0:0:
256,192,327026,1,2,0:0:0:0:
256,192,327112,1,2,0:0:0:0:
256,192,327198,1,0,0:0:0:0:
256,192,327369,1,2,0:0:0:0:
256,192,327540,1,0,0:0:0:0:
256,192,327711,1,0,0:0:0:0:
256,192,327798,1,0,0:0:0:0:
256,192,327883,1,2,0:0:0:0:
256,192,328055,1,0,0:0:0:0:
256,192,328226,1,2,0:0:0:0:
256,192,328312,1,2,0:0:0:0:
256,192,328398,1,0,0:0:0:0:
256,192,328483,1,0,0:0:0:0:
256,192,328569,1,2,0:0:0:0:
256,192,328741,1,0,0:0:0:0:
256,192,328912,1,2,0:0:0:0:
256,192,329083,1,0,0:0:0:0:
256,192,329169,1,0,0:0:0:0:
256,192,329255,1,2,0:0:0:0:
256,192,329426,1,0,0:0:0:0:
256,192,329598,1,8,0:0:0:0:
256,192,329683,1,8,0:0:0:0:
256,192,329769,1,0,0:0:0:0:
256,192,329941,1,8,0:0:0:0:
256,192,330283,1,12,0:0:0:0:
256,192,330455,1,0,0:0:0:0:
256,192,330626,1,8,0:0:0:0:
256,192,330798,1,0,0:0:0:0:
256,192,330969,1,8,0:0:0:0:
256,192,331141,1,8,0:0:0:0:
256,192,331312,1,8,0:0:0:0:
256,192,331398,1,0,0:0:0:0:
256,192,331483,1,0,0:0:0:0:
256,192,331655,1,8,0:0:0:0:
256,192,331826,1,0,0:0:0:0:
256,192,331998,1,8,0:0:0:0:
256,192,332169,1,0,0:0:0:0:
256,192,332341,1,8,0:0:0:0:
256,192,332426,1,8,0:0:0:0:
256,192,332512,1,0,0:0:0:0:
256,192,332683,1,8,0:0:0:0:
256,192,332741,1,8,0:0:0:0:
256,192,332798,1,8,0:0:0:0:
256,192,332855,1,8,0:0:0:0:
256,192,332912,1,8,0:0:0:0:
256,192,332969,1,8,0:0:0:0:
256,192,333026,1,0,0:0:0:0:
256,192,333369,1,8,0:0:0:0:
256,192,333541,1,0,0:0:0:0:
256,192,333712,1,8,0:0:0:0:
256,192,333798,1,8,0:0:0:0:
256,192,333883,1,0,0:0:0:0:
256,192,334055,1,8,0:0:0:0:
256,192,334226,1,8,0:0:0:0:
256,192,334398,1,0,0:0:0:0:
256,192,334569,1,0,0:0:0:0:
256,192,334655,1,0,0:0:0:0:
256,192,334741,1,8,0:0:0:0:
256,192,334912,1,0,0:0:0:0:
256,192,335083,1,8,0:0:0:0:
256,192,335169,1,0,0:0:0:0:
256,192,335255,1,8,0:0:0:0:
256,192,335341,1,8,0:0:0:0:
256,192,335426,1,0,0:0:0:0:
256,192,335483,1,8,0:0:0:0:
256,192,335541,1,8,0:0:0:0:
256,192,335598,1,0,0:0:0:0:
256,192,335683,1,0,0:0:0:0:
256,192,335769,5,8,0:0:0:0:
256,192,335941,1,8,0:0:0:0:
256,192,336026,1,0,0:0:0:0:
256,192,336112,1,8,0:0:0:0:
256,192,336198,1,8,0:0:0:0:
256,192,336283,1,0,0:0:0:0:
256,192,336369,1,8,0:0:0:0:
256,192,336455,1,8,0:0:0:0:
256,192,336541,1,8,0:0:0:0:
256,192,336626,1,0,0:0:0:0:
256,192,336712,1,0,0:0:0:0:
256,192,336798,1,8,0:0:0:0:
256,192,336841,1,8,0:0:0:0:
256,192,336969,1,8,0:0:0:0:
256,192,337011,1,8,0:0:0:0:
256,192,337141,1,0,0:0:0:0:
256,192,337226,1,0,0:0:0:0:
256,192,337312,1,8,0:0:0:0:
256,192,337398,1,0,0:0:0:0:
256,192,337483,1,8,0:0:0:0:
256,192,337570,1,0,0:0:0:0:
256,192,337655,1,8,0:0:0:0:
256,192,337741,1,8,0:0:0:0:
256,192,337827,1,8,0:0:0:0:
256,192,337912,1,8,0:0:0:0:
256,192,337998,1,0,0:0:0:0:
256,192,338084,1,0,0:0:0:0:
256,192,338169,1,8,0:0:0:0:
256,192,338226,1,8,0:0:0:0:
256,192,338283,1,8,0:0:0:0:
256,192,338340,1,8,0:0:0:0:
256,192,338397,1,8,0:0:0:0:
256,192,338454,1,8,0:0:0:0:
256,192,338512,1,0,0:0:0:0:
256,192,338598,1,0,0:0:0:0:
256,192,338683,1,0,0:0:0:0:
256,192,338769,1,8,0:0:0:0:
256,192,338855,1,0,0:0:0:0:
256,192,338941,1,0,0:0:0:0:
256,192,339026,1,8,0:0:0:0:
256,192,339112,1,8,0:0:0:0:
256,192,339198,1,0,0:0:0:0:
256,192,339283,1,0,0:0:0:0:
256,192,339369,1,0,0:0:0:0:
256,192,339455,1,8,0:0:0:0:
256,192,339541,1,0,0:0:0:0:
256,192,339626,1,0,0:0:0:0:
256,192,339712,1,8,0:0:0:0:
256,192,339798,1,8,0:0:0:0:
256,192,339883,1,0,0:0:0:0:
256,192,339940,1,0,0:0:0:0:
256,192,339997,1,0,0:0:0:0:
256,192,340054,1,8,0:0:0:0:
256,192,340140,1,0,0:0:0:0:
256,192,340226,1,8,0:0:0:0:
256,192,340283,1,8,0:0:0:0:
256,192,340340,1,8,0:0:0:0:
256,192,340397,1,0,0:0:0:0:
256,192,340483,1,0,0:0:0:0:
256,192,340569,1,8,0:0:0:0:
256,192,340626,1,0,0:0:0:0:
256,192,340683,1,0,0:0:0:0:
256,192,340740,1,8,0:0:0:0:
256,192,340826,1,0,0:0:0:0:
256,192,340912,1,8,0:0:0:0:
256,192,340968,1,8,0:0:0:0:
256,192,341025,1,8,0:0:0:0:
256,192,341084,1,8,0:0:0:0:
256,192,341141,1,8,0:0:0:0:
256,192,341198,1,8,0:0:0:0:
256,192,341255,1,0,0:0:0:0:
256,192,341598,1,8,0:0:0:0:
256,192,341941,1,0,0:0:0:0:
256,192,342283,1,8,0:0:0:0:
256,192,342626,1,0,0:0:0:0:
256,192,342969,1,8,0:0:0:0:
256,192,343312,1,0,0:0:0:0:
256,192,343483,1,0,0:0:0:0:
256,192,343655,1,8,0:0:0:0:
256,192,343826,1,8,0:0:0:0:
256,192,343998,1,0,0:0:0:0:
256,192,344341,1,8,0:0:0:0:
256,192,344683,1,0,0:0:0:0:
256,192,345026,1,8,0:0:0:0:
256,192,345369,1,0,0:0:0:0:
256,192,345712,1,8,0:0:0:0:
256,192,346055,1,0,0:0:0:0:
256,192,346226,1,0,0:0:0:0:
256,192,346398,1,8,0:0:0:0:
256,192,346741,1,0,0:0:0:0:
256,192,347083,1,8,0:0:0:0:
256,192,347426,1,0,0:0:0:0:
256,192,347769,1,8,0:0:0:0:
256,192,348112,1,0,0:0:0:0:
256,192,348455,1,8,0:0:0:0:
256,192,348798,1,0,0:0:0:0:
256,192,348969,1,0,0:0:0:0:
256,192,349141,1,8,0:0:0:0:
256,192,349312,1,8,0:0:0:0:
256,192,349483,1,0,0:0:0:0:
256,192,349826,1,8,0:0:0:0:
256,192,350169,1,0,0:0:0:0:
256,192,350512,1,8,0:0:0:0:
256,192,350855,1,0,0:0:0:0:
256,192,352226,1,0,0:0:0:0:
256,192,352569,1,8,0:0:0:0:
256,192,352912,1,0,0:0:0:0:
256,192,353255,1,8,0:0:0:0:
256,192,353598,1,0,0:0:0:0:
256,192,353941,1,8,0:0:0:0:
256,192,354283,1,0,0:0:0:0:
256,192,354455,1,0,0:0:0:0:
256,192,354626,1,8,0:0:0:0:
256,192,354798,1,8,0:0:0:0:
256,192,354969,1,0,0:0:0:0:
256,192,355312,1,8,0:0:0:0:
256,192,355655,1,0,0:0:0:0:
256,192,355998,1,8,0:0:0:0:
256,192,356341,1,0,0:0:0:0:
256,192,356683,1,8,0:0:0:0:
256,192,357026,1,0,0:0:0:0:
256,192,357198,1,0,0:0:0:0:
256,192,357369,1,8,0:0:0:0:
256,192,357712,1,0,0:0:0:0:
256,192,358055,1,8,0:0:0:0:
256,192,358398,1,0,0:0:0:0:
256,192,358741,1,8,0:0:0:0:
256,192,359083,1,0,0:0:0:0:
256,192,359426,1,8,0:0:0:0:
256,192,359769,1,0,0:0:0:0:
256,192,359941,1,0,0:0:0:0:
256,192,360112,1,8,0:0:0:0:
256,192,360283,1,8,0:0:0:0:
256,192,360455,1,0,0:0:0:0:
256,192,360798,1,8,0:0:0:0:
256,192,361141,1,0,0:0:0:0:
256,192,361483,1,8,0:0:0:0:
256,192,361826,12,0,363198,0:0:0:0:
