osu file format v14

[General]
AudioFilename: audio.mp3
AudioLeadIn: 0
PreviewTime: 77254
Countdown: 0
SampleSet: Soft
StackLeniency: 0
Mode: 0
LetterboxInBreaks: 0
WidescreenStoryboard: 0

[Editor]
Bookmarks: 1140,23082,45025,66968,77940,88911,99882,110854,132797,154740,176682,187654,198625,209597,220571,231540,253482,264454,275425,297368,308340,319311,341254,362854
DistanceSpacing: 3.2
BeatDivisor: 4
GridSize: 32
TimelineZoom: 2.999999

[Metadata]
Title:Light it up
TitleUnicode:Light it up
Artist:Camellia
ArtistUnicode:かめりあ
Creator:Opsi
Version:Brilliance
Source:
Tags:Cametek Crystallized Dubstep Drum and Bass dnb Wubstep Artcore Melodic Marathon Technical Fast Sliders
BeatmapID:1378892
BeatmapSetID:650738

[Difficulty]
HPDrainRate:4.6
CircleSize:4
OverallDifficulty:8.6
ApproachRate:9.6
SliderMultiplier:2.4
SliderTickRate:1

[Events]
//Background and Video events
0,0,"valentina-remenar-dreams-by-valentina-remenar.jpg",0,0
//Break Periods
//Storyboard Layer 0 (Background)
//Storyboard Layer 1 (Fail)
//Storyboard Layer 2 (Pass)
//Storyboard Layer 3 (Foreground)
//Storyboard Sound Samples

[TimingPoints]
1143,342.857142857143,4,2,1,45,1,0
1143,-142.857142857143,4,2,1,45,0,0
1400,-142.857142857143,4,2,1,10,0,0
1485,-142.857142857143,4,2,1,45,0,0
2085,-142.857142857143,4,2,1,10,0,0
2170,-142.857142857143,4,2,1,45,0,0
2771,-142.857142857143,4,2,1,10,0,0
2856,-142.857142857143,4,2,1,45,0,0
3028,-142.857142857143,4,2,5,45,0,0
3200,-142.857142857143,4,2,1,45,0,0
4143,-142.857142857143,4,2,1,10,0,0
4228,-142.857142857143,4,2,1,45,0,0
4828,-142.857142857143,4,2,1,10,0,0
4913,-142.857142857143,4,2,1,45,0,0
5514,-142.857142857143,4,2,1,10,0,0
5599,-142.857142857143,4,2,1,45,0,0
6200,-142.857142857143,4,2,1,10,0,0
6285,-142.857142857143,4,2,1,45,0,0
6885,-142.857142857143,4,2,1,10,0,0
6970,-142.857142857143,4,2,1,45,0,0
7571,-142.857142857143,4,2,1,10,0,0
7656,-142.857142857143,4,2,1,45,0,0
8257,-142.857142857143,4,2,1,10,0,0
8342,-142.857142857143,4,2,1,45,0,0
8514,-142.857142857143,4,2,5,45,0,0
8685,-142.857142857143,4,2,1,45,0,0
9628,-142.857142857143,4,2,1,10,0,0
9713,-142.857142857143,4,2,1,45,0,0
10314,-142.857142857143,4,2,1,10,0,0
10399,-142.857142857143,4,2,1,45,0,0
11000,-142.857142857143,4,2,1,10,0,0
11085,-142.857142857143,4,2,1,45,0,0
11685,-142.857142857143,4,2,1,10,0,0
11770,-142.857142857143,4,2,1,45,0,0
12371,-142.857142857143,4,2,1,10,0,0
12456,-142.857142857143,4,2,1,45,0,0
14000,-142.857142857143,4,2,5,45,0,0
14171,-142.857142857143,4,2,1,45,0,0
14857,-200,4,2,1,45,0,0
17171,-153.846153846154,4,2,5,45,0,0
17257,-153.846153846154,4,2,1,45,0,0
17428,-125,4,2,5,45,0,0
17514,-125,4,2,1,45,0,0
17600,-200,4,2,1,45,0,0
19485,-142.857142857143,4,2,5,45,0,0
19657,-142.857142857143,4,2,1,45,0,0
20343,-227.272727272727,4,2,1,45,0,0
22743,-400,4,2,1,45,0,0
23085,-83.3333333333333,4,2,1,65,0,0
25485,-200,4,2,1,65,0,0
25828,-83.3333333333333,4,2,1,65,0,0
28057,-55.5555555555556,4,2,1,65,0,0
28571,-83.3333333333333,4,2,1,65,0,0
30114,-45.4545454545455,4,2,1,45,0,0
30285,-62.5,4,2,1,45,0,0
30800,-100,4,2,1,45,0,0
32343,-71.4285714285714,4,2,1,45,0,0
32685,-500,4,2,1,45,0,0
33028,-166.666666666667,4,2,1,45,0,0
33371,-83.3333333333333,4,2,1,45,0,0
33714,-166.666666666667,4,2,1,45,0,0
34057,-71.4285714285714,4,2,1,45,0,0
34400,-55.5555555555556,4,2,1,45,0,0
34743,-83.3333333333333,4,2,1,45,0,0
35085,-55.5555555555556,4,2,1,45,0,0
35428,-71.4285714285714,4,2,1,45,0,0
35771,-55.5555555555556,4,2,1,45,0,0
35943,-125,4,2,1,45,0,0
36114,-83.3333333333333,4,2,1,45,0,0
36457,-250,4,2,1,45,0,0
36800,-71.4285714285714,4,2,1,45,0,0
37143,-55.5555555555556,4,2,1,45,0,0
37485,-83.3333333333333,4,2,1,45,0,0
37827,-55.5555555555556,4,2,1,45,0,0
38171,-71.4285714285714,4,2,1,45,0,0
38514,-55.5555555555556,4,2,1,45,0,0
38857,-83.3333333333333,4,2,1,45,0,0
39028,-55.5555555555556,4,2,1,65,0,0
39543,-62.5,4,2,1,80,0,0
39714,-58.8235294117647,4,2,1,80,0,0
39885,-55.5555555555556,4,2,1,80,0,0
40571,-83.3333333333333,4,2,1,80,0,0
40914,-62.5,4,2,1,80,0,0
41085,-58.8235294117647,4,2,1,80,0,0
41256,-55.5555555555556,4,2,1,80,0,0
41600,-55.5555555555556,4,2,1,80,0,0
41943,-111.111111111111,4,2,1,80,0,0
43657,-55.5555555555555,4,2,1,80,0,0
44000,-100,4,2,1,80,0,0
44171,-55.5555555555555,4,2,1,80,0,0
44514,-100,4,2,1,80,0,0
44685,-50,4,2,3,80,0,0
45543,-333.333333333333,4,2,1,35,0,0
55314,-333.333333333333,4,2,1,15,0,0
56000,-285.714285714286,4,2,1,35,0,0
61485,-222.222222222222,4,2,1,35,0,0
64743,-166.666666666667,4,2,1,35,0,0
66114,-125,4,2,1,35,0,0
66628,-250,4,2,1,35,0,0
66971,-100,4,2,1,45,0,0
68685,-100,4,2,1,55,0,0
72457,-83.3333333333333,4,2,1,65,0,0
75200,-76.9230769230769,4,2,1,65,0,0
76228,-125,4,2,1,65,0,0
77600,-62.5,4,2,3,75,0,0
77943,-333.333333333333,4,2,1,80,0,0
78971,-166.666666666667,4,2,1,80,0,0
80343,-166.666666666667,4,2,1,55,0,0
80685,-333.333333333333,4,2,1,80,0,0
81200,-166.666666666667,4,2,1,80,0,0
82057,-333.333333333333,4,2,1,80,0,0
82571,-166.666666666667,4,2,1,80,0,0
83428,-333.333333333333,4,2,1,80,0,0
84457,-166.666666666667,4,2,1,80,0,0
85828,-55.5555555555556,4,2,1,80,0,0
86171,-333.333333333333,4,2,1,80,0,0
86685,-166.666666666667,4,2,1,80,0,0
87543,-333.333333333333,4,2,1,80,0,0
88057,-166.666666666667,4,2,1,80,0,0
88914,-100,4,2,1,80,0,0
92171,-83.3333333333333,4,2,1,80,0,0
92514,-83.3333333333333,4,2,1,80,0,0
93028,-100,4,2,1,80,0,0
93543,-83.3333333333333,4,2,1,80,0,0
93714,-83.3333333333333,4,2,4,80,0,0
93885,-83.3333333333333,4,2,1,80,0,0
94400,-100,4,2,1,80,0,0
96800,-50,4,2,1,80,0,0
97143,-100,4,2,1,80,0,0
97657,-83.3333333333333,4,2,1,80,0,0
97828,-83.3333333333333,4,2,4,80,0,0
98000,-83.3333333333333,4,2,1,80,0,0
98171,-100,4,2,1,80,0,0
99543,-50,4,2,1,80,0,0
99885,-142.857142857143,4,2,1,55,0,0
100914,-500,4,2,1,65,0,0
101257,-142.857142857143,4,2,1,55,0,0
102285,-100,4,2,1,70,0,0
102628,-125,4,2,1,60,0,0
103657,-125,4,2,1,70,0,0
104000,-111.111111111111,4,2,1,65,0,0
105371,-111.111111111111,4,2,2,75,0,0
105457,-111.111111111111,4,2,1,75,0,0
105714,-111.111111111111,4,2,2,75,0,0
105800,-111.111111111111,4,2,1,75,0,0
106057,-111.111111111111,4,2,2,75,0,0
106143,-111.111111111111,4,2,1,75,0,0
106400,-111.111111111111,4,2,2,75,0,0
106486,-111.111111111111,4,2,1,75,0,0
106743,-111.111111111111,4,2,2,75,0,0
106829,-111.111111111111,4,2,1,75,0,0
107085,-111.111111111111,4,2,2,75,0,0
107171,-111.111111111111,4,2,1,75,0,0
107428,-111.111111111111,4,2,2,75,0,0
107514,-111.111111111111,4,2,1,75,0,0
107771,-111.111111111111,4,2,2,75,0,0
107857,-111.111111111111,4,2,1,75,0,0
108114,-76.9230769230769,4,2,2,75,0,0
108200,-76.9230769230769,4,2,1,75,0,0
108457,-76.9230769230769,4,2,2,75,0,0
108543,-76.9230769230769,4,2,1,75,0,0
108800,-76.9230769230769,4,2,2,75,0,0
108886,-76.9230769230769,4,2,1,75,0,0
109143,-76.9230769230769,4,2,2,75,0,0
109229,-76.9230769230769,4,2,1,75,0,0
109485,-76.9230769230769,4,2,2,75,0,0
110685,-200,4,2,1,75,0,0
110857,-50,4,2,1,80,0,1
111200,-50,4,2,2,80,0,0
111543,-45.4545454545455,4,2,2,80,0,0
111628,-45.4545454545455,4,2,1,80,0,0
112228,-45.4545454545455,4,2,2,80,0,0
112400,-45.4545454545455,4,2,1,80,0,0
112571,-66.6666666666667,4,2,2,80,0,0
112914,-83.3333333333333,4,2,2,65,0,0
113000,-83.3333333333333,4,2,1,65,0,0
113600,-50,4,2,2,80,0,0
114371,-50,4,2,1,80,0,0
114971,-45.4545454545455,4,2,2,80,0,0
115143,-50,4,2,1,80,0,0
115314,-55.5555555555556,4,2,2,80,0,0
115657,-200,4,2,1,80,0,0
115828,-47.6190476190476,4,2,1,80,0,0
116343,-50,4,2,2,80,0,0
117114,-50,4,2,1,80,0,0
117714,-45.4545454545455,4,2,2,80,0,0
117885,-50,4,2,1,80,0,0
118057,-66.6666666666667,4,2,2,80,0,0
118571,-66.6666666666667,4,2,1,80,0,0
118914,-83.3333333333333,4,2,1,80,0,0
119085,-83.3333333333333,4,2,2,80,0,0
119257,-45.4545454545455,4,2,1,80,0,0
119428,-45.4545454545455,4,2,2,80,0,0
119600,-45.4545454545455,4,2,1,80,0,0
119771,-45.4545454545455,4,2,2,80,0,0
119857,-45.4545454545455,4,2,1,80,0,0
120628,-333.333333333333,4,2,1,40,0,0
120971,-90.9090909090908,4,2,1,50,0,0
121314,-55.5555555555556,4,2,1,60,0,0
121657,-55.5555555555556,4,2,1,70,0,0
121828,-50,4,2,1,80,0,1
122171,-50,4,2,2,80,0,0
122600,-50,4,2,1,80,0,0
123200,-45.4545454545455,4,2,2,80,0,0
123371,-50,4,2,1,80,0,0
123543,-66.6666666666667,4,2,2,80,0,0
124057,-66.6666666666667,4,2,1,80,0,0
124400,-83.3333333333333,4,2,1,80,0,0
124571,-50,4,2,2,80,0,0
125343,-45.4545454545455,4,2,1,80,0,0
125943,-45.4545454545455,4,2,2,80,0,0
126114,-45.4545454545455,4,2,1,80,0,0
126285,-50,4,2,2,80,0,0
126628,-200,4,2,1,80,0,0
126800,-47.6190476190476,4,2,1,80,0,0
126971,-100,4,2,1,80,0,0
127314,-333.333333333333,4,2,1,80,0,0
127657,-66.6666666666667,4,2,1,85,0,0
128000,-66.6666666666667,4,2,2,85,0,0
128171,-66.6666666666667,4,2,1,85,0,0
128343,-66.6666666666667,4,2,2,85,0,0
128514,-66.6666666666667,4,2,1,85,0,0
128685,-66.6666666666667,4,2,2,85,0,0
128857,-40,4,2,1,85,0,0
129028,-40,4,2,2,85,0,0
129200,-66.6666666666667,4,2,1,85,0,0
129371,-40,4,2,2,85,0,0
129543,-66.6666666666667,4,2,1,85,0,0
129714,-40,4,2,2,85,0,0
129885,-66.6666666666667,4,2,1,85,0,0
130057,-45.4545454545455,4,2,2,90,0,0
130228,-66.6666666666667,4,2,1,90,0,0
130400,-45.4545454545455,4,2,2,90,0,0
130571,-66.6666666666667,4,2,1,90,0,0
130743,-45.4545454545455,4,2,2,90,0,0
130914,-66.6666666666667,4,2,1,90,0,0
131085,-50,4,2,2,90,0,0
131171,-50,4,2,1,90,0,0
131428,-666.666666666667,4,2,1,45,0,0
132457,-66.6666666666667,4,2,1,45,0,0
132800,-50,4,2,1,80,0,1
133143,-83.3333333333333,4,2,1,80,0,0
133485,-50,4,2,2,80,0,0
133571,-50,4,2,1,80,0,0
134171,-100,4,2,2,80,0,0
134257,-100,4,2,1,80,0,0
134857,-100,4,2,2,80,0,0
134943,-100,4,2,1,80,0,0
135200,-200,4,2,1,80,0,0
135543,-50,4,2,2,80,0,0
135885,-83.3333333333333,4,2,1,80,0,0
136228,-50,4,2,2,80,0,0
136314,-50,4,2,1,80,0,0
136914,-66.6666666666667,4,2,2,80,0,0
137000,-66.6666666666667,4,2,1,80,0,0
137600,-66.6666666666667,4,2,2,80,0,0
137685,-66.6666666666667,4,2,1,80,0,0
137943,-45.4545454545455,4,2,1,80,0,0
138285,-50,4,2,2,80,0,0
138628,-83.3333333333333,4,2,1,80,0,0
138971,-50,4,2,2,80,0,0
139057,-50,4,2,1,80,0,0
139657,-100,4,2,2,80,0,0
139743,-100,4,2,1,80,0,0
140343,-100,4,2,2,80,0,0
140428,-100,4,2,1,80,0,0
140685,-200,4,2,1,80,0,0
140857,-66.6666666666667,4,2,1,80,0,0
141028,-66.6666666666667,4,2,2,80,0,0
141200,-100,4,2,1,80,0,0
141714,-100,4,2,2,80,0,0
141800,-66.6666666666667,4,2,1,80,0,0
142400,-66.6666666666667,4,2,2,80,0,0
142571,-100,4,2,1,80,0,0
142743,-83.3333333333333,4,2,1,80,0,0
142914,-71.4285714285714,4,2,1,80,0,0
143085,-62.5,4,2,2,80,0,0
143257,-62.5,4,2,1,80,0,0
143428,-333.333333333333,4,2,1,80,0,0
143771,-50,4,2,1,80,0,1
144114,-83.3333333333333,4,2,1,80,0,0
144457,-83.3333333333333,4,2,2,80,0,0
144543,-50,4,2,1,80,0,0
145143,-100,4,2,2,80,0,0
145228,-100,4,2,1,80,0,0
145828,-100,4,2,2,80,0,0
145914,-100,4,2,1,80,0,0
146171,-200,4,2,1,80,0,0
146514,-50,4,2,2,80,0,0
146857,-83.3333333333333,4,2,1,80,0,0
147200,-83.3333333333333,4,2,2,80,0,0
147285,-50,4,2,1,80,0,0
147885,-66.6666666666667,4,2,2,80,0,0
147971,-66.6666666666667,4,2,1,80,0,0
148571,-66.6666666666667,4,2,2,80,0,0
148743,-66.6666666666667,4,2,1,80,0,0
148914,-40,4,2,1,90,0,0
149257,-50,4,2,1,90,0,1
149771,-83.3333333333333,4,2,1,90,0,1
149943,-50,4,2,2,90,0,1
150028,-50,4,2,1,90,0,1
150114,-58.8235294117647,4,2,1,90,0,1
150457,-83.3333333333333,4,2,1,90,0,1
150628,-47.6190476190476,4,2,2,90,0,1
150714,-47.6190476190476,4,2,1,90,0,1
150800,-58.8235294117647,4,2,1,90,0,1
151143,-83.3333333333333,4,2,1,90,0,1
151314,-45.4545454545455,4,2,2,90,0,1
151400,-45.4545454545455,4,2,1,90,0,1
151485,-58.8235294117647,4,2,1,90,0,1
151828,-83.3333333333333,4,2,1,90,0,1
152000,-40,4,2,1,90,0,1
152171,-40,4,2,2,90,0,1
152257,-40,4,2,1,90,0,1
152514,-33.3333333333333,4,2,1,90,0,1
153371,-66.6666666666667,4,2,2,90,0,1
154400,-50,4,2,3,90,0,1
154743,-285.714285714286,4,2,1,45,0,0
160228,-222.222222222222,4,2,1,45,0,0
163485,-166.666666666667,4,2,1,45,0,0
164857,-125,4,2,1,45,0,0
165371,-250,4,2,1,45,0,0
165714,-100,4,2,1,55,0,0
171200,-83.3333333333333,4,2,1,65,0,0
173943,-76.9230769230769,4,2,1,65,0,0
175657,-76.9230769230769,4,2,1,75,0,0
176685,-400,4,2,1,25,0,0
186285,-400,4,2,1,35,0,0
186800,-100,4,2,1,55,0,0
187314,-55.5555555555556,4,2,3,75,0,0
187657,-333.333333333333,4,2,1,80,0,0
188685,-142.857142857143,4,2,1,80,0,0
190057,-142.857142857143,4,2,1,55,0,0
190400,-333.333333333333,4,2,1,80,0,0
190914,-142.857142857143,4,2,1,80,0,0
191771,-333.333333333333,4,2,1,80,0,0
192285,-142.857142857143,4,2,1,80,0,0
193143,-333.333333333333,4,2,1,80,0,0
194171,-133.333333333333,4,2,1,80,0,0
195543,-50,4,2,1,80,0,0
195885,-333.333333333333,4,2,1,80,0,0
196399,-142.857142857143,4,2,1,80,0,0
197257,-333.333333333333,4,2,1,80,0,0
197771,-142.857142857143,4,2,1,80,0,0
198628,-100,4,2,1,80,0,0
201885,-83.3333333333333,4,2,1,80,0,0
202057,-83.3333333333333,4,2,4,80,0,0
202228,-83.3333333333333,4,2,1,80,0,0
202743,-100,4,2,1,80,0,0
203257,-83.3333333333333,4,2,1,80,0,0
203428,-83.3333333333333,4,2,4,80,0,0
203599,-83.3333333333333,4,2,1,80,0,0
204114,-100,4,2,1,80,0,0
206514,-50,4,2,1,80,0,0
206857,-100,4,2,1,80,0,0
207371,-83.3333333333333,4,2,1,80,0,0
207543,-83.3333333333333,4,2,4,80,0,0
207714,-83.3333333333333,4,2,1,80,0,0
207885,-100,4,2,1,80,0,0
209257,-50,4,2,1,80,0,0
209600,-142.857142857143,4,2,3,45,0,0
209771,-142.857142857143,4,2,1,45,0,0
210971,-125,4,2,1,45,0,0
211657,-100,4,2,1,45,0,0
212514,-111.111111111111,4,2,1,55,0,0
214743,-66.6666666666667,4,2,1,65,0,0
215085,-100,4,2,1,55,0,0
217143,-100,4,2,1,65,0,0
217828,-90.9090909090909,4,2,1,70,0,0
220571,-83.3333333333333,4,2,1,75,0,0
221600,-333.333333333333,4,2,1,65,0,0
221943,-333.333333333333,4,2,1,75,0,0
222114,-83.3333333333333,4,2,1,75,0,0
222971,-66.6666666666667,4,2,1,75,0,0
223314,-76.9230769230769,4,2,1,75,0,0
224685,-55.5555555555556,4,2,1,80,0,0
225371,-100,4,2,1,55,0,0
226057,-111.111111111111,4,2,2,85,0,0
226143,-111.111111111111,4,2,1,85,0,0
226400,-111.111111111111,4,2,2,85,0,0
226486,-111.111111111111,4,2,1,85,0,0
226743,-111.111111111111,4,2,2,85,0,0
226829,-111.111111111111,4,2,1,85,0,0
227085,-111.111111111111,4,2,2,85,0,0
227171,-111.111111111111,4,2,1,85,0,0
227428,-111.111111111111,4,2,2,85,0,0
227514,-111.111111111111,4,2,1,85,0,0
227771,-111.111111111111,4,2,2,85,0,0
227857,-111.111111111111,4,2,1,85,0,0
228114,-111.111111111111,4,2,2,85,0,0
228200,-111.111111111111,4,2,1,85,0,0
228457,-111.111111111111,4,2,2,85,0,0
228543,-111.111111111111,4,2,1,85,0,0
228800,-76.9230769230769,4,2,2,85,0,0
228885,-76.9230769230769,4,2,1,85,0,0
229143,-76.9230769230769,4,2,2,85,0,0
229228,-76.9230769230769,4,2,1,85,0,0
229485,-76.9230769230769,4,2,2,85,0,0
229570,-76.9230769230769,4,2,1,85,0,0
229828,-76.9230769230769,4,2,2,85,0,0
229913,-76.9230769230769,4,2,1,85,0,0
230171,-76.9230769230769,4,2,2,85,0,0
231371,-200,4,2,1,75,0,0
231543,-45.4545454545455,4,2,1,90,0,1
232228,-45.4545454545455,4,2,2,90,0,1
232314,-45.4545454545455,4,2,1,90,0,1
232743,-52.6315789473684,4,2,1,90,0,1
232914,-45.4545454545455,4,2,2,90,0,1
233000,-45.4545454545455,4,2,1,90,0,1
233600,-45.4545454545455,4,2,2,90,0,1
233685,-45.4545454545455,4,2,1,90,0,1
234457,-50,4,2,1,90,0,1
234971,-50,4,2,2,90,0,1
235057,-41.6666666666667,4,2,1,90,0,1
235228,-45.4545454545455,4,2,1,90,0,1
235657,-45.4545454545455,4,2,2,90,0,1
235743,-45.4545454545455,4,2,1,90,0,1
236343,-45.4545454545455,4,2,2,90,0,1
236428,-45.4545454545455,4,2,1,90,0,1
237543,-55.5555555555556,4,2,1,90,0,1
237714,-55.5555555555556,4,2,2,90,0,1
237800,-45.4545454545455,4,2,1,90,0,1
238228,-55.5555555555556,4,2,1,90,0,1
238400,-45.4545454545455,4,2,2,90,0,1
238485,-45.4545454545455,4,2,1,90,0,1
239085,-45.4545454545455,4,2,2,90,0,1
239171,-45.4545454545455,4,2,1,90,0,1
240200,-37.037037037037,4,2,1,90,0,1
240457,-45.4545454545455,4,2,2,90,0,1
240543,-45.4545454545455,4,2,1,90,0,1
240714,-55.5555555555556,4,2,1,90,0,1
240971,-45.4545454545455,4,2,1,90,0,1
241143,-100,4,2,2,90,0,1
241228,-100,4,2,1,90,0,1
241314,-41.6666666666667,4,2,1,90,0,1
241828,-41.6666666666667,4,2,2,90,0,1
241914,-41.6666666666667,4,2,1,90,0,1
242171,-45.4545454545455,4,2,1,90,0,1
242514,-45.4545454545455,4,2,1,90,0,1
243200,-45.4545454545455,4,2,2,90,0,1
243285,-45.4545454545455,4,2,1,90,0,1
243628,-55.5555555555556,4,2,1,90,0,1
243885,-45.4545454545455,4,2,2,90,0,1
243971,-45.4545454545455,4,2,1,90,0,1
244571,-45.4545454545455,4,2,2,90,0,1
244657,-45.4545454545455,4,2,1,90,0,1
245943,-45.4545454545455,4,2,2,90,0,1
246028,-45.4545454545455,4,2,1,90,0,1
246628,-40,4,2,2,90,0,1
246714,-40,4,2,1,90,0,1
246885,-45.4545454545455,4,2,1,90,0,1
247314,-45.4545454545455,4,2,2,90,0,1
247400,-55.5555555555556,4,2,1,90,0,1
248000,-58.8235294117647,4,2,1,90,0,1
249028,-45.4545454545455,4,2,1,90,0,1
249371,-52.6315789473684,4,2,1,90,0,1
250400,-40,4,2,1,90,0,1
251257,-33.3333333333333,4,2,1,90,0,1
252114,-45.4545454545455,4,2,1,90,0,1
252628,-66.6666666666667,4,2,1,75,0,0
253057,-40,4,2,1,75,0,0
253314,-66.6666666666667,4,2,1,75,0,0
253485,-45.4545454545455,4,2,1,90,0,1
254171,-45.4545454545455,4,2,2,90,0,1
254257,-45.4545454545455,4,2,1,90,0,1
254685,-55.5555555555556,4,2,1,90,0,1
254857,-45.4545454545455,4,2,2,90,0,1
254943,-45.4545454545455,4,2,1,90,0,1
255543,-45.4545454545455,4,2,2,90,0,1
255628,-45.4545454545455,4,2,1,90,0,1
255714,-55.5555555555556,4,2,1,90,0,1
255971,-45.4545454545455,4,2,1,90,0,1
256485,-55.5555555555556,4,2,1,90,0,1
256657,-40,4,2,1,90,0,1
256914,-45.4545454545455,4,2,2,90,0,1
257000,-45.4545454545455,4,2,1,90,0,1
257600,-45.4545454545455,4,2,2,90,0,1
257685,-45.4545454545455,4,2,1,90,0,1
257857,-55.5555555555556,4,2,1,90,0,1
258285,-40,4,2,1,90,0,1
258628,-40,4,2,8,80,0,1
258714,-40,4,2,1,90,0,1
258800,-33.3333333333333,4,2,1,90,0,1
258971,-45.4545454545455,4,2,1,90,0,1
259228,-55.5555555555556,4,2,1,90,0,1
259657,-55.5555555555556,4,2,2,90,0,1
259743,-45.4545454545455,4,2,1,90,0,1
260085,-55.5555555555556,4,2,1,90,0,1
260343,-45.4545454545455,4,2,2,90,0,1
260428,-45.4545454545455,4,2,1,90,0,1
261028,-45.4545454545455,4,2,2,90,0,1
261200,-55.5555555555556,4,2,1,90,0,1
261457,-45.4545454545455,4,2,1,90,0,1
261714,-41.6666666666667,4,2,1,90,0,1
261971,-62.5,4,2,1,90,0,1
262400,-45.4545454545455,4,2,2,90,0,1
262485,-45.4545454545455,4,2,1,90,0,1
263085,-100,4,2,2,90,0,1
263171,-100,4,2,1,90,0,1
263256,-41.6666666666667,4,2,1,90,0,1
263771,-41.6666666666667,4,2,2,90,0,1
263943,-41.6666666666667,4,2,1,90,0,1
264457,-333.333333333333,4,2,1,65,0,0
264800,-125,4,2,1,75,0,1
266857,-100,4,2,1,75,0,1
267200,-66.6666666666667,4,2,1,75,0,0
267543,-100,4,2,1,75,0,1
269257,-100,4,2,1,85,0,1
269943,-50,4,2,1,75,0,0
270285,-55.5555555555556,4,2,1,90,0,1
270971,-50,4,2,1,90,0,1
271314,-41.6666666666667,4,2,1,75,0,0
271657,-55.5555555555556,4,2,1,90,0,1
272257,-50,4,2,1,90,0,1
272685,-62.5,4,2,1,90,0,1
274057,-40,4,2,1,75,0,1
275428,-100,4,2,1,70,0,0
278685,-83.3333333333333,4,2,1,70,0,0
278857,-83.3333333333333,4,2,4,70,0,0
279028,-100,4,2,1,70,0,0
280057,-83.3333333333333,4,2,1,70,0,0
280228,-83.3333333333333,4,2,4,70,0,0
280400,-100,4,2,1,70,0,0
283314,-50,4,2,1,70,0,0
283657,-100,4,2,1,70,0,0
284171,-83.3333333333333,4,2,1,70,0,0
284343,-83.3333333333333,4,2,4,70,0,0
284514,-100,4,2,1,70,0,0
285543,-74.0740740740741,4,2,1,70,0,0
285714,-83.3333333333333,4,2,4,70,0,0
285886,-100,4,2,1,70,0,0
289657,-83.3333333333333,4,2,1,70,0,0
289828,-83.3333333333333,4,2,4,70,0,0
290000,-100,4,2,1,70,0,0
291028,-83.3333333333333,4,2,1,70,0,0
291200,-83.3333333333333,4,2,4,70,0,0
291371,-100,4,2,1,70,0,0
291885,-83.3333333333333,4,2,1,70,0,0
293943,-58.8235294117647,4,2,1,70,0,0
296000,-45.4545454545455,4,2,1,75,0,0
297371,-100,4,2,1,70,0,0
305257,-50,4,2,1,70,0,0
305600,-111.111111111111,4,2,1,60,0,0
306971,-125,4,2,1,50,0,0
307657,-76.9230769230769,4,2,1,50,0,0
308343,-66.6666666666667,4,2,1,65,0,0
310914,-100,4,2,1,65,0,0
311085,-66.6666666666667,4,2,1,65,0,0
313485,-50,4,2,1,65,0,0
313828,-58.8235294117647,4,2,1,75,0,1
316228,-50,4,2,1,75,0,1
316571,-100,4,2,1,75,0,1
317943,-100,4,2,1,75,0,0
318114,-100,4,2,1,55,0,0
318628,-83.3333333333333,4,2,1,65,0,0
321714,-200,4,2,1,65,0,0
322057,-83.3333333333333,4,2,1,65,0,0
324285,-55.5555555555556,4,2,1,65,0,0
324799,-83.3333333333333,4,2,1,65,0,0
326343,-62.5,4,2,1,45,0,0
326858,-100,4,2,1,45,0,0
330285,-71.4285714285714,4,2,1,45,0,0
330628,-55.5555555555556,4,2,1,45,0,0
330971,-83.3333333333333,4,2,1,45,0,0
331313,-55.5555555555556,4,2,1,45,0,0
331656,-71.4285714285714,4,2,1,45,0,0
331999,-55.5555555555556,4,2,1,45,0,0
332171,-125,4,2,1,45,0,0
332342,-83.3333333333333,4,2,1,45,0,0
332685,-250,4,2,1,45,0,0
333028,-71.4285714285714,4,2,1,45,0,0
333371,-55.5555555555556,4,2,1,45,0,0
333713,-83.3333333333333,4,2,1,45,0,0
334055,-55.5555555555556,4,2,1,45,0,0
334399,-71.4285714285714,4,2,1,45,0,0
334742,-55.5555555555556,4,2,1,45,0,0
335085,-83.3333333333333,4,2,1,45,0,0
335256,-55.5555555555556,4,2,1,65,0,0
335771,-62.5,4,2,1,80,0,0
335943,-58.8235294117647,4,2,1,80,0,0
336113,-55.5555555555556,4,2,1,80,0,0
336799,-83.3333333333333,4,2,1,80,0,0
337142,-62.5,4,2,1,80,0,0
337314,-58.8235294117647,4,2,1,80,0,0
337484,-55.5555555555556,4,2,1,80,0,0
337828,-55.5555555555556,4,2,1,80,0,0
338171,-111.111111111111,4,2,1,80,0,0
339885,-55.5555555555555,4,2,1,80,0,0
340228,-100,4,2,1,80,0,0
340400,-55.5555555555555,4,2,1,80,0,0
340743,-100,4,2,1,80,0,0
340913,-52.6315789473684,4,2,3,80,0,0
341257,-142.857142857143,4,2,1,45,0,0
341514,-142.857142857143,4,2,1,10,0,0
341599,-142.857142857143,4,2,1,45,0,0
342200,-142.857142857143,4,2,1,10,0,0
342285,-142.857142857143,4,2,1,45,0,0
342885,-142.857142857143,4,2,1,10,0,0
342970,-142.857142857143,4,2,1,45,0,0
343143,-142.857142857143,4,2,5,45,0,0
343485,-142.857142857143,4,2,1,45,0,0
344000,-200,4,2,1,45,0,0
346314,-153.846153846154,4,2,5,45,0,0
346400,-153.846153846154,4,2,1,45,0,0
346571,-125,4,2,5,45,0,0
346743,-200,4,2,1,45,0,0
348628,-142.857142857143,4,2,5,45,0,0
348970,-142.857142857143,4,2,1,45,0,0
349485,-142.857142857143,4,2,1,45,0,0
349743,-142.857142857143,4,2,1,10,0,0
349828,-142.857142857143,4,2,1,45,0,0
350171,-166.666666666667,4,2,1,45,0,0
350428,-142.857142857143,4,2,1,10,0,0
350513,-142.857142857143,4,2,1,45,0,0
350857,-200,4,2,1,45,0,0
351114,-142.857142857143,4,2,1,10,0,0
351199,-200,4,2,1,45,0,0
352485,-142.857142857143,4,2,1,10,0,0
352570,-142.857142857143,4,2,1,45,0,0
352743,-181.818181818182,4,2,1,45,0,0
353171,-181.818181818182,4,2,1,10,0,0
353257,-181.818181818182,4,2,1,45,0,0
353600,-166.666666666667,4,2,1,45,0,0
353857,-181.818181818182,4,2,1,10,0,0
353943,-181.818181818182,4,2,1,45,0,0
354114,-142.857142857143,4,2,5,45,0,0
354456,-142.857142857143,4,2,1,45,0,0
354457,-142.857142857143,4,2,1,45,0,0
354971,-153.846153846154,4,2,1,50,0,0
355228,-181.818181818182,4,2,1,10,0,0
355314,-153.846153846154,4,2,1,50,0,0
355657,-142.857142857143,4,2,1,50,0,0
355914,-181.818181818182,4,2,1,10,0,0
356000,-142.857142857143,4,2,1,50,0,0
356343,-133.333333333333,4,2,1,50,0,0
356600,-181.818181818182,4,2,1,10,0,0
356685,-133.333333333333,4,2,1,50,0,0
357028,-125,4,2,1,50,0,0
357285,-181.818181818182,4,2,1,10,0,0
357371,-125,4,2,1,50,0,0
357714,-117.647058823529,4,2,1,50,0,0
357971,-181.818181818182,4,2,1,10,0,0
358057,-117.647058823529,4,2,1,50,0,0
358400,-111.111111111111,4,2,1,55,0,0
358657,-181.818181818182,4,2,1,10,0,0
358743,-111.111111111111,4,2,1,55,0,0
359085,-105.263157894737,4,2,1,55,0,0
359343,-181.818181818182,4,2,1,10,0,0
359428,-105.263157894737,4,2,1,55,0,0
359600,-105.263157894737,4,2,5,55,0,0
359943,-105.263157894737,4,2,1,55,0,0
360457,-90.9090909090909,4,2,1,55,0,0
360714,-181.818181818182,4,2,1,10,0,0
360800,-90.9090909090909,4,2,1,55,0,0
361400,-181.818181818182,4,2,1,10,0,0
361485,-181.818181818182,4,2,1,55,0,0
361828,-1000,4,2,1,45,0,0
362857,-500,4,2,3,100,0,0

[Colours]
Combo1 : 255,124,81
Combo2 : 240,0,6
Combo3 : 53,53,255
Combo4 : 254,226,160
Combo5 : 238,173,38
Combo6 : 163,70,255
Combo7 : 254,101,154
Combo8 : 128,255,204

[HitObjects]
84,336,1143,38,0,L|216:375,1,125.999996154785,2|0,1:2|0:0,0:0:0:0:
84,336,1485,1,8,0:1:0:0:
45,231,1828,6,0,L|167:268,1,125.999996154785,0|0,1:2|0:0,0:0:0:0:
45,231,2170,1,8,0:1:0:0:
6,126,2514,102,0,L|128:163,1,125.999996154785,0|0,1:2|0:0,0:0:0:0:
6,126,2857,1,8,0:1:0:0:
222,85,3028,86,0,L|111:52,1,83.9999974365235,2|0,0:1|1:0,0:0:0:0:
142,62,3285,1,0,0:0:0:0:
153,47,3371,5,2,0:2:0:0:
181,161,3543,1,8,0:1:0:0:
209,275,3714,1,2,0:2:0:0:
354,365,3885,6,0,P|394:318|403:257,1,125.999996154785,0|0,1:2|0:0,0:0:0:0:
354,365,4227,1,8,0:1:0:0:
512,229,4571,6,0,P|479:176|423:149,1,125.999996154785,2|0,1:2|0:0,0:0:0:0:
512,229,4914,1,8,0:1:0:0:
429,37,5257,102,0,P|368:51|325:96,1,125.999996154785,0|0,1:2|0:0,0:0:0:0:
429,37,5600,1,8,0:1:0:0:
221,56,5943,6,0,P|216:117|245:172,1,125.999996154785,0|0,1:2|0:0,0:0:0:0:
221,56,6285,1,8,0:1:0:0:
122,307,6628,102,0,L|259:251,1,125.999996154785,0|0,1:2|0:0,0:0:0:0:
122,307,6971,1,8,0:1:0:0:
230,355,7143,5,0,0:0:0:0:
241,351,7228,1,0,0:0:0:0:
252,347,7314,2,0,L|368:299,1,125.999996154785,0|0,1:2|0:0,0:0:0:0:
252,347,7657,1,8,0:1:0:0:
367,382,7828,101,0,0:0:0:0:
378,378,7914,1,0,0:0:0:0:
389,374,8000,2,0,L|505:326,1,125.999996154785,0|0,1:2|0:0,0:0:0:0:
389,374,8343,1,8,0:1:0:0:
294,252,8514,86,0,L|380:286,1,83.9999974365235,2|0,0:1|1:0,0:0:0:0:
372,282,8771,1,0,0:0:0:0:
368,299,8857,5,2,0:0:0:0:
347,138,9028,1,8,2:1:0:0:
472,33,9200,1,2,0:0:0:0:
297,69,9371,6,0,P|265:115|281:191,1,125.999996154785,0|0,1:2|0:0,0:0:0:0:
297,69,9714,1,8,2:1:0:0:
168,101,9885,5,0,0:0:0:0:
169,115,9971,1,0,0:0:0:0:
173,126,10057,2,0,P|206:169|283:178,1,125.999996154785,0|0,1:2|0:0,0:0:0:0:
173,126,10400,1,8,2:1:0:0:
162,254,10571,101,0,0:0:0:0:
176,258,10657,1,0,0:0:0:0:
189,258,10743,2,0,P|241:240|273:169,1,125.999996154785,0|0,1:2|0:0,0:0:0:0:
189,258,11086,1,8,2:1:0:0:
309,308,11257,5,0,0:0:0:0:
317,297,11342,1,0,0:0:0:0:
321,284,11428,2,0,P|319:228|263:176,1,125.999996154785,0|0,1:2|0:0,0:0:0:0:
321,284,11771,1,8,2:1:0:0:
337,135,11943,101,0,0:0:0:0:
350,137,12028,1,0,0:0:0:0:
362,139,12114,2,0,L|496:160,1,125.999996154785,0|0,1:2|0:0,0:0:0:0:
362,139,12457,1,8,2:1:0:0:
384,0,12628,5,0,0:0:0:0:
382,13,12714,1,0,0:0:0:0:
380,26,12800,2,0,L|372:88,3,41.9999987182618,0|0|0|0,1:2|0:0|0:0|0:0,0:0:0:0:
362,139,13143,101,8,2:1:0:0:
217,119,13314,5,0,0:0:0:0:
230,121,13400,1,0,0:0:0:0:
243,123,13485,2,0,L|299:130,3,41.9999987182618,0|0|0|0,1:2|0:0|0:0|0:0,0:0:0:0:
362,139,13828,101,8,2:1:0:0:
430,250,14000,86,0,L|336:237,1,83.9999974365235,2|0,0:1|1:0,0:0:0:0:
347,239,14257,1,0,0:0:0:0:
344,256,14343,5,2,0:0:0:0:
487,159,14514,1,8,2:1:0:0:
380,26,14685,1,2,2:2:0:0:
241,60,14857,86,0,L|212:57,3,30,2|0|0|0,1:2|0:0|0:0|0:0,0:0:0:0:
98,82,15200,2,0,L|123:68,3,30,8|0|0|0,1:1|0:0|0:0|0:0,0:0:0:0:
167,140,15543,2,0,L|196:135,3,30,2|0|0|0,1:2|0:0|0:0|0:0,0:0:0:0:
113,223,15885,85,8,1:1:0:0:
119,252,15971,1,0,0:0:0:0:
141,272,16057,1,0,0:0:0:0:
170,277,16143,1,0,0:0:0:0:
206,261,16228,22,0,L|211:206,3,30,2|0|0|0,1:2|0:0|0:0|0:0,0:0:0:0:
306,252,16571,2,0,L|295:280,3,30,8|0|0|0,1:1|0:0|0:2|0:0,0:0:0:0:
385,311,16914,2,0,L|363:332,1,30,2|0,1:2|0:0,0:0:0:0:
281,351,17085,85,0,0:0:0:0:
285,355,17171,2,0,P|260:347|236:329,1,38.9999982147218,2|8,2:1|1:1,0:0:0:0:
313,169,17343,5,0,0:0:0:0:
317,173,17428,2,0,P|341:180|369:204,1,48,2|0,2:1|2:2,0:0:0:0:
209,232,17600,5,2,1:2:0:0:
193,224,17685,1,0,0:0:0:0:
177,219,17771,1,0,0:0:0:0:
162,212,17857,1,0,0:0:0:0:
125,191,17943,86,0,L|123:221,3,30,8|0|0|0,1:0|0:0|0:0|0:0,0:0:0:0:
260,175,18285,21,2,1:2:0:0:
267,172,18371,1,0,0:0:0:0:
273,168,18457,1,0,0:0:0:0:
280,165,18543,1,0,0:0:0:0:
317,145,18628,86,0,L|319:175,3,30,8|0|0|0,1:0|0:0|0:0|0:0,0:0:0:0:
465,153,18971,21,2,1:2:0:0:
463,149,19057,1,0,0:0:0:0:
463,145,19143,1,0,0:0:0:0:
462,141,19229,1,0,0:0:0:0:
454,100,19314,5,8,1:1:0:0:
273,52,19485,2,0,L|355:74,1,83.9999974365235,2|0,0:1|1:2,0:0:0:0:
355,74,19743,1,0,0:0:0:0:
373,79,19828,5,2,0:0:0:0:
215,238,20000,1,8,0:1:0:0:
156,21,20171,1,2,2:2:0:0:
373,79,20343,38,0,B|156:21|156:21|215:238|215:238|314:138|314:138|259:123|259:123|273:172,1,686.400020947266,2|0,0:0|0:0,0:0:0:0:
332,222,22743,86,0,L|300:253,1,45
131,221,23085,22,0,L|177:398,1,143.999995605469,4|2,1:1|0:3,0:0:0:0:
230,217,23343,1,0,0:0:0:0:
231,179,23428,2,0,P|213:144|166:117,1,71.9999978027344,8|0,2:2|2:2,2:2:0:0:
59,74,23600,1,2,0:3:0:0:
35,220,23771,5,2,1:2:0:0:
196,92,23943,1,2,0:3:0:0:
149,289,24114,6,0,L|130:220,1,71.9999978027344,8|0,1:2|0:0,0:0:0:0:
79,53,24285,1,2,0:3:0:0:
322,101,24457,86,0,P|388:90|421:17,1,143.999995605469,2|2,1:2|0:3,0:0:0:0:
196,92,24800,1,8,1:2:0:0:
335,263,24971,6,0,P|348:222|343:184,1,71.9999978027344,2|0,2:2|0:0,0:0:0:0:
322,101,25143,1,2,1:2:0:0:
181,236,25314,2,0,P|217:234|247:216,1,71.9999978027344,2|0,2:2|0:0,0:0:0:0:
34,146,25485,38,0,B|32:187|32:187|39:191|39:191|37:231,1,90,2|0,0:1|0:3,0:3:0:0:
37,232,25828,54,0,L|214:236,1,143.999995605469,2|2,1:2|0:3,0:0:0:0:
257,293,26085,1,0,0:0:0:0:
218,309,26171,2,0,P|211:355|225:394,1,71.9999978027344,8|0,1:2|0:0,0:0:0:0:
394,328,26343,1,2,0:3:0:0:
461,94,26514,5,2,1:2:0:0:
443,106,26600,2,0,L|453:186,1,71.9999978027344,0|2,0:0|0:3,0:0:0:0:
339,234,26771,5,2,2:2:0:0:
375,245,26857,2,0,L|364:164,1,71.9999978027344,8|0,1:2|0:0,0:0:0:0:
271,119,27028,2,0,L|281:199,1,71.9999978027344,2|0,2:2|0:0,0:0:0:0:
184,318,27200,85,2,1:2:0:0:
153,325,27285,1,0,0:0:0:0:
122,316,27371,2,0,P|85:281|79:236,1,71.9999978027344,2|0,0:3|0:0,0:0:0:0:
62,149,27543,5,8,1:2:0:0:
92,140,27628,1,0,0:0:0:0:
122,148,27714,1,2,0:3:0:0:
144,172,27800,1,0,0:0:0:0:
164,241,27885,5,2,1:2:0:0:
164,241,28057,22,0,B|187:167|187:167|208:216,1,107.999996704102,2|0,0:1|0:0,0:0:0:0:
337,46,28228,2,0,B|280:108|205:87|205:87|256:83|290:45,1,215.999993408203,2|2,2:1|0:1,0:0:0:0:
416,115,28485,1,2,0:1:0:0:
396,197,28571,54,0,B|380:268|380:268|440:338,1,143.999995605469,2|2,1:2|0:3,0:0:0:0:
248,296,28828,1,0,0:0:0:0:
287,287,28914,2,0,L|380:267,1,71.9999978027344,8|0,0:0|0:0,0:0:0:0:
490,245,29085,1,2,0:3:0:0:
487,9,29257,5,2,1:2:0:0:
452,19,29343,1,0,0:0:0:0:
429,47,29428,2,0,P|412:82|424:132,1,71.9999978027344,2|0,0:3|0:0,0:0:0:0:
306,200,29600,5,8,1:2:0:0:
333,177,29685,1,0,0:0:0:0:
368,176,29771,1,2,0:3:0:0:
396,197,29857,1,0,0:0:0:0:
355,260,29943,85,2,1:2:0:0:
355,260,30114,54,0,B|372:291|372:291|360:329|360:329|342:292|342:292|353:263,1,132.00000402832,2|0,0:1|0:0,0:0:0:0:
268,169,30285,2,0,B|305:200|305:200|291:153,1,96,8|0,1:2|0:0,0:0:0:0:
434,166,30457,2,0,B|397:197|397:197|411:150,1,96,2|0,2:1|0:0,0:0:0:0:
239,74,30628,5,2,1:2:0:0:
465,73,30800,2,0,P|415:56|324:115,1,120,2|8,2:3|1:2,0:0:0:0:
355,260,31143,1,2,0:3:0:0:
123,241,31314,38,0,B|87:216|87:216|224:212,1,180,2|0,1:2|0:0,0:0:0:0:
297,210,31657,1,8,1:2:0:0:
39,139,31828,6,0,L|158:135,1,120,2|2,0:3|1:2,0:0:0:0:
317,128,32171,1,2,0:3:0:0:
234,353,32343,6,0,P|200:285|302:336,1,251.999992309571,8|0,1:2|0:0,0:0:0:0:
351,294,32685,6,0,L|315:300,1,36
317,128,33028,6,0,L|281:134,1,36,2|0,1:2|0:0,0:0:0:0:
334,211,33200,2,0,L|298:217,1,36,2|0,1:2|0:0,0:0:0:0:
400,111,33371,6,0,L|436:105,1,36,2|0,1:2|0:0,0:0:0:0:
402,125,33457,2,0,L|438:119,1,36,2|0,0:0|0:0,0:0:0:0:
417,194,33543,102,0,L|453:188,1,36,2|0,1:2|0:0,0:0:0:0:
419,208,33629,2,0,L|455:202,1,36,2|0,0:0|0:0,0:0:0:0:
434,277,33714,6,0,L|470:271,1,36,2|0,1:2|0:0,0:0:0:0:
351,294,33885,2,0,L|315:300,1,36,2|0,1:2|0:0,0:0:0:0:
127,219,34057,38,0,L|214:205,1,83.9999974365235,4|0,1:0|0:0,0:0:0:0:
320,189,34228,1,2,0:0:0:0:
378,15,34400,6,0,B|412:61|412:61|395:127,1,107.999996704102,8|0,1:2|0:0,0:0:0:0:
350,293,34571,1,2,0:0:0:0:
227,126,34743,6,0,L|262:119,1,35.9999989013672,2|0,1:2|0:0,0:0:0:0:
288,85,34914,2,0,L|323:78,1,35.9999989013672,2|0,1:2|0:0,0:0:0:0:
350,293,35085,102,0,L|314:168,1,107.999996704102,8|0,1:2|0:0,0:0:0:0:
267,5,35257,1,2,0:0:0:0:
113,0,35428,102,0,P|151:12|177:45,1,83.9999974365235,2|0,1:2|0:0,0:0:0:0:
223,201,35600,1,2,0:0:0:0:
5,112,35771,6,0,P|44:75|96:75,1,107.999996704102,8|0,1:2|0:2,0:2:0:0:
231,248,35943,2,0,L|219:179,1,48,2|0,0:1|0:0,0:0:0:0:
83,267,36114,6,0,L|48:273,1,35.9999989013672,2|0,1:2|2:2,2:2:0:0:
80,254,36200,2,0,L|45:260,1,35.9999989013672,2|0,2:2|2:2,2:2:0:0:
77,241,36285,1,2,2:2:0:0:
213,154,36457,22,0,B|183:160|183:160|175:158|175:158|143:164,1,72,2|0,0:2|0:0,0:0:0:0:
143,164,36800,54,0,L|164:280,1,83.9999974365235,4|0,1:0|0:0,0:0:0:0:
189,382,36971,1,2,0:0:0:0:
163,67,37143,6,0,B|132:106|132:106|142:163,1,107.999996704102,8|0,1:2|0:0,0:0:0:0:
189,382,37314,1,2,0:0:0:0:
302,239,37485,6,0,L|342:233,1,35.9999989013672,2|0,1:2|0:0,0:0:0:0:
258,139,37657,2,0,L|223:130,1,35.9999989013672,2|0,1:2|0:0,0:0:0:0:
55,280,37828,102,0,L|176:262,1,107.999996704102,8|0,1:2|0:0,0:0:0:0:
302,239,38000,1,2,0:0:0:0:
374,92,38171,102,0,P|383:133|374:174,1,83.9999974365235,2|0,1:2|0:0,0:0:0:0:
232,306,38343,1,2,0:0:0:0:
302,17,38514,6,0,P|347:45|374:92,1,107.999996704102,8|0,1:2|0:0,0:0:0:0:
232,306,38685,1,2,0:0:0:0:
409,225,38857,6,0,L|446:235,1,35.9999989013672,2|0,1:2|2:2,2:2:0:0:
406,238,38943,2,0,L|443:248,1,35.9999989013672,2|0,2:2|2:2,2:2:0:0:
402,249,39028,22,0,B|476:270|476:270|431:284,1,107.999996704102,2|0,0:1|0:0,0:0:0:0:
143,245,39200,2,0,B|291:287|291:287|201:315,1,215.999993408203,2|2,0:1|0:1,0:0:0:0:
246,163,39457,1,2,0:1:0:0:
244,178,39543,54,0,B|248:134|248:134|243:118|243:118|246:79,1,96,4|0,1:1|0:0,0:0:0:0:
327,66,39714,2,0,B|325:106|325:106|332:127|332:127|330:173,1,102.000001945496,2|0,2:2|0:0,0:0:0:0:
414,156,39885,2,0,B|416:117|416:117|405:90|405:90|406:50,1,107.999996704102,2|0,2:2|0:0,0:0:0:0:
328,293,40057,5,2,0:0:0:0:
331,283,40143,1,0,0:0:0:0:
334,273,40228,2,0,L|231:305,1,107.999996704102,2|0,2:2|0:0,0:0:0:0:
143,245,40400,2,0,L|40:277,1,107.999996704102,2|0,2:2|0:0,0:0:0:0:
36,42,40571,54,0,P|-1:74|21:118,1,107.999996704102,2|0,1:0|0:0,0:0:0:0:
36,121,40743,2,0,P|75:78|50:43,1,107.999996704102,2|0,1:0|0:0,0:0:0:0:
43,23,40914,38,0,P|95:22|143:55,1,96,4|0,1:1|0:0,0:0:0:0:
222,177,41085,2,0,P|170:178|117:134,1,102.000001945496,2|0,2:2|0:0,0:0:0:0:
204,0,41257,2,0,P|214:52|190:102,1,107.999996704102,2|0,2:2|0:0,0:0:0:0:
360,267,41428,5,2,0:0:0:0:
346,270,41514,1,0,0:0:0:0:
334,273,41600,2,0,P|329:211|364:157,1,107.999996704102,2|0,2:2|0:0,0:0:0:0:
478,127,41771,1,2,1:1:0:0:
431,356,41943,54,0,B|367:388|322:358|322:358|355:362|384:344,1,161.999995056153,2|0,1:1|0:0,0:0:0:0:
334,273,42285,37,4,1:1:0:0:
381,250,42371,1,0,2:2:0:0:
404,200,42457,1,2,2:2:0:0:
390,148,42543,1,0,2:2:0:0:
345,117,42628,1,2,2:2:0:0:
291,122,42714,1,0,2:2:0:0:
253,160,42800,1,2,2:2:0:0:
248,213,42885,1,0,2:2:0:0:
280,258,42971,1,2,2:2:0:0:
285,310,43056,1,0,2:2:0:0:
255,354,43143,1,2,2:2:0:0:
204,367,43228,1,0,2:2:0:0:
158,342,43314,6,0,P|146:308|160:242,1,53.9999983520508,2|0,1:2|0:0,0:0:0:0:
327,194,43485,1,2,0:0:0:0:
110,176,43657,102,8,B|84:185|84:185|112:199,6,53.9999983520508,4|0|0|0|0|0|0,1:0|2:0|2:0|2:0|2:0|2:0|2:0,2:0:0:0:
218,103,44000,2,0,L|220:24,1,60,2|0,0:0|0:0,0:0:0:0:
328,172,44171,6,0,B|352:183|352:183|323:195,6,53.9999983520508,4|0|0|0|0|0|0,1:0|0:0|0:0|0:0|0:0|0:0|0:0,0:0:0:0:
218,103,44514,2,0,L|215:181,1,60,2|0,0:0|0:0,0:0:0:0:
210,288,44685,54,0,B|136:340|72:288|52:226|69:165|135:117|174:145|198:180|185:213|162:229,1,360,8|0,0:1|0:0,0:0:0:0:
28,294,45028,21,4,1:1:0:0:
164,229,45543,1,2,0:0:0:0:
164,229,45714,54,0,P|160:204|151:185,1,35.9999989013672
38,202,46057,2,0,P|60:191|75:176,1,35.9999989013672
225,121,46400,2,0,P|200:116|180:119,1,35.9999989013672,0|0,2:2|2:2,2:2:0:0:
164,229,46743,2,0,P|161:204|151:186,1,35.9999989013672,0|0,2:2|2:2,2:2:0:0:
139,28,47086,2,0,P|128:50|123:71,1,35.9999989013672,0|0,2:2|2:2,2:2:0:0:
225,121,47428,2,0,P|200:116|180:119,1,35.9999989013672,0|0,2:2|2:2,2:2:0:0:
88,271,47770,53,2,0:0:0:0:
287,314,48285,1,2,0:0:0:0:
287,314,48457,54,0,L|244:304,1,35.9999989013672
288,227,48800,2,0,L|298:184,1,35.9999989013672
375,228,49143,2,0,L|418:238,1,35.9999989013672
374,315,49486,2,0,L|364:358,1,35.9999989013672
251,305,49829,2,0,L|287:314,1,35.9999989013672
296,191,50172,2,0,L|287:226,1,35.9999989013672
365,350,50514,53,2,0:0:0:0:
353,142,51028,1,2,0:0:0:0:
353,142,51200,54,0,P|338:129|322:121,1,35.9999989013672,0|0,0:3|0:0,0:0:0:0:
440,162,51543,2,0,P|456:154|471:145,1,35.9999989013672,0|0,0:2|0:0,0:0:0:0:
378,227,51885,2,0,P|375:244|376:263,1,35.9999989013672
472,145,52228,2,0,P|457:154|440:161,1,35.9999989013672,0|0,0:2|0:0,0:0:0:0:
322,121,52571,2,0,P|338:129|352:141,1,35.9999989013672,0|0,0:3|0:0,0:0:0:0:
377,264,52914,2,0,P|375:245|378:227,1,35.9999989013672,0|0,0:3|0:0,0:0:0:0:
382,13,53257,54,0,L|376:60,1,35.9999989013672,2|0,0:0|0:0,0:0:0:0:
448,59,53600,2,0,L|451:22,1,35.9999989013672
394,15,53943,2,0,L|388:62,1,35.9999989013672
435,59,54285,2,0,L|438:22,1,35.9999989013672
417,17,54628,2,0,L|411:64,1,35.9999989013672
413,52,54971,2,0,L|416:15,1,35.9999989013672
402,142,55314,53,2,0:0:0:0:
399,139,55485,1,2,0:0:0:0:
402,136,55657,1,2,0:0:0:0:
404,139,55828,1,2,0:0:0:0:
357,289,56000,70,0,P|317:298|273:285,1,83.9999974365235,2|0,2:2|0:0,0:0:0:0:
356,375,56514,1,2,0:0:0:0:
320,187,56857,5,0,0:0:0:0:
356,375,57028,2,0,P|414:360|445:294,1,125.999996154785,2|0,0:0|0:0,0:0:0:0:
192,319,57714,101,2,0:0:0:0:
192,319,57885,1,0,0:0:0:0:
274,304,58057,5,2,0:0:0:0:
274,304,58228,1,0,0:0:0:0:
357,289,58400,5,2,0:0:0:0:
357,289,58571,1,0,0:0:0:0:
292,187,58743,86,0,L|192:208,1,83.9999974365235,2|0,2:0|0:0,0:0:0:0:
337,116,59257,1,2,0:0:0:0:
440,274,59599,5,0,0:0:0:0:
460,90,59771,2,0,L|335:116,1,125.999996154785,2|0,2:0|0:0,0:0:0:0:
189,63,60457,101,2,0:0:0:0:
189,63,60628,1,0,0:0:0:0:
230,169,60800,5,2,0:0:0:0:
230,169,60971,1,0,0:0:0:0:
142,240,61143,5,2,0:0:0:0:
142,240,61314,1,0,0:0:0:0:
76,69,61485,86,0,B|89:125|89:125|146:152,1,107.999996704102,2|0,0:0|0:0,0:0:0:0:
31,194,62000,1,2,0:0:0:0:
189,63,62343,5,0,0:0:0:0:
31,194,62514,2,0,B|105:225|105:225|173:172,1,161.999995056153,2|0,0:0|0:0,0:0:0:0:
89,69,63200,101,2,0:0:0:0:
89,69,63371,1,0,0:0:0:0:
99,188,63543,5,2,0:0:0:0:
99,188,63714,1,0,0:0:0:0:
109,307,63885,5,2,0:0:0:0:
109,307,64057,1,0,0:0:0:0:
222,381,64228,86,0,P|281:329|324:333,1,107.999996704102,2|0,0:0|0:0,0:0:0:0:
287,237,64743,2,0,P|300:293|434:267,1,215.999993408203,2|0,0:0|0:0,0:0:0:0:
287,237,65428,1,2,0:0:0:0:
271,241,65514,1,2,0:0:0:0:
256,245,65600,6,0,B|225:233|225:233|342:202,1,143.999995605469,2|0,0:0|0:0,0:0:0:0:
138,202,66114,2,0,B|99:187|99:187|245:148,1,192,2|0,0:0|0:0,0:0:0:0:
369,40,66628,6,0,L|299:59,1,72,2|0,0:0|0:0,0:0:0:0:
272,54,66971,86,0,L|388:23,1,120,6|0,0:0|0:0,0:0:0:0:
244,148,67314,1,0,0:0:0:0:
459,97,67485,1,2,0:0:0:0:
395,308,67828,5,0,0:0:0:0:
459,97,68000,2,0,L|342:126,1,120,2|0,0:0|0:0,0:0:0:0:
244,148,68343,21,0,0:0:0:0:
244,148,68514,1,0,0:0:0:0:
263,273,68685,69,2,0:0:0:0:
365,184,68857,1,0,0:0:0:0:
225,23,69028,5,2,0:0:0:0:
244,148,69200,1,0,0:0:0:0:
104,237,69371,5,2,0:0:0:0:
123,112,69543,1,0,0:0:0:0:
38,300,69714,86,0,P|92:330|167:303,1,120,6|0,0:0|0:0,0:0:0:0:
5,158,70057,1,0,0:0:0:0:
222,191,70228,1,2,0:0:0:0:
84,362,70571,5,0,0:0:0:0:
178,121,70743,2,0,P|123:91|48:120,1,120,2|0,0:0|0:0,0:0:0:0:
0,283,71085,21,0,0:0:0:0:
0,283,71257,1,0,0:0:0:0:
112,193,71428,69,2,0:0:0:0:
143,302,71600,1,0,0:0:0:0:
192,144,71771,5,2,0:0:0:0:
281,216,71943,1,0,0:0:0:0:
225,56,72114,5,2,0:0:0:0:
339,63,72286,1,0,0:0:0:0:
103,72,72457,86,0,B|29:84|29:84|-2:164,1,143.999995605469,6|0,0:0|0:0,0:0:0:0:
174,256,72800,1,0,0:0:0:0:
91,158,72971,1,2,0:0:0:0:
8,60,73314,5,0,0:0:0:0:
79,244,73485,2,0,B|153:232|153:232|184:152,1,143.999995605469,2|0,0:0|0:0,0:0:0:0:
149,17,73828,21,0,0:0:0:0:
149,17,74000,1,0,0:0:0:0:
323,74,74171,69,2,0:0:0:0:
214,92,74343,1,0,0:0:0:0:
117,165,74514,5,2,0:0:0:0:
231,204,74686,1,0,0:0:0:0:
376,256,74856,5,2,0:0:0:0:
249,309,75028,1,0,0:0:0:0:
444,340,75200,86,0,B|401:292|422:229|422:229|427:259|451:284,1,155.999992858887,6|0,0:0|0:0,0:0:0:0:
288,173,75543,1,0,0:0:0:0:
331,326,75713,1,2,0:0:0:0:
259,62,76057,5,0,0:0:0:0:
233,227,76228,22,0,B|272:268|351:232|351:232|407:216|413:154|369:128|374:94|374:94|369:128|315:139|306:197|351:232|351:232|401:292|462:274,1,576,2|0,0:0|0:0,0:0:0:0:
323,366,77600,6,0,B|366:142,1,192,8|2,2:1|0:0,0:0:0:0:
251,28,77943,54,0,L|321:45,1,71.9999978027344,4|0,1:1|0:0,0:0:0:0:
509,186,78457,2,0,L|439:169,1,71.9999978027344,4|0,1:1|0:0,0:0:0:0:
215,202,78971,70,0,B|287:185|327:258|327:258|278:299|219:282|193:242|193:242|171:203|106:183|63:224|63:224|101:304|196:275,1,575.999982421876,4|2,1:0|0:0,0:0:0:0:
259,371,80428,1,0,0:0:0:0:
265,372,80514,1,0,0:0:0:0:
271,373,80600,1,0,0:0:0:0:
314,371,80685,38,0,L|243:355,1,71.9999978027344,4|0,1:0|0:0,0:0:0:0:
446,166,81200,2,0,B|361:237|378:345|454:344|503:309|488:234|421:227,1,287.999991210938,4|0,1:0|0:0,0:0:0:0:
253,102,82057,70,0,L|324:118,1,71.9999978027344,4|0,1:0|0:0,0:0:0:0:
175,25,82571,2,0,B|128:65|134:141|161:127|179:180|157:222|116:234|80:209|80:157|121:145,1,287.999991210938,4|0,1:0|0:0,2:0:0:0:
120,361,83428,38,0,L|188:383,1,71.9999978027344,4|0,1:0|0:0,0:0:0:0:
405,268,83943,2,0,L|335:245,1,71.9999978027344,4|0,1:0|0:0,0:0:0:0:
248,53,84457,70,0,B|237:5|270:-20|315:-7|341:3|345:69|326:115|266:132|266:132|214:148|202:221|239:257|239:257|237:188|285:163,1,503.999984619141,4|0,1:0|0:0,0:0:0:0:
182,310,85828,102,0,B|120:297|120:297|165:345|165:345|223:336|223:336|272:386|272:386|357:371,1,323.999990112305,2|0,1:0|0:0,0:0:0:0:
453,379,86171,54,0,L|429:297,1,71.9999978027344,4|0,1:0|0:0,0:0:0:0:
496,60,86685,2,0,B|409:83|408:184|484:213|484:213|512:172|501:132,1,287.999991210938,4|0,1:0|0:0,0:0:0:0:
244,188,87543,70,0,L|321:178,1,71.9999978027344,4|0,1:0|0:0,0:0:0:0:
92,163,88057,2,0,B|64:263|143:246|99:360,1,179.999994506836,4|0,1:0|0:0,0:0:0:0:
46,376,88571,85,2,0:0:0:0:
51,364,88657,1,0,0:0:0:0:
52,351,88743,1,0,0:0:0:0:
47,340,88828,1,0,0:0:0:0:
11,305,88914,70,2,L|157:280,1,120,4|2,1:0|0:3,0:0:0:0:
256,160,89257,1,8,1:2:0:0:
356,371,89428,2,0,P|302:347|274:266,2,120,2|0|2,2:3|1:2|0:3,0:0:0:0:
163,247,89943,1,8,0:0:0:0:
397,162,90114,2,0,L|356:302,1,120,2|0,0:3|1:2,0:0:0:0:
122,358,90457,69,2,0:3:0:0:
9,222,90628,1,8,0:0:0:0:
212,147,90800,2,0,P|205:205|163:246,2,120,2|0|2,0:3|1:0|0:3,0:0:0:0:
321,268,91314,85,8,1:2:0:0:
355,273,91399,1,0,0:0:0:0:
386,293,91485,1,2,0:0:0:0:
401,326,91571,1,0,0:0:0:0:
419,367,91657,70,0,P|399:308|420:246,1,120,6|2,1:2|2:3,0:0:0:0:
512,77,92000,1,8,0:0:0:0:
379,5,92171,2,0,B|323:57|329:137|390:185|390:185|367:135|388:81,1,287.999991210938,2|2,2:3|0:3,0:0:0:0:
274,338,92685,1,8,1:2:0:0:
386,293,92857,1,2,0:3:0:0:
126,311,93028,70,0,L|-6:368,1,120,2|2,1:2|0:3,0:0:0:0:
143,65,93371,1,8,1:2:0:0:
266,240,93543,2,0,B|274:338|274:338|189:169,1,287.999991210938,2|2,0:3|0:3,0:0:0:0:
364,0,94057,1,8,1:2:0:0:
298,138,94228,1,2,0:3:0:0:
396,349,94400,38,0,L|385:229,1,120,6|2,1:2|0:3,0:0:0:0:
487,18,94743,1,8,1:2:0:0:
241,42,94914,2,0,P|252:100|298:138,2,120,2|0|2,0:3|1:2|0:3,0:0:0:0:
494,279,95428,1,8,0:0:0:0:
287,298,95600,2,0,L|151:241,1,120,2|0,2:3|1:2,0:0:0:0:
297,137,95943,69,2,0:3:0:0:
192,369,96114,1,8,1:2:0:0:
68,275,96285,2,0,P|126:282|176:251,2,120,2|0|2,0:3|1:0|0:3,0:0:0:0:
84,32,96800,102,0,B|130:86|130:86|103:192|103:192|35:105|35:105|57:33,1,360,2|0,1:0|0:0,0:0:0:0:
288,47,97143,54,0,L|409:75,1,120,6|2,1:2|0:3,0:0:0:0:
482,285,97485,1,8,1:2:0:0:
347,381,97657,2,0,B|303:324|324:235|387:203|387:203|402:261|367:314,1,287.999991210938,2|2,0:3|0:3,0:0:0:0:
231,220,98171,2,0,P|210:279|212:340,1,120,8|2,1:2|0:3,0:0:0:0:
0,133,98514,38,0,P|31:112|75:104,1,60,2|0,2:2|0:0,0:0:0:0:
229,102,98685,2,0,P|198:123|154:130,1,60,2|0,2:2|0:0,0:0:0:0:
88,257,98857,69,8,0:0:0:0:
163,31,99028,1,2,2:0:0:0:
226,295,99200,69,8,0:0:0:0:
42,12,99371,1,2,2:0:0:0:
321,129,99543,102,0,B|406:102|445:6|445:6|431:109|497:169,1,360,2|0,1:0|0:0,0:0:0:0:
396,211,99885,69,6,1:2:0:0:
333,317,100057,2,0,L|331:274,1,41.9999987182618,2|0,0:0|0:0,0:0:0:0:
244,167,100228,2,0,L|257:208,1,41.9999987182618,2|0,0:0|0:0,0:0:0:0:
254,349,100400,2,0,L|252:306,1,41.9999987182618,2|0,0:0|0:0,0:0:0:0:
165,199,100571,2,0,L|178:240,1,41.9999987182618,2|0,0:0|0:0,0:0:0:0:
175,381,100743,2,0,L|173:338,1,41.9999987182618,2|0,0:0|0:0,0:0:0:0:
30,310,100914,38,0,P|46:300|67:302,1,36,2|0,2:1|0:0,0:0:0:0:
17,153,101257,101,6,1:2:0:0:
136,37,101428,2,0,L|125:95,1,41.9999987182618,2|0,0:0|0:0,0:0:0:0:
165,199,101600,2,0,L|154:141,1,41.9999987182618,2|0,0:0|0:0,0:0:0:0:
224,19,101771,2,0,L|213:77,1,41.9999987182618,2|0,0:0|0:0,0:0:0:0:
253,217,101943,2,0,L|242:159,1,41.9999987182618,2|0,0:0|0:0,0:0:0:0:
312,1,102114,2,0,L|301:59,1,41.9999987182618,2|0,0:0|0:0,0:0:0:0:
427,150,102285,6,0,B|394:147|394:147|368:130|368:130|317:124,1,90,2|0,1:0|0:0,0:0:0:0:
335,116,102457,2,0,B|368:119|368:119|394:136|394:136|445:142,1,90,2|0,1:0|0:0,0:0:0:0:
439,126,102628,69,6,1:2:0:0:
319,336,102800,2,0,P|299:305|299:275,1,48,2|0,0:0|0:0,0:0:0:0:
293,95,102971,2,0,P|327:108|345:132,1,48,2|0,0:0|0:0,0:0:0:0:
455,275,103143,2,0,P|419:284|390:275,1,48,2|0,0:0|0:0,0:0:0:0:
218,224,103314,2,0,P|241:195|269:186,1,48,2|0,0:0|0:0,0:0:0:0:
439,126,103485,2,0,P|436:162|419:187,1,48,2|0,0:0|0:0,0:0:0:0:
332,275,103657,37,2,0:1:0:0:
290,213,103743,1,2,0:1:0:0:
352,171,103828,1,2,0:1:0:0:
394,233,103914,1,2,0:1:0:0:
342,223,104000,101,6,1:2:0:0:
129,105,104171,2,0,L|137:168,1,53.9999983520508
73,299,104343,2,0,L|81:236,1,53.9999983520508
216,89,104514,2,0,L|221:128,2,26.9999991760254,2|0|0,2:2|0:0|0:0,0:0:0:0:
332,275,104685,102,0,P|240:272|238:214,2,161.999995056153,2|2|2,0:0|0:0|0:0,0:0:0:0:
332,275,105371,101,6,1:2:0:0:
325,301,105457,1,0,0:0:0:0:
319,328,105543,1,2,0:0:0:0:
313,354,105628,1,0,0:0:0:0:
246,384,105714,21,2,1:2:0:0:
239,350,105799,1,2,0:0:0:0:
232,317,105885,1,2,0:0:0:0:
224,284,105971,1,2,1:2:0:0:
155,248,106057,69,2,1:2:0:0:
146,287,106143,1,0,0:0:0:0:
137,328,106229,1,2,0:0:0:0:
128,368,106314,1,0,0:0:0:0:
43,384,106400,21,2,1:2:0:0:
33,338,106485,1,2,0:0:0:0:
23,294,106571,1,2,0:0:0:0:
14,251,106657,1,2,1:2:0:0:
104,290,106743,101,6,1:2:0:0:
146,287,106828,1,0,0:0:0:0:
182,265,106914,1,2,0:0:0:0:
202,227,107000,1,0,0:0:0:0:
260,163,107085,21,6,1:2:0:0:
280,191,107171,1,0,0:0:0:0:
288,229,107257,1,2,0:0:0:0:
279,264,107342,1,0,2:2:0:0:
271,341,107428,69,6,1:2:0:0:
302,338,107513,1,0,0:0:0:0:
329,323,107599,1,2,0:0:0:0:
349,299,107685,1,0,0:0:0:0:
403,250,107771,21,6,1:2:0:0:
418,272,107857,1,0,0:0:0:0:
423,298,107943,1,2,0:0:0:0:
419,323,108028,1,0,2:2:0:0:
388,349,108114,22,0,L|341:351,1,38.9999982147218,2|0,1:2|0:0,0:0:0:0:
387,336,108200,2,0,L|348:337,1,38.9999982147218,0|0,2:2|0:0,0:0:0:0:
387,324,108285,2,0,L|348:325,1,38.9999982147218,2|0,2:2|0:0,0:0:0:0:
387,312,108371,2,0,L|348:313,1,38.9999982147218,0|0,2:2|0:0,0:0:0:0:
423,298,108457,6,0,L|461:296,1,38.9999982147218,2|0,1:2|2:0,2:0:0:0:
423,286,108543,2,0,L|461:284,1,38.9999982147218,0|0,2:2|0:0,0:0:0:0:
423,274,108628,2,0,L|461:272,1,38.9999982147218,2|0,2:2|0:0,0:0:0:0:
422,261,108714,2,0,L|468:258,1,38.9999982147218,0|0,2:2|0:0,0:0:0:0:
387,239,108800,102,0,L|340:241,1,38.9999982147218,2|0,1:2|0:0,0:0:0:0:
386,226,108886,2,0,L|347:227,1,38.9999982147218,0|0,2:2|0:0,0:0:0:0:
386,214,108971,2,0,L|347:215,1,38.9999982147218,2|0,2:2|0:0,0:0:0:0:
386,202,109057,2,0,L|347:203,1,38.9999982147218,0|0,2:2|0:0,0:0:0:0:
418,182,109143,6,0,L|458:182,1,38.9999982147218,2|0,1:2|0:0,0:0:0:0:
417,159,109228,2,0,L|457:159,1,38.9999982147218,8|0,1:3|0:0,0:0:0:0:
416,137,109314,2,0,L|456:137,1,38.9999982147218,8|0,1:3|0:0,0:0:0:0:
415,115,109400,2,0,L|455:115,1,38.9999982147218,8|0,1:3|0:0,0:0:0:0:
379,49,109485,5,2,1:2:0:0:
379,49,110685,2,0,L|377:86,1,30,2|0,0:0|0:0,0:0:0:0:
296,219,110857,86,0,B|277:264|219:263|182:192|243:130|325:178|325:178|400:221|481:137,1,360,4|0,1:0|0:0,0:0:0:0:
488,68,111200,5,2,1:2:0:0:
512,280,111371,1,0,0:0:0:0:
333,284,111543,101,2,1:2:0:0:
370,352,111628,2,0,B|405:307|405:307|395:223,1,132.00000402832,2|0,0:1|0:0,0:0:0:0:
379,49,111800,1,2,0:1:0:0:
379,49,112057,1,2,0:1:0:0:
45,249,112228,5,2,1:2:0:0:
45,249,112400,2,0,P|86:212|160:192,1,132.00000402832,2|0,0:0|0:0,0:0:0:0:
178,75,112571,38,0,L|194:331,1,180.000006866455,2|0,1:2|0:0,0:0:0:0:
200,332,112828,1,0,0:0:0:0:
201,358,112914,70,0,P|233:329|288:316,1,71.9999978027344,2|0,1:2|0:0,0:0:0:0:
324,194,113085,1,0,0:1:0:0:
325,219,113171,1,2,2:2:0:0:
446,328,113343,1,0,0:0:0:0:
445,354,113428,2,0,P|413:325|358:312,1,71.9999978027344,2|0,0:0|0:0,0:0:0:0:
260,24,113600,102,0,B|238:81|281:129|281:129|225:179|271:266|271:266|331:242|324:190,1,360,2|0,1:2|0:0,0:0:0:0:
117,151,113943,5,2,1:2:0:0:
342,62,114114,1,0,0:0:0:0:
247,352,114285,101,2,1:2:0:0:
168,307,114371,2,0,P|212:268|271:264,1,120,2|0,0:1|0:0,0:0:0:0:
445,354,114543,1,2,0:1:0:0:
445,354,114800,1,2,0:1:0:0:
283,243,114971,5,2,1:2:0:0:
270,263,115057,1,0,0:0:0:0:
250,251,115143,1,2,0:0:0:0:
262,231,115228,1,0,0:0:0:0:
389,240,115314,38,0,B|300:381|300:381|145:291,1,323.999990112305,2|0,1:2|0:0,0:0:0:0:
203,119,115657,38,0,L|252:108,1,30,2|0,0:0|0:0,0:0:0:0:
232,112,115828,22,0,B|241:151|241:151|237:170|237:170|249:185|249:185|262:231,1,125.999996154785,2|0,0:1|0:0,0:0:0:0:
262,230,116085,1,2,0:0:0:0:
137,224,116171,1,2,0:0:0:0:
368,73,116343,102,0,B|331:24|331:24|295:105|316:196|388:239|388:239|396:125,1,360,2|0,1:2|0:0,0:0:0:0:
470,105,116685,5,2,1:2:0:0:
238,170,116857,1,0,0:0:0:0:
389,239,117028,101,2,1:2:0:0:
365,321,117114,2,0,B|423:328|423:328|463:282,1,120,2|0,0:1|0:0,0:0:0:0:
358,156,117285,1,2,0:1:0:0:
358,156,117543,1,2,0:1:0:0:
114,366,117714,5,2,1:2:0:0:
114,366,117885,2,0,P|107:298|110:228,1,120,2|0,0:0|0:0,0:0:0:0:
38,124,118057,38,0,P|102:207|196:174,1,180.000006866455,2|0,1:2|0:0,0:0:0:0:
231,150,118314,1,0,0:0:0:0:
210,131,118400,69,2,1:2:0:0:
280,118,118485,1,0,0:0:0:0:
351,106,118571,1,2,0:0:0:0:
422,94,118657,1,2,0:0:0:0:
453,225,118828,69,0,0:0:0:0:
436,241,118914,2,0,P|423:198|439:153,1,71.9999978027344,2|0,0:0|0:0,0:0:0:0:
268,352,119085,21,2,1:2:0:0:
512,314,119257,2,0,B|476:303|476:303|450:326|450:326|415:312|415:312|382:332|382:332|260:354,1,264.000008056641,2|2,0:1|1:2,0:0:0:0:
0,207,119600,2,0,L|130:187,1,132.00000402832,2|0,0:0|0:0,0:0:0:0:
290,162,119771,5,2,1:2:0:0:
263,258,119857,2,0,L|133:278,1,132.00000402832,2|0,2:2|0:0,0:0:0:0:
69,166,120114,101,2,0:0:0:0:
89,155,120200,1,2,0:0:0:0:
135,147,120285,1,2,0:0:0:0:
211,174,120371,1,2,0:0:0:0:
263,258,120457,21,2,2:0:0:0:
263,258,120628,70,0,L|224:264,1,35.9999989013672,2|0,0:3|0:0,0:0:0:0:
0,206,120971,102,0,L|144:185,1,132.00000402832,2|0,0:3|0:0,0:0:0:0:
340,66,121314,86,0,L|126:96,1,215.999993408203,2|0,0:3|0:0,0:0:0:0:
0,298,121657,1,2,0:3:0:0:
253,160,121828,54,0,B|202:112|215:42|215:42|190:5|124:-7|85:0|57:48|82:87|126:95,1,360,4|0,1:0|0:0,0:0:0:0:
340,66,122171,5,2,1:2:0:0:
116,179,122343,1,0,0:0:0:0:
317,252,122514,101,2,1:2:0:0:
331,341,122600,2,0,B|296:390|296:390|281:331,1,120,2|0,0:1|0:0,0:0:0:0:
328,163,122771,1,2,0:1:0:0:
328,163,123028,1,2,0:1:0:0:
0,233,123200,5,2,1:2:0:0:
0,233,123371,2,0,P|68:236|152:267,1,120,2|0,0:0|0:0,0:0:0:0:
276,222,123543,38,0,B|139:253|139:253|179:280,1,180.000006866455,2|0,1:2|0:0,0:0:0:0:
272,344,123800,1,0,0:0:0:0:
296,303,123885,69,2,1:2:0:0:
228,316,123971,1,0,2:2:0:0:
246,384,124057,1,2,0:0:0:0:
312,368,124143,1,2,0:0:0:0:
387,230,124314,69,0,0:0:0:0:
398,241,124400,2,0,P|416:276|412:327,1,71.9999978027344,2|0,0:0|0:0,0:0:0:0:
291,95,124571,22,0,B|228:86|194:131|194:131|161:173|88:176|53:124|53:124|81:80|130:84,1,360,2|0,1:2|0:0,0:0:0:0:
276,222,124914,5,2,1:2:0:0:
177,0,125085,1,0,0:0:0:0:
67,206,125257,101,2,1:2:0:0:
53,124,125343,2,0,B|68:206|68:206|25:152,1,132.00000402832,2|0,0:1|0:0,0:0:0:0:
188,139,125514,1,2,0:1:0:0:
188,139,125771,1,2,0:1:0:0:
142,323,125943,5,2,1:2:0:0:
141,309,126028,1,0,0:0:0:0:
147,298,126114,1,2,0:0:0:0:
157,290,126200,1,0,0:0:0:0:
211,377,126285,38,0,P|150:254|236:349,1,360,2|0,1:2|0:0,0:0:0:0:
413,367,126628,38,0,L|461:371,1,30,2|0,0:0|0:0,0:0:0:0:
442,369,126800,22,0,B|444:330|444:330|456:311|456:311|447:292|447:292|448:248,1,125.999996154785,2|0,0:1|0:0,0:0:0:0:
448,249,127057,1,2,0:0:0:0:
341,302,127143,1,2,0:0:0:0:
409,108,127314,86,0,P|430:118|428:140,1,35.9999989013672,2|2,1:2|1:2,0:0:0:0:
431,128,127657,70,0,L|458:3,1,90.0000034332277,4|0,1:1|0:0,0:0:0:0:
306,147,127828,1,2,0:0:0:0:
308,156,127914,1,0,0:0:0:0:
310,165,128000,22,0,L|337:286,1,90.0000034332277,2|0,1:2|0:0,0:0:0:0:
168,135,128171,1,2,0:0:0:0:
170,126,128257,1,0,0:0:0:0:
172,117,128343,86,0,L|197:-3,1,90.0000034332277,2|0,1:2|0:0,0:0:0:0:
47,136,128513,1,2,0:0:0:0:
49,145,128599,1,0,0:0:0:0:
51,154,128685,22,0,L|78:280,1,90.0000034332277,2|0,1:2|0:0,0:0:0:0:
262,349,128857,38,0,B|200:358|162:309|162:309|188:302|225:329,1,150,2|0,0:1|0:0,0:0:0:0:
391,319,129028,1,2,1:2:0:0:
109,238,129200,70,0,P|176:222|233:242,1,90.0000034332277,2|0,0:0|0:0,0:0:0:0:
387,293,129371,1,2,1:2:0:0:
172,117,129543,86,0,P|228:120|282:159,1,90.0000034332277,2|0,0:0|0:0,0:0:0:0:
372,271,129714,1,2,1:2:0:0:
109,238,129885,22,0,P|176:222|233:242,1,90.0000034332277,2|0,0:0|0:0,0:0:0:0:
469,250,130057,38,0,B|430:214|430:214|400:91,1,132.00000402832,2|0,1:2|0:0,0:0:0:0:
394,48,130228,2,0,L|381:-10,2,45.0000017166138,2|0|0,0:0|0:0|0:0,0:0:0:0:
387,293,130400,102,0,B|348:257|348:257|318:134,1,132.00000402832,2|0,1:2|0:0,0:0:0:0:
305,57,130571,2,0,L|292:-1,2,45.0000017166138,2|0|0,0:0|0:0|0:0,0:0:0:0:
305,336,130743,6,0,B|266:300|266:300|236:177,1,132.00000402832,2|0,1:2|0:0,0:0:0:0:
215,66,130914,2,0,L|202:7,2,45.0000017166138,2|0|0,0:0|0:0|0:0,0:0:0:0:
99,252,131085,102,0,L|158:240,1,60,2|0,1:2|2:2,2:2:0:0:
89,203,131171,2,0,L|148:191,1,60,2|0,1:2|2:2,2:2:0:0:
79,154,131257,2,0,L|138:142,1,60,2|0,1:2|2:2,2:2:0:0:
69,104,131343,2,0,L|128:92,1,60,2|0,1:2|2:2,2:2:0:0:
42,25,131428,22,0,L|138:7,1,89.9999972534181
130,8,132457,70,0,B|84:47|88:135|129:196|221:143|206:83|157:61|133:112,1,270.000010299683
78,204,132800,6,0,B|164:220|233:294|238:376|147:409|91:369|90:300|129:272,1,360,4|0,1:0|0:0,0:0:0:0:
295,224,133143,6,0,P|311:259|315:317,1,71.9999978027344,8|0,1:2|0:0,0:0:0:0:
424,380,133314,2,0,P|408:345|404:287,1,71.9999978027344,2|0,2:2|0:0,0:0:0:0:
305,110,133485,101,2,1:2:0:0:
297,197,133571,2,0,B|295:224|295:224|264:185|277:135,1,120,2|0,0:1|0:0,0:0:0:0:
150,54,133743,2,0,B|152:27|152:27|183:66|170:116,1,120,2|8,0:1|1:2,0:0:0:0:
96,236,133914,5,0,2:2:0:0:
72,227,134000,2,0,L|190:202,1,120,2|0,0:1|0:0,0:0:0:0:
406,198,134171,38,0,L|396:284,1,60,2|0,1:2|0:0,0:0:0:0:
434,77,134343,1,0,0:0:0:0:
444,78,134428,1,0,0:0:0:0:
454,79,134514,2,0,L|368:69,1,60,8|0,1:2|0:0,0:0:0:0:
243,111,134685,1,0,0:0:0:0:
252,112,134770,1,0,0:0:0:0:
261,113,134857,69,2,1:2:0:0:
275,183,134942,1,2,0:0:0:0:
337,221,135028,1,2,0:0:0:0:
406,198,135114,1,2,0:0:0:0:
349,132,135200,86,0,L|318:184,1,60,8|2,1:2|0:0,0:0:0:0:
318,183,135543,6,0,B|379:78|379:78|413:190|413:190|423:200|423:200|456:301,1,360,2|0,1:2|0:0,0:0:0:0:
400,377,135885,6,0,L|368:278,1,71.9999978027344,8|0,1:2|0:0,0:0:0:0:
490,159,136057,2,0,L|522:258,1,71.9999978027344,2|0,2:2|0:0,0:0:0:0:
207,204,136228,101,2,1:2:0:0:
170,281,136314,2,0,B|204:297|204:297|308:264,1,120,2|0,0:1|0:0,0:0:0:0:
128,168,136485,2,0,B|146:134|146:134|223:108,1,120,2|8,0:1|0:0,0:0:0:0:
35,315,136657,5,0,2:2:0:0:
57,322,136743,2,0,L|1:172,1,120,2|0,0:1|0:0,0:0:0:0:
37,55,136914,38,0,B|8:92|8:92|60:91,1,90.0000034332277,2|0,1:2|0:0,0:0:0:0:
168,44,137085,2,0,B|197:7|197:7|145:8,1,90.0000034332277,2|0,2:2|0:0,0:0:0:0:
233,334,137257,21,8,0:0:0:0:
137,127,137428,1,2,0:0:0:0:
15,209,137600,85,2,1:2:0:0:
154,8,137771,1,2,0:0:0:0:
237,227,137943,70,0,B|249:294|327:315|361:263|412:276|412:276|361:263|360:195|276:173|237:227|237:227,1,396.000012084961,8|0,1:2|0:3,0:3:0:0:
79,350,138285,102,0,B|19:273|40:169|137:128|137:128|160:171|139:215,1,360,2|0,1:2|0:0,0:0:0:0:
192,359,138628,6,0,P|168:315|160:265,1,71.9999978027344,8|0,1:2|0:0,0:0:0:0:
247,157,138800,2,0,P|247:192|238:227,1,71.9999978027344
309,325,138971,101,2,1:2:0:0:
390,332,139057,2,0,B|440:339|440:339|458:352|458:352|504:357,1,120,2|0,0:1|0:0,0:0:0:0:
353,254,139228,2,0,B|303:247|303:247|285:234|285:234|238:228,1,120,2|8,0:1|0:2,0:0:0:0:
467,120,139400,5,0,0:0:0:0:
456,100,139485,2,0,L|438:218,1,120,2|0,0:1|0:0,0:0:0:0:
242,351,139657,38,0,L|330:365,1,60,2|0,1:2|0:0,0:0:0:0:
130,256,139828,1,0,0:0:0:0:
120,258,139914,1,0,0:0:0:0:
110,260,140000,2,0,L|198:246,1,60,8|0,1:2|0:0,0:0:0:0:
25,361,140171,1,0,0:0:0:0:
15,359,140257,1,0,0:0:0:0:
5,357,140343,69,2,1:2:0:0:
31,289,140428,1,2,0:0:0:0:
0,223,140514,1,2,2:2:0:0:
26,155,140599,1,2,0:0:0:0:
93,219,140685,86,0,L|141:215,1,30,8|0,1:2|0:0,0:0:0:0:
122,216,140857,6,0,L|107:91,1,90.0000034332277,2|0,0:1|0:0,0:0:0:0:
275,204,141028,53,2,1:2:0:0:
275,204,141200,2,0,L|286:273,1,60,2|0,0:0|0:0,0:0:0:0:
374,138,141371,2,0,L|363:207,1,60,8|0,0:0|0:0,0:0:0:0:
201,84,141543,2,0,L|212:153,1,60,2|0,0:0|0:0,0:0:0:0:
444,81,141714,69,2,1:2:0:0:
452,102,141800,2,0,P|467:64|444:-6,1,90.0000034332277,2|0,0:1|0:0,0:0:0:0:
374,138,141971,101,2,2:2:0:0:
368,220,142057,2,0,P|407:213|457:158,1,90.0000034332277,8|0,1:2|0:0,0:0:0:0:
214,213,142228,2,0,P|238:244|311:260,1,90.0000034332277,2|0,1:1|0:0,0:0:0:0:
501,241,142400,53,2,1:2:0:0:
501,241,142571,2,0,L|520:308,1,60,2|0,0:0|0:0,0:0:0:0:
443,349,142743,2,0,L|423:279,1,71.9999978027344,8|0,0:0|0:0,0:0:0:0:
343,303,142914,2,0,L|366:384,1,83.9999974365235,2|0,0:0|0:0,0:0:0:0:
303,96,143085,22,0,P|337:68|395:62,1,96,2|0,1:2|0:0,0:0:0:0:
432,166,143257,2,0,P|397:193|339:199,1,96,2|0,0:0|0:0,0:0:0:0:
84,193,143428,6,0,L|82:139,1,53.9999983520508,8|0,1:2|0:0,0:0:0:0:
3,303,143771,6,0,B|62:315|90:379|90:379|82:139,1,360,4|0,1:0|0:0,0:0:0:0:
162,56,144114,6,0,L|164:141,1,71.9999978027344,8|0,1:2|0:0,0:0:0:0:
4,220,144285,2,0,L|2:135,1,71.9999978027344,2|0,2:2|0:0,0:0:0:0:
229,228,144457,101,2,1:2:0:0:
203,305,144543,2,0,B|107:316|107:316|124:297|137:273,1,120,2|0,0:1|0:0,0:0:0:0:
310,206,144714,2,0,B|406:217|406:217|389:198|376:174,1,120,2|8,0:1|0:0,0:0:0:0:
340,21,144885,5,0,0:0:0:0:
326,2,144971,2,0,L|342:119,1,120,2|0,0:1|0:0,0:0:0:0:
370,296,145143,38,0,L|473:307,1,60,2|0,1:2|0:0,0:0:0:0:
205,285,145314,1,0,0:3:0:0:
204,295,145399,1,0,0:0:0:0:
203,305,145485,2,0,L|213:219,1,60,8|0,1:2|0:0,0:0:0:0:
100,101,145657,1,0,0:0:0:0:
101,91,145743,1,0,0:0:0:0:
103,81,145828,69,2,1:2:0:0:
34,84,145913,1,2,0:0:0:0:
0,144,145999,1,2,0:0:0:0:
33,203,146085,1,2,0:0:0:0:
115,227,146171,86,0,P|118:194|109:167,1,60,8|2,1:2|0:0,0:0:0:0:
110,169,146514,6,0,B|135:221|85:284|85:284|146:243|230:273|219:334|203:360|162:379|118:334,1,360,2|0,1:2|0:0,0:0:0:0:
22,338,146857,6,0,P|3:308|0:273,1,71.9999978027344,8|0,1:2|0:0,0:0:0:0:
11,137,147028,2,0,P|30:167|32:202,1,71.9999978027344,2|0,2:2|0:0,0:0:0:0:
237,322,147200,101,2,1:2:0:0:
136,349,147285,2,0,B|107:341|107:341|193:317,1,120,2|0,0:1|0:0,0:0:0:0:
335,290,147457,2,0,B|356:268|356:268|270:293,1,120,2|8,0:1|0:0,0:0:0:0:
161,208,147628,5,0,0:0:0:0:
134,217,147714,2,0,B|167:236|167:236|245:215,1,120,2|0,0:1|0:0,0:0:0:0:
473,128,147885,38,0,B|486:83|486:83|456:35,1,90.0000034332277,2|0,1:2|0:0,0:0:0:0:
343,61,148057,2,0,B|330:106|330:106|360:154,1,90.0000034332277,2|0,2:2|0:0,0:0:0:0:
492,231,148228,21,8,1:2:0:0:
397,5,148400,1,2,0:0:0:0:
328,384,148571,85,2,1:2:0:0:
419,189,148743,1,2,0:0:0:0:
173,140,148914,70,0,P|205:144|179:156,2,75,2|0|0,1:1|0:0|0:0,0:0:0:0:
330,106,149085,2,0,P|298:102|324:90,2,75,2|0|0,1:1|0:0|0:0,0:0:0:0:
7,94,149257,102,0,L|19:379,1,240,4|2,1:0|0:0,0:0:0:0:
173,140,149600,1,8,1:2:0:0:
191,308,149771,6,0,L|199:350,1,35.9999989013672,2|0,1:1|0:0,0:0:0:0:
200,307,149857,2,0,L|208:349,1,35.9999989013672,2|0,2:1|0:0,0:0:0:0:
210,291,149943,102,0,B|158:301|158:301|147:309|147:309|90:319,1,120,2|0,1:2|0:0,0:0:0:0:
107,240,150114,2,0,B|-14:262,1,102.000001945496,2|0,2:2|0:0,0:0:0:0:
173,140,150285,1,8,1:2:0:0:
326,225,150457,6,0,L|318:267,1,35.9999989013672,2|0,1:1|0:0,0:0:0:0:
316,223,150543,2,0,L|308:265,1,35.9999989013672,2|0,2:1|0:0,0:0:0:0:
301,204,150629,102,0,B|356:214|356:214|367:224|367:224|421:233,1,125.999996154785,2|0,1:2|0:0,0:0:0:0:
410,156,150800,2,0,L|528:176,1,102.000001945496,2|0,0:0|0:0,0:0:0:0:
329,62,150971,1,8,1:2:0:0:
164,142,151143,6,0,L|172:184,1,35.9999989013672,2|0,1:1|0:1,0:1:0:0:
173,140,151229,2,0,L|181:182,1,35.9999989013672,2|0,2:1|0:1,0:1:0:0:
186,118,151314,102,0,B|132:128|132:128|115:138|115:138|58:149,1,132.00000402832,2|0,1:2|0:0,0:0:0:0:
79,71,151485,2,0,L|-63:97,1,102.000001945496,2|0,0:0|0:0,0:0:0:0:
176,13,151657,1,8,1:2:0:0:
337,26,151828,6,0,L|327:68,1,35.9999989013672,2|0,1:1|0:1,0:1:0:0:
329,24,151914,2,0,L|319:66,1,35.9999989013672,2|0,2:1|0:1,0:1:0:0:
316,0,152000,102,0,B|499:41|499:41|395:85,1,300,4|0,1:3|0:0,0:0:0:0:
248,170,152257,2,0,B|137:145|137:145|188:115,1,150,4|0,1:3|0:0,0:0:0:0:
384,167,152514,6,0,B|400:214|400:214|368:255|368:255|352:208|352:208|382:173,1,180.000006866455,4|0,1:3|0:0,0:0:0:0:
214,273,152685,102,0,B|214:365|342:405|413:335|413:335|363:355|318:330,1,360.000013732911,4|0,1:3|2:0,1:0:0:0:
503,137,152943,2,0,B|465:67|396:86|396:86|425:91|446:115,1,180.000006866455,4|0,1:3|2:2,1:0:0:0:
212,177,153200,6,0,B|168:124|204:54|266:104|246:174,1,180.000006866455,4|0,1:3|0:0,0:0:0:0:
450,335,153371,38,0,L|360:346,1,90.0000034332277,2|0,1:2|0:2,0:2:0:0:
373,249,153628,6,0,L|283:260,1,90.0000034332277,2|0,1:2|0:2,0:2:0:0:
301,166,153885,6,0,L|211:177,1,90.0000034332277,2|0,1:2|0:2,0:2:0:0:
51,202,154057,38,0,B|40:185|40:185|46:161,7,45.0000017166138,2|0|0|0|0|0|0|0,1:2|0:0|0:0|0:0|0:0|0:0|0:0|0:0,0:0:0:0:
46,161,154400,102,0,L|473:112,1,360,8|0,0:1|0:0,0:0:0:0:
511,107,154743,54,0,P|489:65|494:27,1,83.9999974365235,6|0,0:0|0:0,0:0:0:0:
457,170,155257,1,2,0:0:0:0:
414,0,155600,5,0,0:0:0:0:
370,153,155771,2,0,P|382:213|428:254,1,125.999996154785,2|0,0:0|0:0,0:0:0:0:
309,262,156457,101,2,0:0:0:0:
309,262,156628,1,0,0:0:0:0:
232,308,156800,5,2,0:0:0:0:
232,308,156971,1,0,0:0:0:0:
155,354,157143,5,2,0:0:0:0:
155,354,157314,1,0,0:0:0:0:
13,257,157485,86,0,L|97:269,1,83.9999974365235,2|0,0:0|0:0,0:0:0:0:
125,197,158000,1,2,0:0:0:0:
30,336,158343,5,0,0:0:0:0:
0,179,158514,2,0,L|126:197,1,125.999996154785,2|0,0:0|0:0,0:0:0:0:
232,255,159200,101,2,0:0:0:0:
232,255,159371,1,0,0:0:0:0:
234,137,159543,5,2,0:0:0:0:
234,137,159714,1,0,0:0:0:0:
144,59,159886,5,2,0:0:0:0:
144,59,160057,1,0,0:0:0:0:
10,142,160228,86,0,B|64:159|64:159|107:133,1,107.999996704102,2|0,0:0|0:0,0:0:0:0:
51,56,160743,1,2,0:0:0:0:
142,206,161085,5,0,0:0:0:0:
51,56,161257,2,0,B|119:9|119:9|195:33,1,161.999995056153,2|0,0:0|0:0,0:0:0:0:
363,99,161943,101,2,0:0:0:0:
363,99,162114,1,0,0:0:0:0:
311,197,162285,5,2,0:0:0:0:
311,197,162456,1,0,0:0:0:0:
387,276,162628,5,2,0:0:0:0:
387,276,162799,1,0,0:0:0:0:
338,374,162971,86,2,L|445:384,1,107.999996704102,2|0,0:0|0:0,0:0:0:0:
289,292,163485,2,2,L|503:312,1,215.999993408203,2|0,0:0|0:0,0:0:0:0:
240,210,164171,1,2,0:0:0:0:
238,199,164257,1,0,0:0:0:0:
235,188,164343,6,0,B|175:232|175:232|112:199,1,143.999995605469,2|0,0:0|0:0,0:0:0:0:
245,78,164857,2,0,B|165:136|165:136|81:93,1,192,2|0,0:0|0:0,0:0:0:0:
211,310,165371,6,0,P|187:283|177:249,1,72,2|0,0:0|0:0,0:0:0:0:
162,230,165714,86,0,P|173:295|226:345,1,120,6|0,0:0|0:0,0:0:0:0:
315,361,166057,1,0,0:0:0:0:
119,384,166228,1,2,0:0:0:0:
162,230,166571,5,0,0:0:0:0:
119,384,166743,2,0,P|81:338|73:279,1,120,2|0,0:0|0:0,0:0:0:0:
116,125,167085,21,0,0:0:0:0:
116,125,167257,1,0,0:0:0:0:
162,230,167428,69,2,0:0:0:0:
231,135,167600,1,0,0:0:0:0:
361,200,167771,5,2,0:0:0:0:
332,86,167943,1,0,0:0:0:0:
489,52,168114,5,2,0:0:0:0:
383,0,168286,1,0,0:0:0:0:
457,144,168457,86,0,L|480:292,1,120,6|0,2:2|0:0,0:0:0:0:
361,200,168800,1,0,0:0:0:0:
489,358,168971,1,2,0:0:0:0:
508,211,169314,5,0,0:0:0:0:
370,376,169485,2,0,L|518:353,1,120,2|0,2:2|0:0,0:0:0:0:
211,297,169828,21,0,0:0:0:0:
211,297,170000,1,0,0:0:0:0:
87,369,170171,69,2,0:0:0:0:
76,266,170343,1,0,0:0:0:0:
156,129,170514,5,2,0:0:0:0:
268,180,170685,101,2,0:0:0:0:
407,151,170857,21,2,0:0:0:0:
501,10,171028,37,2,0:0:0:0:
297,94,171200,38,0,B|308:205|308:205|325:172,1,143.999995605469,6|0,0:0|0:0,0:0:0:0:
382,69,171543,1,0,0:0:0:0:
213,242,171714,1,2,0:0:0:0:
114,104,172057,5,0,0:0:0:0:
213,242,172228,2,0,B|201:130|201:130|184:163,1,143.999995605469,2|0,0:0|0:0,0:0:0:0:
90,346,172571,21,0,0:0:0:0:
90,346,172743,1,0,0:0:0:0:
0,214,172914,69,2,0:0:0:0:
105,227,173085,1,0,0:0:0:0:
277,148,173257,5,2,0:0:0:0:
187,159,173428,1,0,0:0:0:0:
355,73,173600,5,2,0:0:0:0:
431,82,173771,1,0,0:0:0:0:
478,266,173943,86,0,B|480:296|441:306|415:231|480:171,1,155.999992858887,6|0,0:0|0:0,0:0:0:0:
329,232,174285,1,0,0:0:0:0:
374,378,174457,1,2,0:0:0:0:
478,266,174800,5,0,0:0:0:0:
327,141,174971,2,0,B|324:110|363:100|389:175|324:235,1,155.999992858887,2|0,0:0|0:0,0:0:0:0:
124,271,175314,21,0,0:0:0:0:
124,271,175485,1,0,0:0:0:0:
0,347,175657,69,2,0:0:0:0:
8,380,175828,1,0,0:0:0:0:
106,121,176000,5,2,0:0:0:0:
87,117,176171,1,0,0:0:0:0:
277,326,176343,5,2,0:0:0:0:
275,315,176514,1,0,0:0:0:0:
263,141,176685,70,0,L|251:99,2,30,2|0|0,0:0|0:0|0:0,0:0:0:0:
422,212,177200,2,0,L|430:183,2,30,2|0|0,0:0|0:0|0:0,0:0:0:0:
275,315,177714,2,0,L|263:273,2,30,2|0|0,0:0|0:0|0:0,0:0:0:0:
351,332,178228,53,0,0:0:0:0:
275,315,178400,1,0,0:0:0:0:
206,350,178571,2,0,P|192:362|185:374,1,30
95,264,178914,53,0,0:0:0:0:
171,281,179086,1,0,0:0:0:0:
240,246,179257,1,0,0:0:0:0:
157,179,179428,54,0,L|152:146,2,30,2|0|0,0:0|0:0|0:0,0:0:0:0:
25,79,179943,2,0,L|20:112,2,30,2|0|0,0:0|0:0|0:0,0:0:0:0:
103,65,180457,1,0,0:0:0:0:
147,0,180628,1,0,0:0:0:0:
233,136,180800,54,0,P|239:151|241:169,2,30,2|0|0,0:0|0:0|0:0,0:0:0:0:
362,46,181314,2,0,P|355:30|353:12,2,30,2|0|0,0:0|0:0|0:0,0:0:0:0:
414,106,181828,1,0,0:0:0:0:
439,30,182000,1,0,0:3:0:0:
466,166,182171,54,0,L|506:158,2,30,2|0|0,0:0|0:0|0:0,0:0:0:0:
463,340,182685,2,0,L|423:332,2,30,2|0|0,0:0|0:0|0:0,0:0:0:0:
313,250,183200,2,0,L|353:242,2,30,2|0|0,0:0|0:0|0:0,0:0:0:0:
283,321,183714,53,0,0:0:0:0:
313,250,183885,1,0,0:0:0:0:
290,176,184057,2,0,P|280:157|265:142,1,30
167,97,184400,53,0,0:0:0:0:
137,168,184571,1,0,0:0:0:0:
160,242,184743,1,0,0:0:0:0:
37,163,184914,54,0,L|-3:161,2,30,2|0|0,0:0|0:0|0:0,0:0:0:0:
130,243,185428,2,0,L|170:241,2,30,2|0|0,0:0|0:0|0:0,0:0:0:0:
42,330,185943,1,0,0:0:0:0:
49,248,186114,1,0,0:0:0:0:
135,141,186285,53,0,0:0:0:0:
204,202,186457,1,0,0:0:0:0:
312,191,186628,1,0,0:0:0:0:
412,116,186800,86,0,B|427:67|385:41|385:41|351:73|387:122|387:122|431:179|397:244,1,300
224,233,187314,38,0,P|311:288|399:237,1,215.999993408203,8|2,0:1|0:0,0:3:0:0:
125,64,187657,54,0,P|126:113|138:141,1,71.9999978027344,4|0,1:0|0:0,0:0:0:0:
5,297,188171,2,0,P|47:273|78:269,1,71.9999978027344,4|0,1:0|0:0,0:0:0:0:
260,297,188685,70,0,B|280:261|245:223|245:223|201:185|201:123|264:97|318:135|311:204|245:223|245:223|184:239|157:281|162:371|230:406|301:398|336:350|341:298,1,671.999979492188,4|2,1:0|0:0,0:0:0:0:
430,206,190143,1,0,0:0:0:0:
431,200,190229,1,0,0:0:0:0:
432,194,190315,1,0,0:0:0:0:
428,157,190400,38,0,P|461:181|503:182,1,71.9999978027344,4|0,1:0|0:0,0:0:0:0:
346,49,190914,2,0,B|360:19|351:-13|351:-13|384:27|352:74|352:74|313:125|343:175|343:175|337:137|354:110,1,335.999989746094,4|0,1:0|0:0,0:0:0:0:
174,253,191771,70,0,P|174:297|184:326,1,71.9999978027344,4|0,1:0|2:0,1:0:0:0:
19,134,192285,2,0,B|89:134|120:181|120:181|150:227|207:246|250:227|262:155|189:144,1,335.999989746094,4|0,1:0|0:0,0:0:0:0:
30,307,193143,38,0,P|28:271|39:236,1,71.9999978027344,4|0,1:0|0:0,0:0:0:0:
0,24,193657,2,0,P|7:58|26:89,1,71.9999978027344,4|0,1:1|0:1,0:1:0:0:
224,133,194171,70,0,B|241:113|243:61|192:54|188:1|188:1|192:54|141:64|141:127|197:158|197:158|238:189|238:189|242:243|242:243|210:279|210:279|167:251|167:251|163:195|163:195|197:158,1,630.000024032594,4|0,1:1|0:0,0:0:0:0:
76,281,195543,102,0,B|145:328|145:328|148:340|148:340|221:385|221:385|287:320|287:320|288:310|288:310|339:248,1,360,2|0,1:1|0:0,0:0:0:0:
379,88,195885,54,0,P|384:135|406:160,1,71.9999978027344,4|0,1:0|0:0,0:0:0:0:
507,41,196400,2,0,B|466:88|402:64|402:64|338:39|295:113|295:113|342:74|397:92,1,335.999989746094,4|0,1:1|0:3,0:3:0:0:
115,156,197257,70,0,P|153:171|191:164,1,71.9999978027344,4|0,1:0|0:0,0:0:0:0:
260,356,197771,2,0,P|253:256|312:287,1,209.999993591309,4|0,1:1|0:0,0:0:0:0:
244,322,198285,85,2,0:0:0:0:
244,303,198370,1,0,0:0:0:0:
255,288,198456,1,0,0:0:0:0:
269,280,198542,1,0,0:0:0:0:
309,282,198628,70,0,L|167:299,1,120,4|2,1:1|0:3,0:0:0:0:
0,257,198971,1,8,1:2:0:0:
90,110,199143,2,0,P|111:174|93:246,2,120,2|0|2,0:3|1:1|0:3,0:0:0:0:
189,296,199657,1,8,2:0:0:0:
18,345,199828,2,0,L|152:369,1,120,2|0,0:3|1:0,0:0:0:0:
184,145,200171,69,2,0:3:0:0:
332,280,200343,1,8,0:0:0:0:
386,139,200514,2,0,P|326:142|274:208,2,120,2|0|2,0:3|1:0|0:3,0:0:0:0:
506,353,201028,85,8,1:2:0:0:
482,326,201114,1,0,0:0:0:0:
471,292,201200,1,2,0:0:0:0:
474,256,201285,1,0,0:0:0:0:
505,217,201371,70,0,L|491:73,1,120,4|2,1:2|0:3,0:0:0:0:
381,368,201714,1,8,0:0:0:0:
239,258,201885,2,0,B|367:246|367:246|433:280|433:280|328:290,1,287.999991210938,2|2,0:3|0:3,0:0:0:0:
422,67,202400,1,8,0:0:0:0:
497,173,202571,1,2,0:3:0:0:
310,0,202743,70,0,P|286:54|302:119,1,120,0|2,1:0|0:3,0:3:0:0:
433,280,203085,1,8,0:0:0:0:
313,362,203257,2,0,B|286:301|311:228|386:208|386:208|343:237|347:287,1,287.999991210938,2|2,0:3|0:3,0:3:0:0:
135,173,203771,1,8,0:0:0:0:
168,286,203943,1,2,0:3:0:0:
5,372,204114,38,0,L|24:237,1,120,6|2,1:2|0:3,0:0:0:0:
102,60,204457,1,8,0:0:0:0:
240,135,204628,2,0,P|169:176|109:161,2,120,2|0|2,0:3|1:1|0:3,0:0:0:0:
159,328,205143,1,8,0:0:0:0:
21,253,205314,2,0,P|-2:179|25:104,1,120,2|0,0:3|1:0,0:0:0:0:
282,28,205657,69,2,0:3:0:0:
134,172,205828,1,8,0:0:0:0:
239,134,206000,2,0,P|248:193|222:246,2,120,2|0|2,0:3|1:0|0:3,0:0:0:0:
103,322,206514,102,0,B|73:298|73:298|143:295|143:295|195:344|195:344|272:325|272:325|320:358|320:358|277:372,1,360,2|0,1:0|0:0,0:0:0:0:
420,363,206857,54,0,L|452:218,1,120,4|2,1:0|0:3,0:0:0:0:
426,5,207200,1,8,0:0:0:0:
228,89,207371,2,0,B|296:31|389:59|346:93|434:134|501:62,1,287.999991210938,2|2,0:3|0:3,0:0:0:0:
329,264,207885,2,0,P|299:183|315:133,1,120,8|2,0:2|0:3,0:3:0:0:
16,239,208228,38,0,L|84:248,1,60,2|0,0:0|0:0,0:0:0:0:
184,338,208400,2,0,L|116:329,1,60,2|0,0:0|0:0,0:0:0:0:
228,89,208571,69,8,0:0:0:0:
154,257,208743,1,2,0:0:0:0:
66,52,208914,69,8,0:0:0:0:
258,296,209085,1,2,0:0:0:0:
329,51,209257,102,0,B|408:109|399:217|304:234|304:234|277:145|363:111,1,360,2|0,1:1|0:0,0:0:0:0:
481,19,209600,69,6,1:2:0:0:
409,72,209771,1,0,0:0:0:0:
410,80,209857,2,0,L|420:123,1,41.9999987182618,2|0,0:0|0:0,0:0:0:0:
327,43,210028,1,0,0:0:0:0:
329,51,210114,1,2,0:0:0:0:
221,84,210285,22,0,L|263:97,1,41.9999987182618,0|0,1:0|0:0,0:0:0:0:
133,113,210457,1,0,0:0:0:0:
130,105,210543,2,0,L|119:61,1,41.9999987182618,2|0,0:0|0:0,0:0:0:0:
200,168,210714,1,0,0:0:0:0:
194,174,210800,1,2,0:0:0:0:
70,236,210971,85,0,1:0:0:0:
174,266,211143,1,0,0:0:0:0:
168,276,211228,2,0,L|136:321,1,48,2|0,0:0|0:0,0:0:0:0:
241,350,211400,1,0,0:0:0:0:
231,354,211485,1,2,0:0:0:0:
344,205,211657,38,0,P|381:195|441:207,1,60,0|0,1:0|0:0,0:0:0:0:
254,226,211828,1,0,0:0:0:0:
257,235,211914,2,0,L|265:270,2,30,2|0|0,0:1|0:0|0:0,0:0:0:0:
402,195,212171,2,0,P|372:195|343:204,1,60,2|0,2:2|0:0,0:0:0:0:
241,350,212343,101,6,1:2:0:0:
390,365,212514,1,0,0:0:0:0:
391,352,212600,2,0,L|398:253,1,53.9999983520508,2|0,0:0|0:0,0:0:0:0:
402,195,212771,1,0,0:0:0:0:
401,208,212857,1,2,0:0:0:0:
226,188,213028,86,0,L|234:286,1,53.9999983520508,2|0,1:2|0:0,0:0:0:0:
122,365,213200,1,0,0:0:0:0:
121,352,213286,2,0,L|113:252,1,53.9999983520508,2|0,0:0|0:0,0:0:0:0:
110,195,213457,1,0,0:0:0:0:
111,208,213543,1,2,0:0:0:0:
256,363,213714,21,2,1:2:0:0:
439,318,213885,1,0,0:0:0:0:
424,320,213971,2,0,L|356:325,1,53.9999983520508,2|0,0:0|0:0,0:0:0:0:
215,245,214143,1,0,0:0:0:0:
230,247,214228,1,2,0:0:0:0:
456,179,214400,1,0,1:0:0:0:
441,181,214485,2,0,L|373:187,1,53.9999983520508,2|0,0:0|0:0,0:0:0:0:
190,124,214657,1,0,0:0:0:0:
205,126,214743,6,0,B|197:316|197:316|200:262|248:234,1,270.000010299683,2|0,1:0|0:0,0:0:0:0:
387,185,215085,69,6,1:2:0:0:
493,293,215257,1,2,0:0:0:0:
491,276,215343,2,0,L|485:213,1,60,2|0,0:0|1:0,0:0:0:0:
511,108,215514,1,0,0:0:0:0:
509,91,215600,2,0,L|504:29,1,60,2|0,0:0|0:0,0:0:0:0:
406,0,215771,21,2,1:2:0:0:
307,113,215943,1,2,0:0:0:0:
309,96,216028,2,0,L|315:33,1,60,2|0,0:0|1:0,0:0:0:0:
208,226,216200,1,0,0:0:0:0:
210,209,216285,2,0,L|215:147,1,60,2|0,0:0|0:0,0:0:0:0:
336,321,216457,85,2,1:2:0:0:
79,303,216628,1,2,0:0:0:0:
101,305,216714,2,0,L|163:310,1,60,2|0,0:0|1:0,0:0:0:0:
278,381,216885,1,0,0:0:0:0:
257,380,216971,2,0,L|195:375,1,60,2|0,0:0|0:0,0:0:0:0:
21,363,217143,21,2,1:2:0:0:
46,162,217314,2,0,L|42:222,1,60,2|0,1:1|0:0,0:0:0:0:
42,222,217657,2,0,L|46:162,1,60,2|0,2:2|0:0,0:0:0:0:
56,0,217828,85,6,1:2:0:0:
211,11,218000,2,0,L|108:22,1,66.0000020141602,2|0,0:0|0:0,0:0:0:0:
53,80,218171,2,0,L|156:91,1,66.0000020141602,2|0,1:2|0:0,0:0:0:0:
231,141,218343,2,0,L|128:152,1,66.0000020141602,2|0,0:0|0:0,0:0:0:0:
160,311,218514,21,2,1:2:0:0:
264,237,218685,2,0,L|259:302,1,66.0000020141602,2|0,0:0|0:0,0:0:0:0:
348,382,218857,2,0,L|352:316,1,66.0000020141602,2|0,1:2|0:0,0:0:0:0:
438,191,219028,2,0,L|433:256,1,66.0000020141602,2|0,0:0|0:0,0:0:0:0:
509,342,219200,86,0,P|491:280|433:255,1,132.00000402832,2|0,1:2|0:0,0:0:0:0:
393,115,219457,22,0,P|348:161|356:224,1,132.00000402832,2|0,2:2|0:0,0:0:0:0:
367,341,219714,102,0,L|366:308,18,33.0000010070801
264,375,220571,101,6,1:2:0:0:
91,297,220743,2,0,L|107:384,1,71.9999978027344,2|0,1:2|0:0,0:0:0:0:
192,229,220914,2,0,L|176:316,1,71.9999978027344,2|0,1:2|0:0,0:0:0:0:
1,188,221085,2,0,L|17:275,1,71.9999978027344,2|0,1:2|0:0,0:0:0:0:
279,121,221257,2,0,L|263:208,1,71.9999978027344,2|0,1:2|0:0,0:0:0:0:
57,78,221428,2,0,L|73:165,1,71.9999978027344,2|0,1:2|0:0,0:0:0:0:
216,9,221600,38,0,P|190:14|168:-1,1,53.9999983520508,2|0,1:0|0:0,0:0:0:0:
159,158,221943,101,6,1:2:0:0:
319,310,222114,2,0,L|295:199,1,71.9999978027344,2|0,1:2|0:0,0:0:0:0:
358,84,222285,2,0,L|306:163,1,71.9999978027344,2|0,1:2|0:0,0:0:0:0:
407,345,222457,2,0,L|383:234,1,71.9999978027344,2|0,1:2|0:0,0:0:0:0:
448,90,222628,2,0,L|396:169,1,71.9999978027344,2|0,1:2|0:0,0:0:0:0:
495,380,222800,2,0,L|471:269,1,71.9999978027344,2|0,1:2|0:0,0:0:0:0:
254,322,222971,6,0,B|286:299|318:310|318:310|299:342|257:343,1,135.000005149841,2|0,1:0|0:0,0:0:0:0:
242,350,223143,2,0,B|209:372|177:361|177:361|196:329|238:328,1,135.000005149841,2|0,1:0|0:0,0:0:0:0:
266,294,223314,69,6,1:2:0:0:
76,356,223485,2,0,P|38:346|8:321,1,77.9999964294435,2|0,1:2|0:0,0:0:0:0:
61,171,223657,2,0,P|68:209|90:240,1,77.9999964294435,2|0,1:2|0:0,0:0:0:0:
242,195,223828,2,0,P|204:185|174:160,1,77.9999964294435,2|0,1:2|0:0,0:0:0:0:
227,10,224000,2,0,P|234:48|256:79,1,77.9999964294435,2|0,1:2|0:0,0:0:0:0:
408,34,224171,2,0,P|370:24|340:0,1,77.9999964294435,2|0,1:2|0:0,0:0:0:0:
478,274,224343,37,2,1:1:0:0:
497,201,224428,1,2,1:1:0:0:
444,148,224514,1,2,1:1:0:0:
425,221,224600,1,2,1:1:0:0:
497,201,224685,101,6,1:2:0:0:
349,321,224857,2,0,B|381:366|381:366|380:305,1,107.999996704102,2|0,1:2|0:0,0:0:0:0:
330,159,225028,2,0,B|297:113|297:113|298:174,1,107.999996704102,2|0,1:2|0:0,0:0:0:0:
243,356,225200,2,0,B|259:378|259:378|258:348,2,53.9999983520508,2|0|0,1:2|0:0|0:0,0:0:0:0:
58,295,225371,102,0,B|20:263|20:263|161:287,2,180,2|2|2,0:0|0:0|0:0,0:0:0:0:
58,295,226057,101,6,1:2:0:0:
64,252,226143,1,0,0:0:0:0:
73,210,226228,1,2,0:0:0:0:
82,167,226314,1,0,0:0:0:0:
146,126,226400,21,2,1:2:0:0:
157,173,226485,1,0,0:0:0:0:
164,220,226571,1,2,0:0:0:0:
174,268,226657,1,0,0:0:0:0:
245,308,226743,69,2,1:2:0:0:
253,254,226828,1,0,0:0:0:0:
261,200,226914,1,2,0:0:0:0:
269,146,227000,1,0,0:0:0:0:
341,99,227085,21,2,1:2:0:0:
353,159,227171,1,0,0:0:0:0:
364,219,227257,1,2,0:0:0:0:
375,279,227343,1,0,0:0:0:0:
286,239,227428,101,6,1:2:0:0:
225,236,227513,1,0,0:0:0:0:
174,268,227600,1,2,0:0:0:0:
155,325,227685,1,0,0:0:0:0:
92,384,227771,21,6,1:2:0:0:
72,346,227857,1,0,0:0:0:0:
72,302,227942,1,2,0:0:0:0:
95,265,228028,1,0,0:0:0:0:
134,196,228114,69,6,1:2:0:0:
97,186,228200,1,0,0:0:0:0:
60,194,228285,1,2,0:0:0:0:
30,218,228371,1,0,0:0:0:0:
95,265,228457,21,6,1:2:0:0:
105,296,228543,1,0,0:0:0:0:
99,328,228628,1,2,0:0:0:0:
72,346,228714,1,0,0:0:0:0:
38,350,228800,22,0,P|16:350|0:346,1,38.9999982147218,2|0,1:2|2:0,2:0:0:0:
39,339,228885,2,0,P|18:338|0:334,1,38.9999982147218,0|0,2:2|2:0,2:0:0:0:
38,329,228971,2,0,P|17:328|-1:324,1,38.9999982147218,2|0,2:2|2:0,2:0:0:0:
40,319,229057,2,0,P|19:318|0:314,1,38.9999982147218,0|0,2:2|2:0,2:0:0:0:
66,297,229143,6,0,P|86:298|104:295,1,38.9999982147218,2|0,1:2|2:0,2:0:0:0:
67,286,229228,2,0,P|88:286|107:283,1,38.9999982147218,0|0,2:2|2:0,2:0:0:0:
67,276,229314,2,0,P|88:276|107:272,1,38.9999982147218,2|0,2:2|2:0,2:0:0:0:
68,266,229400,2,0,P|89:265|108:262,1,38.9999982147218,0|0,2:2|2:0,2:0:0:0:
42,245,229485,102,0,P|20:245|3:241,1,38.9999982147218,2|0,1:2|2:0,2:0:0:0:
43,234,229571,2,0,P|22:233|3:229,1,38.9999982147218,0|0,2:2|2:0,2:0:0:0:
42,224,229657,2,0,P|21:223|2:219,1,38.9999982147218,2|0,2:2|2:0,2:0:0:0:
44,214,229742,2,0,P|23:213|4:209,1,38.9999982147218,0|0,2:2|2:0,2:0:0:0:
74,189,229828,6,0,P|92:190|111:186,1,38.9999982147218,2|0,1:2|2:0,2:0:0:0:
74,168,229914,2,0,P|92:169|111:165,1,38.9999982147218,8|0,1:3|2:0,2:0:0:0:
76,148,230000,2,0,P|94:149|113:145,1,38.9999982147218,8|0,1:3|2:0,2:0:0:0:
77,128,230085,2,0,P|95:129|114:125,1,38.9999982147218,8|0,1:3|2:0,2:0:0:0:
39,59,230171,5,2,1:2:0:0:
39,59,231371,2,0,L|76:57,1,30,2|0,0:0|0:0,0:0:0:0:
234,11,231543,85,4,1:0:0:0:
210,84,231628,1,0,0:0:0:0:
238,157,231714,1,0,0:0:0:0:
305,195,231800,2,0,B|345:203|345:203|285:229|210:158,1,132.00000402832,2|8,0:2|1:2,0:0:0:0:
33,126,231971,5,0,0:0:0:0:
40,100,232057,2,0,B|39:59|39:59|75:113|19:200,1,132.00000402832,2|0,0:0|2:0,0:0:0:0:
56,366,232228,101,6,1:2:0:0:
7,304,232314,2,0,B|44:279|44:279|185:319,1,132.00000402832,2|0,0:0|0:0,0:0:0:0:
335,326,232485,2,0,B|298:351|298:351|157:311,1,132.00000402832,2|8,0:0|1:2,0:0:0:0:
238,157,232657,5,0,0:0:0:0:
267,162,232743,2,0,P|291:212|284:268,1,113.999996955872,2|0,0:0|0:0,0:0:0:0:
129,303,232914,101,6,1:2:0:0:
133,224,232999,1,0,0:3:0:0:
138,145,233085,1,0,0:3:0:0:
142,66,233171,2,0,B|112:34|112:34|105:143,1,132.00000402832,2|8,0:2|1:2,0:3:0:0:
295,195,233343,5,0,0:3:0:0:
322,197,233428,2,0,B|354:167|354:167|245:160,1,132.00000402832,2|0,0:2|0:2,0:3:0:0:
36,187,233600,101,6,1:2:0:0:
3,258,233685,1,0,0:0:0:0:
50,320,233771,1,0,0:0:0:0:
129,303,233857,2,0,B|154:260|134:225|134:225|109:253|126:297,1,132.00000402832,2|8,0:0|1:2,0:0:0:0:
252,371,234028,5,0,0:0:0:0:
330,358,234114,1,2,0:0:0:0:
408,345,234199,1,2,0:0:0:0:
472,293,234285,102,0,P|382:265|330:318,1,132.00000402832,4|0,1:1|0:0,0:0:0:0:
226,362,234457,5,0,0:0:0:0:
252,371,234543,2,0,B|255:326|255:326|241:296|241:296|244:254,1,120,2|8,0:0|1:2,0:0:0:0:
374,174,234714,101,0,0:0:0:0:
348,164,234800,2,0,B|345:209|345:209|359:239|359:239|355:280,1,120,2|0,0:0|0:0,0:0:0:0:
138,243,234971,5,6,1:2:0:0:
215,228,235057,2,0,B|244:253|244:253|139:244,1,143.999995605469
7,133,235228,102,0,L|138:144,1,132.00000402832,2|8,0:0|1:2,0:0:0:0:
336,56,235400,1,0,0:0:0:0:
257,50,235485,2,0,L|125:38,1,132.00000402832,2|0,0:0|0:0,0:0:0:0:
439,26,235657,6,0,B|439:61|439:61|460:93|460:93|439:119|439:119|429:286,1,264.000008056641,6|2,1:2|0:0,0:0:0:0:
244,376,235914,102,0,B|246:337|246:337|240:321|240:321|248:305|248:305|254:221,1,132.00000402832,2|8,0:0|1:2,0:0:0:0:
353,85,236085,1,0,0:0:0:0:
352,114,236171,2,0,B|350:153|350:153|356:169|356:169|348:185|348:185|342:269,1,132.00000402832,2|0,0:0|2:2,0:0:0:0:
162,182,236343,5,6,1:2:0:0:
82,179,236428,2,0,B|127:128|127:128|162:183,1,132.00000402832,2|0,0:0|0:0,0:0:0:0:
109,380,236600,2,0,L|121:195,1,132.00000402832,2|8,0:0|1:2,0:0:0:0:
137,0,236771,37,2,0:0:0:0:
135,26,236857,1,2,0:0:0:0:
133,52,236942,1,2,0:0:0:0:
57,23,237028,53,4,1:1:0:0:
135,26,237114,1,0,0:0:0:0:
214,30,237199,1,0,0:0:0:0:
293,35,237285,2,0,B|391:38|391:38|358:61,1,132.00000402832,2|8,0:0|1:2,0:0:0:0:
205,161,237457,5,0,0:0:0:0:
206,137,237543,2,0,L|214:30,1,107.999996704102,2|0,0:0|0:0,0:0:0:0:
333,215,237714,101,6,1:2:0:0:
281,274,237800,2,0,P|340:294|412:222,1,132.00000402832,2|0,0:0|0:0,0:0:0:0:
512,232,237971,2,0,P|461:272|368:229,1,132.00000402832,2|8,0:0|1:2,0:0:0:0:
434,65,238143,5,0,0:0:0:0:
421,86,238228,2,0,L|438:191,1,107.999996704102,2|0,0:0|0:0,0:0:0:0:
381,382,238400,102,0,B|338:323|398:262|398:262|475:298|462:365,1,264.000008056641,6|0,1:2|0:0,0:0:0:0:
174,372,238657,6,0,B|146:317|177:273|177:273|176:295|185:317,1,132.00000402832,2|8,2:2|1:2,0:2:0:0:
319,163,238828,1,0,0:2:0:0:
301,183,238914,2,0,B|247:210|203:179|203:179|225:180|247:171,1,132.00000402832,2|0,2:2|0:2,0:2:0:0:
291,30,239085,101,6,1:2:0:0:
368,24,239170,1,2,0:0:0:0:
434,65,239256,1,0,0:0:0:0:
461,137,239343,2,0,P|406:81|418:17,1,132.00000402832,2|8,0:0|1:2,0:0:0:0:
301,183,239514,5,0,0:0:0:0:
313,256,239600,1,2,0:0:0:0:
322,333,239685,1,0,0:0:0:0:
334,261,239771,101,4,1:1:0:0:
410,252,239857,1,2,0:0:0:0:
443,317,239943,1,2,0:0:0:0:
388,369,240028,1,2,0:0:0:0:
322,333,240114,5,8,1:2:0:0:
370,246,240200,2,0,P|419:358|322:286,1,324.000001235962,2|0,2:2|0:0,0:0:0:0:
354,81,240457,102,0,B|300:75|300:75|276:61|276:61|227:55,1,132.00000402832,6|0,1:2|0:0,0:0:0:0:
162,289,240628,5,0,0:0:0:0:
165,268,240714,2,0,L|181:137,1,107.999996704102,2|8,0:0|1:2,0:0:0:0:
11,23,240885,101,0,0:0:0:0:
23,103,240971,2,0,L|39:233,1,132.00000402832,2|0,0:0|0:0,0:0:0:0:
128,367,241143,54,0,L|37:354,1,60,6|0,1:2|0:0,0:0:0:0:
6,316,241314,54,0,B|29:354|29:354|128:368,1,143.999995605469,2|0,0:0|0:0,0:0:0:0:
277,383,241485,5,12,1:2:0:0:
237,92,241657,1,2,0:0:0:0:
165,268,241828,101,6,1:2:0:0:
403,63,242000,1,2,0:0:0:0:
447,346,242171,6,0,B|461:370|517:378|538:302|471:256|420:291|401:362|401:362|308:327|344:389|230:348,1,396.000012084961,2|0,1:1|0:0,0:0:0:0:
83,328,242514,101,4,1:1:0:0:
57,252,242599,1,0,0:0:0:0:
101,190,242685,1,0,0:0:0:0:
178,189,242771,2,0,B|187:289|187:289|136:240,1,132.00000402832,2|8,0:0|1:2,0:0:0:0:
188,67,242943,5,0,0:0:0:0:
163,69,243028,2,0,B|62:77|62:77|119:118,1,132.00000402832,2|0,0:0|2:2,0:0:0:0:
325,237,243200,101,6,1:2:0:0:
309,150,243285,2,0,P|267:197|297:251,1,132.00000402832,2|0,0:0|0:0,0:0:0:0:
314,338,243457,2,0,P|355:293|327:238,1,132.00000402832,2|8,0:0|1:2,0:0:0:0:
512,266,243628,5,0,0:0:0:0:
501,291,243714,2,0,L|393:293,1,107.999996704102,2|0,0:0|0:0,0:0:0:0:
165,346,243885,101,6,1:2:0:0:
172,267,243970,1,0,0:0:0:0:
179,188,244056,1,0,0:0:0:0:
186,109,244143,2,0,B|226:132|226:132|221:254,1,132.00000402832,2|8,0:0|1:2,0:0:0:0:
393,292,244314,5,0,0:0:0:0:
370,292,244400,2,0,B|330:269|330:269|335:147,1,132.00000402832,2|0,0:0|2:2,0:0:0:0:
331,57,244571,101,6,1:2:0:0:
404,32,244656,1,2,0:0:0:0:
474,65,244742,1,0,0:0:0:0:
502,137,244828,2,0,B|512:188|478:211|478:211|461:175|490:143,1,132.00000402832,2|8,0:0|1:2,0:0:0:0:
333,183,245000,5,0,0:0:0:0:
349,259,245085,1,2,0:0:0:0:
364,338,245171,1,0,0:0:0:0:
434,378,245257,102,0,B|394:355|394:355|275:383,1,132.00000402832,4|0,1:1|0:0,0:0:0:0:
180,211,245428,5,0,0:0:0:0:
200,206,245514,2,0,B|242:261|242:261|224:322,1,132.00000402832,2|8,0:0|1:2,0:0:0:0:
115,347,245685,101,0,0:0:0:0:
95,352,245771,2,0,B|53:297|53:297|71:236,1,132.00000402832,2|0,0:0|2:2,0:0:0:0:
83,77,245943,5,6,1:2:0:0:
42,142,246028,2,0,P|104:154|152:112,1,132.00000402832,2|0,0:0|0:0,0:0:0:0:
314,312,246200,102,0,L|287:182,1,132.00000402832,2|8,0:0|1:2,0:0:0:0:
505,110,246371,1,0,0:0:0:0:
490,184,246457,2,0,L|463:313,1,132.00000402832,2|0,0:0|2:2,0:0:0:0:
335,35,246628,6,0,B|322:94|322:94|389:155|389:155|455:94|455:94|434:24,1,300,6|0,1:2|0:0,0:0:0:0:
161,132,246885,102,0,B|194:103|251:119|251:119|229:132|214:162,1,132.00000402832,2|8,0:0|1:2,0:0:0:0:
87,32,247057,1,0,0:0:0:0:
71,51,247143,2,0,B|37:80|-19:61|-19:61|2:51|17:21,1,132.00000402832,2|0,2:0|2:0,2:0:0:0:
255,47,247314,5,6,1:2:0:0:
251,119,247400,2,0,L|232:13,1,107.999996704102
195,262,247571,1,2,0:0:0:0:
177,309,247657,102,0,P|204:331|214:358,1,53.9999983520508,10|0,1:2|0:0,0:0:0:0:
193,297,247743,2,0,P|213:325|216:353,1,53.9999983520508,0|0,1:2|0:0,0:0:0:0:
211,290,247828,2,0,P|223:322|218:350,1,53.9999983520508,0|0,1:2|0:0,0:0:0:0:
230,288,247914,2,0,P|233:322|221:348,1,53.9999983520508,0|0,1:2|0:0,0:0:0:0:
226,340,248000,102,0,L|371:350,1,102.000001945496,4|0,1:1|0:0,0:0:0:0:
468,233,248171,85,2,0:0:0:0:
461,254,248257,2,0,L|316:264,1,102.000001945496,4|0,1:3|0:0,0:0:0:0:
170,153,248428,101,2,0:0:0:0:
186,184,248514,2,0,L|331:194,1,102.000001945496,4|0,1:3|0:0,0:0:0:0:
512,64,248685,69,2,0:0:0:0:
495,106,248771,2,0,L|350:116,1,102.000001945496,4|0,1:3|0:0,0:0:0:0:
178,0,248943,101,2,0:0:0:0:
112,43,249028,2,0,B|135:75|135:75|227:82,1,132.00000402832,4|0,1:3|0:0,0:0:0:0:
489,284,249200,2,0,B|459:254|459:254|369:261,1,132.00000402832,4|0,1:3|0:0,0:0:0:0:
46,325,249371,102,0,L|35:200,1,113.999996955872,4|0,1:1|0:0,0:0:0:0:
135,75,249543,85,2,0:0:0:0:
134,93,249628,2,0,L|123:218,1,113.999996955872,4|0,1:3|0:0,0:0:0:0:
225,352,249800,101,2,0:0:0:0:
222,318,249885,2,0,L|211:193,1,113.999996955872,4|0,1:3|0:0,0:0:0:0:
308,3,250057,69,2,0:0:0:0:
303,50,250142,2,0,L|292:175,1,113.999996955872,4|0,1:3|0:0,0:0:0:0:
450,299,250314,101,0,0:0:0:0:
405,364,250400,2,0,B|367:310|367:310|410:187,1,150,4|0,1:3|0:0,0:0:0:0:
499,10,250571,2,0,B|537:64|537:64|494:187,1,150,4|0,1:3|0:0,0:0:0:0:
136,331,250743,6,0,B|67:387|-17:337|5:247|5:247|59:239|78:273,1,300,4|0,1:1|0:0,0:0:0:0:
253,110,251000,2,0,B|277:24|198:-33|124:22|124:22|137:74|176:79,1,300,4|0,1:3|0:0,0:0:0:0:
280,309,251257,102,4,P|279:216|320:233,1,180.000006866455,4|0,1:3|2:3,1:3:0:0:
395,26,251428,5,4,1:1:0:0:
433,89,251514,2,0,B|422:58|422:58|402:101|402:101|437:157|376:228,1,180.000006866455,2|0,2:2|0:0,0:0:0:0:
395,315,251685,2,0,B|426:320|426:320|399:281|399:281|332:284|302:195,1,180.000006866455,4|0,1:3|0:0,0:0:0:0:
239,150,251857,101,0,0:0:0:0:
217,170,251943,2,0,B|195:194|195:194|242:189|242:189|273:130|365:148,1,180.000006866455,4|0,1:3|0:0,0:0:0:0:
93,62,252114,6,0,B|65:82|65:82|99:89,1,66.0000020141602,4|0,1:1|0:0,0:0:0:0:
100,69,252200,2,0,B|78:95|78:95|112:93,1,66.0000020141602,2|0,0:0|0:0,0:0:0:0:
108,73,252285,2,0,B|93:104|93:104|126:93,1,66.0000020141602,2|0,0:0|0:0,0:0:0:0:
117,75,252371,2,0,B|111:108|111:108|140:89,1,66.0000020141602,2|0,0:0|0:0,0:0:0:0:
126,75,252457,2,0,B|129:109|129:109|152:83,1,66.0000020141602,2|0,0:0|0:0,0:0:0:0:
134,72,252543,2,0,B|146:104|146:104|161:73,1,66.0000020141602,2|0,0:0|0:0,0:0:0:0:
128,35,252628,38,0,B|174:111|174:111|192:15,1,180.000006866455,4|0,2:3|2:2,0:0:0:0:
218,4,252885,70,0,L|194:136,1,90.0000034332277,2|0,2:2|0:0,0:0:0:0:
167,283,253057,2,0,B|187:182|187:182|242:274,1,150,2|0,1:2|0:0,0:0:0:0:
380,169,253228,37,0,0:0:0:0:
362,166,253314,2,0,L|230:142,1,90.0000034332277,2|2,0:0|0:0,0:0:0:0:
32,266,253485,54,0,B|-24:231|-68:295|23:358|90:311|45:272|118:243|215:305,1,264.000008056641,6|0,1:0|0:0,0:0:0:0:
181,90,253743,6,0,B|208:138|184:178|184:178|183:146|169:125,1,132.00000402832,2|8,0:0|1:2,0:0:0:0:
0,186,253914,1,0,0:0:0:0:
15,168,254000,2,0,B|65:145|102:172|102:172|70:170|48:183,1,132.00000402832,2|0,0:0|2:2,0:0:0:0:
285,329,254171,101,2,1:2:0:0:
210,357,254257,2,0,P|251:307|242:243,1,132.00000402832,2|0,0:0|0:0,0:0:0:0:
205,61,254428,2,0,P|170:115|185:178,1,132.00000402832,2|8,0:0|1:2,0:0:0:0:
363,108,254600,5,0,0:0:0:0:
378,130,254685,2,0,L|250:127,1,107.999996704102,2|0,0:0|0:0,0:0:0:0:
85,243,254857,101,2,1:2:0:0:
164,244,254942,1,0,0:0:0:0:
243,244,255028,1,0,0:0:0:0:
322,245,255114,2,0,B|299:274|299:274|180:276,1,132.00000402832,2|8,0:0|1:2,0:0:0:0:
35,372,255285,5,0,0:0:0:0:
11,373,255371,2,0,B|35:344|35:344|151:340,1,132.00000402832,2|0,0:0|2:2,0:0:0:0:
360,313,255543,101,2,1:2:0:0:
281,312,255628,1,0,0:0:0:0:
243,244,255714,2,0,P|236:176|291:133,2,107.999996704102,2|2|8,1:1|0:0|1:2,0:0:0:0:
462,263,255971,5,0,0:0:0:0:
503,196,256057,1,2,0:0:0:0:
465,127,256143,1,2,0:0:0:0:
384,90,256228,102,0,B|411:162|500:176|533:112|533:112|499:137|442:124,1,264.000008056641,6|0,1:0|0:0,0:0:0:0:
257,44,256485,6,0,P|243:95|258:147,1,107.999996704102,2|8,2:2|1:2,0:0:0:0:
362,242,256657,1,0,0:0:0:0:
334,235,256743,2,0,B|283:232|246:272|246:272|276:261|305:270,1,150,2|0,0:1|0:0,0:0:0:0:
473,230,256914,101,2,1:2:0:0:
459,304,257000,2,0,B|518:284|518:284|473:230,1,132.00000402832,2|0,0:0|0:0,0:0:0:0:
281,347,257171,6,0,L|407:383,1,132.00000402832,2|8,2:2|1:2,0:0:0:0:
48,334,257343,1,0,0:0:0:0:
120,309,257428,2,0,L|246:272,1,132.00000402832,2|0,2:2|2:2,0:0:0:0:
429,128,257600,102,0,B|383:156|338:126|374:91|426:110,1,132.00000402832,2|0,1:2|0:0,0:0:0:0:
310,194,257771,5,0,0:0:0:0:
296,173,257857,2,0,P|282:109|311:50,1,107.999996704102,2|8,0:0|1:2,0:0:0:0:
325,275,258028,101,0,0:0:0:0:
246,271,258114,2,0,P|204:237|186:182,1,107.999996704102,2|0,0:0|2:2,0:0:0:0:
22,69,258285,6,0,B|-4:100|-4:100|107:86|107:86|135:110|135:110|269:93,1,300,2|2,1:1|0:0,0:0:0:0:
395,105,258543,2,0,B|429:127|429:127|317:143|317:143|296:173|296:173|188:188,1,300,2|0,1:1|0:2,0:0:0:0:
77,266,258800,38,0,B|58:233|58:233|75:182|75:182|104:225|104:225|97:262,1,180.000006866455,2|0,1:1|0:0,0:0:0:0:
296,173,258971,54,0,B|279:355|279:355|300:295|381:296,1,264.000008056641,6|0,1:0|0:0,2:0:0:0:
481,259,259228,6,0,P|437:229|384:228,1,107.999996704102,2|8,0:0|1:2,0:0:0:0:
188,225,259400,1,0,0:0:0:0:
199,203,259485,2,0,P|242:172|295:172,1,107.999996704102,2|0,0:0|2:2,0:0:0:0:
74,74,259657,101,2,1:2:0:0:
125,135,259743,2,0,B|155:103|155:103|144:-12,1,132.00000402832,2|0,0:0|0:0,0:0:0:0:
188,225,259914,2,0,B|158:257|158:257|169:372,1,132.00000402832,2|8,0:0|1:2,0:0:0:0:
359,111,260085,5,0,0:0:0:0:
335,114,260171,2,0,L|228:126,1,107.999996704102,2|0,0:0|0:0,0:0:0:0:
58,368,260343,102,0,P|43:305|74:248,1,132.00000402832,2|0,1:2|0:0,0:0:0:0:
245,292,260514,5,0,0:0:0:0:
232,310,260600,2,0,B|192:337|140:321|140:321|153:342|167:345,1,132.00000402832,2|8,0:0|1:2,0:0:0:0:
100,142,260771,37,0,0:0:0:0:
85,158,260857,2,0,B|57:197|74:249|74:249|52:236|50:222,1,132.00000402832,2|0,0:0|2:2,0:0:0:0:
238,153,261028,53,2,1:2:0:0:
217,224,261114,1,0,0:0:0:0:
245,292,261200,2,0,P|285:306|356:281,2,107.999996704102,2|2|10,1:1|0:0|1:2,0:0:0:0:
100,142,261457,5,0,0:0:0:0:
166,169,261543,1,2,0:0:0:0:
238,153,261628,1,2,0:0:0:0:
278,73,261714,102,0,B|220:111|222:193|292:230|292:230|346:179|297:100,1,287.999991210938,4|0,1:1|0:0,0:0:0:0:
436,127,261971,5,2,0:0:0:0:
391,191,262057,1,8,1:2:0:0:
436,257,262143,1,2,0:0:0:0:
512,232,262228,2,0,B|538:192|538:192|512:152,1,96,2|0,0:1|0:0,0:0:0:0:
149,156,262400,101,0,1:2:0:0:
148,231,262485,2,0,B|94:192|94:192|148:155,1,132.00000402832,2|0,2:2|0:0,0:0:0:0:
221,17,262657,2,0,L|40:39,1,132.00000402832,2|8,0:0|1:2,0:0:0:0:
298,380,262828,5,0,0:0:0:0:
221,367,262914,2,0,L|40:345,1,132.00000402832,2|0,2:0|2:2,0:0:0:0:
348,190,263085,38,0,L|343:131,1,60,6|0,1:2|0:0,0:0:0:0:
344,132,263257,54,0,B|347:169|347:169|359:192|359:192|349:214|349:214|353:286,1,143.999995605469,2|0,0:0|0:0,0:0:0:0:
425,364,263428,5,12,1:2:0:0:
217,192,263600,1,2,0:0:0:0:
333,19,263771,101,6,1:2:0:0:
270,307,263943,1,2,0:0:0:0:
13,73,264114,6,0,B|6:39|27:-12|82:-5|87:48|49:86|49:86|20:120|2:183|77:234|77:234|115:180|91:135,1,431.999986816407,2|0,1:1|0:0,0:0:0:0:
150,141,264457,6,0,L|97:151,1,53.9999983520508,6|0,2:0|0:0,0:0:0:0:
96,151,264800,21,4,1:1:0:0:
100,181,264885,1,0,0:0:0:0:
105,211,264971,1,2,0:0:0:0:
108,242,265057,1,0,0:0:0:0:
60,249,265143,6,0,L|109:241,1,48,2|0,1:2|0:0,0:0:0:0:
201,225,265314,2,0,L|250:217,1,48,2|0,2:2|0:0,0:0:0:0:
132,333,265485,102,0,L|181:341,1,48,2|0,1:2|0:0,0:0:0:0:
298,365,265657,1,2,0:0:0:0:
382,180,265828,5,2,1:2:0:0:
352,176,265913,1,0,0:0:0:0:
322,171,265999,1,2,0:0:0:0:
291,168,266085,1,0,0:0:0:0:
284,119,266171,101,2,1:2:0:0:
314,115,266256,1,0,0:0:0:0:
344,110,266342,1,2,0:0:0:0:
375,107,266428,1,0,0:0:0:0:
368,59,266514,6,0,L|299:49,1,48,2|0,1:2|0:0,0:0:0:0:
192,30,266685,1,2,0:2:0:0:
192,30,266857,54,0,L|248:39,1,30,2|0,1:2|0:0,0:0:0:0:
191,37,266943,2,0,L|247:31,1,30,2|0,2:2|0:0,0:0:0:0:
191,44,267029,2,0,L|243:23,1,30,2|0,2:2|0:0,0:0:0:0:
193,50,267114,2,0,L|238:16,1,30,2|0,2:2|0:0,0:0:0:0:
159,2,267200,102,0,P|156:54|185:96,1,90.0000034332277,2|0,1:1|0:0,0:0:0:0:
57,191,267371,2,0,P|76:151|71:107,1,90.0000034332277,2|0,1:1|0:0,0:0:0:0:
262,126,267543,53,4,1:0:0:0:
241,153,267628,1,0,0:0:0:0:
234,188,267714,1,2,0:0:0:0:
242,224,267800,1,0,0:0:0:0:
314,186,267885,6,0,P|325:215|319:251,1,60,2|0,1:2|0:0,0:0:0:0:
170,260,268057,2,0,P|158:230|164:194,1,60,2|0,2:2|0:0,0:0:0:0:
396,273,268228,102,0,P|380:300|349:318,1,60,2|0,1:2|0:0,0:0:0:0:
242,224,268400,1,2,0:0:0:0:
245,46,268571,5,2,1:2:0:0:
279,38,268656,1,0,0:0:0:0:
314,48,268743,1,2,0:0:0:0:
339,73,268828,1,0,0:0:0:0:
315,146,268914,101,2,1:2:0:0:
281,154,268999,1,0,0:0:0:0:
246,144,269085,1,2,0:0:0:0:
221,119,269171,1,0,0:0:0:0:
165,61,269257,5,2,1:1:0:0:
157,83,269342,1,0,0:0:0:0:
150,106,269428,1,0,0:0:0:0:
68,126,269514,101,2,1:1:0:0:
70,149,269600,1,0,2:0:0:0:
73,173,269685,1,0,0:0:0:0:
6,225,269771,69,2,1:1:0:0:
18,245,269856,1,0,0:0:0:0:
30,265,269943,6,0,B|60:270|60:270|35:286,6,60,2|0|0|0|0|0|0,1:2|0:0|0:0|0:0|0:0|0:0|0:0,0:0:0:0:
152,191,270285,22,0,B|138:247|138:247|175:307,1,107.999996704102,6|0,1:2|0:0,0:0:0:0:
346,265,270457,2,0,B|360:209|360:209|323:149,1,107.999996704102,2|0,1:2|0:0,0:0:0:0:
135,93,270628,70,0,B|89:122|89:122|66:192,1,107.999996704102,2|0,1:2|0:0,0:0:0:0:
401,121,270800,2,0,B|369:80|369:80|313:71,1,107.999996704102,2|0,1:2|0:0,0:0:0:0:
211,358,270971,102,0,P|273:371|326:341,1,120,2|0,1:2|0:0,0:0:0:0:
232,119,271143,2,0,L|255:254,1,120,2|0,1:2|0:0,0:0:0:0:
445,297,271314,21,2,0:0:0:0:
416,288,271400,1,0,0:0:0:0:
427,307,271485,1,2,0:0:0:0:
434,278,271571,1,2,0:0:0:0:
451,207,271657,22,0,P|453:260|428:307,1,107.999996704102,6|0,1:2|0:0,0:0:0:0:
232,119,271828,2,0,P|283:103|334:115,1,107.999996704102,2|0,1:2|0:0,0:0:0:0:
331,280,272000,70,0,P|268:295|209:266,1,107.999996704102,2|0,1:2|0:0,0:0:0:0:
444,104,272171,2,0,P|462:153|451:205,1,107.999996704102,2|0,1:2|0:0,0:0:0:0:
142,373,272343,102,0,L|125:219,1,120,2|0,1:2|0:0,0:0:0:0:
145,29,272514,2,0,L|128:183,1,120,2|0,1:2|0:0,0:0:0:0:
264,343,272685,5,2,1:2:0:0:
330,373,272771,1,0,1:0:0:0:
400,355,272857,1,2,1:2:0:0:
444,299,272943,1,0,1:0:0:0:
448,228,273028,1,2,1:2:0:0:
410,168,273114,1,0,1:0:0:0:
343,143,273200,1,2,1:2:0:0:
275,161,273285,1,0,1:0:0:0:
230,218,273371,101,2,1:2:0:0:
149,236,273457,1,0,1:0:0:0:
74,197,273543,1,2,1:2:0:0:
43,120,273628,1,0,1:0:0:0:
73,44,273714,1,2,1:2:0:0:
143,2,273800,1,0,1:0:0:0:
224,20,273885,1,2,1:2:0:0:
270,87,273971,1,0,1:0:0:0:
230,218,274057,102,0,B|156:206|156:206|232:182,1,150,2|0,1:2|2:0,2:0:0:0:
305,296,274228,85,0,0:0:0:0:
338,305,274314,2,0,B|304:371|304:371|305:291,1,150,4|0,1:3|2:0,2:0:0:0:
440,269,274485,5,0,0:0:0:0:
460,241,274571,2,0,B|512:293|512:293|437:268,1,150,4|0,1:3|2:0,2:0:0:0:
445,132,274742,85,0,0:0:0:0:
422,107,274828,2,0,B|486:68|486:68|442:135,1,150,4|0,1:3|2:0,2:0:0:0:
312,198,275000,54,0,P|355:165|329:217,1,150,4|0,1:3|0:0,0:0:0:0:
300,72,275171,5,0,0:0:0:0:
270,87,275257,2,0,B|254:13|254:13|303:76,1,150,4|0,1:3|2:0,2:0:0:0:
337,305,275428,38,0,P|279:291|239:247,1,120,4|2,1:1|0:3,0:0:0:0:
458,205,275771,1,8,1:2:0:0:
377,76,275943,2,0,L|340:192,2,120,2|2|2,0:3|1:2|0:3,0:0:0:0:
239,247,276457,1,8,1:2:0:0:
312,384,276628,2,0,P|335:329|319:273,1,120,2|0,0:3|1:2,0:0:0:0:
64,128,276971,69,2,0:3:0:0:
97,354,277143,1,8,1:2:0:0:
149,204,277314,2,0,P|91:208|39:261,2,120,2|2|2,0:3|1:2|0:3,0:0:0:0:
213,378,277828,85,8,1:2:0:0:
208,341,277913,1,0,0:0:0:0:
223,310,278000,1,2,0:0:0:0:
253,293,278085,1,0,0:0:0:0:
306,289,278171,70,0,L|148:301,1,120,6|2,1:2|0:3,0:0:0:0:
311,21,278514,1,8,1:2:0:0:
366,151,278685,2,0,B|442:336|442:336|451:233,1,287.999991210938,2|2,0:3|0:3,0:3:0:0:
243,380,279200,1,8,0:0:0:0:
267,238,279371,1,2,0:3:0:0:
114,361,279543,70,0,P|24:361|-15:320,1,120,2|2,1:2|0:3,0:0:0:0:
3,39,279885,1,8,1:2:0:0:
105,100,280057,2,0,B|142:159|116:254|70:279|70:279|49:218|81:177,1,287.999991210938,2|2,0:3|0:3,0:0:0:0:
243,380,280571,1,8,1:2:0:0:
323,254,280743,1,2,0:3:0:0:
442,326,280914,38,0,L|452:161,1,120,6|2,1:2|0:3,0:0:0:0:
327,383,281257,1,8,1:2:0:0:
199,296,281428,2,0,L|355:277,2,120,2|0|2,0:3|1:0|0:3,0:0:0:0:
449,206,281943,1,8,1:2:0:0:
334,120,282114,2,0,P|300:42|327:-6,1,120,2|0,0:3|1:0,0:0:0:0:
500,28,282457,69,2,0:3:0:0:
357,207,282628,1,8,1:2:0:0:
432,325,282800,2,0,L|448:206,2,120,2|0|2,0:3|1:0|0:3,0:0:0:0:
154,285,283314,102,0,B|123:316|123:316|199:307|199:307|235:361|235:361|288:324|288:324|351:358|351:358|334:318,1,360,2|0,1:1|0:0,0:0:0:0:
271,136,283657,54,0,L|255:255,1,120,6|2,1:2|0:3,0:0:0:0:
98,20,284000,1,8,1:2:0:0:
1,148,284171,2,0,B|94:119|94:119|178:162|178:162|271:136,1,287.999991210938,2|2,0:3|0:3,0:0:0:0:
76,345,284685,2,0,L|86:226,1,120,8|2,1:2|0:3,0:0:0:0:
293,21,285028,69,2,1:2:0:0:
383,214,285200,1,2,2:3:0:0:
174,188,285371,1,8,1:2:0:0:
381,1,285543,38,0,B|436:-12|499:-2|536:36|536:36|538:85|497:146|442:169,1,324.000001235962,2|2,0:3|0:3,0:0:0:0:
272,290,286057,53,8,1:2:0:0:
287,239,286143,1,2,0:0:0:0:
330,209,286228,1,2,0:2:0:0:
383,214,286314,1,2,0:0:0:0:
444,246,286400,54,0,L|329:208,1,120,4|0,1:0|0:0,0:0:0:0:
61,223,286743,1,8,1:2:0:0:
181,70,286914,2,0,P|190:128|166:181,2,120,2|0|2,0:3|1:0|0:3,0:0:0:0:
156,380,287428,1,8,1:2:0:0:
270,243,287600,2,0,L|390:256,1,120,2|0,2:3|1:0,0:0:0:0:
347,57,287943,69,2,0:3:0:0:
324,354,288114,1,8,1:2:0:0:
477,171,288285,2,0,P|417:170|373:209,2,120,2|0|2,0:3|1:0|0:3,0:0:0:0:
425,357,288800,85,8,1:2:0:0:
413,323,288886,1,0,0:0:0:0:
401,289,288972,1,2,0:0:0:0:
389,255,289057,1,0,0:0:0:0:
374,208,289143,70,0,P|433:208|477:169,1,120,6|2,1:2|2:3,0:0:0:0:
219,11,289485,1,8,1:2:0:0:
64,121,289657,2,0,B|36:144|-22:158|-47:113|-11:68|38:54|120:86|158:159,1,287.999991210938,2|2,0:3|0:3,0:0:0:0:
31,380,290171,1,8,1:2:0:0:
48,250,290343,1,2,0:3:0:0:
214,342,290514,70,0,B|276:363|276:363|333:306,1,120,2|2,1:2|0:3,0:0:0:0:
216,53,290857,1,8,1:2:0:0:
255,268,291028,2,0,B|202:214|202:214|230:136|230:136|282:200|282:200|256:263,1,287.999991210938,2|2,0:3|0:3,0:0:0:0:
410,160,291543,102,0,L|365:170,1,30,10|0,1:2|0:0,0:0:0:0:
412,168,291628,2,0,L|367:178,1,30,0|0,2:2|0:0,0:0:0:0:
414,176,291714,2,0,L|369:186,1,30,2|0,2:2|0:0,0:0:0:0:
416,184,291800,2,0,L|371:194,1,30,0|0,2:2|0:0,0:0:0:0:
428,134,291885,54,0,L|453:252,1,71.9999978027344,4|0,1:1|0:0,0:0:0:0:
474,322,292057,1,0,0:0:0:0:
478,340,292143,2,0,L|363:302,1,71.9999978027344,2|8,2:2|0:0,0:0:0:0:
274,280,292400,2,0,L|363:199,1,71.9999978027344,2|0,2:2|0:2,0:2:0:0:
223,73,292571,69,0,1:2:0:0:
226,90,292657,1,0,0:0:0:0:
67,237,292828,1,2,0:0:0:0:
70,220,292914,2,0,L|58:111,1,71.9999978027344,8|0,1:2|0:0,0:0:0:0:
19,13,293085,1,2,0:0:0:0:
187,202,293257,38,0,L|285:187,1,71.9999978027344,2|0,1:2|0:0,0:0:0:0:
62,334,293428,1,0,0:0:0:0:
71,349,293514,2,0,L|-27:334,1,71.9999978027344,2|8,2:2|1:2,0:0:0:0:
223,383,293771,1,2,0:0:0:0:
169,110,293943,6,0,B|157:158|157:158|186:201,1,102.000001945496,2|0,1:2|0:0,0:0:0:0:
386,161,294114,2,0,B|397:112|397:112|368:69,1,102.000001945496,2|0,1:2|0:0,0:0:0:0:
232,283,294285,37,8,1:2:0:0:
284,326,294371,1,0,1:0:0:0:
350,309,294457,1,2,1:2:0:0:
383,251,294543,1,0,1:0:0:0:
303,243,294628,54,0,L|327:363,1,102.000001945496,4|0,1:1|0:0,0:0:0:0:
512,93,294885,6,0,L|411:73,1,102.000001945496,4|0,1:0|0:0,0:0:0:0:
54,173,295143,6,0,L|141:120,1,102.000001945496,4|0,1:0|0:0,0:0:0:0:
141,120,295485,2,0,L|54:173,1,102.000001945496,4|0,1:0|0:0,0:0:0:0:
411,73,295743,102,0,L|512:93,1,102.000001945496,4|0,1:0|0:0,0:0:0:0:
322,343,296000,102,0,B|314:389|364:378|363:295|305:255,1,132.00000402832,4|0,1:0|0:0,0:0:0:0:
86,81,296257,22,0,B|49:51|33:99|106:140|169:110,1,132.00000402832,4|0,1:0|0:0,0:0:0:0:
472,44,296514,102,0,B|515:26|481:-10|409:31|404:101,1,132.00000402832,4|0,1:0|0:0,0:0:0:0:
411,73,296857,1,2,1:2:0:0:
291,203,297028,37,2,1:2:0:0:
294,133,297114,1,2,1:2:0:0:
341,81,297200,1,2,1:2:0:0:
411,73,297285,1,2,1:2:0:0:
435,147,297371,70,0,P|418:203|354:222,1,120,4|0,1:0|0:0,0:0:0:0:
153,31,297714,1,8,1:2:0:0:
26,135,297885,2,0,L|13:-3,1,120,2|2,0:3|1:2,0:0:0:0:
129,269,298228,2,0,L|142:131,1,120,2|8,0:3|1:2,0:0:0:0:
11,372,298571,2,0,L|-2:234,1,120,2|2,0:3|1:2,0:0:0:0:
140,149,298914,21,2,0:3:0:0:
268,359,299085,2,0,P|210:373|157:347,1,120,8|2,1:2|2:3,2:0:0:0:
278,249,299428,2,0,P|225:223|168:238,1,120,2|2,1:2|2:3,2:0:0:0:
377,369,299771,53,8,1:2:0:0:
380,333,299857,1,0,0:0:0:0:
383,297,299943,1,2,0:0:0:0:
386,261,300028,1,0,0:0:0:0:
419,232,300114,22,0,L|407:370,1,120,2|2,1:2|0:3,0:0:0:0:
237,150,300457,1,8,1:2:0:0:
337,65,300628,2,0,P|292:25|234:13,1,120,2|2,0:3|1:2,0:0:0:0:
100,150,300971,2,0,P|110:91|148:46,2,120,2|8|2,0:3|1:2|0:3,0:0:0:0:
0,293,301485,22,0,L|141:329,1,120,2|2,1:2|0:3,0:0:0:0:
11,88,301828,1,8,1:2:0:0:
187,234,302000,2,0,B|161:251|161:251|74:232,1,120,2|0,0:3|1:0,2:0:0:0:
229,323,302343,2,0,B|203:340|203:340|116:321,1,120,2|8,0:3|1:2,0:0:0:0:
145,145,302685,1,2,0:3:0:0:
315,269,302857,86,0,P|331:346|273:414,1,120,2|2,1:2|0:3,0:0:0:0:
502,189,303200,1,8,1:2:0:0:
366,168,303371,2,0,P|349:90|407:22,1,120,2|0,2:3|1:2,0:0:0:0:
512,8,303714,1,2,0:3:0:0:
502,189,303885,2,0,L|491:362,1,120,8|2,1:2|0:3,0:0:0:0:
251,373,304228,22,0,L|378:363,1,120,2|2,1:2|0:3,0:0:0:0:
163,146,304571,2,0,L|282:156,1,120,8|2,1:2|0:3,0:0:0:0:
15,340,304914,2,0,L|140:329,1,120,2|2,1:2|0:3,0:0:0:0:
93,56,305257,6,0,B|22:115|22:115|137:127|137:127|161:145|161:145|282:156,1,360,2|0,1:0|0:0,0:0:0:0:
387,220,305600,70,0,P|373:149|423:99,1,107.999996704102,2|2,1:2|0:3,0:0:0:0:
512,326,305943,1,8,1:2:0:0:
329,302,306114,2,0,P|358:346|408:366,2,107.999996704102,2|0|2,0:3|1:0|0:3,0:0:0:0:
311,74,306628,2,0,P|283:118|286:172,1,107.999996704102,8|2,1:2|0:3,0:0:0:0:
420,273,306971,22,0,L|328:301,1,96,2|2,1:2|0:3,0:0:0:0:
378,142,307314,2,0,L|469:170,1,96,8|2,1:2|0:3,0:0:0:0:
272,361,307657,70,0,P|250:328|254:269,1,77.9999964294435,2|0,1:2|0:0,0:0:0:0:
261,102,307828,2,0,P|283:135|279:194,1,77.9999964294435,2|0,2:2|0:0,0:0:0:0:
112,245,308000,54,0,P|128:225|148:215,1,38.9999982147218,2|0,1:2|0:0,0:0:0:0:
104,233,308085,2,0,P|126:220|148:217,1,38.9999982147218,2|0,0:0|0:0,0:0:0:0:
101,221,308171,2,0,P|126:216|148:221,1,38.9999982147218,2|0,0:0|0:0,0:0:0:0:
103,207,308257,2,0,P|128:211|147:223,1,38.9999982147218,2|0,0:0|0:0,0:0:0:0:
90,183,308343,54,0,P|81:248|142:292,1,90.0000034332277,6|0,1:2|0:0,0:0:0:0:
179,320,308514,1,2,0:0:0:0:
15,332,308685,1,2,1:2:0:0:
231,153,308857,5,2,0:0:0:0:
235,157,308943,1,0,0:0:0:0:
239,161,309028,2,0,P|256:224|202:276,1,90.0000034332277,2|0,1:2|0:0,0:0:0:0:
179,320,309200,1,2,0:0:0:0:
343,308,309371,1,2,1:2:0:0:
158,221,309543,101,2,0:0:0:0:
162,225,309629,1,0,0:0:0:0:
166,229,309714,2,0,L|178:319,1,90.0000034332277,2|0,1:2|0:0,0:0:0:0:
154,140,309885,1,2,0:0:0:0:
142,51,310057,1,2,1:2:0:0:
338,221,310228,5,2,0:0:0:0:
342,225,310314,1,0,0:0:0:0:
346,229,310399,2,0,L|334:319,1,90.0000034332277,2|0,1:2|0:0,0:0:0:0:
360,122,310571,1,2,0:0:0:0:
359,131,310657,1,0,0:0:0:0:
358,140,310743,37,2,1:2:0:0:
391,126,310828,1,2,0:0:0:0:
411,95,310914,2,0,P|410:52|385:19,1,60,2|0,0:0|0:0,0:0:0:0:
223,51,311085,54,0,L|326:43,1,90.0000034332277,6|0,1:2|0:0,0:0:0:0:
234,206,311257,1,2,0:0:0:0:
133,57,311428,1,2,1:2:0:0:
75,286,311600,5,2,0:0:0:0:
79,290,311686,1,0,0:0:0:0:
83,294,311771,2,0,L|74:190,1,90.0000034332277,2|0,1:2|0:0,0:0:0:0:
239,284,311943,1,2,0:0:0:0:
90,384,312114,1,2,1:2:0:0:
197,377,312285,1,2,0:0:0:0:
242,148,312457,102,0,B|285:137|285:137|317:169,1,90.0000034332277,2|0,1:2|0:0,0:0:0:0:
283,272,312628,2,0,B|239:282|239:282|207:250,1,90.0000034332277,2|0,2:2|0:0,0:0:0:0:
413,140,312800,5,2,1:2:0:0:
355,335,312971,1,2,0:0:0:0:
270,56,313143,5,2,1:2:0:0:
454,264,313314,1,2,0:0:0:0:
184,365,313485,38,0,B|250:280|242:149|242:149|248:225|283:272,1,360,2|0,1:1|0:0,0:0:0:0:
355,335,313828,102,0,L|495:351,1,102.000001945496,4|0,1:1|0:0,0:0:0:0:
505,269,314000,2,0,L|365:253,1,102.000001945496,2|0,1:2|0:0,0:0:0:0:
366,170,314171,2,0,L|468:182,1,102.000001945496,2|0,1:2|0:0,0:0:0:0:
204,158,314343,5,2,1:2:0:0:
203,174,314428,1,0,0:0:0:0:
202,190,314514,2,0,L|193:330,1,102.000001945496,0|0,1:1|0:0,0:0:0:0:
94,349,314686,2,0,L|102:208,1,102.000001945496,2|0,1:2|0:0,0:0:0:0:
10,181,314857,2,0,L|4:283,1,102.000001945496,2|0,1:2|0:0,0:0:0:0:
63,86,315028,101,2,1:2:0:0:
47,81,315114,1,0,0:0:0:0:
31,76,315200,2,0,P|61:115|111:128,1,102.000001945496,2|0,1:2|0:0,0:0:0:0:
194,6,315371,2,0,P|144:12|108:49,1,102.000001945496,2|0,1:2|0:0,0:0:0:0:
179,182,315543,2,0,P|197:136|184:86,1,102.000001945496,2|0,1:2|0:0,0:0:0:0:
225,321,315714,5,2,1:2:0:0:
231,336,315800,1,0,0:0:0:0:
237,351,315885,2,0,P|285:338|316:298,1,102.000001945496,2|0,1:2|0:0,0:0:0:0:
305,204,316057,2,0,P|295:253|317:299,1,102.000001945496,2|0,1:2|0:0,0:0:0:0:
512,300,316228,101,2,1:2:0:0:
486,299,316314,2,0,B|448:255|380:247|380:247|449:240|491:200,1,240,2|0,1:1|0:0,0:0:0:0:
387,19,316571,5,6,1:2:0:0:
356,37,316657,1,0,0:0:0:0:
337,67,316743,1,2,0:0:0:0:
332,102,316828,1,0,0:0:0:0:
256,86,316914,37,2,1:2:0:0:
255,115,316999,1,0,0:0:0:0:
265,143,317085,1,2,0:0:0:0:
286,165,317171,1,0,0:0:0:0:
219,205,317257,5,2,1:2:0:0:
234,223,317342,1,0,0:0:0:0:
254,236,317428,1,2,0:0:0:0:
277,243,317514,1,0,0:0:0:0:
246,314,317600,5,2,1:2:0:0:
263,319,317685,1,0,0:0:0:0:
281,320,317771,1,2,0:0:0:0:
298,317,317857,1,0,0:0:0:0:
347,374,317943,5,2,1:2:0:0:
347,374,318114,86,0,P|371:334|359:279,1,60,2|0,0:0|0:0,0:0:0:0:
446,305,318285,2,0,P|423:264|369:247,1,60,2|0,0:0|0:0,0:0:0:0:
435,184,318457,2,0,P|388:183|346:221,1,60,2|0,0:0|0:0,0:0:0:0:
176,283,318628,102,0,L|185:174,1,71.9999978027344,2|0,0:0|0:0,0:0:0:0:
259,54,318800,2,0,L|250:163,1,71.9999978027344,2|0,0:0|0:0,0:0:0:0:
62,132,318971,70,0,L|118:137,7,35.9999989013672,2|0|2|0|2|0|2|0,0:0|0:0|0:0|0:0|0:0|0:0|0:0|0:0,0:0:0:0:
62,132,319314,38,0,L|46:286,1,143.999995605469,4|2,1:1|2:3,2:2:0:0:
37,373,319571,1,0,0:0:0:0:
8,351,319657,2,0,L|101:355,1,71.9999978027344,8|0,1:2|0:0,0:0:0:0:
197,358,319828,1,2,0:3:0:0:
155,166,320000,5,2,1:2:0:0:
140,309,320171,1,2,0:3:0:0:
320,224,320343,6,0,L|227:228,1,71.9999978027344,8|0,1:2|0:0,0:0:0:0:
77,232,320514,1,2,0:3:0:0:
102,43,320685,86,0,P|150:95|155:165,1,143.999995605469,2|2,1:2|2:3,2:2:0:0:
312,0,321028,1,8,1:2:0:0:
295,157,321200,6,0,P|312:214|339:241,1,71.9999978027344,2|0,2:2|0:0,0:0:0:0:
456,262,321371,1,0,1:2:0:0:
273,296,321543,2,0,P|330:309|367:299,1,71.9999978027344,2|0,2:2|0:0,0:0:0:0:
464,92,321714,38,0,B|469:118|469:118|465:138|465:138|475:153|475:153|480:177,1,90,2|0,1:0|0:0,0:0:0:0:
481,178,322057,54,0,L|331:207,1,143.999995605469,2|2,1:2|0:3,0:0:0:0:
261,143,322314,1,0,0:0:0:0:
254,185,322400,2,0,L|239:290,1,71.9999978027344,8|0,1:2|0:0,0:0:0:0:
158,254,322571,2,0,L|168:325,1,71.9999978027344,2|0,2:3|0:0,0:0:0:0:
95,383,322743,5,2,1:2:0:0:
64,156,322914,1,2,0:3:0:0:
2,309,323085,6,0,P|-1:268|21:224,1,71.9999978027344,8|0,1:2|0:0,0:0:0:0:
125,77,323257,1,2,0:3:0:0:
254,185,323428,85,2,1:2:0:0:
64,156,323600,2,0,L|146:170,1,71.9999978027344,2|0,0:3|0:0,0:0:0:0:
195,64,323771,2,0,L|113:78,1,71.9999978027344,8|0,1:2|0:0,0:0:0:0:
0,94,323943,1,2,0:3:0:0:
84,287,324114,5,2,1:2:0:0:
84,287,324285,38,0,B|109:238|109:238|159:335,1,107.999996704102,2|0,0:1|0:0,0:0:0:0:
311,295,324457,2,0,B|262:389|262:389|222:287,1,215.999993408203,2|0,0:1|0:0,0:0:0:0:
190,206,324714,1,2,0:1:0:0:
277,211,324800,54,0,L|436:224,1,143.999995605469,2|2,1:2|0:3,0:0:0:0:
399,115,325057,1,0,0:0:0:0:
356,112,325143,2,0,P|340:60|350:17,1,71.9999978027344,8|0,1:2|0:0,0:0:0:0:
485,10,325314,1,2,0:3:0:0:
420,222,325485,5,2,1:2:0:0:
414,249,325571,1,0,0:0:0:0:
422,276,325657,2,0,P|447:313|497:324,1,71.9999978027344,2|0,2:3|0:0,0:0:0:0:
276,300,325828,5,8,1:2:0:0:
295,279,325914,1,0,0:0:0:0:
323,275,326000,1,2,0:3:0:0:
349,287,326085,1,0,0:0:0:0:
323,358,326171,85,2,1:2:0:0:
323,358,326343,54,0,P|319:318|341:338,1,96,2|0,0:1|0:0,0:0:0:0:
194,204,326514,2,0,B|200:233|225:244|225:244|220:215|193:201,1,96,8|0,1:2|0:0,0:0:0:0:
398,171,326685,2,0,B|400:200|379:219|379:219|376:192|397:168,1,96,2|0,2:1|0:0,0:0:0:0:
278,115,326857,5,2,1:2:0:0:
323,358,327028,2,0,L|302:239,1,120,2|8,0:3|1:2,0:0:0:0:
194,204,327371,1,2,0:3:0:0:
28,58,327543,38,0,P|124:67|179:146,1,180,2|0,1:2|0:0,0:0:0:0:
194,204,327885,1,8,1:2:0:0:
0,239,328057,6,0,P|19:183|70:154,1,120,2|2,0:3|1:2,0:0:0:0:
194,204,328400,1,2,0:3:0:0:
157,384,328570,22,0,P|92:325|87:238,1,180,10|0,1:2|0:0,0:0:0:0:
70,154,328914,2,0,P|50:209|0:238,1,120,0|2,1:2|2:3,0:0:0:0:
154,9,329257,86,0,L|173:84,1,60,8|0,1:2|0:0,0:0:0:0:
30,37,329428,1,2,0:3:0:0:
70,154,329600,22,0,L|219:188,1,120,2|2,1:2|0:3,0:0:0:0:
390,56,329943,2,0,L|273:82,1,120,8|2,1:2|0:3,0:0:0:0:
231,342,330285,70,0,P|258:296|243:210,1,83.9999974365235,4|0,1:0|0:0,0:0:0:0:
190,102,330457,1,2,0:0:0:0:
408,177,330628,6,0,P|352:203|278:188,1,107.999996704102,8|0,1:2|0:0,0:0:0:0:
70,154,330800,1,2,0:0:0:0:
89,333,330971,6,0,L|84:297,1,35.9999989013672,2|0,1:2|0:0,0:0:0:0:
144,384,331143,2,0,L|138:333,1,35.9999989013672,2|0,1:2|0:0,0:0:0:0:
261,266,331314,102,0,P|314:265|362:289,1,107.999996704102,8|0,1:2|0:0,0:0:0:0:
438,379,331485,1,2,0:0:0:0:
507,143,331657,102,0,L|406:156,1,83.9999974365235,2|0,1:2|0:0,0:0:0:0:
259,172,331828,1,2,0:0:0:0:
278,0,332000,6,0,B|322:28|322:28|331:82,1,107.999996704102,8|0,1:2|0:0,0:0:0:0:
354,241,332171,2,0,L|361:288,1,48,2|0,0:1|0:0,0:0:0:0:
256,146,332343,6,0,L|221:150,1,35.9999989013672,2|0,1:2|2:2,2:2:0:0:
257,159,332429,2,0,L|222:163,1,35.9999989013672,2|0,2:2|2:2,2:2:0:0:
259,172,332514,1,2,2:2:0:0:
9,146,332685,22,0,B|38:142|38:142|46:135|46:135|77:130,1,72
77,130,333028,54,0,P|84:195|144:237,1,83.9999974365235,4|0,1:1|0:0,0:0:0:0:
203,329,333200,1,2,0:0:0:0:
142,51,333371,6,0,P|97:80|77:130,1,107.999996704102,8|0,1:2|0:0,0:0:0:0:
203,329,333543,1,2,0:0:0:0:
209,153,333714,6,0,L|174:148,1,35.9999989013672,2|0,1:2|0:0,0:0:0:0:
284,116,333885,2,0,L|319:110,1,35.9999989013672,2|0,1:2|0:0,0:0:0:0:
297,264,334057,102,0,P|346:275|407:236,1,107.999996704102,8|0,1:2|0:0,0:0:0:0:
495,133,334228,1,2,0:0:0:0:
319,110,334400,102,0,L|333:192,1,83.9999974365235,2|0,1:2|0:0,0:0:0:0:
359,351,334571,1,2,0:0:0:0:
348,19,334743,6,0,B|310:55|310:55|319:110,1,107.999996704102,8|0,1:2|0:0,0:0:0:0:
359,351,334914,1,2,0:0:0:0:
206,244,335085,6,0,L|171:251,1,35.9999989013672,2|0,1:2|2:2,2:2:0:0:
207,254,335171,2,0,L|172:261,1,35.9999989013672,2|0,2:2|2:2,2:2:0:0:
209,266,335257,22,0,B|155:275|155:275|200:302,1,107.999996704102,2|0,0:1|0:0,0:0:0:0:
318,109,335428,2,0,B|412:164|412:164|307:182,1,215.999993408203,2|0,2:1|0:0,0:0:0:0:
187,86,335685,1,0,0:0:0:0:
186,69,335771,54,0,B|187:111|187:111|195:126|195:126|195:162,1,96,4|0,1:1|0:0,0:0:0:0:
116,181,335943,2,0,B|116:144|116:144|104:119|104:119|103:81,1,102.000001945496,2|0,2:2|0:0,0:0:0:0:
22,98,336114,2,0,B|23:140|23:140|33:162|33:162|34:204,1,107.999996704102,2|0,2:2|0:0,0:0:0:0:
31,375,336285,5,2,0:0:0:0:
33,364,336371,1,0,0:0:0:0:
35,353,336457,2,0,L|153:324,1,107.999996704102,2|0,2:2|0:0,0:0:0:0:
198,235,336628,2,0,L|316:206,1,107.999996704102,2|0,2:2|0:0,0:0:0:0:
413,46,336800,54,0,B|416:85|416:85|411:101|411:101|420:115|420:115|424:157,1,107.999996704102,2|0,1:0|0:0,0:0:0:0:
437,157,336971,2,2,B|434:118|434:118|439:102|439:102|430:88|430:88|426:46,1,107.999996704102,2|0,1:0|0:0,0:0:0:0:
389,24,337143,38,0,P|335:15|275:45,1,96,4|0,1:1|0:0,0:0:0:0:
305,205,337314,2,0,P|337:166|344:116,1,102.000001945496,2|0,2:2|0:0,0:0:0:0:
184,24,337485,2,0,P|194:76|231:115,1,107.999996704102,2|0,2:2|0:0,0:0:0:0:
51,214,337657,5,2,0:0:0:0:
53,225,337743,1,0,0:0:0:0:
55,236,337828,2,0,P|31:175|57:94,1,107.999996704102,2|0,2:2|0:0,0:0:0:0:
76,20,338000,1,2,0:0:0:0:
231,115,338171,54,0,B|120:97|120:97|165:74,1,161.999995056153,2|0,0:1|0:0,0:0:0:0:
271,27,338514,37,6,1:2:0:0:
312,65,338599,1,0,0:0:0:0:
326,122,338685,1,2,0:0:0:0:
311,177,338771,1,0,0:0:0:0:
267,218,338857,1,2,1:2:0:0:
253,274,338943,1,0,0:0:0:0:
284,327,339028,1,2,0:0:0:0:
339,343,339114,1,0,0:0:0:0:
390,313,339200,1,2,1:2:0:0:
404,257,339285,1,0,0:0:0:0:
388,201,339371,1,2,0:0:0:0:
403,146,339457,1,0,0:0:0:0:
446,107,339543,6,0,P|483:101|515:108,1,53.9999983520508,2|0,1:2|0:0,0:0:0:0:
393,1,339714,1,2,0:0:0:0:
325,245,339885,102,0,B|327:272|327:272|345:252,6,53.9999983520508,4|0|0|0|0|0|0,1:0|0:0|0:0|0:0|0:0|0:0|0:0,0:0:0:0:
231,122,340228,2,0,L|246:33,1,60,2|0,0:0|0:0,0:0:0:0:
301,356,340400,6,0,B|303:383|303:383|321:363,6,53.9999983520508,4|0|0|0|0|0|0,1:0|0:0|0:0|0:0|0:0|0:0|0:0,0:0:0:0:
481,178,340743,2,0,L|496:89,1,60,2|0,0:0|0:0,0:0:0:0:
326,280,340914,54,0,B|291:173|291:173|408:199|408:199|330:278,1,341.999990867615,8|0,2:1|0:0,0:0:0:0:
180,323,341257,6,0,L|301:356,1,125.999996154785,2|0,1:2|0:0,0:0:0:0:
180,323,341600,1,8,0:1:0:0:
107,218,341943,6,0,L|228:251,1,125.999996154785,0|0,1:2|0:0,0:0:0:0:
107,218,342286,1,8,0:1:0:0:
34,109,342628,102,0,L|155:142,1,125.999996154785,0|0,1:2|0:0,0:0:0:0:
34,109,342971,1,8,0:1:0:0:
219,66,343143,85,2,0:1:0:0:
212,43,343485,5,2,2:2:0:0:
255,198,343657,1,8,0:1:0:0:
369,80,343828,1,2,0:0:0:0:
286,78,344000,86,0,L|279:107,3,30,2|0|0|0,1:2|0:0|0:0|0:0,0:0:0:0:
177,177,344343,2,0,L|170:147,3,30,8|0|0|0,1:1|0:0|0:0|0:0,0:0:0:0:
137,295,344685,2,0,L|119:272,3,30,2|0|0|0,1:2|0:0|0:0|0:0,0:0:0:0:
264,356,345028,85,8,1:1:0:0:
292,348,345113,1,0,0:0:0:0:
312,326,345199,1,0,0:0:0:0:
316,297,345285,1,0,0:0:0:0:
296,257,345371,22,0,L|339:265,3,30,2|0|0|0,1:2|0:0|0:0|0:0,0:0:0:0:
397,176,345714,2,0,L|356:181,3,30,8|0|0|0,2:1|0:0|0:0|0:0,0:0:0:0:
286,153,346057,2,0,L|256:158,1,30,2|0,1:2|0:0,0:0:0:0:
157,154,346228,85,0,0:0:0:0:
161,158,346314,2,0,P|163:184|181:218,1,38.9999982147218,2|8,2:1|0:1,0:0:0:0:
122,62,346485,5,0,0:0:0:0:
126,66,346571,2,0,P|99:81|73:119,1,48,2|0,2:1|0:1,0:0:0:0:
16,252,346743,5,2,1:2:0:0:
33,250,346828,1,0,0:0:0:0:
50,249,346914,1,0,0:0:0:0:
68,248,347000,1,0,0:0:0:0:
107,234,347085,86,0,L|114:284,3,30,8|0|0|0,1:1|0:0|0:0|0:0,0:0:0:0:
220,154,347428,21,2,1:2:0:0:
212,152,347514,1,0,0:0:0:0:
204,150,347600,1,0,0:0:0:0:
196,149,347685,1,0,0:0:0:0:
157,133,347771,86,0,L|149:183,3,30,8|0|0|0,1:1|0:0|0:0|0:0,0:0:0:0:
255,15,348114,21,2,1:2:0:0:
254,18,348200,1,0,0:0:0:0:
254,21,348286,1,0,0:0:0:0:
254,26,348371,1,0,0:0:0:0:
252,68,348457,5,8,1:1:0:0:
392,21,348628,1,2,2:1:0:0:
369,12,348971,5,2,0:0:0:0:
384,131,349143,1,8,0:1:0:0:
399,250,349314,1,2,0:0:0:0:
336,373,349485,6,0,P|286:335|262:278,1,125.999996154785,0|0,1:2|0:0,0:0:0:0:
336,373,349828,1,8,0:1:0:0:
154,267,350171,6,0,P|174:218|215:184,1,107.999996704102,0|0,1:2|0:0,0:0:0:0:
154,267,350514,1,8,0:1:0:0:
418,167,350857,102,0,L|323:174,1,90
328,173,351200,1,0,0:0:0:0:
355,47,351371,1,0,0:0:0:0:
357,55,351457,1,0,0:0:0:0:
359,63,351543,2,0,L|368:105,4,30
161,51,352057,1,0,0:0:0:0:
159,59,352143,1,0,0:0:0:0:
157,67,352228,6,0,L|139:168,1,90,0|0,1:2|0:0,0:0:0:0:
157,67,352571,1,8,0:1:0:0:
124,253,352914,54,0,L|144:139,1,99.0000030212403,0|0,1:2|0:0,0:0:0:0:
124,253,353257,1,8,0:1:0:0:
157,67,353600,86,0,L|137:184,1,107.999996704102,0|0,1:2|0:0,0:0:0:0:
157,67,353943,1,8,0:1:0:0:
7,40,354114,37,2,0:1:0:0:
0,23,354457,5,2,0:0:0:0:
176,50,354628,1,8,0:1:0:0:
64,188,354800,1,2,0:0:0:0:
245,285,354971,86,0,P|281:228|265:172,1,116.999994644165,0|0,1:2|0:0,0:0:0:0:
245,285,355314,1,8,0:1:0:0:
164,154,355657,86,0,P|231:146|278:195,1,125.999996154785,0|0,1:2|0:0,0:0:0:0:
164,154,356000,1,8,0:1:0:0:
245,285,356343,6,0,P|281:228|243:150,1,135.000005149841,0|0,1:2|0:0,0:0:0:0:
245,285,356686,1,8,0:1:0:0:
164,154,357028,86,0,P|235:147|279:232,1,144,0|0,1:2|0:0,0:0:0:0:
164,154,357371,1,8,0:1:0:0:
448,30,357714,22,0,B|374:52|374:52|314:4,1,153.000002918243,0|0,1:2|0:0,0:0:0:0:
448,30,358057,1,8,0:1:0:0:
314,3,358400,86,0,B|371:59|371:59|447:29,1,161.999995056153,0|0,1:2|0:0,0:0:0:0:
314,3,358743,1,8,0:1:0:0:
448,30,359085,70,0,B|370:68|370:68|306:-7,1,170.999995433807,0|0,1:2|0:0,0:0:0:0:
448,30,359428,1,8,0:1:0:0:
354,153,359600,101,2,0:1:0:0:
460,119,359943,5,2,0:0:0:0:
350,172,360114,1,8,0:1:0:0:
270,81,360285,1,2,0:0:0:0:
156,214,360457,38,0,L|361:169,1,198.000006042481,0|0,1:2|0:0,0:0:0:0:
156,214,360800,1,8,0:1:0:0:
349,171,361143,70,0,L|215:24,1,198.000006042481,0|0,1:2|0:0,0:0:0:0:
349,171,361486,1,8,0:1:0:0:
215,24,361828,102,0,L|193:94,1,72,0|8,0:0|0:1,0:0:0:0:
