osu file format v14

[General]
AudioFilename: audio.mp3
AudioLeadIn: 0
PreviewTime: 230171
Countdown: 1
SampleSet: Soft
StackLeniency: 0.7
Mode: 0
LetterboxInBreaks: 0
WidescreenStoryboard: 1

[Editor]
Bookmarks: 23083,45026,55998,77941,82573,99883,110855,132798,154741,165712,176683,187655,209598,231541,253483,275426,297371,308343,319314,341257,363198
DistanceSpacing: 1
BeatDivisor: 8
GridSize: 32
TimelineZoom: 3.599998

[Metadata]
Title:Light it up
TitleUnicode:Light it up
Artist:Camellia
ArtistUnicode:Camellia
Creator:Kardshark
Version:remap 1
Source:
Tags:
BeatmapID:1463777
BeatmapSetID:495414

[Difficulty]
HPDrainRate:6
CircleSize:4.2
OverallDifficulty:8
ApproachRate:9.5
SliderMultiplier:1.6
SliderTickRate:1

[Events]
//Background and Video events
0,0,"Hd-Anime-Wallpaper-1.jpg",0,0
//Break Periods
2,45745,47248
2,48487,49991
2,51572,52734
2,154945,165191
//Storyboard Layer 0 (Background)
//Storyboard Layer 1 (Fail)
//Storyboard Layer 2 (Pass)
//Storyboard Layer 3 (Foreground)
//Storyboard Sound Samples

[TimingPoints]
1145,342.857142857143,4,2,0,50,1,0
2516,-133.333333333333,4,2,0,50,0,0
3030,-100,4,2,0,50,0,0
18630,-83.3333333333333,4,2,0,50,0,0
18973,-166.666666666667,4,2,0,50,0,0
19659,-83.3333333333333,4,2,0,50,0,0
22230,-200,4,2,0,50,0,0
22745,-71.4285714285714,4,2,0,50,0,0
23087,-83.3333333333333,4,2,0,50,0,0
27545,-100,4,2,0,50,0,0
28059,-50,4,2,0,50,0,0
28402,-100,4,2,0,50,0,0
30116,-50,4,2,0,50,0,0
30802,-66.6666666666667,4,2,0,50,0,0
31830,-83.3333333333333,4,2,0,50,0,0
33202,-66.6666666666667,4,2,0,50,0,0
33373,-83.3333333333333,4,2,0,50,0,0
34745,-66.6666666666667,4,2,0,50,0,0
35430,-83.3333333333333,4,2,0,50,0,0
36459,-100,4,2,0,50,0,0
36802,-83.3333333333333,4,2,0,50,0,0
39202,-50,4,2,0,50,0,0
39545,-83.3333333333333,4,2,0,50,0,0
41945,-50,4,2,0,50,0,0
45030,-100,4,2,0,50,0,0
45545,-133.333333333333,4,2,0,50,0,0
47773,-100,4,2,0,40,0,0
50516,-100,4,2,0,30,0,0
53259,-100,4,2,0,25,0,0
53945,-125,4,2,0,25,0,0
54630,-166.666666666667,4,2,0,25,0,0
55316,-100,4,2,0,37,0,0
56002,-100,4,2,0,50,0,0
57030,-133.333333333333,4,2,0,50,0,0
57716,-100,4,2,0,50,0,0
61487,-125,4,2,0,50,0,0
63202,-100,4,2,0,50,0,0
66630,-66.6666666666667,4,2,0,50,0,0
66973,-100,4,2,0,30,0,0
68687,-200,4,2,0,30,0,0
69716,-133.333333333333,4,2,0,30,0,0
70745,-100,4,2,0,30,0,0
72116,-50,4,2,0,30,0,0
72459,-100,4,2,0,50,0,0
77259,-83.3333333333333,4,2,0,50,0,0
77602,-66.6666666666667,4,2,0,50,0,0
77945,-100,4,2,0,50,0,0
78459,-133.333333333333,4,2,0,50,0,0
78973,-100,4,2,0,50,0,0
80345,-50,4,2,0,50,0,0
80687,-100,4,2,0,50,0,0
83430,-83.3333333333333,4,2,0,50,0,0
85830,-66.6666666666667,4,2,0,50,0,0
86173,-133.333333333333,4,2,0,50,0,0
88916,-83.3333333333333,4,2,0,50,0,0
96802,-50,4,2,0,50,0,0
97145,-83.3333333333333,4,2,0,50,0,0
98516,-71.4285714285714,4,2,0,50,0,0
98859,-142.857142857143,4,2,0,50,0,0
99545,-50,4,2,0,50,0,0
99887,-83.3333333333333,4,2,0,50,0,0
100916,-50,4,2,0,50,0,0
101259,-83.3333333333333,4,2,0,50,0,0
102287,-50,4,2,0,50,0,0
102630,-83.3333333333333,4,2,0,50,0,0
110516,-50,4,2,0,50,0,0
111545,-200,4,2,0,50,0,0
112230,-66.6666666666667,4,2,0,50,0,0
112402,-50,4,2,0,50,0,0
112745,-100,4,2,0,50,0,0
113259,-50,4,2,0,50,0,0
113602,-50,4,2,0,50,0,0
114287,-200,4,2,0,50,0,0
114973,-100,4,2,0,50,0,0
115659,-50,4,2,0,50,0,0
117030,-200,4,2,0,50,0,0
117716,-66.6666666666667,4,2,0,50,0,0
117887,-50,4,2,0,50,0,0
118402,-66.6666666666667,4,2,0,50,0,0
118745,-50,4,2,0,50,0,0
120459,-100,4,2,0,50,0,0
121830,-50,4,2,0,50,0,0
122516,-100,4,2,0,50,0,0
123373,-50,4,2,0,50,0,0
124573,-66.6666666666667,4,2,0,50,0,0
126630,-50,4,2,0,50,0,0
126973,-100,4,2,0,50,0,0
128859,-50,4,2,0,50,0,0
131430,-200,4,2,0,50,0,0
132116,-66.6666666666667,4,2,0,50,0,0
132459,-50,4,2,0,50,0,0
132802,-100,4,2,0,50,0,0
136916,-83.3333333333333,4,2,0,50,0,0
137259,-62.5,4,2,0,50,0,0
137602,-50,4,2,0,50,0,0
137945,-50,4,2,0,50,0,0
138287,-71.4285714285714,4,2,0,50,0,0
143430,-200,4,2,0,50,0,0
143773,-100,4,2,0,50,0,0
146173,-71.4285714285714,4,2,0,50,0,0
165716,-133.333333333333,4,2,0,50,0,0
166745,-200,4,2,0,50,0,0
167430,-133.333333333333,4,2,0,50,0,0
171202,-83.3333333333333,4,2,0,50,0,0
175659,-50,4,2,0,50,0,0
176687,-100,4,2,0,50,0,0
179945,-200,4,2,0,50,0,0
180802,-100,4,2,0,50,0,0
181316,-200,4,2,0,50,0,0
181830,-100,4,2,0,50,0,0
182173,-100,4,2,0,50,0,0
186459,-83.3333333333333,4,2,0,50,0,0
186545,-83.3333333333333,4,2,0,5,0,0
186630,-83.3333333333333,4,2,0,50,0,0
186716,-83.3333333333333,4,2,0,5,0,0
186802,-66.6666666666667,4,2,0,50,0,0
187316,-62.5,4,2,0,50,0,0
187659,-133.333333333333,4,2,0,50,0,0
190402,-100,4,2,0,50,0,0
195545,-66.6666666666667,4,2,0,50,0,0
195887,-133.333333333333,4,2,0,50,0,0
196916,-83.3333333333333,4,2,0,50,0,0
206516,-50,4,2,0,50,0,0
206859,-83.3333333333333,4,2,0,50,0,0
209259,-50,4,2,0,50,0,0
209602,-83.3333333333333,4,2,0,50,0,0
219545,-50,4,2,0,50,0,0
231202,-50,4,2,0,50,0,0
231545,-40,4,2,0,50,0,1
231716,-43.4782608695652,4,2,0,50,0,1
231973,-40,4,2,0,50,0,1
237202,-45.4545454545455,4,2,0,50,0,1
237202,-50,4,2,0,50,0,1
237459,-40,4,2,0,50,0,1
241487,-80,4,2,0,50,0,1
242173,-40,4,2,0,50,0,1
245945,-80,4,2,0,50,0,1
246202,-40,4,2,0,50,0,1
246373,-55.5555555555556,4,2,0,50,0,1
246630,-40,4,2,0,50,0,1
253145,-100,4,2,0,50,0,0
253316,-100,4,2,0,20,0,0
253487,-66.6666666666667,4,2,0,50,0,0
274059,-50,4,2,0,50,0,0
275773,-83.3333333333333,4,2,0,50,0,0
276630,-111.111111111111,4,3,0,50,0,0
276802,-111.111111111111,4,2,0,50,0,0
277145,-83.3333333333333,4,2,0,50,0,0
282116,-83.3333333333333,4,3,0,50,0,0
282287,-83.3333333333333,4,2,0,50,0,0
283316,-50,4,2,0,50,0,0
283659,-83.3333333333333,4,2,0,50,0,0
296002,-66.6666666666667,4,2,0,50,0,0
305259,-50,4,2,0,50,0,0
305602,-66.6666666666667,4,2,0,50,0,0
318973,-50,4,2,0,50,0,0
319316,-83.3333333333333,4,2,0,50,0,0
324287,-50,4,2,0,50,0,0
324802,-83.3333333333333,4,2,0,50,0,0
329430,-133.333333333333,4,2,0,50,0,0
329945,-100,4,2,0,50,0,0
330287,-83.3333333333333,4,2,0,50,0,0
332687,-66.6666666666667,4,2,0,50,0,0
335430,-50,4,2,0,50,0,0
341259,-100,4,2,0,50,0,0
348116,-133.333333333333,4,2,0,50,0,0
361830,-200,4,2,0,50,0,0

[HitObjects]
122,104,1145,6,4,B|195:110|195:110|252:99,1,120,4|0,0:0|0:0,0:0:0:0:
279,93,1487,1,8,0:0:0:0:
137,183,1830,6,0,L|177:186,2,40
264,168,2173,1,8,0:0:0:0:
121,263,2516,6,2,B|194:269|194:269|251:258,1,120,2|10,0:0|0:0,0:0:0:0:
397,174,3030,6,0,P|399:155|394:131,1,40
391,220,3202,2,0,P|389:239|394:263,1,40
462,205,3373,5,0,0:0:0:0:
394,196,3459,1,0,0:0:0:0:
327,187,3545,1,8,0:0:0:0:
121,263,3716,1,8,0:0:0:0:
390,104,3887,6,0,B|317:110|317:110|260:99,1,120
233,93,4230,1,8,0:0:0:0:
374,183,4573,6,0,L|335:186,2,40
248,168,4916,1,8,0:0:0:0:
391,263,5259,6,0,B|318:269|318:269|261:258,1,120
244,252,5602,1,8,0:0:0:0:
427,340,5773,1,0,0:0:0:0:
346,343,5945,6,0,B|314:345|314:345|289:340,2,40
202,326,6287,2,8,L|288:339,1,80,8|0,0:0|0:0,0:0:0:0:
256,73,6630,5,2,0:0:0:0:
114,98,6973,2,0,B|157:97|192:109|192:109|210:80|239:78,1,120,8|0,0:0|0:0,0:0:0:0:
258,149,7316,5,0,0:0:0:0:
378,93,7487,1,0,0:0:0:0:
380,132,7573,1,0,0:0:0:0:
361,167,7659,2,0,P|298:182|256:143,1,120,8|0,0:0|0:0,0:0:0:0:
255,229,8002,6,2,B|238:284|238:284|247:313|247:313|238:362,1,120
186,246,8345,1,8,0:0:0:0:
302,332,8516,1,0,0:0:0:0:
386,115,8687,6,0,P|383:135|384:155,1,40
319,186,8859,5,0,0:0:0:0:
387,177,8945,1,0,0:0:0:0:
454,168,9030,1,8,0:0:0:0:
388,240,9202,6,0,P|391:220|389:200,1,40,8|0,0:0|0:0,0:0:0:0:
255,75,9373,6,0,B|245:117|245:117|191:122|191:122|167:89,1,120
154,63,9716,1,8,0:0:0:0:
245,276,9887,1,0,0:0:0:0:
135,161,10059,5,0,0:0:0:0:
263,177,10230,1,0,0:0:0:0:
116,259,10402,6,0,P|151:242|164:228,1,40,8|0,0:0|0:0,0:0:0:0:
281,78,10573,2,0,P|246:95|233:109,1,40
198,170,10745,5,0,0:0:0:0:
303,298,10916,1,0,0:0:0:0:
389,149,11087,5,8,0:0:0:0:
424,166,11173,1,0,0:0:0:0:
441,201,11259,1,0,0:0:0:0:
432,239,11345,1,0,0:0:0:0:
400,263,11430,6,0,P|395:293|399:313,1,40
315,261,11602,2,0,P|304:288|304:309,1,40
247,203,11773,6,0,P|242:173|246:153,1,40
162,205,11945,2,0,P|151:177|151:156,1,40
90,268,12116,6,0,P|186:300|242:260,1,160,4|8,0:0|0:0,0:0:0:0:
348,186,12802,6,0,L|388:208,2,40
280,110,13145,1,8,0:0:0:0:
422,116,13487,6,0,P|326:84|270:124,1,160,0|8,0:0|0:0,0:0:0:0:
121,220,14002,6,0,P|123:239|118:263,1,40
115,174,14173,2,0,P|113:155|118:131,1,40
50,205,14345,5,0,0:0:0:0:
118,196,14430,1,0,0:0:0:0:
185,187,14516,1,8,0:0:0:0:
415,262,14687,1,0,0:0:0:0:
383,113,14859,6,0,P|399:96|410:71,3,40,2|0|0|0,0:0|0:0|0:0|0:0,0:0:0:0:
335,57,15202,2,0,P|328:34|312:12,3,40,8|0|0|0,0:0|0:0|0:0|0:0,0:0:0:0:
261,73,15545,5,0,0:0:0:0:
246,109,15630,1,0,0:0:0:0:
246,149,15716,1,0,0:0:0:0:
255,188,15802,1,0,0:0:0:0:
265,227,15887,1,8,0:0:0:0:
266,267,15973,1,0,0:0:0:0:
253,305,16059,2,0,P|232:329|210:340,1,40
185,268,16230,6,0,L|135:271,3,40,2|0|0|0,0:0|0:0|0:0|0:0,0:0:0:0:
114,257,16573,6,0,L|111:217,1,40,8|0,0:0|0:0,0:0:0:0:
177,76,16745,2,0,L|174:115,1,40
327,116,16916,6,0,L|366:113,3,40
396,136,17259,6,0,P|397:169|392:191,1,40,8|0,0:0|0:0,0:0:0:0:
329,284,17430,2,0,P|328:251|333:229,1,40
439,261,17602,5,4,0:0:0:0:
302,155,17773,5,0,0:0:0:0:
283,148,17859,1,0,0:0:0:0:
261,131,17945,1,8,0:0:0:0:
242,137,18030,1,0,0:0:0:0:
223,144,18116,1,0,0:0:0:0:
204,151,18202,1,0,0:0:0:0:
176,145,18287,1,0,0:0:0:0:
107,308,18459,6,0,P|138:299|151:285,1,40
146,198,18630,2,0,L|152:259,1,47.9999985351563,8|0,0:0|0:0,0:0:0:0:
285,290,18802,6,0,P|252:288|229:273,1,47.9999985351563
221,189,18973,2,2,L|227:250,1,47.9999985351563
170,81,19316,6,0,L|176:142,1,47.9999985351563,8|0,0:0|0:0,0:0:0:0:
345,82,19659,6,0,L|414:71,1,47.9999985351563
406,142,19830,2,0,L|416:211,1,47.9999985351563
346,206,20002,2,0,L|276:216,1,47.9999985351563,8|0,0:0|0:0,0:0:0:0:
282,142,20173,2,0,L|270:73,1,47.9999985351563,8|0,0:0|0:0,0:0:0:0:
344,146,20345,6,2,B|218:291|218:291|405:331|405:331|363:207,1,479.999985351563
199,195,21373,2,2,L|269:109,1,95.9999970703126
167,114,21716,6,2,B|119:176|119:176|127:264,1,143.999995605469
138,314,22059,1,0,0:0:0:0:
295,172,22230,6,2,B|264:211|264:211|269:267,1,100
277,277,22745,5,8,0:0:0:0:
278,338,22830,1,8,0:0:0:0:
337,356,22916,1,8,0:0:0:0:
372,306,23002,1,8,0:0:0:0:
336,257,23087,1,12,0:0:0:0:
198,95,23259,6,0,P|228:108|255:112,1,47.9999985351563
401,68,23430,1,8,0:0:0:0:
336,257,23602,1,0,0:0:0:0:
250,66,23773,5,0,0:0:0:0:
439,144,23945,1,0,0:0:0:0:
288,275,24116,2,0,B|318:263|318:263|292:236|253:225|253:225|292:206,1,143.999995605469,8|0,0:0|0:0,0:0:0:0:
301,203,24459,5,0,0:0:0:0:
439,144,24630,2,0,L|487:112,1,47.9999985351563
334,123,24802,2,0,L|282:97,1,47.9999985351563
375,224,24973,2,0,L|378:281,1,47.9999985351563
325,226,25145,5,0,0:0:0:0:
277,228,25230,1,0,0:0:0:0:
229,231,25316,1,0,0:0:0:0:
181,234,25402,1,0,0:0:0:0:
133,237,25487,2,8,L|101:239,6,23.9999992675781
164,60,25830,6,0,P|166:29|159:5,1,47.9999985351563,2|0,0:0|0:0,0:0:0:0:
102,121,26002,2,0,P|71:119|48:126,1,47.9999985351563
164,182,26173,2,0,P|162:213|169:237,1,47.9999985351563,8|0,0:0|0:0,0:0:0:0:
226,122,26345,2,0,P|257:124|281:117,1,47.9999985351563
370,118,26516,5,0,0:0:0:0:
289,182,26687,2,0,P|314:187|352:180,1,47.9999985351563
281,58,26859,2,0,P|306:53|344:60,3,47.9999985351563,8|0|0|0,0:0|0:0|0:0|0:0,0:0:0:0:
388,137,27202,5,0,0:0:0:0:
398,163,27287,1,0,0:0:0:0:
408,190,27373,1,0,0:0:0:0:
418,217,27459,1,0,0:0:0:0:
336,232,27545,5,8,0:0:0:0:
325,258,27630,1,0,0:0:0:0:
315,285,27716,1,0,0:0:0:0:
305,312,27802,1,0,0:0:0:0:
235,269,27887,5,0,0:0:0:0:
79,121,28059,6,0,B|116:124|116:124|139:106|157:130,1,80,8|0,0:0|0:0,0:0:0:0:
288,164,28230,2,0,B|251:167|251:167|228:149|210:173,1,80,8|0,0:0|0:0,0:0:0:0:
118,223,28402,2,8,L|89:222,2,20
202,247,28573,5,4,0:0:0:0:
276,175,28745,1,0,0:0:0:0:
375,82,28916,5,8,0:0:0:0:
394,110,29002,2,0,L|386:152,1,40
182,156,29259,5,0,0:0:0:0:
163,184,29345,2,0,L|171:226,1,40
328,315,29602,6,0,B|351:303|364:268|364:268|351:236|325:224,1,120,8|0,0:0|0:0,0:0:0:0:
301,215,29945,1,0,0:0:0:0:
107,86,30116,6,0,B|161:102|161:102|195:95,1,80,2|0,0:0|0:0,0:0:0:0:
255,53,30287,2,0,B|214:91|214:91|203:124,1,80,10|0,0:0|0:0,0:0:0:0:
208,197,30459,2,0,B|194:142|194:142|171:116,1,80,2|0,0:0|0:0,0:0:0:0:
109,186,30630,1,0,0:0:0:0:
291,233,30802,6,4,B|388:262|388:262|388:187|388:187|325:169,1,240.000009155274,2|0,0:0|0:0,0:0:0:0:
203,201,31230,5,0,0:0:0:0:
181,194,31316,6,4,B|125:176|125:176|125:108|125:108|180:127,1,180.000006866455,2|0,0:0|0:0,0:0:0:0:
264,223,31659,1,8,0:0:0:0:
147,299,31830,6,0,B|194:287|199:226|199:226|210:284|265:288,1,191.999994140625,2|0,0:0|0:0,0:0:0:0:
211,323,32345,2,0,L|198:215,1,95.9999970703126,10|0,0:0|0:0,0:0:0:0:
185,74,32687,6,0,L|138:66,1,47.9999985351563,4|0,0:0|0:0,0:0:0:0:
258,114,32859,2,0,L|211:106,1,47.9999985351563,2|0,0:0|0:0,0:0:0:0:
331,154,33030,2,0,L|284:146,1,47.9999985351563,10|0,0:0|0:0,0:0:0:0:
329,42,33202,6,0,L|332:110,1,60.0000022888184
350,294,33373,6,8,L|350:330,1,23.9999992675781
316,301,33459,2,8,L|280:312,1,23.9999992675781
298,272,33545,2,8,L|275:242,1,23.9999992675781
320,246,33630,2,8,L|340:216,1,23.9999992675781
350,259,33716,2,8,L|383:269,1,23.9999992675781
190,195,33887,6,8,L|186:225,1,23.9999992675781
157,65,34059,5,12,0:0:0:0:
297,85,34230,1,0,0:0:0:0:
157,65,34402,5,10,0:0:0:0:
297,85,34573,1,0,0:0:0:0:
157,65,34745,6,0,B|129:85|129:85|129:121,1,60.0000022888184,10|0,0:0|0:0,0:0:0:0:
297,85,34916,2,0,B|277:57|277:57|251:57,1,60.0000022888184,10|0,0:0|0:0,0:0:0:0:
283,223,35087,2,0,B|311:203|311:203|311:177,1,60.0000022888184,10|0,0:0|0:0,0:0:0:0:
143,203,35259,2,0,B|163:231|163:231|199:231,1,60.0000022888184,10|0,0:0|0:0,0:0:0:0:
222,144,35430,5,12,0:0:0:0:
396,208,35602,1,0,0:0:0:0:
293,84,35773,5,8,0:0:0:0:
324,267,35945,1,0,0:0:0:0:
386,113,36116,6,8,L|417:92,1,23.9999992675781
435,104,36202,2,8,L|433:66,1,23.9999992675781
457,63,36287,2,8,L|425:45,1,23.9999992675781
313,250,36459,6,0,L|331:279,6,20
301,227,36802,5,12,0:0:0:0:
145,153,36973,1,0,0:0:0:0:
166,305,37145,1,8,0:0:0:0:
278,73,37316,1,0,0:0:0:0:
301,227,37487,6,0,L|297:287,1,47.9999985351563,8|0,0:0|0:0,0:0:0:0:
145,153,37659,2,0,L|148:92,1,47.9999985351563,8|0,0:0|0:0,0:0:0:0:
200,236,37830,2,0,L|139:238,1,47.9999985351563,8|0,0:0|0:0,0:0:0:0:
245,143,38002,2,0,L|306:141,1,47.9999985351563,8|0,0:0|0:0,0:0:0:0:
361,64,38173,5,12,0:0:0:0:
389,189,38345,1,0,0:0:0:0:
361,64,38516,5,8,0:0:0:0:
295,281,38687,1,0,0:0:0:0:
361,64,38859,6,8,L|353:101,1,23.9999992675781
387,61,38945,2,8,L|401:97,1,23.9999992675781
410,63,39030,1,8,0:0:0:0:
263,61,39202,6,2,B|244:58|224:80|224:80|225:54|194:21|174:62|189:88|189:88|171:87|156:101,1,160
169,132,39459,1,0,0:0:0:0:
169,160,39545,6,0,P|167:188|172:210,1,47.9999985351563,12|0,0:0|0:0,0:0:0:0:
83,260,39716,2,0,P|109:254|133:257,1,47.9999985351563,8|0,0:0|0:0,0:0:0:0:
181,345,39887,2,0,P|183:321|178:297,1,47.9999985351563,12|0,0:0|0:0,0:0:0:0:
268,245,40059,1,0,0:0:0:0:
217,192,40144,1,0,0:0:0:0:
169,132,40230,5,12,0:0:0:0:
339,105,40402,1,0,0:0:0:0:
179,218,40573,6,0,L|154:233,2,23.9999992675781
353,185,40745,2,0,L|378:188,2,23.9999992675781
260,146,40916,6,0,L|270:200,1,47.9999985351563,12|0,0:0|0:0,0:0:0:0:
199,313,41087,2,8,L|237:284,1,47.9999985351563,8|0,0:0|0:0,0:0:0:0:
373,280,41259,2,0,L|327:269,1,47.9999985351563,12|0,0:0|0:0,0:0:0:0:
192,102,41430,5,8,0:0:0:0:
221,138,41516,1,8,0:0:0:0:
217,189,41602,2,0,L|179:218,1,47.9999985351563,8|0,0:0|0:0,0:0:0:0:
307,174,41773,2,0,L|353:185,1,47.9999985351563,8|0,0:0|0:0,0:0:0:0:
395,269,41945,6,6,B|381:340|381:340|350:297|350:297|285:279|285:279|240:308,1,240,4|0,0:0|0:0,0:0:0:0:
93,287,42287,5,8,0:0:0:0:
126,266,42373,1,8,0:0:0:0:
164,256,42459,1,0,0:0:0:0:
204,259,42545,1,8,0:0:0:0:
237,281,42630,1,8,0:0:0:0:
281,301,42716,1,0,0:0:0:0:
330,305,42802,1,8,0:0:0:0:
376,293,42887,1,8,0:0:0:0:
417,266,42973,2,0,P|381:231|341:231,1,80,8|0,0:0|0:0,0:0:0:0:
251,195,43145,5,8,0:0:0:0:
298,223,43230,1,0,0:0:0:0:
353,228,43316,2,0,P|370:192|367:150,1,80,8|0,0:0|0:0,0:0:0:0:
266,119,43487,2,0,P|248:154|251:196,1,80,8|0,0:0|0:0,0:0:0:0:
272,296,43659,6,8,L|282:341,6,40
179,279,44002,2,0,L|265:282,1,80
332,178,44173,2,10,B|404:121|404:121|308:57|308:57|191:84|191:84|244:174,1,400,10|2,0:0|0:0,0:0:0:0:
260,221,44687,5,8,0:0:0:0:
198,273,44773,1,8,0:0:0:0:
130,230,44859,1,8,0:0:0:0:
149,152,44945,1,8,0:0:0:0:
229,147,45030,1,12,0:0:0:0:
408,150,45545,5,0,0:0:0:0:
120,98,47773,6,0,L|290:86,1,160
405,139,48287,1,0,0:0:0:0:
192,211,50516,6,0,P|234:117|284:84,1,160
433,58,51030,2,0,P|391:152|341:185,1,160
157,202,53259,6,0,L|243:184,1,80
355,182,53602,2,0,L|269:200,1,80
208,127,53945,6,0,L|256:179,1,64
302,256,54287,2,0,L|255:204,1,64
280,137,54630,6,0,L|263:187,1,47.9999985351563
231,246,54973,2,0,L|247:196,1,47.9999985351563
256,192,55316,5,0,0:0:0:0:
256,192,55487,5,0,0:0:0:0:
256,192,55659,5,0,0:0:0:0:
256,192,55830,5,0,0:0:0:0:
256,192,56002,6,2,B|356:204|356:204|319:128,1,160
400,92,56516,2,2,B|300:80|300:80|337:156,1,160
420,152,57030,2,2,L|230:127,1,180.000006866455
128,128,57716,6,0,P|96:96|96:64,1,80
85,161,58059,2,0,P|96:117|124:101,1,80
42,145,58402,2,0,P|85:133|113:149,1,80
256,192,58745,6,2,B|156:180|156:180|193:256,1,160
112,292,59259,2,2,B|212:304|212:304|175:228,1,160
99,233,59773,2,2,L|273:254,1,160
379,264,60287,1,0,0:0:0:0:
401,115,60459,5,2,0:0:0:0:
425,137,60630,1,0,0:0:0:0:
282,152,60802,5,2,0:0:0:0:
274,183,60973,1,0,0:0:0:0:
180,63,61145,6,0,L|100:114,1,80,2|0,0:0|0:0,0:0:0:0:
115,301,61487,6,2,P|77:294|58:213,1,128
69,144,62002,2,2,P|107:151|126:232,1,128
92,225,62516,2,2,B|166:187|206:281|274:248,1,192
392,201,63202,6,0,B|450:208|450:208|434:174,1,80
334,160,63545,2,0,B|298:206|298:206|336:209,1,80
397,130,63887,2,0,B|374:76|374:76|352:107,1,80
388,295,64230,6,2,B|326:262|292:342|237:307,1,160
152,252,64745,2,2,B|206:286|240:206|303:240,1,160
271,271,65259,1,0,0:0:0:0:
407,168,65430,5,0,0:0:0:0:
399,128,65516,1,0,0:0:0:0:
388,88,65602,2,2,B|326:122|292:42|237:76,1,160
152,132,66117,2,2,B|206:97|240:177|303:143,1,160
270,118,66630,6,2,L|235:301,1,180.000006866455
198,298,66973,5,2,0:0:0:0:
237,306,67145,1,0,0:0:0:0:
259,340,67316,1,0,0:0:0:0:
420,231,67487,5,2,0:0:0:0:
381,223,67659,1,0,0:0:0:0:
349,243,67830,1,0,0:0:0:0:
278,58,68002,5,2,0:0:0:0:
227,187,68173,1,0,0:0:0:0:
122,93,68345,5,2,0:0:0:0:
278,58,68516,1,0,0:0:0:0:
183,178,68687,6,0,L|164:213,1,40,2|0,0:0|0:0,0:0:0:0:
259,156,69030,2,0,L|295:175,1,40,2|0,0:0|0:0,0:0:0:0:
256,281,69373,2,0,L|236:221,1,60,2|0,0:0|0:0,0:0:0:0:
207,133,69716,5,2,0:0:0:0:
311,93,69887,1,0,0:0:0:0:
399,164,70059,1,0,0:0:0:0:
487,237,70230,5,2,0:0:0:0:
383,277,70402,1,0,0:0:0:0:
295,206,70573,1,0,0:0:0:0:
156,237,70745,2,0,L|288:209,1,120,2|0,0:0|0:0,0:0:0:0:
344,229,71087,5,2,0:0:0:0:
297,79,71259,1,0,0:0:0:0:
285,167,71430,1,2,0:0:0:0:
355,139,71602,1,0,0:0:0:0:
173,209,71773,5,2,0:0:0:0:
465,97,71945,1,0,0:0:0:0:
294,76,72116,2,0,L|344:229,1,160,2|0,0:0|0:0,0:0:0:0:
256,192,72459,12,2,73659,0:0:0:0:
256,192,73830,12,2,75030,0:0:0:0:
256,192,75202,12,4,77259,0:0:0:0:
168,30,77430,5,2,2:0:0:0:
318,278,77602,2,8,L|237:166,1,120.000004577637,8|8,2:0|2:0,2:0:0:0:
228,156,77945,6,0,B|186:171|150:200,1,80,12|0,1:0|1:0,1:0:0:0:
243,301,78287,1,0,1:0:0:0:
332,67,78459,6,0,B|373:82|411:115,1,90.0000034332277,12|0,1:0|1:0,1:0:0:0:
317,212,78801,1,0,1:0:0:0:
244,284,78973,6,0,B|203:265|152:275|131:292|131:292|152:273|148:228,1,160,12|0,1:0|1:0,1:0:0:0:
144,221,79487,5,0,1:0:0:0:
91,112,79659,1,0,1:0:0:0:
212,124,79830,6,0,B|258:146|314:134|337:115|337:115|313:136|318:186,1,200,0|0,1:0|1:0,1:0:0:0:
317,226,80345,6,2,P|403:204|318:178,1,240,2|2,1:0|1:0,1:0:0:0:
244,263,80687,5,12,1:0:0:0:
90,213,80859,1,0,1:0:0:0:
340,141,81030,1,0,1:0:0:0:
243,261,81202,6,0,B|238:199|238:199|196:160|196:160|194:110,1,160,12|0,1:0|1:0,1:0:0:0:
101,128,81716,1,0,1:0:0:0:
273,80,81887,1,0,1:0:0:0:
165,225,82059,5,12,1:0:0:0:
290,190,82230,1,0,1:0:0:0:
244,263,82402,1,0,1:0:0:0:
194,119,82573,6,0,B|196:160|196:160|238:199|238:199|243:261,1,160,12|0,1:0|1:0,1:0:0:0:
330,102,83087,6,2,B|335:161|335:161|352:171,1,80,2|2,1:0|1:0,1:0:0:0:
452,203,83430,5,8,1:0:0:0:
313,314,83602,1,0,1:0:0:0:
427,310,83773,1,0,1:0:0:0:
173,203,83945,5,8,1:0:0:0:
313,314,84116,1,0,1:0:0:0:
201,312,84287,1,0,1:0:0:0:
309,161,84459,6,0,B|316:89|316:89|252:42|252:42|251:88,1,191.999994140625,8|0,1:0|1:0,1:0:0:0:
148,212,84973,5,0,1:0:0:0:
251,103,85145,1,0,1:0:0:0:
143,233,85316,6,0,B|136:305|136:305|200:352|200:352|201:306,1,191.999994140625,0|0,1:0|1:0,1:0:0:0:
364,145,85830,6,2,B|334:153|330:183|330:183|323:216|361:226|362:188|331:182|331:182|299:177|266:198,1,180.000006866455,2|2,1:0|1:0,1:0:0:0:
247,265,86173,6,0,P|244:235|250:206,1,60.0000022888184,8|0,1:0|1:0,1:0:0:0:
254,298,86516,1,0,1:0:0:0:
112,129,86687,6,0,P|122:188|112:247,1,120.000004577637,8|0,1:0|1:0,1:0:0:0:
104,82,87202,1,8,1:0:0:0:
246,117,87373,1,0,1:0:0:0:
200,311,87545,5,8,1:0:0:0:
246,117,87716,1,0,1:0:0:0:
396,157,87887,1,0,1:0:0:0:
361,306,88059,2,0,B|298:241|298:241|277:177,1,150.000005722046,8|0,1:0|1:0,1:0:0:0:
246,117,88573,6,8,L|252:96,1,15.0000005722046,10|8,1:0|1:0,1:0:0:0:
216,110,88659,2,8,L|222:89,1,15.0000005722046,8|8,1:0|1:0,1:0:0:0:
186,109,88745,2,8,L|192:88,1,15.0000005722046,8|8,1:0|1:0,1:0:0:0:
157,112,88830,2,8,L|163:91,1,15.0000005722046,8|8,1:0|1:0,1:0:0:0:
127,118,88916,5,14,1:0:0:0:
125,317,89087,2,0,P|129:289|126:260,1,47.9999985351563
127,118,89259,5,8,0:0:0:0:
299,219,89430,1,0,0:0:0:0:
185,221,89602,5,0,0:0:0:0:
246,117,89773,1,0,0:0:0:0:
232,324,89945,1,8,0:0:0:0:
130,150,90116,6,0,B|87:180|87:180|95:234|146:245|146:245|190:217,1,191.999994140625
264,306,90630,5,8,0:0:0:0:
382,234,90802,6,0,B|425:204|425:204|417:150|366:139|366:139|322:167,1,191.999994140625
327,163,91316,6,8,L|350:193,6,23.9999992675781
299,136,91659,5,0,0:0:0:0:
227,289,91830,1,0,0:0:0:0:
396,253,92002,1,8,0:0:0:0:
461,94,92173,2,0,P|395:128|310:137,1,143.999995605469
299,136,92516,5,0,0:0:0:0:
168,111,92687,1,8,0:0:0:0:
60,181,92859,1,0,0:0:0:0:
227,289,93030,5,0,0:0:0:0:
299,136,93202,1,0,0:0:0:0:
137,178,93373,1,8,0:0:0:0:
65,331,93545,2,0,P|131:297|216:288,1,143.999995605469
213,248,93887,5,0,0:0:0:0:
162,90,94059,2,8,P|114:71|126:137,1,143.999995605469
288,109,94402,5,4,0:0:0:0:
408,59,94573,2,0,P|416:24|430:0,1,47.9999985351563
481,168,94745,1,8,0:0:0:0:
357,234,94916,1,0,0:0:0:0:
224,109,95087,5,0,0:0:0:0:
41,164,95259,1,0,0:0:0:0:
162,232,95430,1,8,0:0:0:0:
224,109,95602,2,0,B|225:161|225:161|264:190|270:254|237:294,1,191.999994140625
350,152,96116,5,8,0:0:0:0:
288,275,96287,2,0,B|287:223|287:223|248:194|242:130|275:90,1,191.999994140625
183,118,96802,6,2,B|186:86|211:60|211:60|270:97|270:97|247:126|248:174|269:202,1,240
347,243,97145,5,0,0:0:0:0:
264,195,97316,1,0,0:0:0:0:
413,101,97487,5,8,0:0:0:0:
425,194,97659,2,0,P|438:268|368:337,1,143.999995605469
382,331,98002,5,0,0:0:0:0:
326,60,98173,1,8,0:0:0:0:
422,192,98345,1,0,0:0:0:0:
138,174,98516,6,8,L|74:225,1,55.9999982910157,8|0,0:0|0:0,0:0:0:0:
229,256,98687,2,8,L|292:205,1,55.9999982910157,8|0,0:0|0:0,0:0:0:0:
148,219,98859,6,8,L|148:271,1,27.9999991455078
236,254,99030,2,8,L|236:202,1,27.9999991455078,8|0,0:0|0:0,0:0:0:0:
178,254,99202,5,8,0:0:0:0:
211,283,99287,1,8,0:0:0:0:
236,254,99373,1,8,0:0:0:0:
203,224,99459,1,8,0:0:0:0:
211,283,99545,6,8,L|216:329,1,40
389,181,99887,6,2,L|378:131,1,47.9999985351563,2|2,3:0|3:0,3:0:0:0:
342,154,100059,2,0,L|332:105,1,47.9999985351563,0|0,3:0|3:0,3:0:0:0:
322,234,100230,6,2,L|311:283,1,47.9999985351563,2|2,3:0|3:0,3:0:0:0:
275,260,100402,2,0,L|264:309,1,47.9999985351563,0|0,3:0|3:0,3:0:0:0:
269,113,100573,6,2,L|258:63,1,47.9999985351563,2|2,3:0|3:0,3:0:0:0:
196,288,100745,2,2,L|185:337,1,47.9999985351563,2|2,3:0|3:0,3:0:0:0:
85,191,100916,2,10,L|129:183,6,40,10|10|10|10|10|10|10,3:0|3:0|3:0|3:0|3:0|3:0|3:0,3:0:0:0:
228,89,101259,6,2,B|259:80|259:80|307:92,1,47.9999985351563,2|2,3:0|3:0,3:0:0:0:
272,167,101430,2,0,B|303:176|303:176|351:164,1,47.9999985351563,0|0,3:0|3:0,3:0:0:0:
360,107,101602,2,2,B|386:124|386:124|408:169,1,47.9999985351563,2|2,3:0|3:0,3:0:0:0:
394,264,101773,5,0,3:0:0:0:
365,303,101859,1,2,3:0:0:0:
320,289,101945,1,0,3:0:0:0:
320,240,102030,1,2,3:0:0:0:
365,226,102116,1,0,3:0:0:0:
228,245,102287,6,8,L|157:238,2,40,8|8|8,3:0|3:0|3:0,3:0:0:0:
320,162,102459,2,8,L|391:155,2,40,8|8|8,3:0|3:0|3:0,3:0:0:0:
125,204,102630,6,2,P|155:175|179:168,1,47.9999985351563,2|2,3:0|3:0,3:0:0:0:
108,280,102802,2,0,P|72:256|60:235,1,47.9999985351563,0|0,3:0|3:0,3:0:0:0:
193,165,102973,6,2,P|234:170|253:185,1,47.9999985351563,2|2,3:0|3:0,3:0:0:0:
206,288,103145,2,0,P|200:246|208:222,1,47.9999985351563,0|0,3:0|3:0,3:0:0:0:
268,195,103316,5,2,3:0:0:0:
318,246,103402,1,2,3:0:0:0:
268,297,103487,1,2,3:0:0:0:
217,246,103573,1,2,3:0:0:0:
267,246,103659,5,8,3:0:0:0:
267,246,103745,1,8,3:0:0:0:
267,246,103830,1,8,3:0:0:0:
267,246,103916,1,8,3:0:0:0:
285,330,104002,6,2,P|273:300|272:261,1,47.9999985351563,2|2,3:0|3:0,3:0:0:0:
231,160,104173,2,0,P|243:190|244:229,1,47.9999985351563,0|0,3:0|3:0,3:0:0:0:
197,310,104345,6,2,P|217:285|251:265,1,47.9999985351563,2|2,3:0|3:0,3:0:0:0:
318,179,104516,2,0,P|298:204|264:224,1,47.9999985351563,0|0,3:0|3:0,3:0:0:0:
170,225,104687,6,2,P|202:230|237:249,2,47.9999985351563,2|2|2,3:0|3:0|3:0,3:0:0:0:
169,101,104945,2,2,P|235:116|275:139,1,95.9999970703126,2|2,3:0|3:0,3:0:0:0:
371,185,105202,2,2,P|351:173|328:165,1,47.9999985351563,2|2,3:0|3:0,3:0:0:0:
194,261,105373,6,0,P|171:255|150:245,1,47.9999985351563,0|0,3:0|3:0,3:0:0:0:
267,173,105545,2,0,P|261:196|250:218,1,47.9999985351563,0|0,3:0|3:0,3:0:0:0:
169,101,105716,2,10,P|192:108|213:117,1,47.9999985351563,10|10,3:0|3:0,3:0:0:0:
105,196,105887,2,10,P|112:173|121:152,1,47.9999985351563,10|10,3:0|3:0,3:0:0:0:
188,184,106059,5,10,3:0:0:0:
234,194,106145,1,0,3:0:0:0:
282,197,106230,1,0,3:0:0:0:
329,190,106316,1,0,3:0:0:0:
375,176,106402,2,10,P|382:126|373:96,1,47.9999985351563,10|10,3:0|3:0,3:0:0:0:
305,20,106573,2,0,P|299:71|308:101,1,47.9999985351563,0|0,3:0|3:0,3:0:0:0:
254,299,106745,6,10,P|297:298|336:287,1,47.9999985351563,10|10,3:0|3:0,3:0:0:0:
366,348,106916,5,0,3:0:0:0:
378,302,107002,1,0,3:0:0:0:
365,257,107087,1,10,3:0:0:0:
348,213,107173,1,0,3:0:0:0:
357,166,107259,2,0,P|372:131|392:107,1,47.9999985351563,0|0,3:0|3:0,3:0:0:0:
436,202,107430,6,10,P|472:195|487:185,1,47.9999985351563,10|10,3:0|3:0,3:0:0:0:
451,75,107602,2,10,P|447:99|442:123,1,47.9999985351563,10|10,3:0|3:0,3:0:0:0:
278,86,107773,2,10,P|282:110|288:134,1,47.9999985351563,10|10,3:0|3:0,3:0:0:0:
288,205,107945,2,10,P|252:198|237:188,1,47.9999985351563,10|10,3:0|3:0,3:0:0:0:
129,98,108116,6,10,L|121:75,6,23.9999992675781,10|10|10|10|10|10|10,3:0|3:0|3:0|3:0|3:0|3:0|3:0,3:0:0:0:
79,150,108459,6,10,L|56:143,6,23.9999992675781,10|10|10|10|10|10|10,3:0|3:0|3:0|3:0|3:0|3:0|3:0,3:0:0:0:
148,169,108802,6,10,L|142:206,1,23.9999992675781,10|10,3:0|3:0,3:0:0:0:
170,178,108887,2,10,L|164:215,1,23.9999992675781,10|10,3:0|3:0,3:0:0:0:
192,187,108973,2,10,L|186:224,1,23.9999992675781,10|10,3:0|3:0,3:0:0:0:
215,196,109059,2,10,L|209:233,1,23.9999992675781,10|10,3:0|3:0,3:0:0:0:
292,160,109145,6,10,L|295:136,1,23.9999992675781,10|10,3:0|3:0,3:0:0:0:
314,169,109230,2,10,L|317:145,1,23.9999992675781,10|10,3:0|3:0,3:0:0:0:
336,178,109316,2,10,L|339:154,1,23.9999992675781,10|10,3:0|3:0,3:0:0:0:
359,187,109402,2,10,L|362:163,1,23.9999992675781,10|10,3:0|3:0,3:0:0:0:
397,258,109487,5,0,0:0:0:0:
240,118,110516,6,2,B|181:68|110:110|110:110|158:151|158:151|154:188,1,240
153,213,110859,5,4,3:0:0:0:
444,47,111030,2,0,P|454:110|445:153,1,80,0|0,3:0|3:0,3:0:0:0:
402,317,111202,1,4,3:0:0:0:
249,40,111373,2,0,P|239:103|248:146,1,80,0|0,3:0|3:0,3:0:0:0:
259,324,111545,6,0,P|263:294|258:265,2,60,4|0|0,3:0|3:0|3:0,3:0:0:0:
288,162,112230,6,2,P|322:148|365:153,1,60.0000022888184,10|2,2:0|2:0,2:0:0:0:
330,226,112402,2,2,P|349:290|370:228,1,160,10|2,2:0|2:0,2:0:0:0:
420,166,112745,5,8,2:0:0:0:
288,162,112916,5,8,2:0:0:0:
269,176,113002,2,0,P|257:191|247:209,1,40,0|0,2:0|2:0,2:0:0:0:
128,324,113259,6,0,P|139:269|134:232,1,80,0|0,2:0|2:0,2:0:0:0:
119,169,113430,2,0,P|105:132|75:88,1,80,0|0,2:0|2:0,2:0:0:0:
35,57,113602,5,4,3:0:0:0:
251,103,113773,2,0,P|290:98|327:83,1,80,0|0,3:0|3:0,3:0:0:0:
78,242,113945,1,4,3:0:0:0:
305,253,114116,2,0,P|325:250|345:252,2,40,0|0|0,3:0|3:0|3:0,3:0:0:0:
114,300,114287,6,0,P|138:274|145:248,2,60,4|0|0,3:0|3:0|3:0,3:0:0:0:
205,310,114973,5,8,2:0:0:0:
264,250,115059,1,8,2:0:0:0:
205,191,115145,1,8,2:0:0:0:
144,250,115230,1,8,2:0:0:0:
205,310,115316,2,0,B|263:305|263:305|305:317,1,80,8|0,2:0|2:0,2:0:0:0:
357,232,115659,6,0,B|284:207|284:207|253:211|253:211|315:160,1,160,8|0,2:0|2:0,2:0:0:0:
178,240,116002,2,2,P|172:200|189:165,1,80,2|2,2:0|2:0,2:0:0:0:
119,289,116173,2,2,P|125:329|109:365,1,80,2|2,2:0|2:0,2:0:0:0:
67,143,116345,5,4,3:0:0:0:
336,342,116516,1,0,3:0:0:0:
418,52,116687,2,0,L|392:138,1,80,4|0,3:0|3:0,3:0:0:0:
336,342,116859,2,0,L|322:236,1,80,0|0,3:0|3:0,3:0:0:0:
227,102,117030,6,0,P|224:130|234:176,2,60,4|0|0,3:0|3:0|3:0,3:0:0:0:
245,306,117716,6,0,P|252:272|233:209,1,60.0000022888184,8|0,2:0|2:0,2:0:0:0:
74,234,117887,2,0,B|128:224|128:224|192:240|192:240|263:224,1,160,8|0,2:0|2:0,2:0:0:0:
428,180,118230,1,8,2:0:0:0:
113,115,118402,5,8,2:0:0:0:
140,121,118487,2,0,L|213:139,1,60.0000022888184,0|0,2:0|2:0,2:0:0:0:
294,257,118745,6,0,L|216:238,1,80,0|0,2:0|2:0,2:0:0:0:
428,195,118916,2,0,L|350:176,1,80,0|0,2:0|2:0,2:0:0:0:
314,45,119087,6,2,L|288:139,1,80,2|2,3:0|3:0,3:0:0:0:
327,241,119259,1,0,3:0:0:0:
175,201,119430,6,2,P|213:197|273:210,1,80,2|2,3:0|3:0,3:0:0:0:
213,286,119602,1,0,3:0:0:0:
175,201,119773,5,0,3:0:0:0:
153,209,119859,2,2,P|90:214|147:146,1,160,2|2,3:0|3:0,3:0:0:0:
280,84,120116,5,4,3:0:0:0:
280,141,120202,1,0,3:0:0:0:
251,112,120287,1,4,3:0:0:0:
308,112,120373,1,4,3:0:0:0:
375,112,120459,1,4,3:0:0:0:
375,112,120630,6,0,B|367:110|385:137|385:137|377:165|377:165|386:190,1,80,0|0,2:0|2:0,2:0:0:0:
412,259,120973,2,0,B|281:233|350:300|200:269,1,200,0|0,2:0|2:0,2:0:0:0:
191,268,121487,6,8,L|155:258,6,20,8|8|8|8|8|8|8,3:0|3:0|3:0|3:0|3:0|3:0|3:0,3:0:0:0:
84,184,121830,6,2,P|138:166|180:137,1,80,6|2,3:0|3:0,3:0:0:0:
308,78,122002,2,0,P|259:108|210:122,1,80,0|0,3:0|3:0,3:0:0:0:
195,309,122173,2,2,P|203:255|193:210,1,80,6|2,3:0|3:0,3:0:0:0:
332,244,122345,2,0,P|285:215|257:179,1,80,0|0,3:0|3:0,3:0:0:0:
154,82,122516,2,0,P|133:59|163:81,1,120,6|0,3:0|3:0,3:0:0:0:
218,177,123030,5,0,3:0:0:0:
305,97,123202,6,0,L|334:130,1,40,8|0,2:0|2:0,2:0:0:0:
353,322,123373,2,0,P|400:278|336:269,1,160,8|0,2:0|2:0,2:0:0:0:
81,343,123716,1,8,2:0:0:0:
63,80,123887,5,8,2:0:0:0:
97,60,123973,2,0,B|136:84|183:76|183:76|178:118|207:150,1,160,0|0,2:0|2:0,2:0:0:0:
340,73,124230,6,0,B|311:93|264:91,1,80,0|0,2:0|2:0,2:0:0:0:
112,150,124402,1,0,2:0:0:0:
420,321,124573,6,0,L|361:328,1,60.0000022888184,0|0,3:0|3:0,3:0:0:0:
210,278,124745,2,2,L|287:269,1,60.0000022888184,6|0,3:0|3:0,3:0:0:0:
255,81,124916,6,2,L|263:158,1,60.0000022888184,6|0,3:0|3:0,3:0:0:0:
210,278,125087,2,0,L|202:219,1,60.0000022888184,0|0,3:0|3:0,3:0:0:0:
334,68,125259,6,0,B|390:63|390:63|419:124|419:124|382:167,1,180.000006866455,6|0,3:0|3:0,3:0:0:0:
173,90,125773,6,0,L|167:137,1,30.0000011444092,0|0,3:0|3:0,3:0:0:0:
136,301,125945,5,8,2:0:0:0:
212,276,126030,1,8,2:0:0:0:
136,251,126116,5,8,2:0:0:0:
183,316,126202,1,8,2:0:0:0:
184,236,126287,6,0,B|147:229|134:251|134:251|125:229|77:228,1,120.000004577637,8|0,2:0|2:0,2:0:0:0:
248,71,126630,6,2,B|286:73|365:50|365:50|336:77|327:146,1,180.000006866455,10|2,2:0|2:0,2:0:0:0:
345,304,126973,6,0,L|353:254,1,40,0|0,2:0|2:0,2:0:0:0:
312,275,127145,2,2,L|320:225,1,40,2|2,2:0|2:0,2:0:0:0:
249,71,127316,6,10,B|176:69|176:69|133:88|133:88,1,120,10|10,3:0|3:0,3:0:0:0:
69,146,127659,5,8,3:0:0:0:
65,182,127745,2,0,L|97:240,1,40,8|0,3:0|3:0,3:0:0:0:
188,212,127916,5,8,3:0:0:0:
192,248,128002,2,0,L|160:306,1,40,8|0,3:0|3:0,3:0:0:0:
57,292,128173,5,8,3:0:0:0:
68,330,128259,1,0,3:0:0:0:
108,349,128345,1,8,3:0:0:0:
305,345,128516,1,4,3:0:0:0:
442,207,128687,5,8,3:0:0:0:
245,286,128859,2,2,P|280:261|294:218,1,80,10|2,3:0|3:0,3:0:0:0:
442,207,129030,5,8,3:0:0:0:
195,224,129202,2,2,P|237:219|271:189,1,80,10|2,3:0|3:0,3:0:0:0:
442,207,129373,5,8,3:0:0:0:
153,153,129545,2,2,P|192:170|236:161,1,80,2|2,3:0|3:0,3:0:0:0:
442,207,129716,5,8,3:0:0:0:
171,68,129887,2,2,P|196:103|239:116,1,80,2|2,3:0|3:0,3:0:0:0:
442,207,130059,6,2,P|403:198|365:207,1,80,10|2,3:0|3:0,3:0:0:0:
286,163,130230,2,2,P|277:202|286:241,1,80,10|2,3:0|3:0,3:0:0:0:
250,315,130402,2,2,P|289:324|328:316,1,80,10|2,3:0|3:0,3:0:0:0:
406,359,130573,2,2,P|415:320|407:282,1,80,10|2,3:0|3:0,3:0:0:0:
412,183,130745,6,10,L|465:180,1,40,10|10,3:0|3:0,3:0:0:0:
430,147,130830,2,10,L|483:144,1,40,10|10,3:0|3:0,3:0:0:0:
436,107,130916,2,10,L|489:104,1,40,10|10,3:0|3:0,3:0:0:0:
429,68,131002,2,10,L|482:65,1,40,10|10,3:0|3:0,3:0:0:0:
411,32,131087,5,10,3:0:0:0:
334,35,131173,1,10,3:0:0:0:
288,97,131259,1,10,3:0:0:0:
309,171,131345,1,10,3:0:0:0:
381,200,131430,2,4,P|319:204|264:228,1,120,4|4,3:0|3:0,3:0:0:0:
119,306,132116,6,4,P|155:309|198:290,1,60.0000022888184,4|4,3:0|3:0,3:0:0:0:
262,265,132287,1,0,0:0:0:0:
161,157,132459,2,4,P|156:236|119:307,1,160,4|0,0:0|0:0,0:0:0:0:
70,210,132802,5,4,0:0:0:0:
254,97,132973,1,0,0:0:0:0:
131,94,133145,1,8,0:0:0:0:
315,207,133316,1,0,0:0:0:0:
197,299,133487,6,0,L|186:338,2,40,2|0|0,0:0|0:0|0:0,0:0:0:0:
163,275,133745,2,0,L|174:236,2,40,10|0|0,0:0|0:0|0:0,0:0:0:0:
127,290,134002,1,8,0:0:0:0:
366,293,134173,5,0,0:0:0:0:
338,26,134345,1,0,0:0:0:0:
421,124,134516,2,0,L|406:175,1,40,8|0,0:0|0:0,0:0:0:0:
277,200,134687,2,0,L|288:161,1,40
234,38,134859,5,2,0:0:0:0:
208,62,134945,2,2,B|153:83|153:83|120:72,1,80
74,152,135202,2,2,L|125:166,1,40,10|2,0:0|0:0,0:0:0:0:
220,192,135373,1,10,0:0:0:0:
363,137,135545,5,4,0:0:0:0:
362,320,135716,1,0,0:0:0:0:
463,149,135887,5,8,0:0:0:0:
288,204,136059,1,0,0:0:0:0:
112,53,136230,5,0,0:0:0:0:
143,87,136316,2,0,L|188:97,1,40
337,133,136487,1,0,0:0:0:0:
306,167,136573,2,0,L|261:177,1,40,8|0,0:0|0:0,0:0:0:0:
159,190,136745,1,0,0:0:0:0:
400,316,136916,6,0,P|360:306|333:308,1,47.9999985351563,8|0,0:0|0:0,0:0:0:0:
159,296,137087,2,0,L|217:291,1,47.9999985351563
411,185,137259,6,0,P|364:189|338:201,1,64,8|0,0:0|0:0,0:0:0:0:
172,271,137430,2,0,L|229:243,1,64
347,44,137602,6,0,P|302:65|279:86,1,80,8|0,0:0|0:0,0:0:0:0:
189,241,137773,2,0,L|237:191,2,40
122,74,137945,6,0,B|106:62|106:62|75:135|129:174|129:174|134:161,1,160,12|0,0:0|0:0,0:0:0:0:
122,74,138287,6,4,B|106:62|106:62|52:129|129:173|129:173|133:162,1,167.999994873047,4|0,0:0|0:0,0:0:0:0:
179,109,138630,1,8,0:0:0:0:
126,321,138802,1,0,0:0:0:0:
243,242,138973,5,0,0:0:0:0:
282,212,139059,2,0,L|347:217,1,55.9999982910157
241,311,139230,5,0,0:0:0:0:
280,282,139316,2,0,L|336:286,1,55.9999982910157,8|0,0:0|0:0,0:0:0:0:
385,251,139487,1,0,0:0:0:0:
126,321,139659,1,0,0:0:0:0:
226,267,139830,5,0,0:0:0:0:
184,229,139916,1,0,0:0:0:0:
130,213,140002,1,8,0:0:0:0:
75,221,140087,1,0,0:0:0:0:
28,250,140173,1,0,0:0:0:0:
240,136,140345,5,0,0:0:0:0:
258,176,140430,2,2,B|314:193|314:193|318:181|314:193|314:193|373:213,1,111.999996582031
418,194,140687,2,2,L|344:216,1,55.9999982910157,10|2,0:0|0:0,0:0:0:0:
461,255,140859,2,2,L|387:277,1,55.9999982910157,10|2,0:0|0:0,0:0:0:0:
319,296,141030,5,2,0:0:0:0:
102,227,141202,2,0,P|95:253|117:242,1,55.9999982910157
162,148,141373,2,0,P|141:136|139:160,1,55.9999982910157,8|0,0:0|0:0,0:0:0:0:
248,206,141545,2,0,P|259:185|235:183,1,55.9999982910157
190,278,141716,5,0,0:0:0:0:
403,215,141887,1,0,0:0:0:0:
190,278,142059,2,0,B|297:264|271:310|375:293,1,167.999994873047,8|0,0:0|0:0,0:0:0:0:
396,304,142402,5,2,0:0:0:0:
436,298,142487,1,0,0:0:0:0:
456,263,142573,1,0,0:0:0:0:
440,225,142659,1,0,0:0:0:0:
401,215,142745,1,8,0:0:0:0:
231,225,142916,6,0,P|257:236|285:238,1,55.9999982910157
242,149,143087,2,0,P|213:151|185:166,1,55.9999982910157
310,132,143259,6,0,P|322:107|323:80,1,55.9999982910157
235,32,143430,2,0,P|236:59|256:91,1,60,8|0,0:0|0:0,0:0:0:0:
337,256,143773,5,4,0:0:0:0:
77,226,143945,1,0,0:0:0:0:
328,326,144116,5,8,0:0:0:0:
366,309,144202,2,0,P|386:295|396:242,1,80
390,147,144459,5,0,0:0:0:0:
352,164,144545,2,0,P|332:178|322:231,1,80
442,346,144802,5,8,0:0:0:0:
239,252,144973,1,0,0:0:0:0:
134,320,145145,5,0,0:0:0:0:
95,83,145316,2,0,P|125:90|152:92,1,40
270,89,145487,1,8,0:0:0:0:
156,222,145659,2,0,P|183:208|205:192,1,40
270,89,145830,5,0,0:0:0:0:
300,90,145916,2,2,B|349:92|349:92|375:118,1,80
415,188,146173,6,2,P|446:158|454:128,1,55.9999982910157,10|2,0:0|0:0,0:0:0:0:
370,259,146345,2,2,P|339:229|331:199,1,55.9999982910157,10|2,0:0|0:0,0:0:0:0:
300,90,146516,5,2,0:0:0:0:
79,98,146687,2,0,B|109:123|109:123|143:127,1,55.9999982910157
285,173,146859,5,8,0:0:0:0:
107,179,147030,2,0,B|131:199|131:199|158:202,1,55.9999982910157
221,278,147202,6,0,B|190:287|190:287|164:279,2,55.9999982910157
281,245,147459,1,0,0:0:0:0:
279,314,147545,2,0,B|272:343|272:343|252:363,1,55.9999982910157,8|0,0:0|0:0,0:0:0:0:
341,282,147716,2,0,B|364:302|364:302|370:328,1,55.9999982910157
363,194,147887,6,2,L|436:187,1,55.9999982910157,10|2,0:0|0:0,0:0:0:0:
370,62,148059,2,2,L|425:56,1,55.9999982910157,10|2,0:0|0:0,0:0:0:0:
306,93,148230,6,0,L|299:20,1,55.9999982910157,8|0,0:0|0:0,0:0:0:0:
245,121,148402,2,0,L|250:176,1,55.9999982910157
306,93,148573,6,0,L|300:37,1,55.9999982910157,8|0,0:0|0:0,0:0:0:0:
245,121,148745,2,0,L|250:176,1,55.9999982910157
191,21,148916,6,2,L|118:28,1,55.9999982910157,10|2,0:0|0:0,0:0:0:0:
184,153,149087,2,2,L|111:160,1,55.9999982910157,10|2,0:0|0:0,0:0:0:0:
102,311,149259,6,2,L|102:254,1,55.9999982910157,6|2,0:0|0:0,0:0:0:0:
151,207,149430,1,0,0:0:0:0:
179,205,149516,1,0,0:0:0:0:
239,249,149602,2,2,L|238:305,1,55.9999982910157,10|2,0:0|0:0,0:0:0:0:
174,349,149773,1,0,0:0:0:0:
359,265,149945,5,0,0:0:0:0:
359,227,150030,2,2,L|361:105,1,111.999996582031,2|2,0:0|0:0,0:0:0:0:
432,110,150287,2,2,L|430:165,1,55.9999982910157,10|2,0:0|0:0,0:0:0:0:
426,311,150459,1,0,0:0:0:0:
359,265,150630,6,2,L|295:274,1,55.9999982910157,6|2,0:0|0:0,0:0:0:0:
188,217,150802,2,2,L|243:209,1,55.9999982910157
326,200,150973,1,8,0:0:0:0:
108,228,151145,1,2,0:0:0:0:
327,159,151316,5,0,0:0:0:0:
331,120,151402,2,2,L|340:65,2,55.9999982910157
254,189,151659,2,2,L|245:244,1,55.9999982910157,10|2,0:0|0:0,0:0:0:0:
221,111,151830,6,2,L|229:55,1,55.9999982910157
331,120,152002,6,0,P|275:121|221:111,1,111.999996582031,4|0,0:0|0:0,0:0:0:0:
164,105,152259,2,0,P|192:111|220:110,1,55.9999982910157,4|0,0:0|0:0,0:0:0:0:
245,282,152516,2,2,P|240:254|237:223,1,55.9999982910157
137,289,152687,6,0,P|193:290|248:280,1,111.999996582031,4|0,0:0|0:0,0:0:0:0:
304,275,152945,2,0,P|276:280|249:280,1,55.9999982910157,4|0,0:0|0:0,0:0:0:0:
357,330,153202,2,2,P|375:305|381:268,1,55.9999982910157
442,221,153373,6,0,P|383:244|323:219,1,111.999996582031,4|0,0:0|0:0,0:0:0:0:
315,140,153630,2,0,P|308:176|316:202,1,55.9999982910157,4|0,0:0|0:0,0:0:0:0:
427,103,153887,1,2,0:0:0:0:
201,170,154059,6,6,L|172:173,1,27.9999991455078
219,145,154145,2,2,L|192:133,1,27.9999991455078
247,133,154230,2,2,L|230:109,1,27.9999991455078
278,137,154316,2,2,L|275:107,1,27.9999991455078
323,205,154402,6,12,L|351:197,1,27.9999991455078
307,231,154487,2,8,L|335:238,1,27.9999991455078
282,247,154573,2,8,L|302:267,1,27.9999991455078
252,249,154659,2,8,L|259:277,1,27.9999991455078
225,240,154745,1,12,0:0:0:0:
92,132,165716,6,0,B|138:127|205:142|221:132,1,120.000004577637
136,184,166230,2,0,B|182:179|249:194|265:184,1,120.000004577637
196,239,166745,2,0,B|242:234|309:249|325:239,1,120.000004577637
377,306,167430,5,0,0:0:0:0:
417,225,167773,1,0,0:0:0:0:
360,155,168116,1,0,0:0:0:0:
316,28,168459,6,0,B|321:74|306:141|316:157,1,120.000004577637
264,72,168973,2,0,B|269:118|254:185|264:201,1,120.000004577637
209,132,169488,2,0,B|214:178|199:245|209:261,1,120.000004577637
116,269,170002,5,0,0:0:0:0:
27,269,170173,2,0,B|65:261|96:274|117:269,1,90.0000034332277
158,252,170516,5,0,0:0:0:0:
228,307,170687,1,0,0:0:0:0:
297,228,170859,1,0,0:0:0:0:
365,335,171030,1,0,0:0:0:0:
430,191,171202,6,2,P|437:127|370:66,1,143.999995605469
351,66,171545,1,2,0:0:0:0:
160,261,171716,6,2,L|253:209,1,95.9999970703126
340,162,172059,1,2,0:0:0:0:
170,73,172230,2,2,B|154:121|154:121|170:150|170:150|146:215|163:262,1,191.999994140625
292,297,172745,5,2,0:0:0:0:
391,143,172916,5,2,0:0:0:0:
259,179,173087,1,2,0:0:0:0:
227,29,173259,5,2,0:0:0:0:
191,161,173430,1,2,0:0:0:0:
345,260,173602,5,2,0:0:0:0:
309,128,173773,1,2,0:0:0:0:
107,115,173945,6,2,P|101:185|159:253,1,143.999995605469
223,273,174287,1,2,0:0:0:0:
399,99,174459,6,2,P|341:59|253:75,1,143.999995605469
195,97,174802,1,2,0:0:0:0:
316,337,174973,2,2,B|312:268|312:268|331:210|331:210|317:171|323:144|323:144|261:179|261:179|178:172,1,335.999989746094
128,148,175659,6,2,B|244:157|244:157|359:93,1,240
358,103,176002,2,2,B|292:199|292:199|290:330,1,240
281,324,176345,2,2,B|231:219|231:219|118:152,1,240
118,297,176687,6,0,L|188:236,1,80
226,87,177030,5,0,0:0:0:0:
256,192,177202,2,0,L|333:211,1,80
421,151,177545,5,0,0:0:0:0:
394,267,177716,1,0,0:0:0:0:
249,310,177887,2,0,B|215:304|148:262|143:169|143:169|214:178|214:178|241:256|316:242|316:242|339:206|327:149,1,480
400,125,179087,2,0,B|359:130|321:165,1,80
258,92,179430,6,0,P|218:88|180:100,1,80
230,209,179773,1,0,0:0:0:0:
286,319,179945,2,0,P|248:331|209:328,1,80
113,229,180459,5,0,0:0:0:0:
348,188,180630,1,0,0:0:0:0:
286,319,180802,6,0,P|248:331|209:328,1,80
230,209,181145,1,0,0:0:0:0:
258,92,181316,2,0,P|218:88|180:100,1,80
347,237,181830,2,0,P|350:197|338:159,1,80
308,115,182173,5,0,0:0:0:0:
134,142,182345,2,0,L|230:153,1,80
162,251,182687,5,0,0:0:0:0:
336,278,182859,2,0,L|240:289,1,80
183,165,183202,1,0,0:0:0:0:
353,187,183373,2,0,B|381:113|381:113|354:62|276:41|226:72|226:72|248:127|248:127|284:124|301:131|301:131|272:206|272:206|223:210,1,480
261,275,184573,2,0,B|230:234|230:234|244:201,1,80
135,217,184916,5,0,0:0:0:0:
381,200,185087,1,0,0:0:0:0:
268,309,185259,1,0,0:0:0:0:
188,30,185430,2,0,L|228:191,1,120
236,204,185773,5,0,0:0:0:0:
353,102,185945,2,0,L|380:194,1,80
328,282,186287,5,0,0:0:0:0:
110,130,186459,6,0,P|131:121|175:116,1,47.9999985351563
227,93,186630,2,0,P|250:86|273:84,1,47.9999985351563
362,58,186802,6,0,B|377:109|340:148|340:148|429:127|402:182|478:139,1,240.000009155274
446,238,187316,6,0,B|406:248|385:209|339:232|339:232|302:251|242:231,1,192,8|0,0:0|0:0,0:0:0:0:
230,231,187659,6,0,P|224:264|233:302,1,60.0000022888184,12|0,1:0|1:0,1:0:0:0:
374,123,188002,1,0,1:0:0:0:
316,193,188173,6,0,P|322:226|313:264,1,60.0000022888184,12|0,1:0|1:0,1:0:0:0:
139,240,188516,1,0,1:0:0:0:
102,95,188687,6,0,P|165:63|264:109,1,180.000006866455,12|0,1:0|1:0,1:0:0:0:
425,173,189373,5,0,1:0:0:0:
226,190,189545,2,0,P|290:199|334:166,1,120.000004577637,0|0,1:0|1:0,1:0:0:0:
209,182,190059,2,8,L|209:211,6,15.0000005722046,8|8|8|8|8|8|8,1:0|1:0|1:0|1:0|1:0|1:0|1:0,1:0:0:0:
157,103,190402,6,0,B|123:145|123:145|124:175,1,80,12|0,1:0|1:0,1:0:0:0:
131,309,190745,1,0,1:0:0:0:
288,148,190916,2,0,B|289:203|289:203|224:285,1,160,12|0,1:0|1:0,1:0:0:0:
195,222,191430,2,0,L|290:223,1,80,8|0,1:0|1:0,1:0:0:0:
355,281,191773,6,0,B|389:239|389:239|388:209,1,80,12|0,1:0|1:0,1:0:0:0:
381,75,192116,1,0,1:0:0:0:
223,235,192287,2,0,B|222:180|222:180|288:99,1,160,12|0,1:0|1:0,1:0:0:0:
317,162,192802,2,2,L|222:161,1,80,2|2,1:0|1:0,1:0:0:0:
143,88,193145,5,12,1:0:0:0:
103,231,193316,2,0,B|85:184|85:184|98:152,1,80,0|0,1:0|1:0,1:0:0:0:
174,181,193659,5,12,1:0:0:0:
214,324,193830,2,0,B|232:277|232:277|219:245,1,80,0|0,1:0|1:0,1:0:0:0:
119,58,194173,6,0,B|146:113|146:113|206:89|275:155|233:223,1,240,12|0,1:0|1:0,1:0:0:0:
132,330,194859,1,0,1:0:0:0:
387,239,195030,2,0,P|315:207|236:216,1,160,0|0,1:0|1:0,1:0:0:0:
194,278,195545,6,2,B|200:243|178:218|178:218|204:205|214:166|214:166|217:202|236:216,1,180.000006866455,2|2,1:0|1:0,1:0:0:0:
321,314,195887,6,0,L|394:304,1,60.0000022888184,12|0,1:0|1:0,1:0:0:0:
434,216,196230,1,0,1:0:0:0:
347,140,196402,2,0,L|219:158,1,120.000004577637,12|0,1:0|1:0,1:0:0:0:
77,155,196916,2,0,B|114:153|137:120|137:120|157:153|205:162,1,143.999995605469,0|0,1:0|1:0,1:0:0:0:
224,144,197259,5,12,1:0:0:0:
166,297,197430,1,0,1:0:0:0:
323,267,197602,1,0,1:0:0:0:
224,144,197773,2,0,B|142:108|213:52|213:52|285:93|226:143,1,239.999992675781,12|0,1:0|1:0,1:0:0:0:
226,191,198287,5,8,1:0:0:0:
183,222,198373,1,0,1:0:0:0:
148,251,198459,1,8,1:0:0:0:
201,250,198545,1,8,1:0:0:0:
254,248,198630,1,12,1:0:0:0:
386,88,198802,6,0,P|395:118|394:144,1,47.9999985351563
366,234,198973,1,8,0:0:0:0:
282,142,199145,1,0,0:0:0:0:
348,353,199316,5,0,0:0:0:0:
183,214,199487,2,0,P|168:207|148:176,1,47.9999985351563
366,234,199659,1,8,0:0:0:0:
228,150,199830,2,2,P|291:142|364:244,1,191.999994140625
32,140,200345,5,8,0:0:0:0:
170,241,200516,1,0,0:0:0:0:
285,89,200687,6,0,L|237:82,1,47.9999985351563
143,147,200859,1,0,0:0:0:0:
316,228,201030,6,10,B|223:240|223:240|243:226|254:199,1,143.999995605469
188,271,201373,5,2,0:0:0:0:
413,267,201545,1,0,0:0:0:0:
383,189,201716,6,0,P|387:213|398:235,1,47.9999985351563,8|0,0:0|0:0,0:0:0:0:
215,194,201887,2,0,P|211:218|201:240,1,47.9999985351563
302,60,202059,5,0,0:0:0:0:
300,232,202230,1,0,0:0:0:0:
301,198,202316,1,0,0:0:0:0:
301,164,202402,1,8,0:0:0:0:
301,333,202573,1,0,0:0:0:0:
99,144,202745,5,0,0:0:0:0:
199,224,202916,1,0,0:0:0:0:
61,244,203087,1,8,0:0:0:0:
250,123,203259,1,0,0:0:0:0:
99,144,203430,5,0,0:0:0:0:
199,224,203602,2,0,P|195:252|201:287,1,47.9999985351563
61,244,203773,2,0,P|96:246|119:242,1,47.9999985351563,8|0,0:0|0:0,0:0:0:0:
250,123,203945,2,0,P|217:126|195:122,1,47.9999985351563,8|0,0:0|0:0,0:0:0:0:
283,116,204116,6,0,P|322:114|384:130,1,95.9999970703126,4|0,0:0|0:0,0:0:0:0:
312,270,204459,1,8,0:0:0:0:
250,123,204630,1,0,0:0:0:0:
279,277,204802,6,0,P|240:279|178:263,1,95.9999970703126
250,123,205145,1,8,0:0:0:0:
310,272,205316,6,0,B|354:277|395:264|395:264|411:228|402:173|402:173|375:162,1,191.999994140625
245,76,205830,5,8,0:0:0:0:
247,99,205916,1,0,0:0:0:0:
251,123,206002,2,0,P|253:164|250:183,1,47.9999985351563
136,286,206173,2,0,B|192:265|192:265|232:290|232:290|277:267,1,143.999995605469
305,292,206516,6,0,P|394:272|311:236,1,240,10|0,0:0|0:0,0:0:0:0:
186,339,206859,5,2,0:0:0:0:
99,170,207030,1,0,0:0:0:0:
87,281,207202,1,8,0:0:0:0:
201,114,207373,2,0,P|265:137|297:262,1,191.999994140625
197,222,207887,5,8,0:0:0:0:
400,281,208059,1,0,0:0:0:0:
356,79,208230,6,0,P|326:58|311:38,1,47.9999985351563,8|0,0:0|0:0,0:0:0:0:
267,149,208402,2,0,P|296:169|311:189,1,47.9999985351563,8|0,0:0|0:0,0:0:0:0:
377,123,208573,6,8,P|348:125|328:121,1,47.9999985351563
291,151,208745,2,8,P|319:148|339:152,1,47.9999985351563,8|0,0:0|0:0,0:0:0:0:
382,168,208916,5,8,0:0:0:0:
361,186,209002,1,8,0:0:0:0:
339,169,209087,1,8,0:0:0:0:
359,149,209173,1,8,0:0:0:0:
361,173,209259,6,8,L|359:223,1,40
84,169,209602,6,0,L|107:127,2,47.9999985351563,0|0|0,1:0|1:0|1:0,1:0:0:0:
86,249,209859,2,0,L|101:295,2,47.9999985351563,0|0|0,1:0|1:0|1:0,1:0:0:0:
67,209,210116,1,0,1:0:0:0:
268,186,210287,6,0,L|290:143,2,47.9999985351563,0|0|0,1:0|1:0|1:0,1:0:0:0:
272,226,210545,2,0,L|286:271,2,47.9999985351563,0|0|0,1:0|1:0|1:0,1:0:0:0:
237,203,210802,2,0,L|294:193,1,47.9999985351563,0|0,1:0|1:0,1:0:0:0:
395,203,210973,6,0,L|357:158,1,47.9999985351563,0|0,1:0|1:0,1:0:0:0:
318,66,211145,2,0,L|298:120,1,47.9999985351563,0|0,1:0|1:0,1:0:0:0:
121,103,211316,1,0,1:0:0:0:
94,233,211487,1,0,1:0:0:0:
234,200,211659,6,2,B|193:204|139:239|90:233,2,143.999995605469
394,281,212345,6,0,P|412:256|414:224,1,47.9999985351563,0|0,1:0|1:0,1:0:0:0:
374,208,212516,1,0,1:0:0:0:
339,231,212602,2,0,P|321:256|319:288,1,47.9999985351563,0|0,1:0|1:0,1:0:0:0:
261,127,212859,2,0,P|260:156|271:179,1,47.9999985351563
311,247,213030,6,0,P|283:256|250:251,1,47.9999985351563,0|0,1:0|1:0,1:0:0:0:
215,243,213202,1,0,1:0:0:0:
171,213,213287,2,0,P|159:185|159:158,1,47.9999985351563,0|0,1:0|1:0,1:0:0:0:
248,92,213545,2,0,L|190:96,1,47.9999985351563,0|0,1:0|1:0,1:0:0:0:
339,74,213716,6,0,L|397:70,1,47.9999985351563,0|0,1:0|1:0,1:0:0:0:
359,156,213887,2,0,L|363:214,1,47.9999985351563,0|0,1:0|1:0,1:0:0:0:
268,174,214059,2,0,L|210:178,1,47.9999985351563,0|0,1:0|1:0,1:0:0:0:
248,92,214230,2,0,L|244:33,1,47.9999985351563,0|0,1:0|1:0,1:0:0:0:
128,82,214402,6,0,L|135:196,1,95.9999970703126,0|0,1:0|1:0,1:0:0:0:
92,260,214659,5,2,0:0:0:0:
178,251,214745,2,2,L|214:277,6,23.9999992675781
302,315,215087,6,0,P|336:309|363:293,1,47.9999985351563,0|0,1:0|1:0,1:0:0:0:
306,238,215259,1,0,1:0:0:0:
306,185,215345,1,0,1:0:0:0:
351,211,215430,1,0,1:0:0:0:
87,203,215602,6,0,P|87:226|95:251,1,47.9999985351563,0|0,1:0|1:0,1:0:0:0:
161,217,215773,2,0,P|183:208|207:205,1,47.9999985351563,0|0,1:0|1:0,1:0:0:0:
199,278,215945,1,0,1:0:0:0:
198,329,216030,1,0,1:0:0:0:
244,303,216116,1,0,1:0:0:0:
265,166,216287,6,0,L|235:128,1,47.9999985351563,0|0,1:0|1:0,1:0:0:0:
174,26,216459,6,0,L|243:35,1,47.9999985351563,0|0,1:0|1:0,1:0:0:0:
269,39,216630,1,0,1:0:0:0:
397,227,216802,6,0,L|339:236,1,47.9999985351563,0|0,1:0|1:0,1:0:0:0:
306,238,216973,1,0,1:0:0:0:
126,189,217145,6,2,P|113:238|160:192,2,143.999995605469
140,47,217830,5,0,1:0:0:0:
135,94,217916,1,0,1:0:0:0:
130,142,218002,1,0,1:0:0:0:
86,172,218087,1,0,1:0:0:0:
91,220,218173,1,0,1:0:0:0:
96,268,218259,1,0,1:0:0:0:
135,305,218345,1,0,1:0:0:0:
374,293,218516,5,0,1:0:0:0:
327,287,218602,1,0,1:0:0:0:
279,277,218687,1,0,1:0:0:0:
232,269,218773,1,0,1:0:0:0:
185,269,218859,2,0,P|196:229|199:202,1,47.9999985351563,0|0,1:0|1:0,1:0:0:0:
201,169,219030,2,0,P|198:129|188:102,1,47.9999985351563,0|0,1:0|1:0,1:0:0:0:
339,230,219202,6,0,P|332:191|323:169,1,47.9999985351563,0|0,1:0|1:0,1:0:0:0:
299,113,219373,2,0,P|278:95|249:79,1,47.9999985351563,0|0,1:0|1:0,1:0:0:0:
154,62,219545,6,2,B|108:104|223:233|188:289|188:289|225:235|279:228|320:248|320:248|337:308|292:324|254:313,1,480
163,322,220230,6,0,L|139:358,6,40,0|0|0|0|0|0|0,1:0|1:0|1:0|1:0|1:0|1:0|1:0,1:0:0:0:
101,167,220573,6,0,B|90:104|90:104|105:60,1,80,4|0,1:0|1:0,1:0:0:0:
178,202,220745,2,0,B|184:187|184:187|173:124,1,80,0|0,1:0|1:0,1:0:0:0:
270,144,220916,2,0,B|265:129|265:129|276:66,1,80,0|0,1:0|1:0,1:0:0:0:
348,107,221087,2,0,B|359:46|359:46|353:30,1,80,0|0,1:0|1:0,1:0:0:0:
316,244,221259,6,0,B|375:237|375:237|416:248,1,80,0|0,1:0|1:0,1:0:0:0:
280,315,221430,2,0,B|300:321|300:321|359:314,1,80,0|0,1:0|1:0,1:0:0:0:
139,304,221602,6,2,B|113:280|113:280|119:238|119:238|110:197|110:197|147:177|147:177|162:132|162:132|198:129,1,240,2|2,1:0|1:0,1:0:0:0:
336,111,221945,6,0,B|377:93|377:93|395:63,1,80,4|0,1:0|1:0,1:0:0:0:
401,101,222116,2,0,B|396:145|396:145|412:176,1,80,0|0,1:0|1:0,1:0:0:0:
375,158,222287,2,0,B|338:131|338:131|303:129,1,80,0|0,1:0|1:0,1:0:0:0:
244,174,222459,5,0,1:0:0:0:
195,228,222545,1,0,1:0:0:0:
233,292,222630,1,0,1:0:0:0:
305,275,222716,1,0,1:0:0:0:
311,201,222802,1,0,1:0:0:0:
98,115,222973,6,8,L|85:76,2,40,8|8|8,1:0|1:0|1:0,1:0:0:0:
134,79,223145,2,8,L|121:40,2,40,8|8|8,1:0|1:0|1:0,1:0:0:0:
228,75,223316,6,0,B|303:71|303:71|325:78,1,80,4|0,1:0|1:0,1:0:0:0:
375,287,223487,2,0,B|450:283|450:283|455:285,1,80,0|0,1:0|1:0,1:0:0:0:
449,124,223659,2,0,B|445:123|445:123|370:127,1,80,0|0,1:0|1:0,1:0:0:0:
254,244,223830,2,0,B|249:242|249:242|174:246,1,80,0|0,1:0|1:0,1:0:0:0:
112,186,224002,5,2,1:0:0:0:
49,123,224087,1,2,1:0:0:0:
112,61,224173,1,2,1:0:0:0:
174,123,224259,1,2,1:0:0:0:
116,143,224345,5,0,1:0:0:0:
103,130,224430,1,0,1:0:0:0:
116,118,224516,1,8,1:0:0:0:
128,130,224602,1,8,1:0:0:0:
115,129,224687,6,0,B|150:134|150:134|165:129|165:129|174:140|174:140|208:147,1,80,4|0,1:0|1:0,1:0:0:0:
284,113,224859,2,0,B|279:148|279:148|284:163|284:163|273:172|273:172|266:206,1,80,0|0,1:0|1:0,1:0:0:0:
302,303,225030,2,0,B|267:298|267:298|252:303|252:303|243:292|243:292|209:285,1,80,0|0,1:0|1:0,1:0:0:0:
133,319,225202,2,0,B|138:284|138:284|133:269|133:269|144:260|144:260|151:226,1,80,0|0,1:0|1:0,1:0:0:0:
348,204,225373,6,0,L|174:183,1,160,0|0,3:0|3:0,3:0:0:0:
304,152,225630,2,0,L|130:131,1,160,0|0,3:0|3:0,3:0:0:0:
256,102,225887,2,0,L|169:91,1,80,0|0,3:0|3:0,3:0:0:0:
104,113,226059,5,8,1:0:0:0:
87,190,226145,1,0,1:0:0:0:
115,264,226230,1,0,1:0:0:0:
177,312,226316,1,0,1:0:0:0:
194,255,226402,5,8,1:0:0:0:
240,296,226487,1,0,1:0:0:0:
302,308,226573,1,0,1:0:0:0:
360,284,226659,1,0,1:0:0:0:
317,245,226745,5,8,1:0:0:0:
363,229,226830,1,0,1:0:0:0:
396,191,226916,1,0,1:0:0:0:
403,141,227002,1,0,1:0:0:0:
356,153,227087,5,8,1:0:0:0:
363,114,227173,1,0,1:0:0:0:
350,76,227259,1,0,1:0:0:0:
318,51,227345,1,0,1:0:0:0:
278,123,227430,5,8,1:0:0:0:
273,117,227516,1,0,1:0:0:0:
267,123,227602,1,8,1:0:0:0:
273,129,227687,1,0,1:0:0:0:
278,123,227773,1,8,1:0:0:0:
273,117,227859,1,8,1:0:0:0:
267,123,227945,1,8,1:0:0:0:
273,129,228030,1,8,1:0:0:0:
233,124,228116,5,8,1:0:0:0:
193,122,228202,1,0,1:0:0:0:
153,121,228287,1,8,1:0:0:0:
113,119,228373,1,0,1:0:0:0:
146,200,228459,5,8,1:0:0:0:
178,201,228545,1,0,1:0:0:0:
210,202,228630,1,8,1:0:0:0:
242,203,228716,1,8,1:0:0:0:
265,219,228802,6,8,L|290:249,6,40,8|8|8|8|8|8|8,1:0|1:0|1:0|1:0|1:0|1:0|1:0,1:0:0:0:
119,226,229145,6,8,L|86:266,6,40,8|8|8|8|8|8|8,1:0|1:0|1:0|1:0|1:0|1:0|1:0,1:0:0:0:
36,104,229487,6,8,L|39:48,1,40,8|8,1:0|1:0,1:0:0:0:
71,85,229573,2,0,L|74:29,1,40,0|0,3:0|3:0,3:0:0:0:
110,82,229659,2,8,L|113:26,1,40,8|8,3:0|3:0,3:0:0:0:
149,90,229745,2,0,L|152:34,1,40,0|0,3:0|3:0,3:0:0:0:
187,103,229830,6,8,L|184:142,1,40,8|8,1:0|1:0,1:0:0:0:
225,115,229916,2,8,L|222:154,1,40,8|8,3:0|3:0,3:0:0:0:
265,122,230002,2,8,L|262:161,1,40,8|8,3:0|3:0,3:0:0:0:
304,117,230087,2,8,L|301:156,1,40,8|8,3:0|3:0,3:0:0:0:
352,49,230173,5,8,3:0:0:0:
183,308,231030,6,0,L|185:213,1,80
116,186,231202,2,0,L|197:235,1,80
254,188,231373,2,4,L|212:210,2,40
443,98,231545,6,4,L|431:224,1,100
363,95,231716,1,0,0:0:0:0:
359,123,231802,2,0,L|349:223,1,92.0000017547608,8|0,0:0|0:0,0:0:0:0:
284,95,231972,1,0,0:0:0:0:
280,127,232059,2,0,L|269:226,1,100
98,320,232230,5,0,0:0:0:0:
131,327,232316,2,0,P|181:328|225:306,1,100
71,229,232487,2,0,P|135:256|195:248,1,100
221,195,232659,1,0,0:0:0:0:
241,217,232745,1,0,0:0:0:0:
100,50,232916,5,0,0:0:0:0:
149,76,233002,1,0,0:0:0:0:
198,101,233087,1,0,0:0:0:0:
248,77,233173,1,0,0:0:0:0:
299,57,233259,1,0,0:0:0:0:
349,77,233345,1,0,0:0:0:0:
397,103,233430,2,0,P|404:165|376:221,1,100
273,336,233602,5,0,0:0:0:0:
299,331,233687,2,0,P|343:306|364:241,1,100
282,251,233859,2,0,B|305:193|221:223|266:149,1,100
271,75,234030,5,0,0:0:0:0:
245,80,234116,2,0,P|201:105|180:170,1,100
107,285,234287,6,0,B|173:260|173:260|175:208,1,100
86,209,234459,1,0,0:0:0:0:
90,176,234545,2,0,B|90:129|90:129|99:88|125:53,1,100
191,93,234716,1,0,0:0:0:0:
219,87,234802,2,0,L|329:57,1,100
378,77,234973,5,0,0:0:0:0:
410,107,235059,2,0,P|433:150|424:227,1,100
345,174,235230,2,0,P|345:223|368:267,1,100
474,286,235402,1,0,0:0:0:0:
455,311,235487,1,0,0:0:0:0:
90,176,235659,6,0,L|198:183,1,100
150,263,235830,1,0,0:0:0:0:
180,264,235916,2,0,L|288:271,1,100
279,187,236087,1,0,0:0:0:0:
309,188,236173,2,0,L|417:195,1,100
416,274,236345,6,0,P|478:231|423:119,1,200
445,39,236602,2,0,B|359:40|359:40|321:91|321:91|330:182,1,200
416,274,236859,2,0,B|385:248|385:248|361:258|369:231|369:231|342:205,1,100
308,61,237030,6,0,L|182:73,1,100
326,142,237202,1,0,0:0:0:0:
282,144,237287,2,0,L|197:151,1,80
351,214,237458,1,0,0:0:0:0:
307,219,237545,2,0,L|208:230,1,100
101,177,237716,5,0,0:0:0:0:
83,201,237802,2,0,P|59:251|68:312,1,100
159,355,237973,2,0,P|132:291|140:231,1,100
194,205,238145,1,0,0:0:0:0:
172,185,238230,1,0,0:0:0:0:
317,329,238402,5,0,0:0:0:0:
342,285,238487,1,0,0:0:0:0:
354,237,238573,1,0,0:0:0:0:
350,188,238659,1,0,0:0:0:0:
347,138,238745,1,0,0:0:0:0:
356,89,238830,1,0,0:0:0:0:
372,42,238916,2,0,P|317:44|261:35,1,100
168,57,239087,5,0,0:0:0:0:
154,87,239173,2,0,B|132:140|132:140|142:205,1,100
214,244,239345,2,0,B|179:198|179:198|117:174,1,100
17,220,239516,1,0,0:0:0:0:
68,208,239602,1,0,0:0:0:0:
379,84,239773,6,0,L|369:199,1,100
256,210,239945,1,0,0:0:0:0:
305,213,240030,2,0,L|419:229,1,100
457,317,240202,1,0,0:0:0:0:
395,311,240287,2,0,L|295:297,1,100
162,359,240459,5,0,0:0:0:0:
118,300,240545,2,0,P|100:260|112:178,1,100
48,110,240716,2,0,P|113:96|178:127,1,100
302,117,240887,5,0,0:0:0:0:
401,114,240973,2,0,L|258:117,1,100
139,69,241145,6,0,L|47:109,1,100
214,240,241316,2,0,L|313:201,1,100
114,144,241487,6,0,L|90:222,1,50
218,253,241659,2,0,L|242:175,1,50
122,222,241830,5,0,0:0:0:0:
154,261,241915,1,0,0:0:0:0:
193,229,242001,1,0,0:0:0:0:
162,189,242087,1,0,0:0:0:0:
154,261,242173,6,0,L|147:321,1,50
478,321,242516,6,0,P|425:332|382:308,1,100
325,352,242687,1,0,0:0:0:0:
301,308,242773,1,0,0:0:0:0:
291,260,242859,1,0,0:0:0:0:
297,210,242945,1,0,0:0:0:0:
346,215,243030,1,0,0:0:0:0:
394,227,243116,1,0,0:0:0:0:
435,256,243202,1,0,0:0:0:0:
459,158,243373,6,0,P|379:114|326:108,1,100
322,31,243545,2,0,P|243:78|212:121,1,100
143,66,243716,2,0,P|144:157|166:206,1,100
194,247,243887,5,0,0:0:0:0:
218,289,243973,1,0,0:0:0:0:
265,306,244059,1,0,0:0:0:0:
312,289,244145,1,0,0:0:0:0:
338,246,244230,1,0,0:0:0:0:
328,196,244316,1,0,0:0:0:0:
290,164,244402,2,0,P|231:184|175:177,1,100
196,92,244573,5,0,0:0:0:0:
167,96,244659,2,0,P|116:128|106:202,1,100
67,279,244830,2,0,P|128:279|195:236,1,100
183,174,245002,1,0,0:0:0:0:
213,183,245087,1,0,0:0:0:0:
369,326,245259,6,0,B|412:284|412:284|415:214,1,100
329,242,245430,1,0,0:0:0:0:
339,201,245516,2,0,B|391:156|391:156|391:109,1,100
321,74,245687,1,0,0:0:0:0:
311,115,245773,2,0,B|259:160|259:160|259:207,1,100
200,280,245945,5,0,0:0:0:0:
159,278,246030,2,0,L|109:276,1,50
195,203,246202,2,0,L|95:198,1,100
196,127,246373,1,0,0:0:0:0:
154,126,246459,2,0,L|59:120,1,71.9999978027344
292,70,246630,6,0,P|308:132|285:189,1,100
215,179,246802,1,0,0:0:0:0:
235,219,246887,2,0,P|293:250|346:240,1,100
375,151,247059,1,0,0:0:0:0:
395,192,247145,2,0,P|410:268|379:323,1,100
365,323,247316,6,0,P|271:332|163:269,1,200
109,221,247573,1,0,0:0:0:0:
199,212,247659,2,0,L|248:179,6,50
152,140,248002,6,0,B|272:47|272:47|333:50,1,200
378,116,248259,2,0,L|331:48,1,50
316,274,248516,6,0,L|269:208,2,50
130,286,248773,6,0,B|55:155|55:155|59:89,1,200
177,46,249030,2,0,L|60:88,1,100
262,101,249202,2,0,L|145:143,1,100
274,181,249373,6,0,B|330:171|349:127|343:79|343:79|384:132,1,200
439,200,249630,2,0,L|406:157,1,50
282,320,249887,6,0,L|302:269,2,50
135,222,250145,6,0,B|205:169|270:182|270:182|245:148|251:91,1,200
277,38,250402,2,0,P|251:93|255:150,1,100
164,91,250573,2,0,P|168:151|200:198,1,100
180,319,250745,6,0,L|394:281,1,200
380,181,251002,2,0,P|441:207|367:279,1,200
304,194,251259,2,0,L|180:216,1,100
106,269,251430,6,0,L|132:55,1,200
60,151,251687,2,0,L|258:66,1,200
237,23,251945,2,0,L|224:130,1,100
384,196,252116,6,0,L|436:232,1,50
363,220,252202,2,0,L|322:191,1,50
347,256,252287,2,0,L|399:292,1,50
326,281,252373,2,0,L|285:252,1,50
311,313,252459,1,0,0:0:0:0:
79,210,252630,6,0,L|148:245,1,50
173,334,252802,5,0,0:0:0:0:
187,301,252887,2,0,L|276:95,1,200
374,80,253145,6,0,L|326:198,1,120
416,315,253487,6,0,P|371:294|338:298,1,60.0000022888184
243,281,253659,1,0,0:0:0:0:
260,239,253745,1,0,0:0:0:0:
296,215,253830,2,0,P|340:194|377:197,1,60.0000022888184
348,104,254002,2,0,P|397:108|421:129,1,60.0000022888184
253,28,254173,5,0,0:0:0:0:
217,30,254259,2,0,P|173:48|150:74,1,60.0000022888184
93,273,254430,2,0,P|120:260|140:238,1,60.0000022888184
63,143,254602,1,0,0:0:0:0:
99,141,254688,2,0,P|143:123|166:97,1,60.0000022888184
68,22,254859,5,0,0:0:0:0:
56,54,254945,1,0,0:0:0:0:
57,88,255030,1,0,0:0:0:0:
72,119,255116,1,0,0:0:0:0:
99,141,255202,1,0,0:0:0:0:
110,173,255287,1,0,0:0:0:0:
109,206,255373,2,0,P|159:195|190:200,1,60.0000022888184
253,266,255545,2,0,P|282:231|287:194,1,60.0000022888184
299,113,255716,5,0,0:0:0:0:
457,150,255887,1,0,0:0:0:0:
434,226,255972,1,0,0:0:0:0:
411,303,256059,2,0,P|375:274|339:273,1,60.0000022888184
253,266,256230,5,0,0:0:0:0:
119,338,256402,1,0,0:0:0:0:
86,347,256487,1,0,0:0:0:0:
52,343,256573,2,0,P|36:308|35:275,1,60.0000022888184
36,166,256745,2,0,P|38:123|50:94,1,60.0000022888184
196,99,256916,5,0,0:0:0:0:
187,141,257002,2,0,L|116:155,1,60.0000022888184
287,203,257173,2,0,L|345:191,1,60.0000022888184
277,247,257345,1,0,0:0:0:0:
268,289,257430,2,0,L|197:303,1,60.0000022888184
397,265,257602,6,0,L|379:198,1,60.0000022888184
238,74,257773,1,0,0:0:0:0:
280,62,257859,2,0,L|363:43,1,60.0000022888184
287,203,258030,1,0,0:0:0:0:
244,212,258116,2,0,L|162:234,1,60.0000022888184
53,188,258287,6,0,B|69:119|69:119|128:79,1,120.000004577637
144,164,258545,2,0,B|211:143|211:143|275:174,1,120.000004577637
53,188,258802,2,0,B|78:211|78:211|81:247,1,60.0000022888184
36,318,258973,5,0,0:0:0:0:
69,329,259059,1,0,0:0:0:0:
105,326,259145,1,0,0:0:0:0:
136,308,259230,2,0,P|174:284|217:282,1,60.0000022888184
246,350,259402,5,0,0:0:0:0:
287,347,259487,2,0,P|313:318|320:288,1,60.0000022888184
378,202,259659,5,0,0:0:0:0:
344,190,259745,1,0,0:0:0:0:
308,193,259830,1,0,0:0:0:0:
277,211,259916,2,0,P|239:235|206:238,1,60.0000022888184
147,178,260087,5,0,0:0:0:0:
115,194,260173,2,0,P|89:223|82:253,1,60.0000022888184
29,93,260345,6,0,P|24:53|43:13,1,60.0000022888184
114,67,260516,1,0,0:0:0:0:
172,75,260602,1,0,0:0:0:0:
277,211,260773,1,0,0:0:0:0:
336,218,260859,2,0,L|395:223,1,60.0000022888184
419,328,261030,6,0,L|423:257,1,60.0000022888184
391,63,261202,2,0,L|387:134,1,60.0000022888184
281,146,261373,6,0,L|352:150,1,60.0000022888184
232,267,261545,2,0,L|172:263,1,60.0000022888184
94,307,261716,6,0,P|84:272|86:238,1,60.0000022888184
114,131,261887,1,0,0:0:0:0:
152,122,261973,2,0,P|187:112|221:114,1,60.0000022888184
286,33,262145,1,0,0:0:0:0:
295,71,262230,2,0,P|304:106|302:140,1,60.0000022888184
385,197,262402,5,0,0:0:0:0:
347,206,262487,2,0,P|312:215|278:214,1,60.0000022888184
209,250,262659,2,0,P|199:215|201:181,1,60.0000022888184
239,271,262830,1,0,0:0:0:0:
273,290,262916,2,0,P|282:325|281:359,1,60.0000022888184
372,279,263087,6,0,L|456:288,1,60.0000022888184
288,215,263259,2,0,L|372:206,1,60.0000022888184
213,283,263430,2,0,L|297:292,1,60.0000022888184
129,219,263602,2,0,L|213:210,1,60.0000022888184
90,158,263773,5,0,0:0:0:0:
149,151,263859,1,0,0:0:0:0:
173,81,263945,1,0,0:0:0:0:
233,87,264030,1,0,0:0:0:0:
300,156,264116,2,0,L|270:159,1,30.0000011444092
386,82,264459,5,0,0:0:0:0:
383,130,264545,1,0,0:0:0:0:
380,178,264630,1,0,0:0:0:0:
377,226,264716,1,0,0:0:0:0:
403,294,264802,6,0,L|330:288,1,60.0000022888184
262,201,264973,2,0,L|321:195,1,60.0000022888184
245,104,265145,6,0,L|239:187,1,60.0000022888184
283,316,265316,2,0,L|289:233,1,60.0000022888184
145,245,265487,2,0,L|204:239,1,60.0000022888184
378,183,265659,2,0,P|350:195|321:195,1,60.0000022888184
322,44,265830,6,0,L|334:114,1,60.0000022888184
276,278,266002,2,0,L|264:208,1,60.0000022888184
245,104,266173,6,0,L|257:174,1,60.0000022888184
199,338,266345,2,0,L|187:268,1,60.0000022888184
112,152,266516,6,0,L|181:179,1,60.0000022888184
400,232,266687,2,0,L|331:205,1,60.0000022888184
250,65,266859,5,0,0:0:0:0:
263,97,266945,1,0,0:0:0:0:
340,143,267030,5,0,0:0:0:0:
327,175,267116,1,0,0:0:0:0:
243,233,267202,6,0,B|310:227|310:227|343:298,1,120.000004577637
180,323,267545,6,0,L|120:327,1,60.0000022888184
84,247,267716,2,0,L|157:241,1,60.0000022888184
233,44,267887,6,0,L|216:118,1,60.0000022888184
206,257,268059,2,0,L|223:183,1,60.0000022888184
134,85,268230,6,0,L|189:137,1,60.0000022888184
304,215,268402,2,0,L|249:163,1,60.0000022888184
120,192,268573,6,0,L|193:169,1,60.0000022888184
261,126,268745,1,0,0:0:0:0:
318,108,268830,1,0,0:0:0:0:
370,73,268916,2,0,L|375:159,1,60.0000022888184
421,293,269087,5,0,0:0:0:0:
396,276,269173,1,0,0:0:0:0:
360,267,269259,1,0,0:0:0:0:
318,276,269345,1,0,0:0:0:0:
274,295,269430,1,0,0:0:0:0:
219,295,269516,1,0,0:0:0:0:
159,286,269602,2,0,L|143:336,6,30.0000011444092
163,152,269945,6,0,B|189:172|180:208|180:208|188:171|222:166,1,120.000004577637
288,53,270287,6,0,L|353:60,1,60.0000022888184
416,96,270459,2,0,L|356:102,1,60.0000022888184
174,192,270630,6,0,L|237:177,1,60.0000022888184
350,190,270802,2,0,L|296:216,1,60.0000022888184
223,335,270973,5,0,0:0:0:0:
276,289,271059,1,0,0:0:0:0:
277,226,271145,1,0,0:0:0:0:
253,190,271230,1,0,0:0:0:0:
232,178,271316,6,0,L|166:191,3,60.0000022888184
79,305,271659,6,0,P|59:263|61:240,1,60.0000022888184
72,162,271830,2,0,P|81:126|101:93,1,60.0000022888184
154,236,272002,6,0,P|183:215|223:206,1,60.0000022888184
247,84,272173,2,0,P|280:78|313:82,1,60.0000022888184
343,197,272345,6,0,P|372:200|404:226,1,60.0000022888184
428,255,272516,1,0,0:0:0:0:
473,229,272602,1,0,0:0:0:0:
472,176,272687,5,0,0:0:0:0:
439,126,272773,1,0,0:0:0:0:
385,102,272859,1,0,0:0:0:0:
326,111,272945,1,0,0:0:0:0:
345,37,273030,5,0,0:0:0:0:
297,39,273116,1,0,0:0:0:0:
259,67,273202,1,0,0:0:0:0:
242,111,273287,1,0,0:0:0:0:
185,67,273373,5,0,0:0:0:0:
167,101,273459,1,0,0:0:0:0:
171,138,273545,1,0,0:0:0:0:
195,167,273630,1,0,0:0:0:0:
234,172,273716,2,0,L|204:189,1,30.0000011444092
274,177,273802,2,0,L|256:206,1,30.0000011444092
313,182,273887,2,0,L|312:216,1,30.0000011444092
353,188,273973,2,0,L|369:218,1,30.0000011444092
392,187,274059,6,0,B|439:237|439:237|419:267|368:274|368:274|352:257|352:257|290:304|290:304|206:275|206:275|307:197|307:197|213:175|213:175|158:129|153:53|153:53|230:13|296:65|296:65|282:134|213:175|213:175|153:221|153:221|105:175|84:109,1,1200
24,209,275430,6,0,P|63:268|132:333,1,160
263,141,275773,1,0,0:0:0:0:
145,329,275945,1,0,0:0:0:0:
256,196,276116,5,0,0:0:0:0:
235,345,276287,1,0,0:0:0:0:
251,251,276459,5,0,0:0:0:0:
398,313,276630,2,0,B|368:290|318:300|318:300|318:264|355:245,1,143.999995605469
407,280,277145,5,0,0:0:0:0:
283,286,277316,1,0,0:0:0:0:
418,139,277487,1,0,0:0:0:0:
255,147,277659,1,0,0:0:0:0:
333,40,277830,2,0,B|327:96|327:96|344:125|344:125|348:157|337:181,1,143.999995605469
396,265,278173,6,0,P|360:261|298:265,1,95.9999970703126
117,293,278516,1,0,0:0:0:0:
190,190,278687,2,0,B|138:166|92:171|92:171|140:167|179:130,1,191.999994140625
178,45,279202,2,0,P|214:54|257:96,1,95.9999970703126
357,55,279545,5,0,0:0:0:0:
226,269,279716,1,0,0:0:0:0:
379,210,279887,1,0,0:0:0:0:
113,169,280059,2,0,B|161:150|161:150|193:165|193:165|225:150|283:161|301:198,1,191.999994140625
117,202,280573,2,0,B|163:226|163:226|175:280,1,95.9999970703126
88,287,280916,5,0,0:0:0:0:
268,202,281087,1,0,0:0:0:0:
314,326,281259,1,0,0:0:0:0:
402,151,281430,2,0,P|376:109|325:71,1,95.9999970703126
155,118,281773,1,0,0:0:0:0:
268,202,281945,1,0,0:0:0:0:
259,30,282116,6,0,B|263:113|263:113|310:135|310:135|279:188,1,191.999994140625
232,281,282630,1,0,0:0:0:0:
386,116,282802,2,0,B|326:144|326:144|274:120|274:120|210:148,1,191.999994140625
132,81,283316,6,0,P|108:159|152:238,1,160
212,147,283659,5,0,0:0:0:0:
41,230,283830,1,0,0:0:0:0:
208,311,284002,1,0,0:0:0:0:
375,222,284173,2,0,B|281:200|281:200|175:230,1,191.999994140625
103,259,284687,1,0,0:0:0:0:
314,145,284859,1,0,0:0:0:0:
97,163,285030,5,0,0:0:0:0:
316,42,285202,1,0,0:0:0:0:
310,292,285373,1,0,0:0:0:0:
97,163,285545,2,0,B|150:148|204:164|204:164|249:138|291:137,1,191.999994140625
366,189,286059,5,0,0:0:0:0:
390,147,286145,1,0,0:0:0:0:
437,157,286230,1,0,0:0:0:0:
442,205,286316,1,0,0:0:0:0:
398,224,286402,5,0,0:0:0:0:
278,50,286573,2,0,P|280:83|287:102,1,47.9999985351563
376,50,286745,1,0,0:0:0:0:
154,147,286916,1,0,0:0:0:0:
316,193,287087,5,0,0:0:0:0:
30,249,287259,1,0,0:0:0:0:
189,297,287430,1,0,0:0:0:0:
154,147,287602,2,0,B|227:155|227:155|252:115|293:100|338:101,1,191.999994140625
316,193,288116,5,0,0:0:0:0:
473,237,288287,2,0,B|400:229|400:229|375:269|334:284|289:283,1,191.999994140625
127,268,288802,6,0,B|99:264|99:264|110:233|110:233|155:237,1,95.9999970703126
260,249,289145,5,0,0:0:0:0:
68,147,289316,1,0,0:0:0:0:
283,116,289487,1,0,0:0:0:0:
127,268,289659,2,0,L|139:206,1,47.9999985351563
164,53,289830,5,0,0:0:0:0:
397,176,290002,1,0,0:0:0:0:
325,48,290173,1,0,0:0:0:0:
329,294,290345,1,0,0:0:0:0:
242,126,290516,5,0,0:0:0:0:
246,227,290687,1,0,0:0:0:0:
164,53,290859,1,0,0:0:0:0:
168,299,291030,1,0,0:0:0:0:
81,123,291202,2,0,L|79:224,1,95.9999970703126
163,171,291545,6,0,L|165:135,6,23.9999992675781
166,227,291887,6,0,P|197:237|265:224,1,95.9999970703126
286,144,292145,1,0,0:0:0:0:
315,161,292230,2,0,P|334:180|343:200,1,47.9999985351563
293,328,292402,1,0,0:0:0:0:
433,333,292573,5,0,0:0:0:0:
449,305,292659,2,0,P|459:267|426:206,1,95.9999970703126
488,158,292916,2,0,P|434:138|389:159,1,95.9999970703126
322,127,293173,1,0,0:0:0:0:
315,161,293259,6,0,L|261:180,1,47.9999985351563
156,207,293430,1,0,0:0:0:0:
345,230,293602,6,0,L|291:249,1,47.9999985351563
121,308,293773,1,0,0:0:0:0:
414,335,293945,6,0,L|425:281,1,47.9999985351563
449,63,294116,1,0,0:0:0:0:
335,140,294287,5,0,0:0:0:0:
390,101,294373,1,0,0:0:0:0:
353,45,294459,1,0,0:0:0:0:
297,83,294545,1,0,0:0:0:0:
335,140,294630,6,0,L|321:253,1,95.9999970703126
246,260,294887,2,0,L|250:217,1,23.9999992675781
138,96,295145,6,0,L|135:119,1,23.9999992675781
35,239,295487,6,0,L|46:143,1,95.9999970703126
106,230,295745,2,0,L|94:325,1,95.9999970703126
26,330,296002,6,0,P|92:324|164:346,1,120.000004577637
218,332,296259,2,0,L|248:330,1,30.0000011444092
336,207,296516,6,0,L|291:212,1,30.0000011444092
426,105,296859,2,0,L|349:112,1,60.0000022888184
310,115,297030,5,0,0:0:0:0:
250,122,297116,1,0,0:0:0:0:
191,130,297202,1,0,0:0:0:0:
131,138,297287,1,0,0:0:0:0:
72,146,297373,1,0,0:0:0:0:
158,313,297545,6,0,P|165:268|164:234,1,60.0000022888184
154,92,297716,1,0,0:0:0:0:
359,188,297887,2,0,P|321:184|279:189,1,60.0000022888184
160,198,298059,5,0,0:0:0:0:
263,32,298230,1,0,0:0:0:0:
249,346,298402,2,0,L|257:155,1,180.000006866455
257,121,298745,5,0,0:0:0:0:
379,283,298916,1,0,0:0:0:0:
381,241,299002,1,0,0:0:0:0:
384,197,299087,1,0,0:0:0:0:
249,346,299259,1,0,0:0:0:0:
114,163,299430,2,0,L|103:286,1,120.000004577637
261,67,299773,6,0,L|306:70,6,30.0000011444092
223,67,300116,5,0,0:0:0:0:
321,180,300287,2,0,P|359:182|390:186,1,60.0000022888184
208,284,300459,1,0,0:0:0:0:
117,216,300630,2,0,P|184:174|246:178,1,120.000004577637
321,180,300973,5,0,0:0:0:0:
412,112,301145,2,0,P|345:70|283:74,1,120.000004577637
209,69,301487,5,0,0:0:0:0:
268,323,301659,2,0,P|308:328|330:326,1,60.0000022888184
321,180,301830,1,0,0:0:0:0:
120,243,302002,5,0,0:0:0:0:
123,208,302087,1,0,0:0:0:0:
126,172,302173,1,0,0:0:0:0:
349,216,302345,6,0,P|334:256|312:273,1,60.0000022888184
277,207,302516,2,0,P|249:174|246:146,1,60.0000022888184
319,148,302687,2,0,P|361:140|386:151,1,60.0000022888184
430,167,302859,5,0,0:0:0:0:
354,313,303030,2,0,P|347:268|348:234,1,60.0000022888184
358,92,303202,1,0,0:0:0:0:
153,188,303373,2,0,P|191:184|233:189,1,60.0000022888184
352,198,303545,5,0,0:0:0:0:
249,32,303716,1,0,0:0:0:0:
263,346,303887,2,0,L|255:155,1,180.000006866455
254,128,304230,5,0,0:0:0:0:
81,195,304402,1,0,0:0:0:0:
263,209,304573,2,0,B|318:204|367:209|367:209|328:192|319:149,1,180.000006866455
396,137,304916,5,0,0:0:0:0:
134,317,305259,2,0,P|116:278|183:326,1,240
171,349,305602,5,0,0:0:0:0:
314,308,305773,2,0,P|335:282|343:255,1,60.0000022888184
258,243,305945,2,0,P|237:217|229:190,1,60.0000022888184
314,137,306116,2,0,B|364:177|364:177|325:168|291:190,1,120.000004577637
151,238,306459,5,0,0:0:0:0:
462,267,306630,2,0,L|320:255,1,120.000004577637
119,78,306973,5,0,0:0:0:0:
305,84,307145,1,0,0:0:0:0:
146,131,307316,5,0,0:0:0:0:
265,136,307487,1,0,0:0:0:0:
172,181,307659,6,0,L|136:237,1,60.0000022888184
231,182,307830,2,0,L|275:227,1,60.0000022888184
104,277,308002,5,0,0:0:0:0:
187,307,308087,1,0,0:0:0:0:
263,298,308173,1,0,0:0:0:0:
303,274,308259,1,0,0:0:0:0:
317,250,308345,6,0,L|339:311,3,60.0000022888184
369,257,308687,2,0,L|348:200,3,60.0000022888184
345,108,309030,6,0,L|279:129,1,60.0000022888184
296,94,309202,2,0,L|230:115,1,60.0000022888184
139,58,309373,6,0,L|158:116,1,60.0000022888184
125,107,309544,2,0,L|144:165,1,60.0000022888184
66,202,309716,5,0,0:0:0:0:
107,243,309801,1,0,0:0:0:0:
166,248,309887,1,0,0:0:0:0:
214,214,309973,1,0,0:0:0:0:
228,157,310059,5,0,0:0:0:0:
252,190,310144,1,0,0:0:0:0:
292,203,310230,1,0,0:0:0:0:
331,191,310316,1,0,0:0:0:0:
357,159,310402,6,0,P|392:202|402:233,1,60.0000022888184
338,107,310573,2,0,P|389:126|413:148,1,60.0000022888184
298,93,310745,2,0,P|314:78|330:73,6,30.0000011444092
214,76,311087,6,0,L|137:84,1,60.0000022888184
61,140,311259,5,0,0:0:0:0:
103,144,311345,1,0,0:0:0:0:
144,150,311430,2,0,L|203:156,1,60.0000022888184
382,215,311602,5,0,0:0:0:0:
332,223,311688,1,0,0:0:0:0:
283,231,311773,2,0,L|223:237,1,60.0000022888184
93,295,311945,5,0,0:0:0:0:
158,306,312031,1,0,0:0:0:0:
219,316,312116,2,0,L|278:322,1,60.0000022888184
375,323,312287,5,0,0:0:0:0:
460,208,312459,6,0,P|461:173|451:142,1,60.0000022888184
315,57,312630,2,0,P|306:93|308:126,1,60.0000022888184
305,257,312802,2,0,P|312:228|310:198,1,60.0000022888184
157,291,312974,2,0,P|157:320|165:349,1,60.0000022888184
237,312,313145,6,0,P|273:321|306:319,1,60.0000022888184
373,171,313317,2,0,P|338:170|307:180,1,60.0000022888184
372,329,313487,6,0,P|366:295|343:260,1,60.0000022888184
104,46,313830,5,0,0:0:0:0:
192,55,314002,1,0,0:0:0:0:
222,170,314173,5,0,0:0:0:0:
84,147,314345,1,0,0:0:0:0:
273,61,314516,5,0,0:0:0:0:
394,30,314688,1,0,0:0:0:0:
475,186,314859,5,0,0:0:0:0:
215,237,315031,1,0,0:0:0:0:
330,126,315202,5,0,0:0:0:0:
354,339,315373,1,0,0:0:0:0:
195,51,315545,5,0,0:0:0:0:
150,319,315716,1,0,0:0:0:0:
44,121,315887,5,0,0:0:0:0:
355,288,316059,1,0,0:0:0:0:
356,45,316230,2,0,L|253:139,1,120.000004577637
152,145,316573,5,0,0:0:0:0:
208,124,316658,1,0,0:0:0:0:
267,125,316744,1,0,0:0:0:0:
323,148,316830,1,0,0:0:0:0:
366,189,316916,1,0,0:0:0:0:
323,231,317001,1,0,0:0:0:0:
271,260,317087,1,0,0:0:0:0:
213,273,317173,1,0,0:0:0:0:
153,270,317259,5,0,0:0:0:0:
111,227,317344,1,0,0:0:0:0:
88,172,317430,1,0,0:0:0:0:
87,113,317516,1,0,0:0:0:0:
108,57,317602,5,0,0:0:0:0:
186,65,317687,1,0,0:0:0:0:
249,110,317773,1,0,0:0:0:0:
272,184,317859,1,0,0:0:0:0:
271,260,317945,6,0,L|267:304,14,30.0000011444092
349,223,318630,6,0,L|335:356,1,120.000004577637
357,180,318973,2,0,B|366:73|366:73|297:42|241:95,1,240
243,92,319316,5,0,0:0:0:0:
70,110,319659,2,0,B|129:113|129:113|169:134,1,95.9999970703126
248,179,320002,5,0,0:0:0:0:
70,110,320173,1,0,0:0:0:0:
109,216,320345,2,0,B|168:219|168:219|208:240,1,95.9999970703126
311,273,320687,5,0,0:0:0:0:
431,312,321030,2,0,B|372:309|372:309|332:288,1,95.9999970703126
249,119,321373,5,0,0:0:0:0:
296,118,321458,1,0,0:0:0:0:
344,117,321544,1,0,0:0:0:0:
304,203,321716,6,0,L|320:150,1,47.9999985351563
276,81,321888,2,0,L|292:28,1,47.9999985351563
141,68,322059,5,0,0:0:0:0:
72,151,322230,2,0,P|100:131|114:109,1,47.9999985351563
127,199,322402,5,0,0:0:0:0:
161,201,322487,2,0,L|225:203,2,47.9999985351563
228,335,322745,5,0,0:0:0:0:
297,252,322916,2,0,P|269:272|255:294,1,47.9999985351563
242,204,323088,5,0,0:0:0:0:
208,202,323173,2,0,L|144:200,2,47.9999985351563
156,108,323431,6,0,P|132:85|123:63,1,47.9999985351563
204,43,323602,1,0,0:0:0:0:
334,125,323773,6,0,P|354:113|370:95,1,47.9999985351563
305,46,323944,1,0,0:0:0:0:
378,211,324116,5,0,0:0:0:0:
405,320,324287,2,0,L|308:333,1,80
279,282,324459,2,0,L|377:269,1,80
378,211,324630,2,0,L|294:224,1,80
143,238,324802,5,0,0:0:0:0:
114,49,325145,2,0,P|140:98|171:132,1,95.9999970703126
143,238,325487,5,0,0:0:0:0:
52,158,325659,1,0,0:0:0:0:
114,49,325830,2,0,P|140:98|171:132,1,95.9999970703126
143,238,326173,5,0,0:0:0:0:
332,83,326345,2,0,L|386:124,1,47.9999985351563
450,118,326516,2,0,L|387:144,1,47.9999985351563
363,202,326687,2,0,L|371:134,1,47.9999985351563
273,160,326859,5,0,0:0:0:0:
448,255,327030,2,0,P|370:297|268:244,1,191.999994140625
265,220,327459,5,0,0:0:0:0:
234,251,327545,2,0,B|187:247|137:282|137:282|158:267|160:245,1,143.999995605469
113,164,327887,5,0,0:0:0:0:
255,95,328059,2,0,B|203:63|203:63|154:75,1,95.9999970703126
169,256,328402,5,0,0:0:0:0:
27,187,328574,2,0,B|79:155|79:155|128:167,1,95.9999970703126
318,167,328916,6,0,B|266:165|243:194|243:194|204:153|144:164,1,191.999994140625
57,169,329430,2,0,P|99:238|173:243,1,150.000005722046
164,327,329945,2,0,P|208:313|236:280,1,80
256,230,330287,5,0,0:0:0:0:
423,213,330459,1,0,0:0:0:0:
256,230,330630,5,0,0:0:0:0:
423,213,330802,1,0,0:0:0:0:
256,230,330973,6,0,P|279:211|309:204,1,47.9999985351563
423,213,331145,2,0,P|404:190|397:160,1,47.9999985351563
406,46,331316,2,0,P|383:65|353:71,1,47.9999985351563
239,63,331487,2,0,P|258:86|265:116,1,47.9999985351563
318,291,331659,5,0,0:0:0:0:
211,180,331830,1,0,0:0:0:0:
318,291,332002,5,0,0:0:0:0:
72,248,332173,1,0,0:0:0:0:
152,87,332345,6,0,L|147:117,1,23.9999992675781
181,105,332430,2,0,L|176:135,1,23.9999992675781
209,123,332516,1,0,0:0:0:0:
229,309,332687,6,0,B|245:249|245:249|276:308,1,120.000004577637
357,251,333030,6,0,L|331:198,1,60.0000022888184
388,132,333202,1,0,0:0:0:0:
245,156,333373,6,0,L|219:210,1,60.0000022888184
276,276,333545,1,0,0:0:0:0:
149,285,333716,6,0,L|123:232,1,60.0000022888184
75,136,333887,2,0,L|107:200,1,60.0000022888184
214,269,334059,6,0,L|219:210,1,60.0000022888184
225,102,334230,2,0,L|220:173,1,60.0000022888184
211,342,334402,5,0,0:0:0:0:
353,222,334573,1,0,0:0:0:0:
318,332,334745,5,0,0:0:0:0:
285,149,334916,1,0,0:0:0:0:
154,244,335087,6,0,L|197:242,1,30.0000011444092
168,212,335173,2,0,L|211:210,1,30.0000011444092
185,179,335259,1,0,0:0:0:0:
318,173,335430,6,0,P|335:114|285:149,1,160
293,209,335687,1,0,0:0:0:0:
305,279,335773,6,0,P|266:272|235:248,1,80
373,325,335945,2,0,P|334:351|284:354,1,80
456,240,336116,2,0,P|459:286|436:331,1,80
378,122,336287,5,0,0:0:0:0:
405,129,336373,1,0,0:0:0:0:
434,135,336459,2,0,P|476:155|503:197,1,80
265,103,336630,2,0,L|360:120,1,80
185,186,336802,6,0,L|176:240,2,40
244,226,336973,2,0,L|235:280,2,40
380,325,337145,6,0,L|316:261,1,80
373,124,337316,2,0,P|340:146|327:183,1,80
177,301,337487,2,0,P|199:268|236:255,1,80
203,63,337659,5,0,0:0:0:0:
201,102,337745,1,0,0:0:0:0:
167,127,337830,2,0,P|127:121|89:131,1,80
304,220,338002,1,0,0:0:0:0:
95,282,338173,6,0,P|172:279|188:140,1,240
126,201,338516,5,0,0:0:0:0:
181,207,338601,1,0,0:0:0:0:
237,214,338687,1,0,0:0:0:0:
292,220,338773,1,0,0:0:0:0:
348,227,338859,5,0,0:0:0:0:
332,190,338944,1,0,0:0:0:0:
316,154,339030,1,0,0:0:0:0:
300,117,339116,1,0,0:0:0:0:
284,80,339202,5,0,0:0:0:0:
246,109,339287,1,0,0:0:0:0:
207,138,339373,6,0,P|205:185|221:219,1,80
365,260,339545,2,0,P|369:220|354:183,1,80
276,281,339716,1,0,0:0:0:0:
284,80,339887,5,0,0:0:0:0:
245,71,339972,1,0,0:0:0:0:
206,62,340058,1,0,0:0:0:0:
167,54,340144,1,0,0:0:0:0:
128,45,340230,2,0,P|114:91|121:146,1,80
123,274,340402,6,0,B|160:271|160:271|145:192|145:192|205:303|355:234|306:111,1,400
310,122,340916,6,0,B|357:265|357:265|334:307|254:330,1,240
161,230,341259,5,0,0:0:0:0:
33,238,341602,2,0,L|122:234,1,80
161,230,341945,5,0,0:0:0:0:
218,115,342288,2,0,L|176:194,1,80
161,230,342630,5,0,0:0:0:0:
232,336,342973,2,0,L|184:260,1,80
281,126,343316,6,0,P|286:98|285:81,1,40
212,149,343487,2,0,P|184:144|167:145,1,40
235,218,343659,2,0,P|230:246|231:263,1,40
304,195,343830,2,0,P|332:200|349:199,1,40
422,93,344002,5,0,0:0:0:0:
448,245,344345,2,0,L|434:159,1,80
352,46,344687,5,0,0:0:0:0:
326,198,345030,2,0,L|338:119,1,80
232,116,345373,5,0,0:0:0:0:
258,268,345716,2,0,L|244:182,1,80
112,138,346059,6,0,L|105:93,3,40
46,99,346402,6,0,L|39:54,3,40
97,46,346745,5,0,0:0:0:0:
300,97,347087,1,0,0:0:0:0:
97,148,347430,5,0,0:0:0:0:
300,97,347772,1,0,0:0:0:0:
127,252,348116,5,0,0:0:0:0:
330,201,348459,1,0,0:0:0:0:
313,315,348630,2,0,P|332:274|327:193,1,120
234,169,349145,1,0,0:0:0:0:
306,101,349316,1,0,0:0:0:0:
388,148,349487,6,0,P|408:140|393:190,1,120.000004577637
311,58,350173,6,0,P|291:50|306:100,1,120.000004577637
254,193,350859,5,0,0:0:0:0:
254,193,351030,5,0,0:0:0:0:
254,193,351202,5,0,0:0:0:0:
139,212,351373,5,0,0:0:0:0:
149,222,351458,1,0,0:0:0:0:
155,239,351544,1,0,0:0:0:0:
169,246,351630,1,0,0:0:0:0:
182,252,351715,1,0,0:0:0:0:
196,259,351801,1,0,0:0:0:0:
202,276,351887,1,0,0:0:0:0:
426,112,352230,6,0,P|385:100|299:109,1,120.000004577637
426,112,352916,6,0,P|385:100|299:109,1,120.000004577637
426,112,353602,6,0,P|385:100|299:109,1,120.000004577637
246,48,354116,2,0,P|226:86|248:165,1,120.000004577637
359,178,354630,1,0,0:0:0:0:
264,257,354802,1,0,0:0:0:0:
86,272,354973,6,0,P|127:284|213:275,1,120.000004577637
86,272,355659,6,0,P|127:284|213:275,1,120.000004577637
86,272,356345,6,0,P|127:284|213:275,1,120.000004577637
309,76,357030,2,0,P|327:131|305:186,1,120.000004577637
248,127,357545,1,0,0:0:0:0:
305,186,357716,5,0,0:0:0:0:
207,270,358059,1,0,0:0:0:0:
297,364,358402,1,0,0:0:0:0:
394,279,358745,1,0,0:0:0:0:
207,270,359087,6,0,P|154:268|89:292,1,120.000004577637
2,216,359602,6,0,P|55:218|120:194,1,120.000004577637
103,86,360116,1,0,0:0:0:0:
236,209,360287,1,0,0:0:0:0:
241,97,360459,6,0,B|278:94|298:69|298:69|310:102|344:115,1,120.000004577637
240,97,361145,6,0,B|277:103|303:84|303:84|306:119|335:141,1,120.000004577637
240,97,361830,6,0,B|274:112|304:101|304:101|298:135|321:162|321:162|289:181|256:177,1,200
146,124,362859,1,0,0:0:0:0:
