osu file format v14

[General]
AudioFilename: audio.mp3
AudioLeadIn: 0
PreviewTime: 230171
Countdown: 1
SampleSet: None
StackLeniency: 0.7
Mode: 0
LetterboxInBreaks: 0
WidescreenStoryboard: 0

[Editor]
Bookmarks: 23083,45026,55998,77941,99883,110855,132798,154741,165712,176683,187655,209598,231541,253483,275426,297371,308343,319314,341257,363198
DistanceSpacing: 0.7
BeatDivisor: 2
GridSize: 32
TimelineZoom: 3.599998

[Metadata]
Title:Light it up
TitleUnicode:Light it up
Artist:Camellia
ArtistUnicode:Camellia
Creator:Kardshark
Version:I DON'T LIKE TRIANGLES
Source:
Tags:
BeatmapID:1481730
BeatmapSetID:495414

[Difficulty]
HPDrainRate:7
CircleSize:4.2
OverallDifficulty:8
ApproachRate:9.5
SliderMultiplier:1.6
SliderTickRate:1

[Events]
//Background and Video events
0,0,"Hd-Anime-Wallpaper-1.jpg",0,0
//Break Periods
2,154945,165191
//Storyboard Layer 0 (Background)
//Storyboard Layer 1 (Fail)
//Storyboard Layer 2 (Pass)
//Storyboard Layer 3 (Foreground)
//Storyboard Sound Samples

[TimingPoints]
1145,342.857142857143,4,2,0,100,1,0
18630,-83.3333333333333,4,2,0,100,0,0
18973,-125,4,2,0,100,0,0
19659,-83.3333333333333,4,2,0,100,0,0
22745,-71.4285714285714,4,2,0,100,0,0
23087,-83.3333333333333,4,2,0,100,0,0
27545,-100,4,2,0,100,0,0
28059,-50,4,2,0,100,0,0
28402,-100,4,2,0,100,0,0
30116,-50,4,2,0,100,0,0
30802,-100,4,2,0,100,0,0
35430,-83.3333333333333,4,2,0,100,0,0
36459,-100,4,2,0,100,0,0
36802,-83.3333333333333,4,2,0,100,0,0
41945,-66.6666666666667,4,2,0,100,0,0
45030,-100,4,2,0,100,0,0
47773,-100,4,2,0,70,0,0
50516,-100,4,2,0,50,0,0
53259,-100,4,2,0,25,0,0
55316,-100,4,2,0,37,0,0
56002,-100,4,2,0,50,0,0
66973,-100,4,2,0,72,0,0
72459,-100,4,2,0,100,0,0
77259,-83.3333333333333,4,2,0,100,0,0
77945,-133.333333333333,4,2,0,100,0,0
85830,-66.6666666666667,4,2,0,100,0,0
86173,-133.333333333333,4,2,0,100,0,0
88916,-83.3333333333333,4,2,0,100,0,0
96802,-66.6666666666667,4,2,0,100,0,0
97145,-83.3333333333333,4,2,0,100,0,0
98516,-71.4285714285714,4,2,0,100,0,0
99545,-50,4,2,0,100,0,0
99887,-83.3333333333333,4,2,0,100,0,0
100916,-50,4,2,0,100,0,0
101259,-83.3333333333333,4,2,0,100,0,0
102287,-50,4,2,0,100,0,0
102630,-83.3333333333333,4,2,0,100,0,0
110516,-50,4,2,0,100,0,0
110859,-100,4,2,0,100,0,0
112230,-66.6666666666667,4,2,0,100,0,0
112402,-50,4,2,0,100,0,0
112745,-100,4,2,0,100,0,0
113602,-66.6666666666667,4,2,0,100,0,0
117887,-66.6666666666667,4,2,0,100,0,0
121830,-58.8235294117647,4,2,0,100,0,0
122516,-100,4,2,0,100,0,0
123373,-58.8235294117647,4,2,0,100,0,0
124573,-66.6666666666667,4,2,0,100,0,0
128859,-50,4,2,0,100,0,0
129030,-100,4,2,0,100,0,0
129887,-66.6666666666667,4,2,0,100,0,0
130059,-100,4,2,0,100,0,0
132116,-66.6666666666667,4,2,0,100,0,0
132459,-50,4,2,0,100,0,0
132802,-100,4,2,0,100,0,0
136916,-83.3333333333333,4,2,0,100,0,0
165716,-133.333333333333,4,2,0,100,0,0
171202,-83.3333333333333,4,2,0,100,0,0
176687,-100,4,2,0,100,0,0
186459,-83.3333333333333,4,2,0,100,0,0
187659,-133.333333333333,4,2,0,100,0,0
195545,-66.6666666666667,4,2,0,100,0,0
195887,-133.333333333333,4,2,0,100,0,0
196916,-83.3333333333333,4,2,0,100,0,0
209259,-50,4,2,0,100,0,0
209602,-83.3333333333333,4,2,0,100,0,0
231202,-50,4,2,0,100,0,0
231545,-50,4,2,0,100,0,1
253145,-100,4,2,0,100,0,0
253316,-100,4,2,0,20,0,0
253487,-66.6666666666667,4,2,0,100,0,0
274059,-100,4,2,0,100,0,0
275087,-66.6666666666667,4,2,0,100,0,0
275773,-83.3333333333333,4,2,0,100,0,0
276630,-111.111111111111,4,3,0,100,0,0
276802,-111.111111111111,4,2,0,100,0,0
277145,-83.3333333333333,4,2,0,100,0,0
282116,-83.3333333333333,4,3,0,100,0,0
282287,-83.3333333333333,4,2,0,100,0,0
296345,-66.6666666666667,4,2,0,100,0,0
305259,-50,4,2,0,100,0,0
305602,-66.6666666666667,4,2,0,100,0,0
318973,-50,4,2,0,100,0,0
319316,-66.6666666666667,4,2,0,100,0,0
340402,-66.6666666666667,4,1,0,100,0,0
340573,-66.6666666666667,4,2,0,100,0,0

[HitObjects]
64,128,1145,5,4,0:0:0:0:
241,55,1487,2,0,B|232:100|232:100|260:121,1,80
406,181,1830,5,0,0:0:0:0:
397,219,1915,1,0,0:0:0:0:
374,252,2001,1,0,0:0:0:0:
341,272,2087,1,0,0:0:0:0:
301,278,2172,1,0,0:0:0:0:
219,138,2345,1,0,0:0:0:0:
219,138,2516,6,2,B|192:107|192:107|144:103|144:103|108:125,1,120
59,174,2859,1,0,0:0:0:0:
114,323,3030,6,0,L|85:279,1,40,4|0,3:0|3:0,3:0:0:0:
131,278,3202,2,0,L|102:234,1,40,0|0,3:0|3:0,3:0:0:0:
59,174,3373,5,0,3:0:0:0:
50,134,3459,1,0,3:0:0:0:
67,93,3545,1,0,3:0:0:0:
219,46,3716,2,2,L|240:100,1,40,2|0,3:0|3:0,3:0:0:0:
264,157,3887,5,4,0:0:0:0:
109,200,4059,1,0,0:0:0:0:
262,242,4230,1,0,0:0:0:0:
261,73,4402,1,0,0:0:0:0:
412,122,4573,6,0,L|466:113,2,40
333,136,4830,1,0,0:0:0:0:
333,136,4916,2,0,P|349:173|380:195,1,80
437,345,5259,5,0,0:0:0:0:
400,328,5344,1,0,0:0:0:0:
361,321,5430,1,0,0:0:0:0:
321,322,5516,1,0,0:0:0:0:
282,332,5601,1,0,0:0:0:0:
243,177,5773,1,0,0:0:0:0:
87,217,5945,6,0,L|73:260,2,40
152,171,6202,1,0,0:0:0:0:
211,223,6287,2,0,L|197:266,1,40
133,310,6459,1,0,0:0:0:0:
338,126,6630,5,4,0:0:0:0:
411,268,6802,1,0,0:0:0:0:
338,126,6973,1,0,0:0:0:0:
184,134,7145,5,0,0:0:0:0:
204,177,7230,1,0,0:0:0:0:
210,225,7316,2,0,B|258:217|258:217|299:228,1,80
394,101,7659,6,0,L|396:145,1,40
409,292,7830,1,0,0:0:0:0:
409,292,8002,6,2,B|339:278|339:278|323:294|302:300|281:297,1,120
223,322,8345,5,0,0:0:0:0:
186,335,8430,1,0,0:0:0:0:
153,315,8516,1,0,0:0:0:0:
149,277,8602,1,0,0:0:0:0:
176,250,8687,2,0,P|192:226|191:198,1,40,0|0,3:0|3:0,3:0:0:0:
161,92,8859,5,0,3:0:0:0:
161,92,8945,1,0,3:0:0:0:
161,92,9030,2,0,L|215:75,1,40,0|0,3:0|3:0,3:0:0:0:
273,112,9202,2,2,L|327:95,1,40,2|2,3:0|3:0,3:0:0:0:
381,138,9373,5,4,0:0:0:0:
419,125,9458,1,0,0:0:0:0:
458,114,9545,1,0,0:0:0:0:
455,153,9630,1,0,0:0:0:0:
452,193,9716,1,0,0:0:0:0:
339,307,9887,6,0,P|305:291|292:289,1,40
226,263,10059,1,0,0:0:0:0:
361,178,10230,1,0,0:0:0:0:
173,215,10402,5,0,0:0:0:0:
314,289,10573,1,0,0:0:0:0:
188,145,10745,5,0,0:0:0:0:
195,304,10916,1,0,0:0:0:0:
155,305,11002,1,0,0:0:0:0:
118,288,11087,1,0,0:0:0:0:
188,145,11259,1,0,0:0:0:0:
346,170,11430,6,0,P|370:163|391:163,3,40
456,127,11773,2,0,P|453:160|462:216,1,80,2|0,0:0|0:0,0:0:0:0:
465,286,12030,1,0,0:0:0:0:
392,321,12116,1,4,0:0:0:0:
161,272,12459,6,0,B|197:261|197:261|237:276,1,80
394,307,12802,1,0,0:0:0:0:
391,147,12973,2,0,L|391:196,1,40
326,138,13145,2,0,L|325:224,1,80
235,349,13487,5,0,0:0:0:0:
111,246,13659,1,0,0:0:0:0:
108,206,13744,1,0,0:0:0:0:
120,168,13830,2,0,L|173:195,1,40
230,220,14002,1,0,0:0:0:0:
301,77,14173,6,0,P|322:91|341:114,1,40,0|0,3:0|3:0,3:0:0:0:
426,231,14345,2,2,P|405:217|386:194,1,40,2|2,3:0|3:0,3:0:0:0:
397,61,14516,2,0,P|397:86|386:114,1,40,0|0,3:0|3:0,3:0:0:0:
328,245,14687,2,2,P|328:220|339:192,1,40,2|2,3:0|3:0,3:0:0:0:
460,137,14859,2,0,B|438:149|400:139|378:148,1,80,4|0,0:0|0:0,0:0:0:0:
246,60,15202,6,0,L|202:41,1,40
132,68,15373,2,0,L|94:91,1,40
18,71,15545,5,0,0:0:0:0:
29,96,15630,1,0,0:0:0:0:
35,123,15716,1,0,0:0:0:0:
36,151,15802,1,0,0:0:0:0:
35,179,15887,1,0,0:0:0:0:
42,218,15972,1,0,0:0:0:0:
64,251,16058,1,0,0:0:0:0:
97,272,16144,1,0,0:0:0:0:
137,278,16230,2,4,P|170:248|180:204,1,80,6|0,0:0|0:0,0:0:0:0:
396,88,16573,6,0,L|356:115,1,40
211,56,16745,2,0,L|246:86,1,40
354,195,16916,5,0,0:0:0:0:
314,187,17001,1,0,0:0:0:0:
274,187,17087,1,0,0:0:0:0:
235,193,17173,1,0,0:0:0:0:
167,151,17259,1,0,0:0:0:0:
141,182,17344,1,0,0:0:0:0:
123,217,17430,1,0,0:0:0:0:
112,255,17516,1,0,0:0:0:0:
43,297,17602,6,0,P|98:290|131:298,1,80,2|0,0:0|0:0,0:0:0:0:
276,335,17945,1,0,0:0:0:0:
314,325,18030,1,0,0:0:0:0:
347,303,18116,1,0,0:0:0:0:
324,269,18202,1,0,0:0:0:0:
295,240,18287,1,0,0:0:0:0:
368,156,18458,5,0,0:0:0:0:
360,116,18544,1,0,0:0:0:0:
352,77,18630,1,0,0:0:0:0:
305,88,18715,1,0,0:0:0:0:
257,93,18801,1,0,0:0:0:0:
209,94,18887,1,0,0:0:0:0:
162,90,18973,2,4,L|130:59,3,32
89,28,19316,5,0,0:0:0:0:
71,54,19401,1,0,0:0:0:0:
53,81,19487,1,0,0:0:0:0:
35,107,19573,1,0,0:0:0:0:
16,134,19659,2,0,P|53:144|75:161,1,47.9999985351563,2|0,0:0|0:0,0:0:0:0:
117,226,19830,5,0,0:0:0:0:
141,224,19916,1,0,0:0:0:0:
164,220,20002,2,0,P|208:217|220:222,1,47.9999985351563,2|2,0:0|0:0,0:0:0:0:
249,129,20173,2,0,P|279:150|297:174,1,47.9999985351563,2|2,0:0|0:0,0:0:0:0:
377,122,20345,6,0,B|380:290|380:290|230:206|230:206|365:121,1,479.999985351563,6|6,0:0|0:0,0:0:0:0:
164,78,21373,6,0,P|159:122|162:144,1,47.9999985351563
203,312,21545,2,0,P|208:268|205:246,1,47.9999985351563
118,228,21716,2,0,P|190:170|282:202,1,191.999994140625
384,39,22230,2,0,B|371:92|371:92|392:128|392:128|377:176|377:176|395:239,1,191.999994140625
193,332,22745,6,8,L|228:260,1,55.9999982910157
272,183,22916,1,8,0:0:0:0:
296,233,23001,1,8,0:0:0:0:
321,283,23087,1,8,0:0:0:0:
84,236,23259,5,0,0:0:0:0:
141,53,23430,1,0,0:0:0:0:
344,128,23602,1,0,0:0:0:0:
130,175,23773,5,0,0:0:0:0:
344,128,23945,1,0,0:0:0:0:
344,319,24116,1,0,0:0:0:0:
330,299,24201,1,0,0:0:0:0:
312,282,24287,1,0,0:0:0:0:
292,269,24373,1,0,0:0:0:0:
270,260,24459,6,0,L|224:278,1,47.9999985351563
130,260,24630,2,0,L|187:238,1,47.9999985351563
238,168,24802,2,0,L|191:186,1,47.9999985351563
98,170,24973,2,0,L|154:147,1,47.9999985351563
181,62,25145,6,0,P|209:71|241:68,1,47.9999985351563
347,49,25316,1,4,0:0:0:0:
348,82,25401,1,0,0:0:0:0:
349,116,25487,2,0,B|350:141|350:141|357:164|357:164|352:181|361:193|361:193|353:234|357:230,1,95.9999970703126,6|0,0:0|0:0,0:0:0:0:
168,242,25830,5,0,0:0:0:0:
140,148,26002,2,0,L|133:101,2,47.9999985351563
222,163,26259,2,0,L|240:119,2,47.9999985351563
168,242,26516,5,0,0:0:0:0:
215,236,26601,1,0,0:0:0:0:
263,239,26687,2,0,P|298:239|322:250,1,47.9999985351563
365,40,26859,5,0,0:0:0:0:
375,82,26944,1,0,0:0:0:0:
384,124,27030,1,0,0:0:0:0:
393,166,27116,1,0,0:0:0:0:
442,218,27202,5,0,0:0:0:0:
394,223,27287,1,0,0:0:0:0:
348,238,27373,1,0,0:0:0:0:
307,262,27459,1,0,0:0:0:0:
270,293,27545,1,0,0:0:0:0:
233,276,27630,1,0,0:0:0:0:
197,259,27716,1,0,0:0:0:0:
160,243,27802,1,0,0:0:0:0:
124,226,27887,1,0,0:0:0:0:
107,47,28059,6,8,B|105:118|105:118|114:108,1,80,8|0,3:0|3:0,3:0:0:0:
191,108,28230,2,8,B|189:179|189:179|198:169,1,80,8|0,3:0|3:0,3:0:0:0:
275,162,28402,1,0,3:0:0:0:
311,173,28487,1,0,3:0:0:0:
333,209,28573,1,0,3:0:0:0:
245,343,28745,1,0,0:0:0:0:
101,273,28916,5,0,0:0:0:0:
159,259,29002,2,0,P|193:253|206:254,1,40
436,176,29259,5,0,0:0:0:0:
378,162,29345,2,0,P|344:156|331:157,1,40
92,72,29602,5,0,0:0:0:0:
119,72,29687,1,0,0:0:0:0:
147,72,29773,1,0,0:0:0:0:
175,72,29859,1,0,0:0:0:0:
203,72,29944,1,0,0:0:0:0:
281,282,30116,6,4,B|244:260|244:260|191:257,1,80
140,157,30287,2,4,B|177:179|177:179|230:182,1,80
356,258,30459,2,4,B|319:236|319:236|266:233,1,80
198,96,30630,1,4,0:0:0:0:
369,75,30802,6,0,B|373:75|365:80|326:76,1,40
369,75,30973,2,0,P|360:119|387:149,1,80,4|0,0:0|0:0,0:0:0:0:
460,290,31316,6,0,P|418:328|383:330,1,80,4|0,0:0|0:0,0:0:0:0:
287,213,31659,1,0,0:0:0:0:
287,213,31830,2,0,B|288:284|288:284|271:269,1,80,4|0,0:0|0:0,0:0:0:0:
120,271,32173,1,0,0:0:0:0:
120,271,32259,1,0,0:0:0:0:
120,271,32345,2,0,P|164:257|208:266,1,80,4|0,0:0|0:0,0:0:0:0:
163,166,32687,6,0,P|164:199|163:221,1,40,4|0,0:0|0:0,0:0:0:0:
118,333,32859,2,0,P|142:306|160:294,1,40
236,206,33030,6,0,P|237:239|236:261,1,40
207,321,33202,2,0,P|231:294|249:282,1,40
312,276,33373,5,12,0:0:0:0:
338,245,33459,1,8,0:0:0:0:
308,170,33545,1,8,0:0:0:0:
334,139,33631,1,8,0:0:0:0:
293,70,33716,1,8,0:0:0:0:
137,274,33887,5,0,0:0:0:0:
115,114,34059,5,6,0:0:0:0:
266,163,34230,1,0,0:0:0:0:
367,274,34402,1,6,0:0:0:0:
216,225,34573,1,0,0:0:0:0:
115,114,34745,6,0,P|104:146|103:160,1,40,6|0,0:0|0:0,0:0:0:0:
214,185,34916,2,0,P|217:215|211:239,1,40,6|0,0:0|0:0,0:0:0:0:
101,235,35087,2,0,P|99:271|106:286,1,40,6|0,0:0|0:0,0:0:0:0:
223,318,35259,1,0,0:0:0:0:
262,311,35344,1,0,0:0:0:0:
302,316,35430,1,6,0:0:0:0:
312,122,35602,6,0,P|322:150|322:186,1,47.9999985351563
310,253,35773,2,0,P|264:239|217:250,1,95.9999970703126,6|0,0:0|0:0,0:0:0:0:
69,149,36116,5,6,0:0:0:0:
112,127,36201,1,6,0:0:0:0:
155,106,36287,2,6,P|191:100|218:97,1,47.9999985351563
363,82,36459,2,0,B|357:106|357:106|368:127|366:155|366:155|375:177,1,80,0|2,0:0|0:0,0:0:0:0:
169,259,36802,5,6,0:0:0:0:
402,262,36973,1,0,0:0:0:0:
164,164,37145,1,6,0:0:0:0:
173,355,37316,1,0,0:0:0:0:
194,276,37487,6,0,P|177:261|163:241,1,47.9999985351563,6|0,0:0|0:0,0:0:0:0:
342,266,37659,2,0,P|352:244|358:221,1,47.9999985351563,6|0,0:0|0:0,0:0:0:0:
226,111,37830,6,0,P|249:104|273:103,1,47.9999985351563,6|0,0:0|0:0,0:0:0:0:
321,236,38002,2,0,P|335:203|337:185,1,47.9999985351563,6|0,0:0|0:0,0:0:0:0:
325,96,38173,5,6,0:0:0:0:
140,140,38345,1,0,0:0:0:0:
248,296,38516,1,6,0:0:0:0:
146,192,38687,2,0,L|153:246,1,47.9999985351563
167,313,38859,5,6,0:0:0:0:
167,313,38945,1,0,0:0:0:0:
167,313,39031,1,0,0:0:0:0:
334,220,39202,6,8,L|347:242,4,23.9999992675781
311,177,39459,1,0,0:0:0:0:
311,177,39545,1,6,0:0:0:0:
140,226,39716,1,0,0:0:0:0:
408,155,39887,5,6,0:0:0:0:
242,195,40059,2,8,L|219:192,2,23.9999992675781
394,198,40230,5,6,0:0:0:0:
223,288,40402,1,0,0:0:0:0:
270,286,40573,6,0,P|246:284|223:288,1,47.9999985351563,0|0,3:0|3:0,3:0:0:0:
257,99,40745,2,0,P|233:103|210:100,1,47.9999985351563,0|0,3:0|3:0,3:0:0:0:
351,75,40916,5,6,0:0:0:0:
341,219,41087,1,0,0:0:0:0:
180,113,41259,5,6,0:0:0:0:
124,288,41430,1,2,0:0:0:0:
124,288,41516,1,0,0:0:0:0:
124,288,41602,6,0,P|106:269|80:255,1,47.9999985351563,2|0,0:0|0:0,0:0:0:0:
168,205,41773,2,0,P|157:181|160:139,1,47.9999985351563
60,182,41945,2,0,P|105:72|179:62,1,180.000006866455
281,48,42287,5,2,3:0:0:0:
281,48,42373,1,0,3:0:0:0:
281,48,42459,1,0,3:0:0:0:
281,48,42545,1,0,3:0:0:0:
281,48,42630,5,2,3:0:0:0:
298,72,42715,1,0,3:0:0:0:
316,96,42801,1,0,3:0:0:0:
334,120,42887,1,0,3:0:0:0:
351,144,42973,1,2,3:0:0:0:
336,183,43058,1,0,3:0:0:0:
322,223,43144,1,0,3:0:0:0:
308,262,43230,1,2,3:0:0:0:
294,302,43316,5,0,3:0:0:0:
244,268,43401,1,0,3:0:0:0:
190,244,43487,1,2,3:0:0:0:
132,228,43573,1,0,3:0:0:0:
72,222,43659,6,10,L|71:258,6,30.0000011444092
77,102,44002,1,4,0:0:0:0:
315,120,44173,2,0,P|290:103|190:89,2,120.000004577637,6|0|6,0:0|0:0|0:0,0:0:0:0:
432,93,44687,5,0,3:0:0:0:
420,151,44772,1,0,3:0:0:0:
409,210,44858,1,0,3:0:0:0:
398,269,44944,1,0,3:0:0:0:
387,328,45030,1,4,3:0:0:0:
122,286,45545,5,0,0:0:0:0:
114,190,47773,6,0,B|90:155|86:117|86:117|123:129|158:171,1,160
239,302,48287,1,0,0:0:0:0:
392,68,50516,6,0,B|352:81|307:71|307:71|266:85|219:72,1,160
109,176,51030,2,0,P|55:159|111:160,1,160
215,111,53259,6,0,B|268:113|353:100|353:100|341:125|351:202|351:202|310:193|257:202,1,320
165,80,54116,1,0,0:0:0:0:
109,229,54287,1,0,0:0:0:0:
267,202,54459,1,0,0:0:0:0:
165,80,54630,6,0,P|122:93|80:89,1,80
109,229,54973,2,0,P|152:216|194:220,1,80
301,71,55316,6,0,P|268:40|251:2,1,80
144,97,55659,2,0,P|177:127|194:166,1,80
352,166,56002,6,0,B|352:224|352:224|359:257,1,80
206,302,56345,1,0,0:0:0:0:
266,154,56516,6,0,B|237:204|237:204|226:236,1,80
304,83,56859,1,0,0:0:0:0:
159,151,57030,2,0,P|135:134|120:217,1,160
268,248,57545,5,0,0:0:0:0:
206,100,57716,2,0,P|157:100|131:116,1,80
184,175,58059,2,0,P|233:175|259:159,1,80
335,137,58402,2,0,P|334:184|317:213,1,80
194,312,58745,6,0,B|137:272|137:272|110:224,1,120
92,149,59087,1,0,0:0:0:0:
83,69,59259,2,0,P|138:61|172:67,1,80
317,65,59602,1,0,0:0:0:0:
345,222,59773,2,0,B|335:218|319:232|319:248|301:262|271:240|288:209|272:201|232:219|214:270,1,160
63,310,60287,5,0,0:0:0:0:
72,149,60459,2,0,B|75:127|75:127|91:191,1,80
127,338,60802,2,0,P|169:333|207:356,1,80
296,181,61145,2,0,B|293:159|293:159|277:223,1,80
337,338,61487,6,0,P|299:319|255:326,1,80
103,311,61830,1,0,0:0:0:0:
269,235,62002,1,0,0:0:0:0:
90,215,62173,1,0,0:0:0:0:
213,335,62345,1,0,0:0:0:0:
186,200,62516,2,0,B|189:159|160:126|131:115|131:115|197:133,1,160
344,113,63030,5,0,0:0:0:0:
319,271,63202,2,0,P|257:268|240:278,1,80
86,312,63545,2,0,P|95:280|93:220,1,80
243,172,63887,2,0,P|181:169|164:179,1,80
229,324,64230,6,0,L|210:239,1,80
181,88,64573,1,0,0:0:0:0:
335,129,64745,2,0,B|378:117|418:120|418:120|419:159|406:200,1,160
447,350,65259,1,0,0:0:0:0:
302,281,65430,5,0,0:0:0:0:
265,266,65515,1,0,0:0:0:0:
225,268,65602,2,0,P|199:236|165:220,1,80
54,172,65945,1,0,0:0:0:0:
91,345,66116,6,0,P|117:312|151:296,1,80
262,249,66459,1,0,0:0:0:0:
411,83,66630,1,0,0:0:0:0:
262,121,66802,1,0,0:0:0:0:
105,151,66973,6,0,P|111:199|106:237,1,80
177,191,67316,2,0,P|206:229|220:264,1,80
135,97,67659,2,0,P|180:78|210:55,1,80
206,140,68002,2,0,P|254:146|292:141,1,80
418,52,68345,5,0,0:0:0:0:
414,171,68516,1,0,0:0:0:0:
410,290,68687,2,0,B|364:282|364:282|316:300,1,80
179,245,69030,2,0,B|225:237|225:237|273:255,1,80
396,171,69373,2,0,B|350:163|350:163|302:181,1,80
165,126,69716,6,0,B|211:118|211:118|259:136,1,80
305,216,70059,1,0,0:0:0:0:
232,250,70230,1,0,0:0:0:0:
162,287,70402,1,0,0:0:0:0:
160,127,70573,1,0,0:0:0:0:
305,216,70745,6,0,B|304:111|304:111|360:148,1,160
481,232,71259,1,0,0:0:0:0:
350,323,71430,5,0,0:0:0:0:
350,323,71602,1,0,0:0:0:0:
200,266,71773,5,0,0:0:0:0:
200,266,71945,1,0,0:0:0:0:
327,170,72116,5,0,0:0:0:0:
327,170,72287,1,0,0:0:0:0:
190,85,72459,6,0,B|154:99|103:83|103:83|82:167|82:167|104:155|104:155|95:225|112:257|112:257|134:228|164:219|194:227|240:218|240:218|211:250,1,480
312,167,73830,6,0,B|350:156|350:156|321:230|358:312|398:325|398:325|268:284|268:284|237:326|179:315|160:277,1,480
256,192,75202,12,0,77259,0:0:0:0:
48,93,77430,5,0,0:0:0:0:
63,193,77602,2,0,B|70:241|90:261|90:261|108:228,1,95.9999970703126,8|0,0:0|0:0,0:0:0:0:
178,79,77945,6,0,B|220:68|220:68|240:73,1,60.0000022888184,6|0,1:0|1:0,1:0:0:0:
360,201,78287,1,0,1:0:0:0:
231,327,78459,6,0,L|137:315,1,90.0000034332277,6|0,1:0|2:0,1:0:0:0:
97,306,78802,1,0,1:0:0:0:
266,247,78973,2,0,B|235:243|235:243|322:217,1,120.000004577637,6|0,1:0|2:0,1:0:0:0:
435,184,79487,5,0,2:0:0:0:
435,184,79659,1,0,2:0:0:0:
345,58,79830,5,0,2:0:0:0:
286,127,80002,1,0,2:0:0:0:
224,193,80173,1,0,2:0:0:0:
71,96,80345,6,8,L|80:125,1,30.0000011444092,8|8,1:0|1:0,1:0:0:0:
104,211,80516,2,8,L|115:244,1,30.0000011444092,8|8,1:0|1:0,1:0:0:0:
145,323,80687,6,0,B|183:307|183:307|222:319|222:319|261:307,1,120.000004577637,6|0,1:0|2:0,1:0:0:0:
408,205,81202,2,0,P|405:176|315:213,1,180.000006866455,6|0,1:0|2:0,1:0:0:0:
337,292,81887,1,0,0:0:0:0:
158,267,82059,6,0,B|150:230|150:230|164:208|168:181|168:181|155:150,1,120.000004577637,6|0,1:0|2:0,1:0:0:0:
71,68,82573,2,0,B|106:102|106:102|129:80|164:75|183:88,1,120.000004577637,6|0,1:0|2:0,1:0:0:0:
281,132,83087,2,0,L|311:112,1,30.0000011444092,0|0,3:0|3:0,3:0:0:0:
392,178,83259,2,0,L|360:202,1,30.0000011444092,0|0,3:0|3:0,3:0:0:0:
390,297,83430,5,6,1:0:0:0:
329,297,83602,1,0,1:0:0:0:
268,297,83773,1,0,1:0:0:0:
192,202,83945,6,0,B|231:193|255:160|255:160|273:170|306:182,1,120.000004577637,6|0,1:0|2:0,1:0:0:0:
358,226,84459,2,0,B|382:191|378:147|363:126|347:109|308:105|281:88,1,180.000006866455,6|0,1:0|2:0,1:0:0:0:
200,101,85145,5,0,2:0:0:0:
81,118,85316,1,0,2:0:0:0:
225,160,85487,1,0,2:0:0:0:
96,266,85659,1,0,2:0:0:0:
248,333,85830,2,8,B|248:282|241:266|241:266|256:209|254:191,1,120.000004577637,8|8,1:0|1:0,1:0:0:0:
368,244,86173,6,0,B|356:143|356:143|344:165,1,120.000004577637,6|0,1:0|2:0,1:0:0:0:
265,247,86687,2,0,B|231:239|175:244|175:244|197:227|208:220,1,120.000004577637,6|0,1:0|2:0,1:0:0:0:
253,153,87202,1,0,2:0:0:0:
134,167,87373,1,0,2:0:0:0:
128,46,87545,5,6,1:0:0:0:
134,167,87716,1,6,1:0:0:0:
145,286,87887,1,0,2:0:0:0:
227,197,88059,2,0,B|259:180|259:180|316:195|346:166,1,120.000004577637,6|0,1:0|1:0,1:0:0:0:
320,80,88573,5,8,1:0:0:0:
290,85,88658,1,8,1:0:0:0:
261,90,88744,1,8,1:0:0:0:
231,96,88830,1,8,1:0:0:0:
202,101,88916,1,0,1:0:0:0:
175,291,89087,5,4,2:0:0:0:
59,136,89259,2,0,B|64:176|64:203|64:203|86:184,1,95.9999970703126,8|0,2:0|2:0,2:0:0:0:
242,72,89602,5,0,0:0:0:0:
421,94,89773,1,4,0:0:0:0:
429,131,89858,1,0,0:0:0:0:
423,172,89944,1,8,0:0:0:0:
247,152,90116,1,0,0:0:0:0:
253,279,90287,5,0,0:0:0:0:
70,183,90459,2,0,P|101:177|133:179,1,47.9999985351563,4|0,0:0|0:0,0:0:0:0:
249,213,90630,1,8,0:0:0:0:
439,249,90802,5,0,0:0:0:0:
353,166,90973,2,0,B|366:206|379:228|379:228|337:224|331:228,1,95.9999970703126,0|4,0:0|0:0,0:0:0:0:
158,226,91316,6,8,L|157:261,4,23.9999992675781
160,177,91573,1,0,0:0:0:0:
164,129,91659,5,0,0:0:0:0:
350,173,91830,1,4,0:0:0:0:
318,129,92002,1,8,0:0:0:0:
132,173,92173,1,0,0:0:0:0:
243,330,92345,6,0,L|242:271,1,47.9999985351563
240,185,92516,1,4,0:0:0:0:
109,325,92687,6,0,P|126:285|129:273,1,47.9999985351563,8|0,0:0|0:0,0:0:0:0:
106,185,92859,2,0,P|89:225|86:237,1,47.9999985351563
109,323,93030,6,0,P|146:308|213:304,1,95.9999970703126,0|4,0:0|0:0,0:0:0:0:
385,246,93373,2,0,B|373:219|373:219|374:183,1,47.9999985351563,8|0,0:0|0:0,0:0:0:0:
283,237,93545,2,0,B|286:207|286:207|304:176,1,47.9999985351563
199,191,93716,2,0,B|216:167|216:167|248:149,1,47.9999985351563
313,106,93887,5,4,0:0:0:0:
265,96,93972,1,0,0:0:0:0:
218,86,94058,1,8,0:0:0:0:
124,320,94230,2,0,P|121:288|115:266,1,47.9999985351563,4|0,0:0|0:0,0:0:0:0:
89,179,94402,6,0,P|128:194|196:190,1,95.9999970703126,2|4,0:0|0:0,0:0:0:0:
333,74,94745,1,8,0:0:0:0:
360,112,94830,1,0,0:0:0:0:
342,156,94916,1,2,0:0:0:0:
374,191,95002,1,0,0:0:0:0:
362,237,95087,1,0,0:0:0:0:
180,302,95259,5,4,0:0:0:0:
223,115,95430,1,8,0:0:0:0:
64,208,95602,2,0,B|42:185|17:178|17:178|160:138,1,191.999994140625,2|4,0:0|0:0,0:0:0:0:
323,69,96116,5,8,0:0:0:0:
349,108,96201,1,0,0:0:0:0:
366,153,96287,2,0,P|377:177|382:206,1,47.9999985351563,4|0,0:0|0:0,0:0:0:0:
397,294,96459,6,0,P|334:288|249:295,1,143.999995605469,4|0,0:0|0:0,0:0:0:0:
172,332,96802,2,2,P|143:351|167:305,1,120.000004577637
315,203,97145,6,0,P|285:195|266:194,1,47.9999985351563,4|0,0:0|0:0,0:0:0:0:
167,203,97316,2,0,P|197:195|216:194,1,47.9999985351563
384,215,97487,1,8,0:0:0:0:
260,67,97659,2,0,P|233:114|204:149,1,95.9999970703126,4|0,0:0|0:0,0:0:0:0:
94,303,98002,5,8,0:0:0:0:
87,255,98087,1,8,0:0:0:0:
69,211,98173,1,8,0:0:0:0:
233,311,98345,1,0,0:0:0:0:
161,62,98516,6,8,P|164:100|159:128,1,55.9999982910157
213,96,98687,2,8,P|216:134|211:162,1,55.9999982910157
233,311,98859,6,8,P|236:273|231:245,1,55.9999982910157
285,277,99030,2,8,P|288:239|283:211,1,55.9999982910157
367,142,99202,5,8,0:0:0:0:
311,132,99287,1,8,0:0:0:0:
270,170,99373,1,8,0:0:0:0:
214,160,99459,1,8,0:0:0:0:
180,114,99545,2,12,B|159:197|115:182|158:201|144:273,1,160
240,360,99887,6,0,L|240:295,1,47.9999985351563,0|0,3:0|3:0,3:0:0:0:
291,325,100059,2,0,L|291:260,1,47.9999985351563,0|0,3:0|3:0,3:0:0:0:
340,295,100230,2,0,L|340:230,1,47.9999985351563,0|0,3:0|3:0,3:0:0:0:
391,260,100402,2,0,L|391:195,1,47.9999985351563,0|0,3:0|3:0,3:0:0:0:
440,229,100573,5,0,3:0:0:0:
248,211,100745,1,0,3:0:0:0:
184,121,100916,2,2,B|103:144|103:144|56:204,1,160,2|2,3:0|3:0,3:0:0:0:
371,73,101259,6,0,P|386:95|408:108,1,47.9999985351563,0|0,3:0|3:0,3:0:0:0:
292,198,101430,2,0,P|277:176|255:163,1,47.9999985351563,0|0,3:0|3:0,3:0:0:0:
405,138,101602,2,0,P|393:162|393:188,1,47.9999985351563,0|0,3:0|3:0,3:0:0:0:
305,104,101773,5,0,3:0:0:0:
293,149,101858,1,0,3:0:0:0:
292,198,101945,1,0,3:0:0:0:
308,242,102030,1,0,3:0:0:0:
299,289,102116,1,0,3:0:0:0:
118,102,102287,6,8,L|135:194,1,80,8|8,3:0|3:0,3:0:0:0:
209,154,102459,2,8,L|199:236,1,80,8|8,3:0|3:0,3:0:0:0:
107,263,102630,5,0,3:0:0:0:
228,312,102802,2,0,P|251:297|286:289,1,47.9999985351563,0|0,3:0|3:0,3:0:0:0:
339,216,102973,1,0,3:0:0:0:
194,228,103145,5,0,3:0:0:0:
239,215,103231,1,0,3:0:0:0:
269,178,103316,1,0,3:0:0:0:
135,40,103487,1,0,3:0:0:0:
43,209,103659,6,2,L|44:267,3,47.9999985351563,2|2|2|2,3:0|3:0|3:0|3:0,3:0:0:0:
48,353,104002,5,0,3:0:0:0:
127,178,104173,1,0,3:0:0:0:
298,265,104345,5,0,3:0:0:0:
219,90,104516,1,0,3:0:0:0:
405,131,104687,6,0,P|389:170|386:195,1,47.9999985351563,0|0,3:0|3:0,3:0:0:0:
392,287,104859,5,0,3:0:0:0:
393,278,104945,1,0,3:0:0:0:
402,231,105030,6,8,B|370:190|370:190|315:167,1,95.9999970703126,8|8,3:0|3:0,3:0:0:0:
52,71,105373,5,2,3:0:0:0:
62,103,105458,1,0,3:0:0:0:
67,136,105544,1,0,3:0:0:0:
67,169,105630,1,0,3:0:0:0:
62,202,105716,2,0,P|53:237|44:257,1,47.9999985351563,2|0,3:0|3:0,3:0:0:0:
130,298,105887,2,0,P|138:275|143:252,1,47.9999985351563,0|0,3:0|3:0,3:0:0:0:
234,216,106059,6,0,P|243:250|245:272,1,47.9999985351563,2|0,3:0|3:0,3:0:0:0:
341,265,106230,2,0,P|337:241|329:218,1,47.9999985351563,0|0,3:0|3:0,3:0:0:0:
387,139,106402,5,2,3:0:0:0:
349,129,106487,1,0,3:0:0:0:
313,116,106573,1,0,3:0:0:0:
279,99,106659,1,0,3:0:0:0:
246,79,106745,2,0,P|211:83|179:79,1,47.9999985351563,2|0,3:0|3:0,3:0:0:0:
55,63,106916,2,0,P|86:87|110:100,1,47.9999985351563,0|0,3:0|3:0,3:0:0:0:
185,260,107087,6,0,P|152:245|127:225,1,47.9999985351563,2|0,3:0|3:0,3:0:0:0:
28,149,107259,2,0,P|42:185|65:200,1,47.9999985351563,0|0,3:0|3:0,3:0:0:0:
72,287,107430,5,2,3:0:0:0:
119,288,107515,1,0,3:0:0:0:
167,289,107602,1,2,3:0:0:0:
215,291,107687,1,0,3:0:0:0:
307,321,107773,5,2,3:0:0:0:
310,273,107858,1,0,3:0:0:0:
322,226,107944,1,2,3:0:0:0:
342,183,108030,1,0,3:0:0:0:
371,144,108116,2,8,L|413:136,14,23.9999992675781,10|8|8|8|8|8|8|8|8|8|8|8|8|8|8,3:0|3:0|3:0|3:0|3:0|3:0|3:0|3:0|3:0|3:0|3:0|3:0|3:0|3:0|3:0,3:0:0:0:
273,149,108802,6,8,P|197:146|137:111,1,143.999995605469,8|8,3:0|3:0,3:0:0:0:
82,35,109145,5,0,1:0:0:0:
33,87,109230,5,0,1:0:0:0:
17,156,109316,5,0,1:0:0:0:
37,225,109402,5,0,1:0:0:0:
88,274,109487,5,0,1:0:0:0:
220,89,110516,6,2,P|128:138|148:210,1,160
223,179,110859,5,4,3:0:0:0:
56,69,111030,2,0,L|60:120,1,40,0|0,3:0|3:0,3:0:0:0:
67,289,111202,1,0,3:0:0:0:
284,113,111373,1,0,3:0:0:0:
359,273,111545,6,0,B|352:232|352:232|359:183|346:138,1,120,0|0,3:0|3:0,3:0:0:0:
337,82,112059,1,0,0:0:0:0:
157,63,112230,6,0,P|139:86|102:102,1,60.0000022888184
28,188,112402,2,0,P|81:188|125:208,1,80
156,289,112573,2,0,P|187:248|237:222,1,80
266,124,112745,5,0,0:0:0:0:
298,146,112830,1,0,0:0:0:0:
320,179,112916,1,0,0:0:0:0:
122,314,113087,2,0,L|162:283,1,40
238,328,113259,2,0,P|201:281|197:249,1,80
74,55,113602,6,0,P|124:69|152:71,1,60.0000022888184,0|0,3:0|3:0,3:0:0:0:
282,80,113773,2,0,P|328:83|360:73,1,60.0000022888184,0|0,3:0|3:0,3:0:0:0:
476,162,113945,6,0,P|426:176|398:178,1,60.0000022888184,0|0,3:0|3:0,3:0:0:0:
271,208,114116,2,0,P|225:211|193:201,1,60.0000022888184,0|0,3:0|3:0,3:0:0:0:
51,191,114287,6,0,B|50:154|90:114|90:114|112:181|112:181|103:217,1,180.000006866455,0|0,3:0|3:0,3:0:0:0:
125,319,114802,2,0,P|177:306|195:308,1,60.0000022888184
301,327,114973,6,0,P|322:286|326:251,1,60.0000022888184
340,182,115145,1,0,0:0:0:0:
340,182,115230,1,0,0:0:0:0:
370,211,115316,2,0,B|301:222|301:222|253:202,1,120.000004577637
82,110,115659,6,0,P|107:148|116:175,1,60.0000022888184,2|0,0:0|0:0,0:0:0:0:
283,260,115830,1,0,0:0:0:0:
277,228,115916,1,0,0:0:0:0:
263,203,116002,2,2,P|238:165|229:138,1,60.0000022888184
82,250,116173,2,2,P|120:225|147:216,1,60.0000022888184
339,133,116345,5,0,3:0:0:0:
128,48,116516,1,0,3:0:0:0:
131,325,116687,1,0,3:0:0:0:
339,133,116859,1,0,3:0:0:0:
93,247,117030,2,0,B|113:225|159:227|187:253|187:253|261:223,1,180.000006866455,0|0,3:0|3:0,3:0:0:0:
89,97,117545,5,0,0:0:0:0:
88,276,117716,2,0,L|155:235,1,60.0000022888184
277,139,117887,2,2,B|257:125|222:120|222:120|201:137|183:166,1,120.000004577637
439,61,118230,5,0,0:0:0:0:
442,120,118315,1,0,0:0:0:0:
461,177,118401,1,0,0:0:0:0:
346,316,118573,6,0,B|308:308|308:308|284:318,1,60.0000022888184
202,347,118745,1,0,0:0:0:0:
124,148,118916,1,0,0:0:0:0:
52,312,119087,5,0,3:0:0:0:
223,143,119259,1,0,3:0:0:0:
395,306,119430,1,0,3:0:0:0:
386,125,119602,6,0,P|347:143|266:130,1,120.000004577637
233,44,119859,2,0,L|240:124,1,60.0000022888184
62,147,120116,5,0,0:0:0:0:
98,195,120202,1,0,0:0:0:0:
93,254,120287,1,0,0:0:0:0:
151,267,120373,1,0,0:0:0:0:
191,311,120459,1,0,0:0:0:0:
344,119,120630,6,0,B|344:85|350:59|350:59|311:70|299:117,1,120.000004577637
222,222,120973,2,0,P|240:295|302:210,1,240.000009155274
282,90,121487,6,8,L|230:148,1,60.0000022888184
197,174,121659,1,8,0:0:0:0:
138,167,121744,1,8,0:0:0:0:
78,161,121829,1,12,0:0:0:0:
116,292,122002,6,0,P|168:273|203:276,1,68.0000012969971
356,263,122173,1,12,0:0:0:0:
341,77,122345,2,0,B|339:121|339:121|362:160,1,68.0000012969971
404,201,122516,6,0,P|445:209|503:270,2,120,12|0|0,0:0|0:0|0:0,0:0:0:0:
350,237,123116,1,0,3:0:0:0:
288,254,123202,1,4,3:0:0:0:
87,336,123373,6,0,P|73:289|78:253,1,68.0000012969971,8|0,0:0|0:0,0:0:0:0:
183,284,123545,2,0,P|203:230|200:193,1,68.0000012969971,8|0,0:0|0:0,0:0:0:0:
195,111,123716,5,8,0:0:0:0:
237,84,123887,5,8,0:0:0:0:
283,60,124059,6,0,L|298:131,1,68.0000012969971
366,168,124230,2,0,P|367:210|354:244,1,68.0000012969971
261,193,124402,2,0,P|253:241|264:282,1,68.0000012969971
364,310,124573,5,12,0:0:0:0:
244,355,124745,1,0,0:0:0:0:
216,86,124916,1,12,0:0:0:0:
96,131,125088,1,0,0:0:0:0:
345,92,125259,1,12,0:0:0:0:
144,262,125430,5,0,0:0:0:0:
138,309,125516,1,0,0:0:0:0:
314,235,125687,5,0,0:0:0:0:
352,263,125773,1,0,0:0:0:0:
320,72,125945,6,0,P|277:86|235:88,1,60.0000022888184,0|0,3:0|3:0,3:0:0:0:
170,59,126116,2,0,P|164:89|170:118,1,60.0000022888184,0|0,3:0|3:0,3:0:0:0:
111,194,126287,2,4,P|177:210|242:173,1,120.000004577637
411,151,126630,6,2,B|377:159|346:148|346:148|368:173|372:218,1,120.000004577637,2|2,3:0|3:0,3:0:0:0:
255,352,126973,6,0,P|235:315|239:279,1,60.0000022888184
50,242,127145,2,0,P|82:208|106:210,1,60.0000022888184
238,192,127316,5,0,0:0:0:0:
238,192,127487,1,0,0:0:0:0:
147,113,127659,2,0,B|131:146|137:170|146:194|125:247,1,120.000004577637,4|0,0:0|0:0,0:0:0:0:
197,331,128002,5,4,0:0:0:0:
218,309,128087,2,0,L|289:295,1,60.0000022888184
276,109,128259,1,4,0:0:0:0:
297,131,128345,2,0,L|368:145,1,60.0000022888184,4|0,0:0|0:0,0:0:0:0:
367,327,128516,2,0,L|437:291,1,60.0000022888184,4|0,0:0|0:0,0:0:0:0:
417,179,128687,5,0,0:0:0:0:
211,53,128859,2,2,P|183:75|133:88,1,80
61,73,129030,2,2,L|64:158,1,80
71,312,129373,5,0,0:0:0:0:
247,253,129545,1,0,0:0:0:0:
252,293,129631,1,0,0:0:0:0:
270,329,129716,1,0,0:0:0:0:
264,54,129887,2,8,P|277:89|300:127,1,60.0000022888184
406,296,130059,5,0,3:0:0:0:
403,91,130230,1,0,3:0:0:0:
451,206,130402,5,0,3:0:0:0:
225,313,130573,1,0,3:0:0:0:
106,296,130745,5,0,3:0:0:0:
109,91,130916,1,0,3:0:0:0:
19,144,131087,5,8,3:0:0:0:
57,178,131172,1,8,3:0:0:0:
106,191,131258,1,8,3:0:0:0:
156,178,131344,1,8,3:0:0:0:
194,144,131429,1,8,3:0:0:0:
339,321,131602,6,0,P|341:281|360:246,1,80
359,134,131944,5,0,0:0:0:0:
255,263,132116,2,0,P|232:236|202:222,1,60.0000022888184
170,110,132287,2,0,P|213:97|226:88,1,60.0000022888184
359,80,132459,2,0,B|368:133|365:177|359:223|379:269,1,160
384,331,132802,5,0,0:0:0:0:
241,259,132973,1,0,0:0:0:0:
71,262,133145,6,0,B|91:228|91:228|128:211,1,80
204,188,133487,1,0,0:0:0:0:
215,52,133659,2,0,P|261:69|270:69,1,40
327,86,133830,1,0,0:0:0:0:
270,225,134002,1,0,0:0:0:0:
385,234,134173,5,0,0:0:0:0:
267,136,134345,2,0,P|286:150|303:173,1,40
237,296,134516,1,0,0:0:0:0:
196,136,134687,1,0,0:0:0:0:
46,200,134859,5,2,0:0:0:0:
79,184,134945,2,2,P|74:236|94:271,1,80
159,213,135202,2,2,L|203:208,1,40
278,205,135373,2,2,L|327:212,1,40
397,227,135545,5,2,0:0:0:0:
258,306,135716,1,0,0:0:0:0:
338,303,135887,5,0,0:0:0:0:
181,266,136059,1,0,0:0:0:0:
142,111,136230,6,0,P|148:140|154:166,1,40
167,229,136402,2,0,P|177:261|186:277,1,40
226,332,136573,1,0,0:0:0:0:
370,261,136745,1,0,0:0:0:0:
369,99,136916,6,0,P|329:81|307:79,1,47.9999985351563
324,176,137087,2,0,P|286:199|264:206,1,47.9999985351563
243,110,137259,2,0,P|203:92|181:90,1,47.9999985351563
198,187,137430,2,0,P|160:210|138:217,1,47.9999985351563
101,130,137602,5,8,0:0:0:0:
143,316,137773,1,0,0:0:0:0:
335,311,137945,2,8,P|347:273|361:251,1,47.9999985351563,8|0,0:0|0:0,0:0:0:0:
196,130,138287,5,0,0:0:0:0:
383,85,138459,2,0,P|379:124|400:185,1,95.9999970703126
433,266,138802,1,0,0:0:0:0:
337,276,138973,5,0,0:0:0:0:
346,253,139059,2,0,L|288:251,1,47.9999985351563
207,217,139230,5,0,0:0:0:0:
198,194,139316,2,0,L|256:192,1,47.9999985351563
363,164,139487,2,0,L|301:155,1,47.9999985351563
240,61,139659,5,0,0:0:0:0:
107,116,139830,1,0,0:0:0:0:
168,252,140002,1,0,0:0:0:0:
224,118,140173,1,0,0:0:0:0:
339,246,140345,6,2,P|362:255|381:269,2,47.9999985351563
359,201,140602,1,2,0:0:0:0:
379,158,140687,2,2,P|356:149|337:135,1,47.9999985351563
263,92,140859,2,2,P|219:88|199:79,1,47.9999985351563
119,92,141030,5,2,0:0:0:0:
130,284,141202,1,0,0:0:0:0:
48,235,141373,6,0,L|99:211,1,47.9999985351563
179,172,141545,2,0,L|228:149,1,47.9999985351563
309,109,141716,5,0,0:0:0:0:
297,300,141887,1,0,0:0:0:0:
302,203,142059,2,0,P|252:210|209:253,1,95.9999970703126
99,59,142402,5,0,0:0:0:0:
81,103,142487,1,0,0:0:0:0:
119,130,142573,1,0,0:0:0:0:
110,177,142659,1,0,0:0:0:0:
149,203,142745,1,0,0:0:0:0:
279,62,142916,1,0,0:0:0:0:
253,310,143087,6,0,P|277:288|289:257,1,47.9999985351563
335,191,143259,2,0,P|353:150|355:132,1,47.9999985351563
414,328,143430,2,0,P|419:300|408:229,1,95.9999970703126
241,192,143773,5,4,0:0:0:0:
147,81,143945,1,0,0:0:0:0:
70,256,144116,5,0,0:0:0:0:
58,277,144202,2,0,P|90:274|124:284,1,47.9999985351563
288,218,144459,5,0,0:0:0:0:
300,239,144545,2,0,P|268:236|234:246,1,47.9999985351563
117,101,144802,6,0,B|129:119|130:150|130:150|163:146|191:150,1,95.9999970703126
366,129,145145,5,0,0:0:0:0:
327,316,145316,2,0,P|292:303|264:308,1,47.9999985351563
240,242,145487,2,0,P|262:232|286:231,1,47.9999985351563
208,177,145659,2,0,P|179:200|170:227,1,47.9999985351563
111,174,145830,1,0,0:0:0:0:
198,58,146002,5,2,0:0:0:0:
267,74,146087,1,2,0:0:0:0:
337,56,146173,2,2,L|386:88,1,47.9999985351563
349,149,146345,2,2,L|355:201,1,47.9999985351563
282,188,146516,6,0,L|256:282,1,95.9999970703126
115,199,146859,1,0,0:0:0:0:
256,280,147031,1,0,0:0:0:0:
123,307,147202,6,0,P|95:336|86:354,2,47.9999985351563
163,281,147459,1,0,0:0:0:0:
208,265,147545,2,0,P|245:255|261:255,1,47.9999985351563
255,158,147716,2,0,P|293:161|308:166,1,47.9999985351563
393,196,147887,5,0,0:0:0:0:
268,342,148059,1,0,0:0:0:0:
362,325,148230,1,0,0:0:0:0:
206,217,148402,1,0,0:0:0:0:
190,315,148573,5,0,0:0:0:0:
226,125,148744,1,0,0:0:0:0:
86,275,148916,2,8,P|100:231|115:215,1,47.9999985351563
160,154,149087,2,8,P|186:128|205:119,1,47.9999985351563
289,98,149259,5,0,3:0:0:0:
329,285,149430,1,0,3:0:0:0:
413,167,149602,1,0,3:0:0:0:
289,98,149773,5,0,3:0:0:0:
264,76,149859,1,0,3:0:0:0:
241,55,149945,1,0,3:0:0:0:
188,219,150116,1,0,3:0:0:0:
311,178,150287,1,0,3:0:0:0:
257,342,150459,1,0,3:0:0:0:
94,285,150630,5,0,3:0:0:0:
77,112,150802,1,0,3:0:0:0:
251,239,150973,1,0,3:0:0:0:
83,193,151145,5,0,3:0:0:0:
105,183,151230,1,0,3:0:0:0:
127,174,151316,1,0,3:0:0:0:
315,319,151487,1,0,3:0:0:0:
338,48,151659,1,0,3:0:0:0:
101,312,151830,1,0,3:0:0:0:
340,289,152002,6,0,P|357:248|341:195,1,95.9999970703126,0|0,1:0|1:0,1:0:0:0:
258,213,152259,2,0,L|310:202,1,47.9999985351563,0|0,1:0|1:0,1:0:0:0:
407,63,152516,1,0,1:0:0:0:
237,96,152687,6,0,P|208:105|139:99,1,95.9999970703126,0|0,1:0|1:0,1:0:0:0:
91,29,152945,2,0,P|115:52|119:72,1,47.9999985351563,0|0,1:0|1:0,1:0:0:0:
107,238,153202,5,0,1:0:0:0:
107,238,153287,1,0,1:0:0:0:
107,238,153373,1,2,1:0:0:0:
153,227,153458,1,0,1:0:0:0:
201,225,153544,1,0,1:0:0:0:
249,231,153630,1,0,1:0:0:0:
293,250,153716,6,0,P|284:278|270:299,1,47.9999985351563,2|0,1:0|1:0,1:0:0:0:
369,194,153887,2,0,P|375:227|371:258,1,47.9999985351563,0|0,1:0|1:0,1:0:0:0:
390,100,154059,6,8,L|426:108,6,23.9999992675781,8|8|8|8|8|8|8,1:0|1:0|1:0|1:0|1:0|1:0|1:0,1:0:0:0:
295,83,154402,5,8,1:0:0:0:
288,130,154487,5,8,1:0:0:0:
282,178,154573,5,8,1:0:0:0:
275,225,154659,5,8,1:0:0:0:
269,273,154745,5,14,1:0:0:0:
130,216,165716,6,0,B|125:171|95:93|30:140|44:202|126:171|150:140|167:98|167:98|180:114|218:133|250:132|250:132|295:119,1,360.000013732911
400,68,167087,6,0,B|373:232|373:232|339:173|339:173|290:189|290:189|302:204|303:247|286:260,1,360.000013732911
99,248,168459,6,0,B|163:243|220:228|220:228|218:257|201:297|201:297|242:304|260:344|260:344|302:320|345:350,1,360.000013732911
446,111,169830,6,0,B|463:177|463:177|444:161|411:156|379:169|379:169|395:148|396:109|375:79,1,240.000009155274
298,128,170687,5,0,0:0:0:0:
209,143,170859,1,0,0:0:0:0:
119,141,171030,1,0,0:0:0:0:
40,95,171202,6,0,P|40:153|30:208,1,95.9999970703126
14,333,171545,1,0,0:0:0:0:
151,291,171716,6,0,P|186:282|254:295,1,95.9999970703126
383,330,172059,1,0,0:0:0:0:
372,186,172230,2,0,B|356:144|344:66|344:66|334:99|302:131,1,191.999994140625
224,242,172745,5,0,0:0:0:0:
82,216,172916,1,0,0:0:0:0:
176,108,173087,1,0,0:0:0:0:
180,342,173259,5,0,0:0:0:0:
134,207,173430,1,0,0:0:0:0:
339,320,173602,5,0,0:0:0:0:
199,293,173773,1,0,0:0:0:0:
256,192,173945,12,0,176345,0:0:0:0:
116,87,176687,5,0,0:0:0:0:
122,166,176859,1,0,0:0:0:0:
192,203,177030,1,0,0:0:0:0:
320,48,177202,5,0,0:0:0:0:
240,59,177374,1,0,0:0:0:0:
192,122,177545,1,0,0:0:0:0:
192,281,177716,5,0,0:0:0:0:
351,278,177887,2,0,P|311:292|193:282,1,160
257,134,178402,5,0,0:0:0:0:
364,81,178573,1,0,0:0:0:0:
272,159,178745,5,0,0:0:0:0:
411,236,178916,1,0,0:0:0:0:
256,191,179087,5,0,0:0:0:0:
278,266,179259,2,0,P|255:267|227:275,1,40
119,283,179430,6,0,P|129:269|113:211,1,80
58,62,179773,1,0,0:0:0:0:
58,62,179945,2,0,P|131:68|187:78,1,120
254,94,180287,5,0,0:0:0:0:
333,103,180459,1,0,0:0:0:0:
411,119,180630,1,0,0:0:0:0:
395,197,180802,2,0,P|393:237|409:290,1,80
243,300,181145,5,0,0:0:0:0:
371,205,181316,2,0,P|333:163|330:207,1,120
348,273,181658,5,0,0:0:0:0:
193,227,181830,1,0,0:0:0:0:
165,344,182002,1,0,0:0:0:0:
54,228,182173,5,0,0:0:0:0:
134,226,182345,1,0,0:0:0:0:
214,222,182516,1,0,0:0:0:0:
356,292,182687,5,0,0:0:0:0:
342,213,182859,1,0,0:0:0:0:
327,134,183030,1,0,0:0:0:0:
214,222,183202,1,0,0:0:0:0:
262,70,183373,6,0,B|215:90|215:90|179:90|179:90|146:77,1,120
71,56,183716,1,0,0:0:0:0:
82,175,183887,1,0,0:0:0:0:
239,145,184059,5,0,0:0:0:0:
217,262,184230,1,0,0:0:0:0:
363,197,184402,1,0,0:0:0:0:
363,197,184573,5,0,0:0:0:0:
279,59,184745,1,0,0:0:0:0:
239,61,184830,1,0,0:0:0:0:
199,60,184916,2,0,P|191:87|153:130,1,80
45,169,185259,5,0,0:0:0:0:
89,279,185430,2,0,P|119:255|204:259,1,120
248,286,185773,1,0,0:0:0:0:
328,124,185945,1,0,0:0:0:0:
376,233,186116,6,0,L|325:226,1,40
277,215,186287,1,0,0:0:0:0:
103,91,186459,6,0,P|115:130|112:153,1,47.9999985351563
196,85,186630,2,0,P|205:107|208:133,1,47.9999985351563
282,67,186802,2,0,B|303:93|300:149|300:149|327:139|375:163|360:214,1,191.999994140625
225,327,187316,5,0,0:0:0:0:
96,185,187487,1,0,0:0:0:0:
119,189,187572,1,0,0:0:0:0:
143,192,187659,2,0,B|201:170|201:170|263:191,1,120.000004577637,6|0,0:0|0:0,0:0:0:0:
383,109,188173,6,0,B|403:88|420:62|420:62|418:113|422:130,1,120.000004577637,6|0,0:0|0:0,0:0:0:0:
443,248,188687,2,0,P|405:248|268:295,1,180.000006866455,6|0,0:0|0:0,0:0:0:0:
135,356,189373,5,0,0:0:0:0:
107,207,189545,1,0,0:0:0:0:
98,178,189630,1,0,0:0:0:0:
80,155,189716,2,0,P|107:170|138:174,1,60.0000022888184
283,145,190059,6,8,L|285:119,6,15.0000005722046
273,219,190402,6,0,B|273:273|266:319|266:319|286:300,1,120.000004577637,6|0,0:0|0:0,0:0:0:0:
421,253,190916,2,0,P|419:231|341:165,1,120.000004577637,6|0,0:0|0:0,0:0:0:0:
205,195,191430,1,0,0:0:0:0:
303,81,191602,1,0,0:0:0:0:
205,195,191773,6,0,P|197:260|151:299,1,120.000004577637,6|0,0:0|0:0,0:0:0:0:
32,216,192287,2,0,B|85:211|124:218|124:218|113:191,1,120.000004577637,6|0,0:0|0:0,0:0:0:0:
88,43,192802,6,0,L|128:57,1,30.0000011444092,0|0,3:0|3:0,3:0:0:0:
188,74,192973,2,0,L|224:70,1,30.0000011444092,0|0,3:0|3:0,3:0:0:0:
287,40,193145,6,0,B|326:53|369:45|369:45|350:71|347:85,1,120.000004577637,6|0,0:0|0:0,0:0:0:0:
241,180,193659,2,0,P|206:215|253:223,1,120.000004577637,6|0,0:0|0:0,0:0:0:0:
397,179,194173,2,0,P|335:186|268:177,1,120.000004577637,6|0,0:0|0:0,0:0:0:0:
143,110,194687,5,0,0:0:0:0:
143,110,194859,1,0,0:0:0:0:
131,259,195030,1,0,0:0:0:0:
131,259,195202,1,0,0:0:0:0:
267,198,195373,6,0,P|254:188|240:169,1,30.0000011444092
267,198,195545,2,2,P|209:212|156:248,1,120.000004577637
32,325,195887,6,0,P|46:283|51:265,1,60.0000022888184,6|0,0:0|0:0,0:0:0:0:
40,117,196230,1,0,0:0:0:0:
133,235,196402,2,0,B|158:263|158:263|158:218|176:178,1,120.000004577637,6|0,0:0|0:0,0:0:0:0:
262,60,196916,6,0,P|288:90|313:102,1,47.9999985351563
385,78,197087,2,0,P|381:110|386:135,1,47.9999985351563
419,241,197259,5,6,0:0:0:0:
299,227,197430,1,0,0:0:0:0:
182,251,197602,1,0,0:0:0:0:
65,224,197773,2,0,B|77:201|77:97|77:97|94:119|144:116,1,191.999994140625,6|0,0:0|0:0,0:0:0:0:
319,174,198287,5,8,3:0:0:0:
297,135,198372,1,8,3:0:0:0:
329,104,198458,1,8,3:0:0:0:
367,127,198544,1,8,3:0:0:0:
353,170,198629,1,10,3:0:0:0:
216,288,198802,6,0,L|276:286,1,47.9999985351563
347,281,198973,1,8,0:0:0:0:
177,112,199145,5,0,0:0:0:0:
368,100,199316,1,0,0:0:0:0:
163,216,199488,1,0,0:0:0:0:
394,208,199659,1,8,0:0:0:0:
265,80,199830,2,0,B|264:110|271:147|279:166|275:196,1,95.9999970703126
293,285,200173,5,0,0:0:0:0:
293,285,200259,1,0,0:0:0:0:
293,285,200345,1,8,0:0:0:0:
101,287,200516,2,0,P|139:267|182:235,1,95.9999970703126
161,91,200859,6,0,P|190:82|218:78,1,47.9999985351563
347,95,201030,5,8,0:0:0:0:
302,80,201115,1,0,0:0:0:0:
254,74,201201,1,0,0:0:0:0:
206,78,201287,1,0,0:0:0:0:
161,92,201372,1,0,0:0:0:0:
261,212,201545,5,0,0:0:0:0:
359,318,201716,1,8,0:0:0:0:
445,203,201887,2,0,P|377:209|338:209,1,95.9999970703126
236,118,202230,5,0,0:0:0:0:
250,163,202315,1,0,0:0:0:0:
257,211,202401,1,8,0:0:0:0:
80,213,202573,1,0,0:0:0:0:
233,271,202745,5,0,0:0:0:0:
96,316,202916,2,0,P|98:284|86:250,1,47.9999985351563
122,127,203087,2,0,P|130:164|126:186,1,47.9999985351563,8|0,0:0|0:0,0:0:0:0:
187,301,203259,2,0,P|189:269|177:235,1,47.9999985351563
237,117,203430,6,0,B|244:151|241:183|241:183|257:170|271:169,1,95.9999970703126
382,82,203773,1,8,0:0:0:0:
382,226,203945,2,0,P|342:242|330:240,1,47.9999985351563
254,292,204116,6,0,P|290:262|343:239,1,95.9999970703126
200,102,204459,2,0,L|150:128,1,47.9999985351563,8|0,0:0|0:0,0:0:0:0:
76,176,204630,6,0,P|106:212|129:265,1,95.9999970703126
304,181,204973,1,0,0:0:0:0:
138,138,205145,1,8,0:0:0:0:
309,24,205316,2,0,P|315:82|309:129,1,95.9999970703126
167,297,205659,5,0,0:0:0:0:
135,314,205745,1,0,0:0:0:0:
99,321,205830,1,8,0:0:0:0:
64,180,206002,2,0,P|134:166|174:173,1,95.9999970703126
257,64,206345,5,0,0:0:0:0:
262,97,206430,1,0,0:0:0:0:
275,128,206516,2,2,P|290:153|346:197,1,95.9999970703126,8|0,0:0|0:0,0:0:0:0:
426,78,206859,5,0,0:0:0:0:
383,289,207030,1,0,0:0:0:0:
460,166,207202,5,8,0:0:0:0:
254,237,207373,2,0,P|333:189|336:137,1,143.999995605469
323,73,207716,1,0,0:0:0:0:
259,157,207887,1,8,0:0:0:0:
146,66,208059,5,0,0:0:0:0:
130,84,208144,1,0,0:0:0:0:
115,103,208230,2,0,P|117:136|107:162,1,47.9999985351563
200,215,208402,2,0,P|201:250|210:269,1,47.9999985351563
235,83,208573,2,0,P|236:115|226:141,1,47.9999985351563
319,194,208745,2,0,P|320:229|329:248,1,47.9999985351563
362,64,208916,6,0,P|351:92|339:119,1,47.9999985351563
193,167,209087,2,0,L|200:219,1,47.9999985351563
364,303,209259,2,0,P|325:292|171:309,1,160
64,321,209602,1,0,3:0:0:0:
79,107,209773,5,0,3:0:0:0:
78,121,209859,1,0,3:0:0:0:
86,132,209945,1,0,3:0:0:0:
85,146,210030,1,0,3:0:0:0:
93,157,210116,2,0,P|91:186|79:215,1,47.9999985351563,0|0,3:0|3:0,3:0:0:0:
80,220,210287,1,0,3:0:0:0:
150,294,210459,5,0,3:0:0:0:
150,294,210545,2,0,P|190:276|202:281,1,47.9999985351563,0|0,3:0|3:0,3:0:0:0:
272,224,210716,5,0,3:0:0:0:
272,224,210802,2,0,P|232:206|220:211,1,47.9999985351563,0|0,3:0|3:0,3:0:0:0:
153,65,210973,1,0,3:0:0:0:
234,46,211145,6,0,P|243:68|246:91,1,47.9999985351563,0|0,3:0|3:0,3:0:0:0:
162,119,211316,2,0,P|171:140|171:164,1,47.9999985351563,0|0,3:0|3:0,3:0:0:0:
333,89,211487,2,0,P|343:118|344:143,1,47.9999985351563,0|0,3:0|3:0,3:0:0:0:
258,139,211658,1,0,3:0:0:0:
356,317,211830,6,0,P|319:309|298:309,1,47.9999985351563,0|0,2:0|2:0,2:0:0:0:
160,119,212002,1,0,2:0:0:0:
211,304,212173,1,0,2:0:0:0:
351,136,212345,5,0,3:0:0:0:
330,123,212430,1,0,3:0:0:0:
308,114,212516,1,0,3:0:0:0:
284,110,212602,1,0,3:0:0:0:
260,109,212687,1,0,3:0:0:0:
306,296,212859,1,0,3:0:0:0:
172,159,213030,6,0,P|201:170|227:168,1,47.9999985351563,0|0,3:0|3:0,3:0:0:0:
310,159,213202,2,0,P|281:170|255:168,1,47.9999985351563,0|0,3:0|3:0,3:0:0:0:
172,229,213373,2,0,P|201:218|227:220,1,47.9999985351563,0|0,3:0|3:0,3:0:0:0:
310,229,213545,2,0,P|281:218|255:220,1,47.9999985351563,0|0,3:0|3:0,3:0:0:0:
391,253,213716,5,0,3:0:0:0:
403,232,213801,1,0,3:0:0:0:
411,209,213887,1,0,3:0:0:0:
415,186,213973,1,0,3:0:0:0:
414,162,214059,1,0,3:0:0:0:
380,158,214144,1,0,3:0:0:0:
346,155,214230,1,0,3:0:0:0:
313,147,214316,1,0,3:0:0:0:
282,134,214401,1,0,3:0:0:0:
104,61,214573,6,0,L|91:113,1,47.9999985351563,0|0,2:0|2:0,2:0:0:0:
54,200,214745,2,0,L|78:204,4,23.9999992675781,0|0|0|0|0,2:0|2:0|2:0|2:0|2:0,2:0:0:0:
226,323,215087,6,0,P|266:307|337:299,1,95.9999970703126,0|0,3:0|3:0,3:0:0:0:
382,225,215345,1,0,3:0:0:0:
382,225,215430,2,0,P|346:211|325:195,1,47.9999985351563,0|0,3:0|3:0,3:0:0:0:
240,203,215602,2,0,P|279:170|284:159,1,47.9999985351563,0|0,3:0|3:0,3:0:0:0:
350,111,215773,5,0,3:0:0:0:
316,108,215858,1,0,3:0:0:0:
283,101,215944,1,0,3:0:0:0:
251,92,216030,1,0,3:0:0:0:
219,80,216116,2,0,P|198:103|184:115,1,47.9999985351563,0|0,3:0|3:0,3:0:0:0:
92,86,216287,2,0,P|93:128|91:144,1,47.9999985351563,0|0,3:0|3:0,3:0:0:0:
9,185,216459,5,0,3:0:0:0:
168,285,216630,1,0,3:0:0:0:
134,283,216715,1,0,3:0:0:0:
102,294,216801,1,0,3:0:0:0:
218,154,216973,1,0,3:0:0:0:
229,88,217145,6,0,B|192:105|192:105|216:128|219:165,1,95.9999970703126,0|0,3:0|3:0,3:0:0:0:
398,39,217487,6,0,P|409:70|411:88,1,47.9999985351563
329,138,217659,2,0,P|331:173|338:199,1,47.9999985351563
425,213,217830,5,0,3:0:0:0:
403,255,217915,1,0,3:0:0:0:
361,277,218001,1,0,3:0:0:0:
171,305,218173,6,0,P|220:290|271:290,1,95.9999970703126,0|0,3:0|3:0,3:0:0:0:
207,104,218516,5,0,3:0:0:0:
159,104,218601,1,0,3:0:0:0:
113,118,218687,1,0,3:0:0:0:
73,144,218773,1,0,3:0:0:0:
41,180,218859,2,0,P|49:208|42:240,1,47.9999985351563,0|0,3:0|3:0,3:0:0:0:
190,244,219030,2,0,P|193:284|187:308,1,47.9999985351563,0|0,3:0|3:0,3:0:0:0:
374,229,219202,5,0,3:0:0:0:
198,65,219373,1,0,3:0:0:0:
157,301,219545,2,0,P|202:270|76:199,1,287.999991210938,0|0,3:0|3:0,3:0:0:0:
92,243,220145,5,0,0:0:0:0:
140,231,220230,1,0,0:0:0:0:
186,218,220315,1,0,0:0:0:0:
232,206,220401,1,0,0:0:0:0:
279,194,220487,1,0,0:0:0:0:
325,181,220572,1,0,3:0:0:0:
236,353,220745,5,0,3:0:0:0:
162,124,220916,1,0,3:0:0:0:
329,217,221087,1,0,3:0:0:0:
104,303,221259,5,0,3:0:0:0:
162,124,221430,1,0,3:0:0:0:
305,251,221602,2,8,L|342:248,6,23.9999992675781,8|8|8|8|8|8|8,3:0|3:0|3:0|3:0|3:0|3:0|3:0,3:0:0:0:
208,249,221945,5,0,3:0:0:0:
116,196,222116,1,0,3:0:0:0:
29,135,222287,5,0,3:0:0:0:
217,94,222459,1,0,3:0:0:0:
386,29,222630,5,0,3:0:0:0:
427,217,222802,1,0,3:0:0:0:
250,142,222973,2,2,L|243:103,2,23.9999992675781,2|2|2,3:0|3:0|3:0,3:0:0:0:
321,210,223145,2,2,L|324:248,2,23.9999992675781,2|2|2,3:0|3:0|3:0,3:0:0:0:
225,229,223316,5,0,3:0:0:0:
47,300,223487,1,0,3:0:0:0:
142,313,223659,1,0,3:0:0:0:
93,176,223830,1,0,3:0:0:0:
281,160,224002,5,0,3:0:0:0:
435,88,224173,1,0,3:0:0:0:
247,74,224345,5,0,2:0:0:0:
253,102,224430,1,0,2:0:0:0:
256,130,224516,1,0,2:0:0:0:
257,159,224602,1,0,2:0:0:0:
230,198,224687,6,0,P|262:199|282:208,1,47.9999985351563,0|0,3:0|3:0,3:0:0:0:
366,241,224859,1,0,3:0:0:0:
356,145,225030,1,0,3:0:0:0:
257,309,225201,1,0,3:0:0:0:
65,289,225373,6,0,B|99:233|99:233|146:209,1,95.9999970703126
213,259,225630,2,0,P|219:211|202:165,1,95.9999970703126
127,107,225887,2,0,L|188:82,1,47.9999985351563
261,50,226059,5,2,3:0:0:0:
307,61,226144,1,0,3:0:0:0:
354,72,226230,1,0,3:0:0:0:
401,83,226316,1,0,3:0:0:0:
453,58,226402,2,0,P|459:100|472:116,1,47.9999985351563,2|0,3:0|3:0,3:0:0:0:
407,183,226573,2,0,P|410:223|419:246,1,47.9999985351563,0|0,3:0|3:0,3:0:0:0:
463,313,226745,6,0,P|422:313|397:322,1,47.9999985351563,2|0,3:0|3:0,3:0:0:0:
331,362,226916,2,0,P|298:357|277:346,1,47.9999985351563,0|0,3:0|3:0,3:0:0:0:
188,343,227087,1,2,3:0:0:0:
213,302,227172,1,0,3:0:0:0:
239,261,227258,1,2,3:0:0:0:
264,221,227344,1,0,3:0:0:0:
290,180,227430,6,0,P|246:170|223:170,1,47.9999985351563,2|0,3:0|3:0,3:0:0:0:
146,165,227602,2,0,P|103:162|79:169,1,47.9999985351563,0|0,3:0|3:0,3:0:0:0:
38,87,227773,6,0,P|82:76|105:76,1,47.9999985351563,2|0,3:0|3:0,3:0:0:0:
182,71,227945,2,0,P|225:68|249:75,1,47.9999985351563,0|0,3:0|3:0,3:0:0:0:
323,49,228116,5,2,3:0:0:0:
342,70,228201,1,0,3:0:0:0:
361,91,228287,1,2,3:0:0:0:
381,112,228373,1,0,3:0:0:0:
400,134,228459,1,2,3:0:0:0:
386,170,228544,1,0,3:0:0:0:
380,207,228630,1,2,3:0:0:0:
379,246,228716,1,0,3:0:0:0:
385,283,228802,6,0,P|341:293|321:308,1,47.9999985351563,0|0,1:0|1:0,1:0:0:0:
138,290,228973,2,0,P|186:291|197:297,1,47.9999985351563,0|0,1:0|1:0,1:0:0:0:
318,196,229145,6,0,P|274:206|254:221,1,47.9999985351563,0|0,1:0|1:0,1:0:0:0:
175,202,229316,2,0,P|223:203|234:209,1,47.9999985351563,0|0,1:0|1:0,1:0:0:0:
258,113,229487,5,0,1:0:0:0:
211,101,229572,1,0,1:0:0:0:
164,90,229658,1,0,1:0:0:0:
117,79,229744,1,0,1:0:0:0:
71,68,229830,1,8,1:0:0:0:
95,121,229915,5,8,1:0:0:0:
109,176,230001,5,8,1:0:0:0:
112,234,230087,5,8,1:0:0:0:
104,291,230172,5,8,1:0:0:0:
237,160,231202,6,6,P|248:103|106:87,1,240
110,80,231545,6,0,P|118:117|110:167,1,80,6|0,0:0|0:0,0:0:0:0:
79,231,231716,1,0,0:0:0:0:
79,231,231802,2,0,P|120:237|160:222,1,80
197,155,231973,1,0,0:0:0:0:
197,155,232059,2,0,P|227:187|234:239,1,80
231,301,232230,5,0,0:0:0:0:
231,301,232316,1,0,0:0:0:0:
231,301,232402,2,0,P|304:293|312:294,1,80
389,305,232573,2,0,L|395:209,1,80
396,144,232745,2,0,P|384:98|364:62,1,80
288,68,232916,6,0,B|244:70|244:70|218:95,1,80
164,154,233087,1,0,0:0:0:0:
164,154,233173,1,0,0:0:0:0:
164,154,233259,6,0,L|173:240,1,80
242,273,233430,2,0,L|338:235,1,80
319,162,233602,6,0,L|244:191,1,80
249,110,233773,2,0,L|323:80,1,80
262,25,233945,5,0,0:0:0:0:
262,25,234030,1,0,0:0:0:0:
262,25,234116,2,0,P|222:26|187:45,1,80
156,89,234287,5,0,0:0:0:0:
145,270,234459,1,0,0:0:0:0:
181,253,234545,1,0,0:0:0:0:
220,257,234630,2,0,P|252:274|305:265,1,80
267,193,234802,2,0,P|297:173|316:123,1,80
236,121,234973,6,0,P|204:104|151:113,1,80
189,185,235145,2,0,P|158:204|139:254,1,80
69,273,235316,5,0,0:0:0:0:
100,308,235401,1,0,0:0:0:0:
146,318,235487,1,0,0:0:0:0:
189,300,235573,1,0,0:0:0:0:
213,259,235659,2,0,P|165:228|153:197,1,80
228,112,235830,5,0,0:0:0:0:
228,112,235916,2,0,P|216:161|237:204,1,80
295,151,236087,1,0,0:0:0:0:
295,151,236173,2,0,P|307:200|286:243,1,80
273,304,236345,6,0,P|325:306|369:325,1,80
427,338,236516,1,0,0:0:0:0:
427,338,236602,2,0,L|413:246,1,80
345,219,236773,1,0,0:0:0:0:
340,217,236859,2,0,L|354:125,1,80
429,117,237030,5,0,0:0:0:0:
284,48,237202,1,0,0:0:0:0:
249,68,237287,1,0,0:0:0:0:
211,80,237373,1,0,0:0:0:0:
171,83,237459,1,0,0:0:0:0:
131,76,237545,1,0,0:0:0:0:
136,116,237630,1,0,0:0:0:0:
134,156,237716,1,0,0:0:0:0:
41,285,237887,6,0,P|92:268|113:243,1,80
158,315,238059,2,0,P|187:269|187:236,1,80
265,265,238230,2,0,P|257:211|236:185,1,80
185,133,238402,5,0,0:0:0:0:
221,117,238487,1,0,0:0:0:0:
258,102,238573,1,0,0:0:0:0:
295,87,238659,1,0,0:0:0:0:
332,71,238745,1,0,0:0:0:0:
351,115,238830,1,0,0:0:0:0:
371,159,238916,1,0,0:0:0:0:
390,203,239002,1,0,0:0:0:0:
409,247,239087,1,0,0:0:0:0:
270,328,239259,6,0,P|222:316|184:324,1,80
230,250,239430,2,0,P|182:238|144:246,1,80
195,173,239602,2,0,P|147:161|109:169,1,80
94,88,239773,6,0,P|114:143|116:182,1,80
86,239,239945,1,0,0:0:0:0:
112,255,240030,2,0,P|157:245|198:250,1,80
248,305,240202,5,0,0:0:0:0:
287,311,240288,2,0,B|317:280|317:280|316:235,1,80
292,157,240460,5,0,0:0:0:0:
292,157,240545,2,0,P|266:196|222:211,1,80
160,184,240716,2,0,P|186:145|230:130,1,80
210,51,240887,5,0,0:0:0:0:
251,58,240973,1,0,0:0:0:0:
290,64,241059,1,0,0:0:0:0:
328,74,241145,2,0,P|342:122|358:154,1,80
274,146,241316,2,0,P|260:194|244:226,1,80
326,214,241487,2,0,P|340:262|356:294,1,80
272,286,241659,2,0,P|258:334|239:366,1,80
137,238,241830,6,8,P|125:286|122:322,1,80
60,135,242001,2,0,L|57:215,1,80,8|0,0:0|0:0,0:0:0:0:
197,186,242173,2,8,P|169:213|136:237,1,80
293,74,242516,6,0,P|243:59|182:63,2,80,6|0|0,0:0|0:0|0:0,0:0:0:0:
367,104,242773,1,0,0:0:0:0:
367,104,242859,2,0,B|368:152|363:181|363:181|354:172,1,80
284,155,243030,2,0,B|283:203|288:232|288:232|297:223,1,80
371,231,243202,1,0,0:0:0:0:
279,278,243373,5,0,0:0:0:0:
242,261,243458,1,0,0:0:0:0:
203,254,243544,1,0,0:0:0:0:
163,258,243630,1,0,0:0:0:0:
125,271,243715,1,0,0:0:0:0:
73,119,243887,6,0,B|100:75|100:75|129:57,1,80
160,132,244059,2,0,B|184:117|184:117|211:73,1,80
236,42,244230,1,0,0:0:0:0:
273,56,244315,1,0,0:0:0:0:
310,71,244401,1,0,0:0:0:0:
347,85,244487,1,0,0:0:0:0:
384,100,244572,1,0,0:0:0:0:
377,300,244745,6,0,P|320:285|289:300,1,80
152,232,244916,2,0,P|209:217|240:232,1,80
371,153,245087,2,0,P|314:138|283:153,1,80
152,69,245259,5,0,0:0:0:0:
191,74,245344,1,0,0:0:0:0:
231,72,245430,1,0,0:0:0:0:
270,63,245516,1,0,0:0:0:0:
306,47,245602,1,0,0:0:0:0:
314,86,245687,1,0,0:0:0:0:
323,125,245773,2,0,P|277:141|250:162,1,80
190,216,245945,5,0,0:0:0:0:
190,216,246030,2,0,P|200:258|227:292,1,80
302,286,246202,2,0,P|253:281|216:291,1,80
144,301,246373,1,0,0:0:0:0:
144,301,246459,2,0,P|100:280|82:245,1,80
64,162,246630,6,0,L|148:173,1,80
154,91,246802,2,0,L|231:148,1,80
271,78,246973,5,0,0:0:0:0:
271,78,247059,1,0,0:0:0:0:
271,78,247145,2,0,P|297:110|300:154,1,80
218,138,247316,2,0,P|223:177|250:213,1,80
300,278,247487,5,0,0:0:0:0:
300,278,247573,1,0,0:0:0:0:
300,278,247659,2,0,L|250:308,4,40
379,271,247916,1,0,0:0:0:0:
459,264,248002,6,0,P|502:232|482:139,1,160,0|0,3:0|3:0,3:0:0:0:
401,146,248259,2,0,L|481:140,1,80,0|0,3:0|3:0,3:0:0:0:
240,50,248516,6,0,P|204:81|184:91,1,40,0|0,3:0|3:0,3:0:0:0:
159,206,248773,6,0,P|164:264|84:315,1,160,0|0,3:0|3:0,3:0:0:0:
85,234,249030,6,0,P|119:279|150:285,1,80,0|0,3:0|3:0,3:0:0:0:
226,306,249202,2,0,P|291:314|330:309,1,80,0|0,3:0|3:0,3:0:0:0:
391,294,249373,6,0,B|398:162|398:162|378:188,1,160,0|0,3:0|3:0,3:0:0:0:
316,244,249630,2,0,P|272:248|217:229,1,80,0|0,3:0|3:0,3:0:0:0:
92,212,249887,6,0,B|85:80|85:80|105:106,1,160,0|0,3:0|3:0,3:0:0:0:
160,158,250144,2,0,P|201:167|258:149,1,80,0|0,3:0|3:0,3:0:0:0:
373,74,250316,5,0,3:0:0:0:
373,74,250402,2,0,P|380:135|382:173,1,80,0|0,3:0|3:0,3:0:0:0:
312,194,250573,2,0,P|316:237|324:290,1,80,0|0,3:0|3:0,3:0:0:0:
401,284,250745,6,0,P|319:271|223:302,1,160,0|0,3:0|3:0,3:0:0:0:
188,345,251002,2,0,B|168:213|168:213|197:235,1,160,0|0,3:0|3:0,3:0:0:0:
245,289,251259,2,0,P|272:258|267:208,1,80,0|0,3:0|3:0,3:0:0:0:
328,162,251430,6,0,L|157:89,1,160,0|0,3:0|3:0,3:0:0:0:
111,58,251687,2,0,P|122:108|106:218,1,160,0|0,3:0|3:0,3:0:0:0:
31,237,251945,5,0,3:0:0:0:
69,225,252030,1,0,3:0:0:0:
107,214,252116,2,0,B|207:249|207:249|251:252|299:236,1,160,0|0,3:0|3:0,3:0:0:0:
306,231,252373,5,0,3:0:0:0:
333,202,252458,1,0,3:0:0:0:
348,165,252544,1,0,3:0:0:0:
349,126,252630,1,0,3:0:0:0:
335,88,252715,1,0,3:0:0:0:
309,57,252801,5,0,3:0:0:0:
309,57,252887,2,0,P|257:79|150:56,1,160,0|0,3:0|3:0,3:0:0:0:
119,130,253145,6,0,P|147:91|158:54,1,80,0|0,3:0|3:0,3:0:0:0:
151,313,253487,5,0,0:0:0:0:
331,308,253659,2,0,P|285:301|263:279,1,60.0000022888184
206,234,253830,1,0,0:0:0:0:
290,74,254002,5,0,0:0:0:0:
300,108,254087,1,0,0:0:0:0:
311,142,254173,1,0,0:0:0:0:
321,177,254259,1,0,0:0:0:0:
332,211,254344,1,0,0:0:0:0:
243,318,254516,6,0,P|240:278|250:250,1,60.0000022888184
328,295,254687,2,0,P|339:256|335:227,1,60.0000022888184
260,188,254859,1,0,0:0:0:0:
129,64,255030,5,0,0:0:0:0:
101,75,255115,1,0,0:0:0:0:
73,86,255201,1,0,0:0:0:0:
244,29,255373,1,0,0:0:0:0:
199,203,255545,1,0,0:0:0:0:
356,117,255716,6,0,P|324:116|297:97,1,60.0000022888184
356,117,255887,2,0,P|308:150|233:154,1,120.000004577637
84,136,256230,5,0,0:0:0:0:
74,316,256402,1,0,0:0:0:0:
76,274,256487,1,0,0:0:0:0:
78,232,256573,1,0,0:0:0:0:
205,103,256745,5,0,0:0:0:0:
203,144,256830,1,0,0:0:0:0:
202,186,256916,1,0,0:0:0:0:
201,228,257002,1,0,0:0:0:0:
200,270,257087,2,0,L|268:272,1,60.0000022888184
270,125,257259,6,0,P|284:157|305:176,1,60.0000022888184
322,32,257430,2,0,P|346:48|362:74,1,60.0000022888184
389,161,257602,1,0,0:0:0:0:
312,239,257773,6,0,P|320:284|325:301,1,60.0000022888184
209,184,257945,2,0,L|210:261,1,60.0000022888184
93,161,258116,1,0,0:0:0:0:
27,290,258287,5,0,0:0:0:0:
27,290,258373,2,0,P|71:286|108:295,1,60.0000022888184
154,227,258545,2,0,P|206:242|232:262,1,60.0000022888184
257,321,258716,5,0,0:0:0:0:
292,298,258802,1,0,0:0:0:0:
308,259,258887,1,0,0:0:0:0:
305,217,258972,1,0,0:0:0:0:
406,91,259145,6,0,P|356:113|330:115,1,60.0000022888184
236,150,259316,2,0,P|271:177|301:190,1,60.0000022888184
390,241,259487,2,0,P|352:269|320:284,1,60.0000022888184
250,262,259659,5,0,0:0:0:0:
281,279,259744,1,0,0:0:0:0:
311,299,259830,1,0,0:0:0:0:
340,320,259916,1,0,0:0:0:0:
368,344,260001,1,0,0:0:0:0:
132,304,260173,5,0,0:0:0:0:
85,139,260345,2,0,P|77:177|63:204,1,60.0000022888184
189,86,260516,2,0,P|181:124|167:151,1,60.0000022888184
260,160,260687,6,0,P|252:198|238:225,1,60.0000022888184
359,94,260859,2,0,P|351:132|337:159,1,60.0000022888184
404,216,261030,1,0,0:0:0:0:
260,326,261202,5,0,0:0:0:0:
218,303,261287,1,0,0:0:0:0:
169,304,261373,1,0,0:0:0:0:
151,259,261458,1,0,0:0:0:0:
104,246,261544,1,0,0:0:0:0:
111,198,261630,1,0,0:0:0:0:
81,160,261715,1,0,0:0:0:0:
226,225,261887,6,0,P|210:198|176:181,1,60.0000022888184
214,80,262059,2,0,P|241:69|263:46,1,60.0000022888184
318,140,262230,2,0,P|313:169|320:198,1,60.0000022888184
403,165,262402,5,0,0:0:0:0:
403,165,262487,2,0,P|409:206|400:231,1,60.0000022888184
463,282,262659,2,0,P|434:300|396:304,1,60.0000022888184
346,299,262830,5,0,0:0:0:0:
287,287,262915,1,0,0:0:0:0:
227,289,263001,1,0,0:0:0:0:
169,304,263087,1,0,0:0:0:0:
119,130,263259,1,0,0:0:0:0:
94,216,263430,5,0,0:0:0:0:
338,213,263602,1,0,0:0:0:0:
312,304,263773,5,0,0:0:0:0:
363,130,263945,1,0,0:0:0:0:
142,185,264116,2,0,P|119:209|91:219,1,60.0000022888184
145,56,264459,5,0,0:0:0:0:
143,85,264544,1,0,0:0:0:0:
141,115,264630,1,0,0:0:0:0:
139,145,264716,1,0,0:0:0:0:
137,175,264802,2,0,P|180:160|202:158,1,60.0000022888184
284,147,264973,1,0,0:0:0:0:
102,309,265145,6,0,P|142:296|165:295,1,60.0000022888184
249,287,265316,2,0,P|281:287|324:296,1,60.0000022888184
145,141,265487,6,0,P|186:149|206:160,1,60.0000022888184
283,196,265659,2,0,P|310:212|334:237,1,60.0000022888184
395,295,265830,5,0,0:0:0:0:
411,270,265915,1,0,0:0:0:0:
428,245,266001,1,0,0:0:0:0:
247,244,266173,5,0,0:0:0:0:
250,202,266258,1,0,0:0:0:0:
251,159,266344,1,0,0:0:0:0:
97,254,266516,6,0,P|73:225|70:185,1,60.0000022888184
151,168,266687,2,0,P|159:131|153:87,1,60.0000022888184
142,20,266859,5,0,0:0:0:0:
183,25,266944,1,0,0:0:0:0:
233,100,267030,5,0,0:0:0:0:
274,105,267116,1,0,0:0:0:0:
340,43,267202,6,0,B|364:87|364:87|364:130|364:130|339:159,1,120.000004577637
148,300,267545,2,0,P|182:279|223:265,1,60.0000022888184
334,300,267716,2,0,P|300:279|259:265,1,60.0000022888184
73,231,267887,5,0,0:0:0:0:
102,200,267972,1,0,0:0:0:0:
131,170,268058,1,0,0:0:0:0:
161,140,268144,1,0,0:0:0:0:
190,110,268230,2,0,P|220:124|262:127,1,60.0000022888184
366,194,268402,1,0,0:0:0:0:
225,82,268573,6,0,P|179:90|138:84,1,60.0000022888184
195,221,268745,2,0,P|241:213|282:219,1,60.0000022888184
125,98,268916,6,0,P|89:127|50:143,1,60.0000022888184
291,193,269087,2,0,P|326:163|365:147,1,60.0000022888184
29,154,269259,5,0,0:0:0:0:
46,185,269344,1,0,0:0:0:0:
64,216,269430,1,0,0:0:0:0:
81,248,269516,1,0,0:0:0:0:
99,279,269602,2,0,L|81:324,6,30.0000011444092
220,75,269945,6,0,P|220:105|204:155,1,60.0000022888184
260,43,270116,2,0,P|260:73|244:123,1,60.0000022888184
217,216,270287,5,0,0:0:0:0:
58,303,270459,1,0,0:0:0:0:
77,124,270630,5,0,0:0:0:0:
153,287,270802,1,0,0:0:0:0:
180,127,270973,5,0,0:0:0:0:
347,61,271145,1,0,0:0:0:0:
193,241,271316,6,0,P|195:285|202:303,3,60.0000022888184
287,323,271659,1,0,0:0:0:0:
390,123,271830,1,0,0:0:0:0:
210,145,272002,1,0,0:0:0:0:
266,328,272173,5,0,0:0:0:0:
299,127,272344,1,0,0:0:0:0:
101,181,272516,1,0,0:0:0:0:
204,311,272687,5,0,0:0:0:0:
239,286,272772,1,0,0:0:0:0:
277,268,272858,1,0,0:0:0:0:
316,255,272944,1,0,0:0:0:0:
358,248,273030,1,0,0:0:0:0:
347,202,273115,1,0,0:0:0:0:
337,155,273201,1,0,0:0:0:0:
327,108,273287,1,0,0:0:0:0:
316,61,273373,5,0,0:0:0:0:
257,68,273458,1,0,0:0:0:0:
197,76,273544,1,0,0:0:0:0:
137,83,273630,1,0,0:0:0:0:
78,91,273716,5,0,0:0:0:0:
141,125,273801,1,0,0:0:0:0:
196,162,273887,1,0,0:0:0:0:
242,209,273973,1,0,0:0:0:0:
278,264,274059,2,0,B|322:230|380:201|380:201|313:186|270:135|270:135|260:149|221:158|221:158|228:183,1,320
378,199,275087,6,0,L|363:167,1,30.0000011444092
343,201,275173,2,0,L|309:175,1,30.0000011444092
296,211,275259,2,0,L|262:201,1,30.0000011444092
256,238,275345,2,0,L|216:239,1,30.0000011444092
224,274,275430,1,0,0:0:0:0:
216,69,275602,5,0,0:0:0:0:
121,56,275773,1,0,0:0:0:0:
203,174,275945,1,0,0:0:0:0:
117,201,276116,2,0,P|153:176|216:179,1,95.9999970703126
301,233,276459,5,0,0:0:0:0:
308,89,276630,2,2,P|295:148|304:238,1,143.999995605469
170,169,277145,5,0,0:0:0:0:
312,149,277316,1,0,0:0:0:0:
200,58,277487,2,0,P|202:106|175:158,1,95.9999970703126
61,226,277830,6,0,L|31:219,6,23.9999992675781
131,243,278173,1,0,0:0:0:0:
268,198,278345,1,0,0:0:0:0:
285,340,278516,1,0,0:0:0:0:
143,314,278687,2,0,P|189:290|202:237,1,95.9999970703126
201,106,279030,5,0,0:0:0:0:
201,106,279116,1,0,0:0:0:0:
201,106,279202,1,0,0:0:0:0:
341,133,279373,1,0,0:0:0:0:
250,245,279545,5,0,0:0:0:0:
385,198,279716,1,0,0:0:0:0:
357,302,279887,1,0,0:0:0:0:
275,102,280059,1,0,0:0:0:0:
232,245,280230,5,0,0:0:0:0:
97,198,280401,1,0,0:0:0:0:
125,302,280572,1,0,0:0:0:0:
207,102,280744,1,0,0:0:0:0:
226,208,280916,5,0,0:0:0:0:
247,189,281001,1,0,0:0:0:0:
272,174,281087,1,0,0:0:0:0:
299,165,281173,1,0,0:0:0:0:
328,162,281258,1,0,0:0:0:0:
353,304,281430,1,0,0:0:0:0:
210,278,281602,5,0,0:0:0:0:
72,321,281773,1,0,0:0:0:0:
121,224,281945,1,0,0:0:0:0:
257,270,282116,2,2,B|277:225|255:164|255:164|322:224,1,191.999994140625
399,269,282630,5,0,0:0:0:0:
406,173,282801,1,0,0:0:0:0:
296,78,282973,1,0,0:0:0:0:
288,173,283144,1,0,0:0:0:0:
281,269,283316,2,0,P|242:266|178:274,1,95.9999970703126
91,292,283659,5,0,0:0:0:0:
143,158,283830,1,0,0:0:0:0:
243,261,284002,1,0,0:0:0:0:
290,125,284173,2,0,P|289:195|267:224,1,95.9999970703126
154,136,284516,1,0,0:0:0:0:
192,264,284687,5,0,0:0:0:0:
216,260,284773,1,0,0:0:0:0:
239,258,284858,1,0,0:0:0:0:
263,259,284944,1,0,0:0:0:0:
287,262,285030,1,0,0:0:0:0:
316,121,285202,5,0,0:0:0:0:
173,135,285373,1,0,0:0:0:0:
344,189,285545,1,0,0:0:0:0:
128,215,285716,5,0,0:0:0:0:
298,270,285887,1,0,0:0:0:0:
197,291,286059,2,0,L|193:314,6,23.9999992675781
203,210,286402,6,0,B|219:124|219:124|230:146,1,95.9999970703126
307,199,286745,1,0,0:0:0:0:
276,58,286916,2,0,P|240:62|208:60,1,47.9999985351563
156,60,287087,5,0,0:0:0:0:
136,265,287259,1,0,0:0:0:0:
246,177,287430,1,0,0:0:0:0:
394,238,287602,2,0,B|387:204|389:173|389:173|364:190,1,95.9999970703126
272,315,287945,5,0,0:0:0:0:
272,315,288030,1,0,0:0:0:0:
272,315,288116,1,0,0:0:0:0:
109,328,288287,2,0,P|146:319|195:269,1,95.9999970703126
356,88,288630,5,0,0:0:0:0:
308,88,288715,1,0,0:0:0:0:
260,89,288802,2,0,L|219:91,4,23.9999992675781
392,185,289145,5,0,0:0:0:0:
260,281,289316,1,0,0:0:0:0:
392,185,289487,1,0,0:0:0:0:
260,281,289659,2,0,P|205:272|150:275,1,95.9999970703126
24,188,290002,5,0,0:0:0:0:
64,185,290087,1,0,0:0:0:0:
103,183,290173,2,0,P|160:178|195:157,1,95.9999970703126
303,38,290516,5,0,0:0:0:0:
265,154,290687,1,0,0:0:0:0:
385,134,290859,1,0,0:0:0:0:
395,256,291030,1,0,0:0:0:0:
238,304,291202,5,0,0:0:0:0:
318,212,291373,1,0,0:0:0:0:
155,228,291545,2,8,L|131:248,6,23.9999992675781
155,228,291887,5,0,1:0:0:0:
202,71,292059,1,0,1:0:0:0:
224,79,292145,1,2,1:0:0:0:
245,89,292230,1,0,1:0:0:0:
367,63,292402,5,2,1:0:0:0:
370,94,292487,1,0,1:0:0:0:
361,116,292573,5,0,1:0:0:0:
373,142,292659,2,0,P|390:180|401:237,1,95.9999970703126,0|0,1:0|1:0,1:0:0:0:
348,280,292916,6,2,L|283:284,1,47.9999985351563,2|2,1:0|1:0,1:0:0:0:
230,263,293087,2,2,L|161:273,1,47.9999985351563,2|2,1:0|1:0,1:0:0:0:
124,225,293259,5,4,1:0:0:0:
228,42,293430,1,0,1:0:0:0:
261,57,293516,1,0,1:0:0:0:
275,90,293602,1,2,1:0:0:0:
131,103,293773,1,0,1:0:0:0:
230,207,293945,5,2,1:0:0:0:
230,207,294030,1,0,1:0:0:0:
230,207,294116,1,0,1:0:0:0:
336,111,294287,5,2,1:0:0:0:
342,134,294372,1,0,1:0:0:0:
348,157,294458,1,2,1:0:0:0:
354,180,294544,1,0,1:0:0:0:
380,208,294630,2,0,P|343:222|292:266,1,95.9999970703126,0|0,1:0|1:0,1:0:0:0:
266,222,294887,6,0,P|298:256|303:270,1,47.9999985351563,0|0,1:0|1:0,1:0:0:0:
107,288,295187,6,0,P|93:266|90:245,1,47.9999985351563,0|0,1:0|1:0,1:0:0:0:
113,108,295487,6,0,L|161:117,1,47.9999985351563,0|0,1:0|1:0,1:0:0:0:
333,134,295745,6,0,P|325:112|331:89,2,47.9999985351563,0|0|0,1:0|1:0|1:0,1:0:0:0:
376,210,296002,5,0,1:0:0:0:
329,221,296087,1,0,1:0:0:0:
282,232,296173,1,0,1:0:0:0:
236,243,296259,1,0,1:0:0:0:
196,285,296345,2,0,P|179:261|142:242,1,60.0000022888184,0|0,1:0|1:0,1:0:0:0:
64,227,296516,2,0,L|130:170,1,60.0000022888184,0|0,1:0|1:0,1:0:0:0:
168,119,296687,1,0,1:0:0:0:
285,96,296859,5,2,0:0:0:0:
344,84,296944,1,2,0:0:0:0:
403,71,297030,2,2,L|411:111,7,30.0000011444092
418,129,297373,6,0,P|437:202|418:324,1,180.000006866455
395,302,297716,1,0,0:0:0:0:
365,301,297801,1,0,0:0:0:0:
335,303,297887,1,0,0:0:0:0:
305,306,297973,1,0,0:0:0:0:
275,311,298058,1,0,0:0:0:0:
291,192,298230,1,0,0:0:0:0:
296,78,298402,6,0,P|248:102|182:101,1,120.000004577637
66,71,298745,5,0,0:0:0:0:
70,88,298830,1,0,0:0:0:0:
74,105,298916,1,0,0:0:0:0:
79,123,299002,1,0,0:0:0:0:
83,140,299087,1,0,0:0:0:0:
264,137,299259,1,0,0:0:0:0:
170,290,299430,1,0,0:0:0:0:
172,109,299602,5,0,0:0:0:0:
266,263,299773,2,0,P|288:285|302:296,6,30.0000011444092
202,199,300116,6,0,P|261:187|319:155,1,120.000004577637
386,63,300459,1,0,0:0:0:0:
386,182,300630,2,0,B|387:306|387:306|351:291|273:290,1,240.000009155274
152,300,301145,5,0,0:0:0:0:
169,275,301230,1,0,0:0:0:0:
180,247,301316,1,0,0:0:0:0:
185,218,301402,1,0,0:0:0:0:
184,188,301487,1,0,0:0:0:0:
64,198,301659,5,0,0:0:0:0:
301,166,301830,1,0,0:0:0:0:
227,70,302002,2,0,B|179:89|108:98|108:98|103:146|62:205,1,240.000009155274
84,304,302516,5,0,0:0:0:0:
125,295,302601,1,0,0:0:0:0:
166,292,302687,1,0,0:0:0:0:
208,294,302773,1,0,0:0:0:0:
250,302,302858,1,0,0:0:0:0:
175,137,303030,6,0,P|177:180|190:202,1,60.0000022888184
231,302,303202,1,0,0:0:0:0:
307,137,303373,1,0,0:0:0:0:
358,262,303545,1,0,0:0:0:0:
180,236,303716,1,0,0:0:0:0:
193,101,303887,2,0,P|202:139|182:230,1,120.000004577637
32,308,304230,5,0,0:0:0:0:
92,75,304573,2,0,B|143:106|143:106|209:104,1,120.000004577637
322,87,304916,5,0,0:0:0:0:
201,166,305259,2,2,P|173:106|153:202,1,240.000009155274
200,219,305602,5,0,0:0:0:0:
321,86,305773,2,0,P|346:119|366:129,1,60.0000022888184
334,164,305945,2,0,P|361:199|383:211,1,60.0000022888184
345,241,306116,2,0,P|361:295|413:331,1,120.000004577637
421,150,306459,2,0,P|405:192|339:239,1,120.000004577637
175,292,306802,5,0,0:0:0:0:
161,248,306887,1,0,0:0:0:0:
151,205,306973,1,0,0:0:0:0:
288,88,307145,6,0,P|258:108|216:116,1,60.0000022888184
68,130,307316,2,0,P|103:150|138:155,1,60.0000022888184
293,200,307487,2,0,P|263:220|221:228,1,60.0000022888184
106,273,307659,5,8,0:0:0:0:
151,270,307830,5,8,0:0:0:0:
202,268,308002,5,8,0:0:0:0:
207,232,308087,1,8,0:0:0:0:
212,196,308173,1,8,0:0:0:0:
218,161,308259,1,8,0:0:0:0:
223,125,308345,6,0,L|291:137,3,60.0000022888184,8|0|0|0,0:0|0:0|0:0|0:0,0:0:0:0:
353,126,308687,6,0,L|411:89,3,60.0000022888184
410,58,309030,5,0,0:0:0:0:
408,87,309115,1,0,0:0:0:0:
407,117,309201,1,0,0:0:0:0:
405,147,309287,1,0,0:0:0:0:
349,166,309372,5,0,0:0:0:0:
347,196,309458,1,0,0:0:0:0:
346,226,309544,1,0,0:0:0:0:
345,256,309629,1,0,0:0:0:0:
343,286,309716,6,0,L|284:298,1,60.0000022888184
225,309,309887,2,0,L|157:303,1,60.0000022888184
76,236,310059,6,0,L|137:223,1,60.0000022888184
194,220,310230,2,0,L|263:227,1,60.0000022888184
314,217,310402,1,0,0:0:0:0:
331,192,310487,1,0,0:0:0:0:
349,168,310573,1,0,0:0:0:0:
367,144,310659,1,0,0:0:0:0:
384,120,310745,2,0,P|284:128|180:111,1,180.000006866455
148,102,311087,6,0,L|94:129,3,60.0000022888184
46,165,311430,2,0,L|97:206,3,60.0000022888184
89,262,311773,5,0,0:0:0:0:
124,240,311858,1,0,0:0:0:0:
165,231,311944,1,0,0:0:0:0:
206,236,312030,1,0,0:0:0:0:
244,255,312116,1,0,0:0:0:0:
271,216,312201,1,0,0:0:0:0:
298,176,312287,1,0,0:0:0:0:
325,136,312373,1,0,0:0:0:0:
352,97,312458,1,0,0:0:0:0:
174,126,312630,5,0,0:0:0:0:
335,206,312802,1,0,0:0:0:0:
156,228,312973,1,0,0:0:0:0:
245,297,313145,5,0,0:0:0:0:
325,136,313317,1,0,0:0:0:0:
347,315,313487,2,0,L|319:302,1,30.0000011444092
97,284,313830,5,0,3:0:0:0:
97,284,314002,1,0,3:0:0:0:
179,111,314173,5,0,3:0:0:0:
179,111,314345,1,0,3:0:0:0:
232,280,314516,5,0,3:0:0:0:
249,324,314687,1,0,3:0:0:0:
329,108,314859,5,0,3:0:0:0:
346,64,315030,1,0,3:0:0:0:
402,267,315202,5,0,3:0:0:0:
270,324,315373,1,0,3:0:0:0:
362,349,315545,1,0,3:0:0:0:
247,195,315716,1,0,3:0:0:0:
67,193,315887,5,0,3:0:0:0:
212,324,316058,1,0,3:0:0:0:
34,289,316230,1,0,3:0:0:0:
295,238,316401,1,0,3:0:0:0:
74,88,316573,5,0,3:0:0:0:
109,84,316658,1,0,3:0:0:0:
145,80,316744,1,0,3:0:0:0:
181,77,316830,1,0,3:0:0:0:
169,172,316916,5,0,3:0:0:0:
205,169,317001,1,0,3:0:0:0:
241,165,317087,1,0,3:0:0:0:
276,161,317173,1,0,3:0:0:0:
311,156,317259,5,0,3:0:0:0:
325,189,317344,1,0,3:0:0:0:
339,222,317430,1,0,3:0:0:0:
353,255,317516,1,0,3:0:0:0:
369,287,317602,1,0,3:0:0:0:
321,284,317687,1,0,3:0:0:0:
273,287,317773,1,0,3:0:0:0:
226,298,317859,1,0,3:0:0:0:
182,315,317945,2,0,L|142:288,6,30.0000011444092,0|0|0|0|0|0|0,3:0|3:0|3:0|3:0|3:0|3:0|3:0,3:0:0:0:
94,249,318287,6,0,P|143:236|223:193,1,120.000004577637
250,94,318630,2,0,L|282:237,1,120.000004577637
396,204,318973,2,0,P|319:156|168:181,1,240
174,177,319316,5,0,0:0:0:0:
111,322,319659,5,0,0:0:0:0:
119,293,319744,1,0,0:0:0:0:
128,264,319830,1,0,0:0:0:0:
137,236,319916,1,0,0:0:0:0:
146,207,320002,1,0,0:0:0:0:
171,223,320087,1,0,0:0:0:0:
198,237,320173,1,0,0:0:0:0:
226,248,320259,1,0,0:0:0:0:
255,256,320345,1,0,0:0:0:0:
288,269,320430,1,0,0:0:0:0:
326,254,320516,1,0,0:0:0:0:
341,217,320602,1,0,0:0:0:0:
324,180,320687,1,0,0:0:0:0:
204,161,320859,5,0,0:0:0:0:
86,136,321030,1,0,0:0:0:0:
284,67,321202,1,0,0:0:0:0:
143,157,321373,5,0,0:0:0:0:
143,157,321459,2,0,P|180:230|177:284,1,120.000004577637
148,317,321716,2,0,L|227:302,1,60.0000022888184
266,295,321887,2,0,L|334:284,1,60.0000022888184
383,266,322059,5,0,0:0:0:0:
283,116,322230,1,0,0:0:0:0:
120,194,322402,5,0,0:0:0:0:
120,194,322487,2,0,P|155:162|177:153,1,60.0000022888184
199,242,322659,1,0,0:0:0:0:
199,242,322744,2,0,P|234:274|256:283,1,60.0000022888184
274,192,322916,2,0,P|303:164|324:159,1,60.0000022888184
355,75,323087,5,0,0:0:0:0:
355,75,323173,2,0,P|390:102|404:135,1,60.0000022888184
407,160,323345,1,0,0:0:0:0:
411,204,323430,1,0,0:0:0:0:
272,320,323602,6,0,P|246:286|226:271,1,60.0000022888184
147,245,323773,2,0,P|173:211|193:196,1,60.0000022888184
270,165,323945,2,0,P|244:131|224:116,1,60.0000022888184
145,90,324116,1,0,0:0:0:0:
56,246,324287,6,0,P|66:210|60:177,1,60.0000022888184
56,246,324459,2,0,P|100:235|177:243,1,120.000004577637
301,272,324802,1,0,0:0:0:0:
384,46,325145,6,0,P|390:102|384:177,1,120.000004577637
275,120,325487,5,0,0:0:0:0:
270,149,325572,1,0,0:0:0:0:
268,179,325658,1,0,0:0:0:0:
269,209,325744,1,0,0:0:0:0:
273,239,325829,1,0,0:0:0:0:
160,284,326002,1,0,0:0:0:0:
370,291,326173,5,0,0:0:0:0:
122,168,326345,2,0,B|130:199|133:216|128:249,1,60.0000022888184
359,219,326516,2,0,B|352:189|348:171|353:138,1,60.0000022888184
266,75,326687,6,0,B|236:83|218:86|185:81,1,60.0000022888184
215,312,326859,2,0,B|246:305|263:301|296:306,1,60.0000022888184
359,219,327030,2,0,B|328:211|311:207|278:212,1,60.0000022888184
213,125,327202,2,0,P|276:123|338:119,1,120.000004577637
213,125,327545,6,0,B|215:182|209:219|209:219|178:196,1,120.000004577637
89,135,327887,1,0,0:0:0:0:
89,135,327973,1,0,0:0:0:0:
89,135,328059,2,0,P|94:182|77:257,1,120.000004577637
161,340,328402,5,0,0:0:0:0:
267,284,328573,2,0,P|262:237|279:162,1,120.000004577637
219,60,328916,6,0,P|259:76|293:73,1,60.0000022888184
137,136,329087,2,0,P|184:140|210:131,1,60.0000022888184
101,238,329259,2,0,P|146:225|167:208,1,60.0000022888184
258,340,329430,2,0,P|231:308|197:222,1,120.000004577637
132,137,329773,5,8,0:0:0:0:
168,116,329858,1,8,0:0:0:0:
205,95,329945,1,8,0:0:0:0:
228,130,330030,1,8,0:0:0:0:
256,162,330116,1,8,0:0:0:0:
287,189,330202,1,8,0:0:0:0:
323,212,330287,1,8,0:0:0:0:
158,287,330459,1,0,0:0:0:0:
324,287,330630,5,8,0:0:0:0:
158,212,330802,1,0,0:0:0:0:
80,51,330973,2,0,P|76:91|55:133,1,60.0000022888184,8|0,0:0|0:0,0:0:0:0:
160,114,331145,2,0,P|166:152|180:178,1,60.0000022888184,8|0,0:0|0:0,0:0:0:0:
88,195,331316,2,0,P|82:246|63:273,1,60.0000022888184,8|0,0:0|0:0,0:0:0:0:
158,295,331487,5,8,0:0:0:0:
222,307,331573,1,8,0:0:0:0:
286,314,331659,1,8,0:0:0:0:
255,137,331830,1,0,0:0:0:0:
414,221,332002,5,8,0:0:0:0:
145,190,332173,1,0,0:0:0:0:
322,224,332345,6,0,L|324:270,1,30.0000011444092
289,223,332430,2,0,L|289:259,1,30.0000011444092
254,222,332516,2,0,L|254:306,1,60.0000022888184
207,75,332687,1,0,0:0:0:0:
181,335,332859,1,0,0:0:0:0:
41,144,333030,6,0,P|77:162|112:160,1,60.0000022888184,8|0,0:0|0:0,0:0:0:0:
187,166,333202,1,0,0:0:0:0:
347,247,333373,6,0,P|311:265|276:263,1,60.0000022888184,8|0,0:0|0:0,0:0:0:0:
201,269,333545,1,0,0:0:0:0:
121,108,333716,6,8,P|126:155|126:185,1,60.0000022888184
128,227,333887,2,8,P|133:279|126:306,1,60.0000022888184
186,83,334059,6,8,P|206:125|217:153,1,60.0000022888184
239,204,334230,2,8,P|261:251|264:278,1,60.0000022888184
244,51,334402,5,8,0:0:0:0:
288,91,334487,1,0,0:0:0:0:
332,132,334573,1,0,0:0:0:0:
406,328,334745,6,0,P|362:311|334:317,1,60.0000022888184,8|0,0:0|0:0,0:0:0:0:
281,253,334916,2,8,L|289:191,1,60.0000022888184
206,314,335087,6,0,L|133:304,1,60.0000022888184,8|0,0:0|0:0,0:0:0:0:
74,292,335259,1,0,0:0:0:0:
139,185,335430,2,0,L|277:207,1,120.000004577637
328,214,335687,1,0,0:0:0:0:
398,229,335773,5,8,0:0:0:0:
354,91,335945,1,8,0:0:0:0:
250,215,336116,5,8,0:0:0:0:
451,136,336287,1,8,0:0:0:0:
31,136,336459,5,8,0:0:0:0:
232,215,336630,1,0,3:0:0:0:
128,91,336802,6,0,L|140:59,2,30.0000011444092,0|0|0,3:0|3:0|3:0,3:0:0:0:
79,263,336973,2,0,L|67:295,2,30.0000011444092,0|0|0,3:0|3:0|3:0,3:0:0:0:
207,66,337145,5,8,0:0:0:0:
206,335,337316,1,8,0:0:0:0:
151,202,337487,5,8,0:0:0:0:
272,216,337659,1,8,0:0:0:0:
347,92,337830,5,8,0:0:0:0:
347,92,337916,1,8,0:0:0:0:
347,92,338001,1,8,0:0:0:0:
272,216,338173,1,0,0:0:0:0:
204,113,338345,1,0,0:0:0:0:
67,66,338516,5,10,0:0:0:0:
70,95,338601,1,8,0:0:0:0:
73,125,338687,1,8,0:0:0:0:
77,155,338773,1,8,0:0:0:0:
80,185,338859,1,10,0:0:0:0:
77,215,338944,1,8,0:0:0:0:
74,244,339030,1,8,0:0:0:0:
71,274,339116,1,8,0:0:0:0:
68,304,339202,5,10,0:0:0:0:
108,291,339287,1,8,0:0:0:0:
149,284,339373,1,8,0:0:0:0:
191,283,339459,1,10,0:0:0:0:
232,289,339545,5,0,0:0:0:0:
237,221,339630,1,0,0:0:0:0:
303,205,339716,1,0,0:0:0:0:
339,262,339802,1,0,0:0:0:0:
296,314,339887,2,0,L|286:273,8,30.0000011444092
391,159,340402,6,2,P|268:160|142:121,1,240.000009155274
26,48,340916,5,8,0:0:0:0:
54,107,341001,5,8,0:0:0:0:
68,171,341087,5,8,0:0:0:0:
66,237,341173,5,8,0:0:0:0:
48,301,341258,5,14,0:0:0:0:
