osu file format v14

[General]
AudioFilename: audio.mp3
AudioLeadIn: 0
PreviewTime: -1
Countdown: 0
SampleSet: Soft
StackLeniency: 0.7
Mode: 0
LetterboxInBreaks: 0
WidescreenStoryboard: 1

[Editor]
Bookmarks: 1297,23240,45183,56154,78097,89069,100040,109640,111012,123697,131583,132954,154897,176840,187812,198783,209754,230326,231697,253640,274212,275583,297526,308497,319469,340040,341412,352383
DistanceSpacing: 0.6
BeatDivisor: 4
GridSize: 8
TimelineZoom: 3.899999

[Metadata]
Title:Light It Up
TitleUnicode:Light It Up
Artist:Camellia
ArtistUnicode:かめりあ
Creator:kirbob
Version:luminescent
Source:
Tags:Electronic Camellia Cametek
BeatmapID:1617848
BeatmapSetID:769421

[Difficulty]
HPDrainRate:5.5
CircleSize:4.2
OverallDifficulty:8.2
ApproachRate:9.4
SliderMultiplier:2
SliderTickRate:1

[Events]
//Background and Video events
0,0,"buh buh buh.jpg",0,0
//Break Periods
//Storyboard Layer 0 (Background)
//Storyboard Layer 1 (Fail)
//Storyboard Layer 2 (Pass)
//Storyboard Layer 3 (Foreground)
//Storyboard Sound Samples

[TimingPoints]
1297,342.857142857143,4,2,0,25,1,0
1297,-111.111111111111,4,2,0,37,0,0
19125,-111.111111111111,4,2,0,40,0,0
19639,-111.111111111111,4,2,0,43,0,0
20154,-111.111111111111,4,2,0,48,0,0
20497,-111.111111111111,4,2,0,55,0,0
20668,-111.111111111111,4,2,0,57,0,0
20839,-111.111111111111,4,2,0,59,0,0
21011,-111.111111111111,4,2,0,61,0,0
21182,-111.111111111111,4,2,0,63,0,0
21354,-111.111111111111,4,2,0,65,0,0
21525,-111.111111111111,4,2,0,67,0,0
21697,-111.111111111111,4,2,0,69,0,0
21868,-111.111111111111,4,2,0,71,0,0
22039,-111.111111111111,4,2,0,73,0,0
22211,-111.111111111111,4,2,0,75,0,0
23239,-89.2857142857143,4,2,0,80,0,0
25639,-58.8235294117647,4,2,0,90,0,0
25982,-86.9565217391304,4,2,0,80,0,0
28211,-58.8235294117647,4,2,0,90,0,0
28725,-84.7457627118644,4,2,0,80,0,0
30268,-57.1428571428571,4,2,0,90,0,0
30782,-84.7457627118644,4,2,0,80,0,0
32839,-76.9230769230769,4,2,0,85,0,0
34211,-74.0740740740741,4,2,0,80,0,0
36611,-57.1428571428571,4,2,0,80,0,0
36954,-74.0740740740741,4,2,0,80,0,0
39182,-57.1428571428571,4,2,0,80,0,0
39697,-83.3333333333333,4,2,0,80,0,0
40725,-52.6315789473684,4,2,0,80,0,0
41068,-68.9655172413793,4,2,0,80,0,0
42097,-51.2820512820513,4,2,0,80,0,0
45182,-250,4,2,0,50,0,0
45354,-250,4,2,0,45,0,0
45868,-158.730158730159,4,2,0,30,0,0
47925,-285.714285714286,4,2,0,30,0,0
48611,-166.666666666667,4,2,0,30,0,0
50668,-333.333333333333,4,2,0,30,0,0
51354,-181.818181818182,4,2,0,30,0,0
56154,-142.857142857143,4,2,0,30,0,0
63354,-142.857142857143,4,2,0,40,0,0
66782,-125,4,2,0,50,0,0
69868,-125,4,2,0,60,0,0
72611,-125,4,2,0,65,0,0
75354,-117.647058823529,4,2,0,70,0,0
76382,-117.647058823529,4,2,0,75,0,0
77754,-117.647058823529,4,2,0,100,0,0
78097,-90.9090909090909,4,2,0,80,0,0
85982,-200,4,2,0,80,0,0
86325,-83.3333333333333,4,2,0,80,0,0
89068,-83.3333333333333,4,2,0,70,0,0
91468,-83.3333333333333,4,2,0,80,0,0
91811,-83.3333333333333,4,2,0,70,0,0
96954,-61.3496932515337,4,2,0,85,0,0
97297,-83.3333333333333,4,2,0,70,0,0
98668,-60.2409638554217,4,2,0,85,0,0
99011,-83.3333333333333,4,2,0,85,0,0
99697,-58.8235294117647,4,2,0,90,0,0
100039,-100,4,2,0,40,0,0
101068,-200,4,2,0,90,0,0
101411,-83.3333333333333,4,2,0,50,0,0
102439,-50.5050505050505,4,2,0,90,0,0
102782,-76.9230769230769,4,2,0,55,0,0
103811,-76.9230769230769,4,2,0,90,0,0
104154,-76.9230769230769,4,2,0,60,0,0
104839,-90.9090909090909,4,2,0,60,0,0
105525,-90.9090909090909,4,2,0,55,0,0
105868,-90.9090909090909,4,2,0,60,0,0
106211,-90.9090909090909,4,2,0,65,0,0
106554,-90.9090909090909,4,2,0,70,0,0
106897,-90.9090909090909,4,2,0,73,0,0
107239,-90.9090909090909,4,2,0,76,0,0
107582,-90.9090909090909,4,2,0,79,0,0
107925,-90.9090909090909,4,2,0,82,0,0
108268,-50,4,2,0,82,0,0
108611,-35.7142857142857,4,2,0,82,0,0
108954,-27.7777777777778,4,2,0,82,0,0
109297,-25,4,2,0,82,0,0
109639,-58.8235294117647,4,2,0,82,0,0
111011,-40,4,2,0,82,0,0
111697,-58.8235294117647,4,2,0,82,0,0
112211,-29.4117647058824,4,2,0,82,0,0
112382,-47.6190476190476,4,2,0,82,0,0
112725,-111.111111111111,4,2,0,82,0,0
113411,-66.6666666666667,4,2,0,82,0,0
113754,-40,4,2,0,82,0,0
114439,-58.8235294117647,4,2,0,82,0,0
114954,-29.4117647058824,4,2,0,82,0,0
115468,-250,4,2,0,82,0,0
115811,-32.258064516129,4,2,0,82,0,0
116497,-40,4,2,0,82,0,0
117182,-58.8235294117647,4,2,0,82,0,0
117697,-29.4117647058824,4,2,0,82,0,0
117868,-47.6190476190476,4,2,0,82,0,0
118211,-111.111111111111,4,2,0,82,0,0
118897,-66.6666666666667,4,2,0,82,0,0
119239,-33.3333333333333,4,2,0,82,0,0
119411,-25,4,2,0,82,0,0
119754,-55.5555555555556,4,2,0,82,0,0
120011,-66.6666666666667,4,2,0,82,0,0
120611,-76.9230769230769,4,2,0,40,0,0
120954,-76.9230769230769,4,2,0,50,0,0
121297,-76.9230769230769,4,2,0,60,0,0
121639,-76.9230769230769,4,2,0,70,0,0
121982,-40,4,2,0,82,0,0
122668,-58.8235294117647,4,2,0,82,0,0
123182,-29.4117647058824,4,2,0,82,0,0
123354,-47.6190476190476,4,2,0,82,0,0
123697,-111.111111111111,4,2,0,82,0,0
124039,-66.6666666666667,4,2,0,82,0,0
124725,-38.4615384615385,4,2,0,82,0,0
125411,-57.1428571428571,4,2,0,82,0,0
125925,-28.5714285714286,4,2,0,82,0,0
126439,-125,4,2,0,82,0,0
126782,-25,4,2,0,82,0,0
127468,-333.333333333333,4,2,0,40,0,0
127811,-38.4615384615385,4,2,0,88,0,0
128154,-56.1797752808989,4,2,0,88,0,0
128668,-28.0898876404494,4,2,0,88,0,0
128839,-61.7283950617284,4,2,0,88,0,0
129182,-100,4,2,0,88,0,0
130211,-50,4,2,0,88,0,0
130554,-33.3333333333333,4,2,0,88,0,0
130897,-28.5714285714286,4,2,0,88,0,0
131582,-58.8235294117647,4,2,0,67,0,0
131925,-58.8235294117647,4,2,0,74,0,0
132268,-58.8235294117647,4,2,0,81,0,0
132611,-58.8235294117647,4,2,0,88,0,0
132954,-43.4782608695652,4,2,0,85,0,0
133297,-62.5,4,2,0,85,0,0
133639,-59.5238095238095,4,2,0,85,0,0
134154,-31.25,4,2,0,85,0,0
134325,-76.9230769230769,4,2,0,85,0,0
135011,-88.4955752212389,4,2,0,85,0,0
135697,-43.4782608695652,4,2,0,85,0,0
136039,-62.5,4,2,0,85,0,0
136382,-59.5238095238095,4,2,0,85,0,0
136897,-31.25,4,2,0,85,0,0
137068,-53.1914893617021,4,2,0,85,0,0
137411,-40,4,2,0,85,0,0
138097,-20,4,2,0,85,0,0
138439,-43.4782608695652,4,2,0,85,0,0
138782,-62.5,4,2,0,85,0,0
139125,-59.5238095238095,4,2,0,85,0,0
139639,-31.25,4,2,0,85,0,0
139811,-87.719298245614,4,2,0,85,0,0
141182,-76.9230769230769,4,2,0,85,0,0
141868,-59.5238095238095,4,2,0,85,0,0
142382,-31.25,4,2,0,85,0,0
142554,-76.9230769230769,4,2,0,85,0,0
143925,-43.4782608695652,4,2,0,85,0,0
144268,-62.5,4,2,0,85,0,0
144611,-59.5238095238095,4,2,0,85,0,0
145125,-27.7777777777778,4,2,0,85,0,0
145297,-76.9230769230769,4,2,0,85,0,0
145982,-90.9090909090909,4,2,0,85,0,0
146668,-43.4782608695652,4,2,0,85,0,0
147011,-62.5,4,2,0,85,0,0
147354,-59.5238095238095,4,2,0,85,0,0
147868,-31.25,4,2,0,85,0,0
148039,-36.7647058823529,4,2,0,85,0,0
149068,-33.3333333333333,4,2,0,85,0,0
149411,-58.8235294117647,4,2,0,85,0,0
152839,-55.5555555555556,4,2,0,85,0,0
153182,-52.6315789473684,4,2,0,85,0,0
154211,-25,4,2,0,85,0,0
154382,-25,4,2,0,87,0,0
154554,-25,4,2,0,89,0,0
154897,-142.857142857143,4,2,0,45,0,0
165868,-128.205128205128,4,2,0,50,0,0
168611,-128.205128205128,4,2,0,50,0,0
171354,-113.636363636364,4,2,0,60,0,0
174097,-100,4,2,0,60,0,0
175125,-86.2068965517241,4,2,0,66,0,0
175811,-86.2068965517241,4,2,0,70,0,0
176154,-71.4285714285714,4,2,0,80,0,0
176497,-55.5555555555556,4,2,0,90,0,0
176839,-166.666666666667,4,2,0,14,0,0
186954,-166.666666666667,4,2,0,50,0,0
187468,-166.666666666667,4,2,0,65,0,0
187811,-81.3008130081301,4,2,0,80,0,0
190211,-32.258064516129,4,2,0,80,0,0
190554,-81.3008130081301,4,2,0,80,0,0
195697,-31.25,4,2,0,80,0,0
196039,-75.7575757575758,4,2,0,80,0,0
197925,-70.4225352112676,4,2,0,80,0,0
198782,-70.4225352112676,4,2,0,73,0,0
206668,-58.8235294117647,4,2,0,73,0,0
207011,-68.9655172413793,4,2,0,73,0,0
208382,-53.475935828877,4,2,0,73,0,0
208725,-55.5555555555556,4,2,0,73,0,0
209411,-25.1256281407035,4,2,0,90,0,0
209754,-100,4,2,0,45,0,0
211811,-58.8235294117647,4,2,0,69,0,0
212497,-82.6446280991736,4,2,0,48,0,0
214897,-47.1698113207547,4,2,0,72,0,0
215239,-68.9655172413793,4,2,0,51,0,0
217297,-46.5116279069767,4,2,0,75,0,0
217982,-65.7894736842105,4,2,0,54,0,0
219354,-52.6315789473684,4,2,0,50,0,0
220725,-53.475935828877,4,2,0,81,0,0
221754,-32.258064516129,4,2,0,85,0,0
222097,-52.6315789473684,4,2,0,82,0,0
223125,-40,4,2,0,86,0,0
223468,-52.0833333333333,4,2,0,83,0,0
224497,-121.951219512195,4,2,0,87,0,0
224839,-51.8134715025907,4,2,0,84,0,0
226211,-51.8134715025907,4,2,0,51,0,0
226554,-51.8134715025907,4,2,0,55,0,0
226897,-51.8134715025907,4,2,0,59,0,0
227239,-51.8134715025907,4,2,0,63,0,0
227582,-51.8134715025907,4,2,0,67,0,0
227925,-51.8134715025907,4,2,0,71,0,0
228268,-51.8134715025907,4,2,0,75,0,0
228611,-51.8134715025907,4,2,0,79,0,0
228954,-27.7777777777778,4,2,0,85,0,0
229297,-33.3333333333333,4,2,0,70,0,0
229639,-45.4545454545455,4,2,0,55,0,0
229982,-12,4,2,0,100,0,0
230325,-47.1698113207547,4,2,0,60,0,0
231697,-32.0512820512821,4,2,0,91,0,0

[Colours]
Combo1 : 249,57,91
Combo2 : 141,191,245
Combo3 : 157,185,249
Combo4 : 99,167,241
Combo5 : 251,85,135

[HitObjects]
74,156,1297,5,0,3:0:0:0:
217,148,1639,1,8,2:0:0:0:
79,167,1982,5,0,3:0:0:0:
221,146,2325,1,8,2:0:0:0:
85,178,2668,5,0,3:0:0:0:
225,145,3010,1,8,2:0:0:0:
184,283,3182,5,0,2:0:0:0:
135,73,3354,1,0,3:0:0:0:
145,83,3439,1,0,2:0:0:0:
157,88,3525,1,0,2:0:0:0:
171,89,3611,1,0,2:0:0:0:
183,85,3697,2,0,L|209:44,1,44.999998626709,10|0,2:0|2:0,2:0:0:0:
259,133,3868,2,0,L|283:94,1,44.999998626709,2|0,2:0|2:0,2:0:0:0:
336,182,4039,21,0,3:0:0:0:
328,325,4382,1,8,2:0:0:0:
347,187,4725,5,0,3:0:0:0:
326,329,5068,1,8,2:0:0:0:
358,193,5411,5,0,3:0:0:0:
325,333,5753,1,8,2:0:0:0:
369,199,6097,37,0,3:0:0:0:
323,336,6439,1,8,2:0:0:0:
85,237,6782,5,0,3:0:0:0:
228,229,7124,1,8,2:0:0:0:
90,248,7467,5,0,3:0:0:0:
232,227,7810,1,8,2:0:0:0:
96,259,8153,37,0,3:0:0:0:
236,226,8497,1,8,2:0:0:0:
195,364,8668,53,0,2:0:0:0:
146,154,8839,1,0,3:0:0:0:
156,149,8925,1,0,2:0:0:0:
166,144,9011,1,0,2:0:0:0:
176,139,9097,1,0,2:0:0:0:
186,134,9182,2,0,L|208:182,1,44.999998626709,10|0,2:0|0:0,0:0:0:0:
267,96,9354,2,0,L|285:136,1,44.999998626709,2|0,2:0|0:0,0:0:0:0:
348,58,9525,5,0,3:0:0:0:
389,195,9868,1,8,2:0:0:0:
360,59,10211,5,0,3:0:0:0:
389,199,10554,1,8,2:0:0:0:
372,60,10897,5,0,3:0:0:0:
389,203,11239,1,8,2:0:0:0:
385,62,11583,37,0,3:0:0:0:
388,207,11925,1,8,2:0:0:0:
118,130,12268,5,0,3:0:0:0:
261,138,12610,1,8,2:0:0:0:
123,119,12953,5,0,3:0:0:0:
265,140,13296,1,8,2:0:0:0:
129,108,13639,37,0,3:0:0:0:
269,141,13981,1,8,2:0:0:0:
228,3,14154,37,0,2:0:0:0:
179,213,14325,1,0,3:0:0:0:
189,203,14410,1,0,2:0:0:0:
201,198,14496,1,0,2:0:0:0:
215,197,14582,1,0,2:0:0:0:
227,201,14668,2,0,L|253:242,1,44.999998626709,10|0,2:0|2:0,2:0:0:0:
303,153,14839,2,0,L|327:191,1,44.999998626709,2|0,2:0|2:0,2:0:0:0:
380,104,15011,21,0,3:0:0:0:
243,63,15354,1,8,2:0:0:0:
379,92,15697,5,0,3:0:0:0:
239,63,16040,1,8,2:0:0:0:
378,80,16383,5,0,3:0:0:0:
235,63,16725,1,8,2:0:0:0:
376,67,17069,37,0,3:0:0:0:
231,64,17411,1,8,2:0:0:0:
309,334,17754,5,0,3:0:0:0:
301,191,18096,1,8,2:0:0:0:
320,329,18439,5,0,3:0:0:0:
299,187,18782,1,8,2:0:0:0:
331,323,19125,37,0,3:0:0:0:
298,183,19467,1,8,2:0:0:0:
436,224,19639,53,0,2:0:0:0:
226,273,19811,1,0,3:0:0:0:
211,256,19897,1,0,2:0:0:0:
207,233,19982,1,0,2:0:0:0:
215,211,20068,1,0,2:0:0:0:
233,196,20154,2,0,P|260:206|274:227,1,44.999998626709,10|0,2:0|0:0,0:0:0:0:
356,218,20325,2,0,P|350:246|332:263,1,44.999998626709,2|0,2:0|0:0,0:0:0:0:
356,342,20497,1,4,1:0:0:0:
256,192,20539,12,0,22897,0:0:0:0:
360,141,23239,6,0,P|380:193|376:253,1,112.000001367188,4|0,3:0|0:0,0:0:0:0:
189,216,23582,2,0,L|307:205,1,112.000001367188,8|0,2:0|0:0,0:0:0:0:
498,248,23925,1,4,3:0:0:0:
301,297,24097,1,0,0:0:0:0:
416,133,24268,2,0,L|406:251,1,112.000001367188,8|0,2:0|0:0,0:0:0:0:
325,127,24611,2,0,P|347:75|392:35,1,112.000001367188,4|0,3:0|0:0,0:0:0:0:
237,120,24954,2,0,L|118:110,1,112.000001367188,8|0,2:0|0:0,0:0:0:0:
289,230,25297,1,4,3:0:0:0:
310,30,25468,1,0,0:0:0:0:
126,111,25639,38,2,B|147:149|253:132|205:-14|95:19|58:66,1,255.000004863739,2|0,1:0|2:0,1:0:0:0:
47,85,25982,22,0,P|30:141|40:205,1,115.000002193451,4|0,3:0|0:0,0:0:0:0:
228,162,26325,2,0,L|110:151,1,115.000002193451,8|0,2:0|0:0,0:0:0:0:
250,274,26668,1,4,3:0:0:0:
266,68,26839,1,0,0:0:0:0:
62,219,27011,2,0,L|180:230,1,115.000002193451,8|0,2:0|0:0,0:0:0:0:
218,130,27354,2,0,P|252:177|265:240,1,115.000002193451,4|0,3:0|0:0,0:0:0:0:
374,41,27697,2,0,L|363:159,1,115.000002193451,8|0,2:0|0:0,0:0:0:0:
163,206,28039,1,4,3:0:0:0:
285,1,28211,54,2,B|299:31|299:31|290:86,1,85.0000016212464,2|0,1:0|1:0,1:0:0:0:
176,117,28382,1,2,1:0:0:0:
176,117,28468,2,2,B|158:72|158:72|171:32,2,85.0000016212464,2|0|0,1:0|1:0|1:0,1:0:0:0:
206,127,28725,6,0,P|263:115|325:130,1,117.999995858765,4|0,3:0|0:0,0:0:0:0:
254,313,29068,2,0,L|265:195,1,117.999995858765,8|0,2:0|0:0,0:0:0:0:
311,378,29411,2,0,P|254:390|192:375,1,117.999995858765,4|0,3:0|0:0,0:0:0:0:
142,195,29754,1,8,2:0:0:0:
327,225,29925,1,0,0:0:0:0:
208,370,30097,1,4,3:0:0:0:
116,126,30268,38,0,B|143:122|143:122|179:144|179:170,1,87.500000834465,2|0,1:0|0:0,0:0:0:0:
374,167,30439,2,0,B|363:192|363:192|326:212|304:199,1,87.500000834465,2|0,1:0|0:0,0:0:0:0:
208,370,30611,2,0,B|191:348|191:348|192:306|214:293,1,87.500000834465,2|0,1:0|0:0,0:0:0:0:
251,36,30782,22,0,P|263:93|248:155,1,117.999995858765,4|0,3:0|0:0,0:0:0:0:
68,108,31125,2,0,L|186:97,1,117.999995858765,8|0,2:0|0:0,0:0:0:0:
340,242,31468,1,4,3:0:0:0:
131,203,31639,1,0,0:0:0:0:
350,124,31811,2,0,L|339:242,1,117.999995858765,8|0,2:0|0:0,0:0:0:0:
213,77,32154,1,4,3:0:0:0:
423,49,32325,1,0,0:0:0:0:
339,241,32497,2,0,L|350:123,1,117.999995858765,8|0,2:0|0:0,0:0:0:0:
421,345,32839,38,0,B|374:357|374:357|356:351,1,64.9999970245363,4|0,0:3|0:0,0:0:0:0:
282,357,33011,2,0,B|242:328|242:328|235:311,1,64.9999970245363
183,258,33182,2,0,B|179:209|179:209|188:192,1,64.9999970245363,8|0,0:2|0:0,0:0:0:0:
195,118,33354,2,0,B|229:84|229:84|248:80,1,64.9999970245363
309,37,33525,2,0,B|346:38|346:38|372:53,3,64.9999970245363
466,57,33868,2,0,L|459:130,1,64.9999970245363,2|0,1:0|0:0,0:0:0:0:
372,199,34039,2,0,L|379:126,1,64.9999970245363,2|0,1:0|0:0,0:0:0:0:
445,249,34211,22,0,B|434:355|434:355|404:338,1,135.000000514984,4|0,3:0|0:0,0:0:0:0:
263,240,34554,2,0,B|274:134|274:134|304:151,1,135.000000514984,8|0,2:0|0:0,0:0:0:0:
173,250,34897,2,0,L|102:259,1,67.5000002574921,4|0,3:0|0:0,0:0:0:0:
353,250,35068,2,0,L|424:259,1,67.5000002574921
102,94,35239,2,0,P|167:118|206:179,1,135.000000514984,8|0,2:0|0:0,0:0:0:0:
67,276,35582,6,0,B|78:170|78:170|108:187,1,135.000000514984,4|0,3:0|0:0,0:0:0:0:
249,285,35925,2,0,B|238:391|238:391|208:374,1,135.000000514984,8|0,2:0|0:0,0:0:0:0:
189,134,36268,1,0,0:0:0:0:
189,134,36354,1,0,0:0:0:0:
189,134,36439,1,0,0:0:0:0:
258,172,36611,22,0,B|305:202|277:282|188:275|133:203|189:132,1,262.500002503395,2|0,1:0|0:0,0:0:0:0:
207,114,36954,22,0,B|289:46|289:46|298:80,1,135.000000514984,4|0,3:0|0:0,0:0:0:0:
329,248,37297,2,0,B|246:315|246:315|237:281,1,135.000000514984,8|0,2:0|0:0,0:0:0:0:
446,92,37639,2,0,L|374:85,1,67.5000002574921,4|0,3:0|0:0,0:0:0:0:
148,92,37811,2,0,L|219:85,1,67.5000002574921
400,185,37982,2,0,P|335:161|295:99,1,135.000000514984,8|0,2:0|0:0,0:0:0:0:
212,153,38325,6,0,B|201:259|201:259|171:242,1,135.000000514984,4|0,3:0|0:0,0:0:0:0:
30,144,38668,2,0,B|41:38|41:38|71:55,1,135.000000514984,8|0,2:0|0:0,0:0:0:0:
90,295,39011,1,0,0:0:0:0:
90,295,39097,1,0,0:0:0:0:
90,295,39182,38,0,B|79:259|79:259|97:202,1,87.500000834465,2|0,1:0|0:0,0:0:0:0:
232,150,39354,1,2,1:0:0:0:
232,150,39439,2,0,B|243:186|243:186|225:243,2,87.500000834465,2|0|0,1:0|0:0|0:0,0:0:0:0:
200,133,39697,54,0,L|131:140,1,59.9999981689454,4|0,3:3|3:3,3:3:0:0:
331,49,39868,1,0,0:0:0:0:
331,49,39954,1,0,0:0:0:0:
331,49,40039,2,0,L|400:42,1,59.9999981689454,4|0,3:3|3:3,3:3:0:0:
122,70,40211,1,0,0:0:0:0:
122,70,40297,1,0,0:0:0:0:
122,70,40382,2,0,L|53:77,1,59.9999981689454,4|0,3:3|3:3,3:3:0:0:
338,118,40554,2,0,L|345:187,1,59.9999981689454,4|0,3:3|3:3,3:3:0:0:
469,279,40725,6,0,B|401:290|401:290|368:279,1,94.9999974632264,2|0,0:1|0:0,0:0:0:0:
186,263,40897,2,0,B|254:252|254:252|279:260,1,94.9999974632264,2|0,0:1|0:0,0:0:0:0:
416,161,41068,54,0,L|489:168,1,72.5000022125245,4|0,3:3|3:3,3:3:0:0:
198,138,41239,1,0,0:0:0:0:
198,138,41325,1,0,0:0:0:0:
198,138,41411,2,0,L|126:131,1,72.5000022125245,4|0,3:3|3:3,3:3:0:0:
423,88,41582,1,0,0:0:0:0:
423,88,41668,1,0,0:0:0:0:
423,88,41754,2,0,L|430:15,1,72.5000022125245,4|0,3:3|3:3,3:3:0:0:
401,305,41925,2,0,L|473:312,1,72.5000022125245,4|0,3:3|3:3,3:3:0:0:
90,243,42097,6,0,B|204:262|281:136|174:78|116:105|120:178,1,292.500001115799,2|0,1:0|0:0,0:0:0:0:
130,197,42439,53,12,3:3:0:0:
161,234,42525,1,0,3:3:0:0:
206,250,42611,1,4,3:3:0:0:
253,241,42697,1,0,3:3:0:0:
289,210,42782,1,12,3:3:0:0:
304,165,42868,1,0,3:3:0:0:
339,133,42954,1,4,3:3:0:0:
385,122,43039,1,0,3:3:0:0:
430,135,43125,5,12,3:3:0:0:
426,193,43211,1,0,3:3:0:0:
389,238,43297,1,4,3:3:0:0:
333,254,43382,1,0,3:3:0:0:
278,234,43468,1,12,3:3:0:0:
243,186,43554,1,0,3:3:0:0:
243,128,43640,1,4,3:3:0:0:
276,80,43725,1,0,3:3:0:0:
330,59,43811,54,2,P|355:64|377:82,10,48.7500001859665
323,152,44325,6,0,L|328:185,36,24.3750000929832,2|0|2|0|2|0|2|0|2|0|2|0|2|0|2|0|2|0|2|0|2|0|2|0|2|0|2|0|2|0|2|0|2|0|2|0|2,0:0|0:0|0:0|0:0|0:0|0:0|0:0|0:0|0:0|0:0|0:0|0:0|0:0|0:0|0:0|0:0|0:0|0:0|0:0|0:0|0:0|0:0|0:0|0:0|0:0|0:0|0:0|0:0|0:0|0:0|0:0|0:0|0:0|0:0|0:0|0:0|0:0,0:0:0:0:
375,260,45182,6,0,L|416:266,2,40,2|0|0,0:0|0:0|0:0,0:0:0:0:
276,245,45697,1,2,0:0:0:0:
177,230,45868,2,0,P|193:188|215:170,1,62.9999980773926
239,66,46211,2,0,P|267:100|271:128,1,62.9999980773926
350,201,46554,2,0,P|305:208|279:197,1,62.9999980773926
177,230,46897,2,0,P|193:188|215:170,1,62.9999980773926
239,66,47240,2,0,P|267:100|271:128,1,62.9999980773926
350,201,47583,2,0,P|305:208|279:197,1,62.9999980773926
119,118,47925,6,0,L|78:112,2,34.9999989318848,2|0|0,0:0|0:0|0:0,0:0:0:0:
218,133,48440,1,2,0:0:0:0:
317,148,48611,2,0,P|301:190|279:208,1,59.9999981689454
255,312,48954,2,0,P|226:277|222:249,1,59.9999981689454
144,177,49297,2,0,P|188:169|214:180,1,59.9999981689454
317,148,49640,2,0,P|301:190|279:208,1,59.9999981689454
255,312,49983,2,0,P|226:277|222:249,1,59.9999981689454
144,177,50326,2,0,P|188:169|214:180,1,59.9999981689454
392,347,50668,6,0,L|426:352,2,29.9999990844727,2|0|0,0:0|0:0|0:0,0:0:0:0:
293,332,51183,1,2,0:0:0:0:
194,317,51354,2,0,P|210:275|232:257,1,55.0000016784668
256,153,51697,2,0,P|284:187|288:215,1,55.0000016784668
367,288,52040,2,0,P|322:295|296:284,1,55.0000016784668
194,317,52383,2,0,P|210:275|232:257,1,55.0000016784668
256,153,52726,2,0,P|284:187|288:215,1,55.0000016784668
367,288,53069,2,0,P|322:295|296:284,1,55.0000016784668
216,268,53411,38,0,L|159:280,3,55.0000016784668
286,196,54097,2,0,L|304:140,3,55.0000016784668
313,292,54782,2,0,L|351:335,3,55.0000016784668
191,174,55468,6,0,B|157:167|121:182,3,55.0000016784668
442,222,56154,6,0,B|326:238|326:238|301:233,1,139.999995727539,2|2,0:0|0:0,0:0:0:0:
247,144,56668,1,2,0:0:0:0:
434,49,57011,1,2,0:0:0:0:
434,49,57182,2,0,B|447:149|407:208|407:208|373:171,1,209.999993591309,2|0,0:0|0:0,0:0:0:0:
171,67,57868,38,2,P|209:63|245:71,1,69.9999978637696
353,55,58211,2,2,P|337:89|312:117,1,69.9999978637696
272,218,58554,2,2,P|249:187|238:151,1,69.9999978637696
99,15,58897,6,0,B|83:131|83:131|88:156,1,139.999995727539,2|2,0:0|0:0,0:0:0:0:
183,110,59411,1,2,0:0:0:0:
345,242,59754,1,2,0:0:0:0:
345,242,59925,2,0,B|332:142|372:83|372:83|406:120,1,209.999993591309,2|0,0:0|0:0,0:0:0:0:
503,269,60611,6,2,P|465:273|429:265,1,69.9999978637696
321,280,60954,2,2,P|336:245|361:217,1,69.9999978637696
402,116,61297,2,2,P|424:146|435:182,1,69.9999978637696
481,361,61639,38,0,B|364:346|364:346|341:335,1,139.999995727539,2|2,0:0|0:0,0:0:0:0:
410,255,62153,1,2,0:0:0:0:
226,151,62497,1,2,0:0:0:0:
226,151,62668,2,0,B|239:251|199:310|199:310|165:273,1,209.999993591309,2|0,0:0|0:0,0:0:0:0:
79,183,63354,6,2,P|119:176|145:149,1,69.9999978637696
228,82,63697,2,2,P|214:120|224:156,1,69.9999978637696
242,265,64039,2,2,P|215:233|179:224,1,69.9999978637696
70,367,64382,6,0,B|84:250|84:250|95:227,1,139.999995727539,2|2,0:0|0:0,0:0:0:0:
176,296,64897,2,0,L|328:312,1,139.999995727539,2|0,0:0|0:0,0:0:0:0:
150,179,65582,2,2,L|146:141,1,34.9999989318848
123,111,65754,2,0,L|272:112,1,139.999995727539,2|2,0:0|0:0,0:0:0:0:
363,59,66268,2,0,P|378:102|377:143,1,69.9999978637696,2|0,0:0|0:0,0:0:0:0:
252,344,66782,38,0,P|237:300|266:232,1,120,2|0,0:0|0:0,0:0:0:0:
316,296,67125,2,0,B|174:288|174:288|149:278,1,160,2|2,0:0|0:0,0:0:0:0:
85,184,67639,1,2,0:0:0:0:
299,75,67982,1,2,0:0:0:0:
299,75,68154,2,0,B|346:168|280:236|280:236|218:201,1,240,2|0,0:0|0:0,0:0:0:0:
145,44,68839,5,2,0:0:0:0:
145,44,69011,1,2,0:0:0:0:
239,117,69182,1,2,0:0:0:0:
239,117,69354,1,2,0:0:0:0:
128,161,69525,1,2,0:0:0:0:
128,161,69697,1,2,0:0:0:0:
220,41,69868,6,0,B|362:49|362:49|387:59,1,160,2|2,0:0|0:0,0:0:0:0:
451,153,70382,1,2,0:0:0:0:
286,328,70725,1,2,0:0:0:0:
286,328,70897,2,0,B|239:235|305:167|305:167|367:202,1,240,2|0,0:0|0:0,0:0:0:0:
440,348,71582,37,2,0:0:0:0:
440,348,71754,1,2,0:0:0:0:
346,275,71925,1,2,0:0:0:0:
346,275,72097,1,2,0:0:0:0:
457,231,72268,1,2,0:0:0:0:
457,231,72440,1,2,0:0:0:0:
252,348,72611,6,0,B|110:340|110:340|85:330,1,160,2|2,0:0|0:0,0:0:0:0:
21,236,73125,1,2,0:0:0:0:
215,95,73468,1,2,0:0:0:0:
215,95,73639,2,0,B|227:198|142:239|142:239|95:185,1,240,2|0,0:0|0:0,0:0:0:0:
111,82,74324,5,2,0:0:0:0:
111,82,74496,1,2,0:0:0:0:
276,12,74667,1,2,0:0:0:0:
276,12,74839,1,2,0:0:0:0:
249,190,75010,1,2,0:0:0:0:
249,190,75182,1,2,0:0:0:0:
30,29,75354,38,0,B|38:171|38:171|48:196,1,170.000003242493,2|2,0:0|0:0,0:0:0:0:
142,260,75868,1,2,0:0:0:0:
341,100,76211,1,2,0:0:0:0:
341,100,76382,2,0,P|328:248|420:88,1,510.000009727478,2|0,0:0|0:0,0:0:0:0:
423,89,77754,1,8,1:2:0:0:
89,295,78097,5,4,1:3:0:0:
220,196,78268,1,0,1:3:0:0:
240,358,78439,1,0,1:3:0:0:
125,205,78611,2,0,P|168:121|285:127,1,219.99999622345,4|0,1:3|1:3,1:3:0:0:
369,260,79125,1,4,1:3:0:0:
143,302,79297,2,0,P|52:274|38:157,1,220.000006713867,0|0,1:3|1:3,1:3:0:0:
125,205,79811,1,4,1:3:0:0:
389,49,79982,22,0,B|279:97|279:97|337:71|383:115,1,220.000006713867,0|0,1:3|1:3,1:3:0:0:
162,86,80497,2,0,L|159:50,4,27.5000008392334,2|0|0|0|2,2:2|2:2|2:2|2:2|2:2,2:2:0:0:
50,207,80839,37,4,1:3:0:0:
210,244,81010,1,0,1:3:0:0:
162,86,81182,1,0,1:3:0:0:
114,296,81354,2,0,P|187:355|291:302,1,220.000006713867,4|0,1:3|1:3,1:3:0:0:
285,94,81868,2,0,L|293:212,1,110.000003356934,0|0,1:3|1:3,1:3:0:0:
369,143,82211,5,4,1:3:0:0:
205,157,82382,1,0,1:3:0:0:
274,8,82554,1,0,1:3:0:0:
299,313,82725,2,0,L|284:93,1,220.000006713867,4|0,1:3|1:3,1:3:0:0:
181,210,83239,1,0,1:0:0:0:
181,210,83411,1,0,1:0:0:0:
411,157,83582,37,4,1:3:0:0:
354,49,83754,1,0,1:3:0:0:
303,214,83925,1,0,1:3:0:0:
246,106,84097,2,0,P|185:188|214:305,1,220.000006713867,4|0,1:3|1:3,1:3:0:0:
384,265,84611,1,4,1:3:0:0:
246,106,84782,2,0,P|153:86|42:149,1,220.000006713867,0|0,1:3|1:3,1:3:0:0:
162,186,85297,1,0,1:0:0:0:
388,49,85468,6,0,B|423:78|423:78|426:194|426:194|426:256|382:253|382:253,1,220.000006713867,0|0,1:3|1:3,1:3:0:0:
36,137,85982,38,0,B|55:136|55:136|73:140|73:140|90:139|90:139|105:144,1,50,2|2,0:0|0:0,0:0:0:0:
339,231,86325,5,4,1:3:0:0:
139,56,86497,1,0,1:3:0:0:
225,308,86668,1,0,1:3:0:0:
401,108,86839,2,0,P|284:109|209:201,1,239.999992675781,4|0,1:3|1:3,1:0:0:0:
391,338,87354,2,0,L|338:230,1,119.999996337891,0|0,1:0|1:0,1:0:0:0:
112,264,87697,5,4,1:3:0:0:
317,119,87868,1,0,1:3:0:0:
88,13,88039,1,0,1:3:0:0:
264,262,88211,2,0,B|293:336|435:264|295:100|202:185|191:242,1,299.999990844727,4|0,1:2|1:2,1:2:0:0:
189,281,88725,1,2,2:2:0:0:
210,324,88811,1,2,2:2:0:0:
245,356,88897,1,2,2:2:0:0:
291,365,88982,1,2,2:2:0:0:
338,357,89068,6,0,P|387:322|409:259,1,119.999996337891,4|2,3:3|0:0,0:0:0:0:
416,49,89411,2,0,L|412:169,1,119.999996337891,8|2,3:2|0:0,0:0:0:0:
312,254,89754,1,4,3:3:0:0:
287,124,89925,1,2,3:2:0:0:
391,331,90097,2,0,L|271:351,1,119.999996337891,8|2,3:2|0:0,0:0:0:0:
114,213,90439,2,0,P|168:188|234:200,1,119.999996337891,4|2,3:3|0:0,0:0:0:0:
192,381,90782,2,0,L|181:260,1,119.999996337891,8|2,3:2|0:0,0:0:0:0:
291,133,91125,1,4,3:3:0:0:
348,292,91297,1,2,3:2:0:0:
188,177,91468,5,10,3:2:0:0:
182,123,91554,1,0,0:0:0:0:
203,73,91639,1,2,0:2:0:0:
246,40,91725,1,0,0:0:0:0:
300,37,91811,22,0,P|355:61|389:118,1,119.999996337891,4|2,3:3|0:0,0:0:0:0:
277,252,92154,2,0,L|156:262,1,119.999996337891,8|2,3:2|0:0,0:0:0:0:
391,182,92497,1,4,3:3:0:0:
394,315,92668,1,2,3:2:0:0:
275,119,92839,2,0,L|264:-1,1,119.999996337891,8|2,3:2|0:0,0:0:0:0:
280,198,93182,2,0,P|255:253|198:287,1,119.999996337891,4|2,3:3|0:0,0:0:0:0:
90,173,93525,2,0,L|210:162,1,119.999996337891,8|2,3:2|0:0,0:0:0:0:
363,67,93868,1,4,3:3:0:0:
183,76,94039,1,2,3:2:0:0:
271,284,94211,2,0,B|292:188|292:188|313:166,1,119.999996337891,8|2,3:2|0:0,0:0:0:0:
310,358,94554,6,0,P|249:359|194:322,1,119.999996337891,4|2,3:3|0:0,0:0:0:0:
383,213,94897,2,0,L|393:333,1,119.999996337891,8|2,3:2|0:0,0:0:0:0:
269,155,95239,1,4,3:3:0:0:
485,137,95411,1,2,3:2:0:0:
272,286,95582,2,0,L|151:296,1,119.999996337891,8|2,3:2|0:0,0:0:0:0:
353,251,95925,2,0,P|354:311|317:366,1,119.999996337891,4|2,3:3|0:0,0:0:0:0:
85,218,96268,2,0,L|205:207,1,119.999996337891,8|2,3:2|0:0,0:0:0:0:
292,379,96611,1,4,3:3:0:0:
100,370,96783,1,2,3:2:0:0:
306,264,96954,22,0,B|281:191|179:271|230:346|305:356|345:331,1,244.499999813461,2|0,1:0|0:0,0:0:0:0:
363,316,97297,22,0,P|385:259|369:195,1,119.999996337891,4|2,3:3|0:0,0:0:0:0:
184,234,97639,1,8,2:0:0:0:
363,316,97811,1,2,0:2:0:0:
345,120,97982,2,0,B|335:110|326:101|297:72|240:49|176:65,1,119.999996337891,4|2,3:3|0:0,0:0:0:0:
259,312,98325,1,8,0:2:0:0:
345,120,98497,1,2,0:0:0:0:
136,142,98668,38,0,B|90:145|90:145|43:132,1,83.0000012031555,2|0,1:0|0:0,0:0:0:0:
289,186,98839,2,0,B|243:183|243:183|196:196,1,83.0000012031555,2|0,1:0|0:0,0:0:0:0:
345,120,99011,6,0,P|378:137|398:160,3,59.9999981689454,0|0|0|0,3:0|3:0|3:0|3:0,3:0:0:0:
260,105,99354,2,0,P|227:88|207:65,3,59.9999981689454,0|0|0|0,3:0|3:0|3:0|3:0,3:0:0:0:
264,347,99697,54,2,B|235:272|322:250|283:171,1,170.000003242493,2|0,0:1|0:1,0:1:0:0:
27,157,100039,21,0,0:0:0:0:
27,157,100125,1,0,0:0:0:0:
27,157,100211,2,0,L|79:169,1,50
176,293,100382,1,0,0:0:0:0:
176,293,100468,1,0,0:0:0:0:
176,293,100554,2,0,L|160:241,1,50
220,96,100725,2,0,L|183:135,1,50
62,267,100897,2,0,L|98:228,1,50
389,52,101068,38,2,P|401:90|393:127,1,75,0|0,2:1|2:1,2:1:0:0:
299,342,101411,37,0,0:0:0:0:
299,342,101497,1,0,0:0:0:0:
299,342,101582,2,0,L|296:273,1,59.9999981689454
328,100,101754,1,0,0:0:0:0:
328,100,101839,1,0,0:0:0:0:
328,100,101925,2,0,L|331:169,1,59.9999981689454
192,206,102097,2,0,L|261:203,1,59.9999981689454
434,235,102268,2,0,L|365:238,1,59.9999981689454
121,308,102439,38,0,P|128:316|123:310,1,98.999999697876,2|0,0:1|0:0,0:0:0:0:
245,333,102611,2,0,P|237:324|242:330,1,98.999999697876,2|0,0:1|0:0,0:0:0:0:
194,56,102782,37,0,0:0:0:0:
194,56,102868,1,0,0:0:0:0:
194,56,102954,2,0,L|262:65,1,64.9999970245363
394,124,103125,1,0,0:0:0:0:
394,124,103211,1,0,0:0:0:0:
394,124,103297,2,0,L|326:133,1,64.9999970245363
194,191,103468,2,0,L|262:200,1,64.9999970245363
394,259,103639,2,0,L|326:268,1,64.9999970245363
42,322,103811,6,0,B|29:353|29:353|35:383,3,64.9999970245363
112,51,104154,21,0,0:0:0:0:
112,51,104239,1,0,0:0:0:0:
112,51,104325,2,0,L|123:129,1,64.9999970245363
213,291,104497,1,0,0:0:0:0:
213,291,104582,1,0,0:0:0:0:
213,291,104668,2,0,L|202:213,1,64.9999970245363
425,109,104839,38,0,B|330:124|330:124|288:65|288:65|274:181|274:181|235:139|235:139|187:146,1,385.000011749268
75,214,105525,21,8,3:0:0:0:
73,247,105611,1,4,3:0:0:0:
92,273,105697,1,4,3:0:0:0:
123,280,105782,1,4,3:0:0:0:
156,262,105868,5,8,3:0:0:0:
169,226,105954,1,4,3:0:0:0:
155,190,106039,1,4,3:0:0:0:
121,171,106125,1,4,3:0:0:0:
104,128,106211,5,8,3:0:0:0:
118,84,106297,1,4,3:0:0:0:
157,59,106382,1,4,3:0:0:0:
202,64,106468,1,4,3:0:0:0:
236,99,106554,37,8,3:0:0:0:
239,147,106639,1,4,3:0:0:0:
210,185,106725,1,4,3:0:0:0:
212,232,106811,1,4,3:0:0:0:
246,269,106897,5,8,3:0:0:0:
295,275,106982,1,4,3:0:0:0:
336,248,107068,1,4,3:0:0:0:
350,200,107154,1,4,3:0:0:0:
324,144,107239,5,8,3:0:0:0:
270,113,107325,1,4,3:0:0:0:
207,118,107411,1,4,3:0:0:0:
158,158,107497,1,4,3:0:0:0:
136,230,107582,37,8,3:0:0:0:
159,301,107668,1,4,3:0:0:0:
218,345,107754,1,4,3:0:0:0:
291,347,107839,1,4,3:0:0:0:
357,301,107925,5,8,3:0:0:0:
384,225,108011,1,4,3:0:0:0:
362,147,108097,1,4,3:0:0:0:
299,95,108182,1,4,3:0:0:0:
200,86,108268,22,0,P|194:76|198:79,6,50
149,191,108611,2,0,P|134:185|140:185,6,69.9999978637696
235,299,108954,2,0,P|212:307|219:300,6,89.9999972534181
324,218,109297,2,8,B|348:210|348:210|391:228|391:228|347:236,6,100,8|8|8|8|8|8|8,3:0|3:0|3:0|3:0|3:0|3:0|3:0,3:0:0:0:
81,71,109639,6,2,B|230:80|265:223|214:332|75:312|75:312|79:231|154:164|225:218|225:218|312:314|574:341|545:24|352:-40|241:133|341:194|383:172,1,1190.00002269745,6|0,2:1|0:1,0:1:0:0:
402,179,111011,54,0,B|476:138|476:138|298:149,1,250,4|0,0:3|0:0,0:0:0:0:
186,232,111354,1,4,0:3:0:0:
186,232,111525,1,0,0:0:0:0:
107,159,111697,6,0,B|68:119|68:119|88:236,1,170.000003242493,4|0,0:3|0:0,0:0:0:0:
162,336,111954,2,0,B|146:389|146:389|238:313,1,170.000003242493
287,199,112211,2,0,B|330:203|338:144|273:90|218:132|201:218,1,170.000003242493
0,304,112382,54,0,L|104:298,1,104.999996795654,4|0,0:3|0:0,0:0:0:0:
208,291,112554,2,0,B|241:282|241:282|281:295|281:295|312:285,1,104.999996795654
417,205,112725,6,0,P|409:155|412:206,1,134.999995880127,4|0,0:3|0:0,0:0:0:0:
423,286,113068,53,2,2:0:0:0:
396,280,113154,1,2,2:0:0:0:
369,274,113239,1,2,2:0:0:0:
342,268,113325,1,2,2:0:0:0:
315,262,113411,2,0,L|319:172,1,75.0000028610231,2|0,2:2|0:0,0:0:0:0:
228,236,113582,2,0,L|224:326,1,75.0000028610231,2|0,2:2|0:0,0:0:0:0:
143,204,113754,6,0,B|90:189|90:189|288:146,1,250,4|0,0:3|0:0,0:0:0:0:
399,239,114097,1,4,0:3:0:0:
399,239,114268,1,0,0:0:0:0:
329,321,114439,54,0,B|263:225|263:225|320:243,1,170.000003242493,4|0,0:3|0:0,0:0:0:0:
362,137,114697,2,0,B|478:127|478:127|434:168,1,170.000003242493
504,257,114954,2,0,B|543:275|521:330|437:343|411:280|439:196,1,170.000003242493
424,169,115125,5,2,0:2:0:0:
376,99,115211,1,2,0:2:0:0:
298,62,115297,1,2,0:2:0:0:
213,68,115382,1,2,0:2:0:0:
219,154,115468,54,0,B|211:169|211:169|222:183|222:183|211:193|211:193|217:209,1,60,2|0,0:1|0:0,0:0:0:0:
46,348,115811,6,0,P|18:268|61:200,1,155.000001182556,2|0,0:1|0:0,0:0:0:0:
105,141,115982,2,0,P|133:221|90:289,1,155.000001182556,2|0,0:1|0:0,0:0:0:0:
29,62,116154,2,0,B|60:61|60:61|84:47|84:47|131:68|131:68|162:61|162:61|194:61,1,155.000001182556,2|0,0:1|0:0,0:0:0:0:
350,99,116325,2,0,B|332:117|332:117|299:121|299:121|263:134|263:134|222:120|222:120|198:129,1,155.000001182556,2|0,0:1|0:0,0:0:0:0:
279,333,116497,54,0,B|264:386|264:386|221:188,1,250,4|0,0:3|0:0,0:0:0:0:
345,215,116839,1,4,0:3:0:0:
345,215,117011,1,0,0:0:0:0:
422,158,117182,6,0,B|475:140|475:140|422:262,1,170.000003242493,4|0,0:3|0:0,0:0:0:0:
355,310,117439,2,0,B|344:364|344:364|264:258,1,170.000003242493
256,175,117697,2,0,B|212:179|204:120|269:66|324:108|341:194,1,170.000003242493
449,259,117868,54,0,L|334:254,1,104.999996795654,4|0,0:3|0:0,0:0:0:0:
239,249,118039,2,0,B|203:255|203:255|174:241|174:241|134:244,1,104.999996795654
39,300,118211,6,0,P|63:346|78:289,1,134.999995880127,4|0,0:3|0:0,0:0:0:0:
48,198,118554,53,2,2:2:0:0:
82,188,118639,1,2,2:2:0:0:
116,177,118725,1,2,2:2:0:0:
150,167,118811,1,2,2:2:0:0:
218,147,118897,2,0,L|248:232,1,75.0000028610231
286,127,119068,2,0,L|316:212,1,75.0000028610231
432,55,119239,6,0,B|473:61|447:150|365:137|347:72,1,150.000005722046,4|0,0:3|0:0,0:0:0:0:
245,48,119411,54,0,B|225:37|225:37|221:89|221:89|234:116|234:116|209:224,1,199.999990463257
114,310,119582,2,0,B|176:322|176:322|207:293|207:293|245:303|245:303|276:287|276:287|312:286,1,199.999990463257,4|0,0:3|0:0,0:0:0:0:
416,288,119754,6,0,B|467:262|461:217|461:217|429:185|378:210,1,179.999994506836,2|4,0:2|0:3,0:0:0:0:
305,162,120011,2,0,B|316:115|284:94|284:94|246:97|234:144,1,150.000005722046,2|0,0:2|0:0,0:0:0:0:
154,127,120268,53,2,2:0:0:0:
154,127,120354,1,2,2:0:0:0:
154,127,120439,1,2,2:0:0:0:
154,127,120525,1,2,2:0:0:0:
69,205,120611,54,0,B|273:215|273:215|315:328|315:328|392:364|459:288|459:288|400:206|320:233|320:233|267:341|267:341|62:331,1,974.999955368044,4|0,0:3|0:0,0:0:0:0:
33,326,121982,6,0,B|-21:310|-21:310|177:267,1,250,4|0,0:3|0:0,0:0:0:0:
367,247,122325,1,4,0:3:0:0:
367,247,122497,1,0,0:0:0:0:
257,323,122668,6,0,B|246:198|246:198|287:235,1,169.999995136261,4|0,0:3|0:0,0:0:0:0:
487,304,122925,2,0,B|384:376|384:376|395:322,1,169.999995136261,0|0,0:3|0:0,0:0:0:0:
355,114,123182,2,0,B|339:72|394:49|463:98|437:162|358:201,1,170.000003242493
367,247,123354,54,0,L|260:237,1,104.999991788864,4|0,0:3|0:0,0:0:0:0:
154,225,123525,2,0,B|113:214|113:214|72:226|72:226|59:208,1,104.999991788864
52,74,123697,6,0,P|76:28|91:85,1,134.999995880127,4|0,0:3|0:0,0:0:0:0:
111,298,124039,53,2,0:2:0:0:
147,331,124125,1,2,0:2:0:0:
195,333,124211,1,2,0:2:0:0:
233,303,124297,1,2,0:2:0:0:
219,212,124382,2,0,P|213:183|188:142,1,74.9999992847443
128,210,124554,2,0,P|104:191|59:176,1,74.9999992847443
22,293,124725,6,0,B|-9:328|-9:328|31:108,1,259.99997570038,4|0,0:3|0:0,0:0:0:0:
175,132,125068,1,4,0:3:0:0:
175,132,125239,1,0,0:0:0:0:
77,188,125411,54,0,B|64:58|64:58|107:89,1,174.99999332428,4|0,0:3|0:0,0:0:0:0:
272,188,125668,2,0,B|165:264|165:264|171:211,1,174.99999332428
174,19,125925,2,0,B|208:-2|239:21|235:104|168:118|107:73,1,174.99999332428
49,102,126097,1,2,0:2:0:0:
2,178,126182,1,2,0:2:0:0:
30,262,126268,1,2,0:2:0:0:
112,294,126354,1,2,0:2:0:0:
129,206,126439,6,0,B|146:178|146:178|139:164|139:164|168:143|168:143|160:121|160:121|172:104,1,119.999994277954,2|0,0:1|0:1,0:1:0:0:
376,99,126782,54,0,B|389:97|420:109|420:109|359:39|276:59,1,199.999990463257,2|0,0:1|0:1,0:1:0:0:
102,129,126954,2,0,B|49:128|79:217|143:162|161:114|209:108|259:132,1,199.999990463257,2|0,0:1|0:1,0:1:0:0:
452,182,127125,2,0,B|418:200|418:200|374:196|374:196|331:202|331:202|294:185|294:185|252:198,1,199.999990463257,2|0,0:1|0:1,0:1:0:0:
68,246,127297,2,0,B|100:278|100:278|154:285|154:285|214:273|214:273|228:278|228:278|270:269,1,199.999990463257,2|0,0:1|0:1,0:1:0:0:
444,271,127468,22,0,L|448:321,1,44.9999964809419
450,328,127811,38,0,B|469:371|469:371|498:149,1,259.99997570038,4|0,0:3|0:0,0:0:0:0:
144,86,128154,6,0,P|196:150|294:148,1,177.999991648102,4|0,0:3|0:0,0:0:0:0:
414,62,128411,2,0,P|332:75|285:160,1,177.999991648102
304,309,128668,2,0,B|335:225|335:225|282:148,1,177.999991648102
66,53,128839,54,0,L|76:153,1,80.9999981151581,4|0,0:3|0:0,0:0:0:0:
82,213,129011,2,0,B|86:242|86:242|77:280|77:280|99:290,1,80.9999981151581
245,288,129182,2,0,P|304:265|252:235,1,149.999992847443,4|0,0:3|0:0,0:0:0:0:
21,152,129525,5,2,0:2:0:0:
65,147,129611,1,2,0:2:0:0:
109,142,129697,1,2,0:2:0:0:
153,137,129782,1,2,0:2:0:0:
197,132,129868,2,0,L|234:179,1,49.9999976158143,2|0,0:2|0:0,0:0:0:0:
285,122,130039,2,0,L|322:169,1,49.9999976158143,2|0,0:2|0:0,0:0:0:0:
382,274,130211,54,8,B|389:294|389:294|374:332,6,49.9999976158143,8|8|8|8|8|8|8,0:3|0:3|0:3|0:3|0:3|0:3|0:3,0:3:0:0:
308,231,130554,2,8,B|281:226|281:226|250:186,6,74.9999992847443,8|8|8|8|8|8|8,0:3|0:3|0:3|0:3|0:3|0:3|0:3,0:3:0:0:
382,188,130897,2,8,B|402:163|402:163|462:154,6,87.4999966621399,8|8|8|8|8|8|8,0:3|0:3|0:3|0:3|0:3|0:3|0:3,0:3:0:0:
382,274,131239,5,12,0:3:0:0:
294,285,131325,1,12,0:3:0:0:
206,296,131411,1,12,0:3:0:0:
119,308,131497,1,12,0:3:0:0:
33,317,131582,54,2,B|54:249|127:193|127:193|230:102|135:7|135:7|33:94|128:194|128:194|204:237|204:237|305:142|261:37|261:37|312:159|485:95|485:95|435:44|386:43,1,1274.99996352196,6|0,0:1|0:1,0:1:0:0:
373,45,132954,6,0,B|309:50|314:114|314:114|325:241,1,229.999993419647,4|0,0:3|0:0,0:0:0:0:
420,286,133297,54,0,L|406:126,1,159.999992370606,4|0,0:3|0:0,0:0:0:0:
184,275,133639,6,0,B|193:322|193:322|281:235,1,167.999986862183,4|0,0:3|0:0,0:0:0:0:
241,68,133897,2,0,B|195:52|195:52|227:172,1,167.999986862183
372,207,134154,2,0,B|416:203|417:138|347:111|306:162,1,159.999992370606
313,281,134325,6,0,P|381:295|448:269,1,129.99998785019,4|0,0:3|0:0,0:0:0:0:
368,77,134668,2,0,L|372:211,1,129.99998785019,8|0,0:2|0:0,0:0:0:0:
445,71,135011,37,2,0:2:0:0:
421,21,135096,1,2,0:2:0:0:
370,0,135182,1,2,0:2:0:0:
317,16,135268,1,2,0:2:0:0:
288,64,135354,2,0,L|279:140,1,56.4999974782944,2|0,0:2|0:0,0:0:0:0:
344,151,135525,2,0,L|369:223,1,56.4999974782944,2|0,0:2|0:0,0:0:0:0:
461,264,135697,6,0,B|467:327|403:334|403:334|276:345,1,229.999993419647,4|0,0:3|0:0,0:0:0:0:
126,274,136039,54,0,L|286:260,1,159.999992370606,4|0,0:3|0:0,0:0:0:0:
411,232,136382,6,0,B|458:232|458:232|390:129,1,167.999986862183,4|0,0:3|0:0,0:0:0:0:
217,135,136640,2,0,B|192:177|192:177|316:168,1,167.999986862183
378,34,136897,2,0,B|382:-9|318:-23|278:40|321:90,1,159.999992370606
479,181,137068,54,0,P|490:229|480:280,1,93.9999850740439,2|0,0:1|0:0,0:0:0:0:
342,281,137239,2,0,P|331:233|341:182,1,93.9999850740439,2|0,0:1|0:0,0:0:0:0:
428,112,137411,6,0,B|523:120|523:120|555:123|552:155|552:155|549:186|518:184|518:184|470:179,1,239.999958229067,2|2,0:1|0:1,0:1:0:0:
390,348,137754,2,0,B|295:340|295:340|263:337|266:305|266:305|269:274|300:276|300:276|348:281,1,239.999958229067,2|2,0:1|0:1,0:1:0:0:
109,248,138097,54,2,B|146:207|146:207|117:164|117:164|165:181|165:181|200:133|200:133|195:190|195:190|251:209|251:209|195:222|195:222|194:280|194:280|168:230|168:230|135:245,1,500,0|0,0:1|0:1,0:1:0:0:
85,346,138439,6,0,B|22:352|15:288|15:288|4:161,1,229.999993419647,4|0,0:3|0:0,0:0:0:0:
84,39,138782,54,0,L|98:199,1,159.999992370606,4|0,0:3|0:0,0:0:0:0:
243,312,139125,6,0,B|268:351|268:351|317:238,1,167.999986862183,4|0,0:3|0:0,0:0:0:0:
217,96,139383,2,0,B|168:97|168:97|243:197,1,167.999986862183
390,176,139640,2,0,B|428:155|405:94|330:95|311:158,1,159.999992370606
243,312,139811,5,0,0:0:0:0:
206,328,139897,1,0,0:0:0:0:
167,316,139982,1,0,0:0:0:0:
144,282,140068,1,0,0:0:0:0:
149,241,140153,1,0,0:0:0:0:
178,213,140239,1,0,0:0:0:0:
182,172,140325,1,0,0:0:0:0:
158,138,140411,1,0,0:0:0:0:
95,132,140497,37,2,2:2:0:0:
58,183,140582,1,2,2:2:0:0:
83,240,140668,1,2,2:2:0:0:
144,246,140754,1,2,2:2:0:0:
179,196,140839,2,0,L|155:128,1,56.999986491681,2|0,2:2|2:2,2:2:0:0:
76,78,141011,2,0,L|100:146,1,56.999986491681,2|0,2:2|2:2,2:2:0:0:
396,146,141182,38,0,P|410:78|384:11,1,129.99998785019,4|0,0:3|0:0,0:0:0:0:
192,91,141525,2,0,L|326:87,1,129.99998785019,8|0,0:2|0:0,0:0:0:0:
107,163,141868,22,0,B|68:188|68:188|181:237,1,167.999986862183,4|0,0:3|0:0,0:0:0:0:
323,137,142126,2,0,B|322:88|322:88|222:163,1,167.999986862183
243,310,142383,2,0,B|264:348|325:325|324:250|261:231,1,159.999992370606
128,174,142554,54,0,P|58:172|-2:209,1,129.99998785019,4|0,0:3|0:0,0:0:0:0:
108,384,142897,2,0,L|80:252,1,129.99998785019,8|0,0:2|0:0,0:0:0:0:
89,75,143239,37,4,0:3:0:0:
158,271,143411,1,0,0:3:0:0:
170,50,143582,2,0,L|197:181,1,129.99998785019,8|0,0:2|0:0,0:0:0:0:
289,364,143925,38,0,B|352:370|359:306|359:306|370:179,1,229.999993419647,4|0,0:3|0:0,0:0:0:0:
299,29,144268,6,0,L|285:189,1,159.999992370606,4|0,0:3|0:0,0:0:0:0:
449,51,144611,54,0,B|327:4|327:4|290:34,1,167.999957109836,4|0,0:3|0:0,0:0:0:0:
251,240,144868,2,0,B|351:158|351:158|343:111,1,167.999957109836,0|0,0:3|0:0,0:0:0:0:
177,76,145125,2,0,B|141:63|99:123|181:179|250:108,1,179.999954046253
438,249,145297,21,2,0:2:0:0:
364,85,145468,1,0,0:0:0:0:
277,367,145639,2,0,L|249:235,1,129.99998785019,8|0,0:2|0:0,0:0:0:0:
133,135,145982,37,2,0:2:0:0:
79,149,146067,1,2,0:2:0:0:
50,196,146153,1,2,0:2:0:0:
56,251,146239,1,2,0:2:0:0:
98,288,146326,2,0,L|171:310,1,54.9999893155101,2|0,0:2|0:0,0:0:0:0:
194,248,146497,2,0,L|269:235,1,54.9999893155101,2|0,0:2|0:0,0:0:0:0:
339,40,146668,6,0,B|275:36|271:100|271:100|264:227,1,229.999993419647,4|0,0:3|0:0,0:0:0:0:
340,375,147011,54,0,L|348:214,1,159.999992370606,4|0,0:3|0:0,0:0:0:0:
112,38,147354,6,0,B|44:149|44:149|67:191,1,167.999957109836,4|0,0:3|0:0,0:0:0:0:
263,265,147611,2,0,B|199:152|199:152|151:151,1,167.999957109836,0|0,0:3|0:0,0:0:0:0:
89,310,147868,2,0,B|69:343|121:394|191:323|133:243,1,159.999964035036
48,82,148039,53,2,0:2:0:0:
48,82,148211,1,2,0:2:0:0:
214,60,148382,6,0,B|284:60|299:96|299:96|285:122|253:124,1,135.999970259859,2|0,0:1|0:0,0:0:0:0:
211,201,148554,2,0,B|141:201|126:165|126:165|140:139|172:137,1,135.999970259859,2|0,0:1|0:0,0:0:0:0:
372,60,148725,2,0,B|402:111|371:160|371:160|336:166,1,135.999970259859,2|0,0:1|0:0,0:0:0:0:
53,201,148897,2,0,B|23:150|54:101|54:101|89:95,1,135.999970259859,2|0,0:1|0:0,0:0:0:0:
364,243,149068,54,8,B|372:275|372:275|359:272|359:272|369:310,6,74.9999860024455,2|8|8|8|2|8|8,0:1|0:3|0:3|0:3|0:3|0:3|0:3,0:3:0:0:
266,89,149411,21,0,0:0:0:0:
224,218,149582,1,0,0:0:0:0:
108,89,149754,1,0,0:0:0:0:
153,266,149925,5,2,0:2:0:0:
153,266,150011,1,2,0:2:0:0:
153,266,150097,1,2,0:2:0:0:
357,190,150268,1,0,0:0:0:0:
104,179,150439,1,0,0:1:0:0:
314,283,150611,5,2,0:2:0:0:
314,283,150697,1,2,0:2:0:0:
314,283,150783,1,2,0:2:0:0:
196,109,150954,1,0,0:1:0:0:
215,303,151125,1,0,0:1:0:0:
177,30,151296,37,2,0:2:0:0:
177,30,151382,1,2,0:2:0:0:
177,30,151468,1,2,0:2:0:0:
417,274,151639,1,0,0:1:0:0:
224,218,151811,1,0,0:0:0:0:
440,114,151982,5,2,0:2:0:0:
440,114,152068,1,2,0:2:0:0:
440,114,152154,22,0,P|494:117|529:133,1,84.9999825148589,2|0,0:1|0:0,0:0:0:0:
465,218,152325,1,2,0:2:0:0:
287,104,152497,2,0,P|335:79|373:75,1,85.0000016212464,2|0,0:1|0:1,0:1:0:0:
360,181,152668,1,2,0:2:0:0:
134,179,152839,2,0,P|170:123|208:96,1,89.9999770231264,2|0,0:1|0:1,0:1:0:0:
257,215,153010,1,2,0:2:0:0:
70,343,153182,2,0,P|74:270|95:223,1,94.9999761090296,2|0,0:1|0:1,0:1:0:0:
206,308,153353,1,2,0:2:0:0:
352,332,153525,6,2,B|413:346|437:371|437:371|394:327|357:215|357:215|395:182|448:113|448:113|426:142|451:179|451:179|386:84|294:80,1,664.999982242585,2|0,0:1|0:1,0:1:0:0:
223,98,154211,54,8,B|150:116|150:116|178:97|179:73,14,99.9999775218975,8|8|8|8|8|8|8|8|8|8|8|8|8|8|8,0:3|0:3|0:3|0:3|0:3|0:3|0:3|0:3|0:3|0:3|0:3|0:3|0:3|0:3|0:3,0:3:0:0:
304,87,154897,22,0,B|339:83|365:65|377:44|377:44|326:130|361:245|361:245|449:223|419:138|419:138|309:163|276:200|276:200|302:317|302:317|287:251|126:278|126:278|140:361|234:349|234:349|195:167|195:167|178:83|233:35|233:35|177:84|129:72|129:72|149:165|149:165|140:120|84:123,1,1679.99994873047,12|0,2:1|2:1,2:1:0:0:
75,214,159354,6,0,P|128:257|197:247,2,139.999995727539,2|2|2,0:0|0:0|0:0,0:0:0:0:
222,168,160382,2,0,P|272:213|273:282,1,139.999995727539,2|2,0:0|0:0,0:0:0:0:
150,186,160897,1,2,0:0:0:0:
150,186,161239,1,2,0:0:0:0:
150,186,161411,6,0,P|250:207|361:185,1,209.999993591309,2|0,0:0|0:0,0:0:0:0:
306,24,162097,2,0,P|254:68|252:138,2,139.999995727539,2|2|2,0:0|0:0|0:0,0:3:0:0:
353,170,163125,2,0,P|316:227|249:240,1,139.999995727539,2|2,0:0|0:0,0:0:0:0:
260,25,163639,2,0,L|273:176,1,139.999995727539,2|0,0:0|0:0,0:0:0:0:
209,286,164325,38,0,L|214:237,1,34.9999989318848,2|2,0:0|0:0,0:0:0:0:
202,199,164497,2,0,P|262:230|326:208,1,139.999995727539,2|2,0:0|0:0,0:0:0:0:
300,96,165011,2,0,P|272:130|271:167,1,69.9999978637696,2|0,0:0|0:0,0:0:0:0:
312,343,165525,6,0,B|333:292|333:292|304:238,1,104.999996795654,2|0,0:0|0:0,0:0:0:0:
243,293,165868,2,0,P|306:302|400:275,1,156.000005236817,2|2,0:0|0:0,0:0:0:0:
374,207,166383,1,2,0:0:0:0:
374,207,166725,1,2,0:0:0:0:
374,207,166897,2,0,P|261:183|136:208,1,234.000007855225,2|0,0:0|0:0,0:0:0:0:
220,351,167582,6,0,L|237:266,1,78.0000026184083,2|2,2:2|2:2,2:2:0:0:
349,262,167925,2,0,L|300:189,1,78.0000026184083,2|2,2:2|2:2,2:2:0:0:
377,107,168268,2,0,L|292:90,1,78.0000026184083,2|2,2:2|2:2,2:2:0:0:
72,161,168611,38,0,P|144:184|210:146,1,156.000005236817,2|2,0:0|0:0,0:0:0:0:
67,55,169125,1,2,0:0:0:0:
67,55,169468,1,2,0:0:0:0:
67,55,169639,2,0,P|42:169|68:297,1,234.000007855225,2|0,0:0|0:0,0:0:0:0:
253,221,170325,2,0,B|199:197|199:197|143:216,1,117.000003927612,2|0,0:0|0:0,0:0:0:0:
326,293,170668,5,2,0:0:0:0:
351,193,170839,1,2,0:0:0:0:
276,121,171011,1,2,0:0:0:0:
176,149,171182,1,2,0:0:0:0:
152,250,171354,6,0,P|230:290|314:261,1,176.000005371094,2|2,0:0|0:0,0:0:0:0:
76,178,171868,1,2,0:0:0:0:
76,178,172211,1,2,0:0:0:0:
76,178,172382,2,0,P|208:155|340:183,1,264.000008056641,2|0,0:0|0:0,0:0:0:0:
357,310,173068,37,2,0:0:0:0:
357,310,173239,1,2,0:0:0:0:
235,207,173411,1,2,0:0:0:0:
235,207,173582,1,2,0:0:0:0:
385,152,173754,1,2,0:0:0:0:
385,152,173925,1,2,0:0:0:0:
253,312,174097,6,0,L|47:297,1,200,2|2,0:0|0:0,0:0:0:0:
312,259,174611,1,2,0:0:0:0:
312,259,174954,1,2,0:0:0:0:
312,259,175125,2,0,B|407:166|407:166|280:131|280:131|304:227,1,348.000010620117,2|0,0:0|0:0,0:0:0:0:
479,349,175811,22,0,L|476:172,1,174.000005310059,2|0,0:0|0:0,0:0:0:0:
378,38,176154,2,0,L|374:252,1,209.999993591309,2|0,0:0|0:0,0:0:0:0:
246,355,176497,2,2,P|224:210|241:72,1,269.999991760254,2|0,0:1|0:1,0:1:0:0:
252,63,176839,21,2,0:2:0:0:
278,136,177011,1,2,0:2:0:0:
227,195,177182,1,2,0:2:0:0:
206,124,177354,1,2,0:2:0:0:
354,149,177697,5,2,0:2:0:0:
304,203,177868,1,2,0:2:0:0:
278,136,178039,1,2,0:2:0:0:
373,20,178382,5,2,0:2:0:0:
328,76,178554,1,2,0:2:0:0:
400,88,178725,1,2,0:2:0:0:
452,228,179068,53,2,0:2:0:0:
380,216,179239,1,2,0:2:0:0:
308,204,179411,1,2,0:2:0:0:
282,135,179582,5,2,0:2:0:0:
236,193,179754,1,2,0:2:0:0:
308,204,179925,1,2,0:2:0:0:
282,135,180097,1,2,0:2:0:0:
186,250,180439,37,2,0:2:0:0:
159,181,180611,1,2,0:2:0:0:
233,193,180782,1,2,0:2:0:0:
186,250,180954,5,2,0:2:0:0:
139,307,181125,1,2,0:2:0:0:
213,319,181297,1,2,0:2:0:0:
186,250,181468,1,2,0:2:0:0:
135,110,181811,5,2,0:2:0:0:
89,168,181982,1,2,0:2:0:0:
163,179,182154,1,2,0:2:0:0:
135,110,182325,37,2,0:2:0:0:
89,168,182497,1,2,0:2:0:0:
117,237,182668,1,2,0:2:0:0:
71,295,182839,1,2,0:2:0:0:
218,319,183182,5,2,0:2:0:0:
264,261,183354,1,2,0:2:0:0:
292,330,183525,1,2,0:2:0:0:
240,191,183868,5,2,0:2:0:0:
286,133,184039,1,2,0:2:0:0:
313,201,184211,1,2,0:2:0:0:
261,62,184554,37,2,0:2:0:0:
215,119,184725,1,2,0:2:0:0:
169,176,184897,1,2,0:2:0:0:
242,188,185068,5,2,0:2:0:0:
215,119,185239,1,2,0:2:0:0:
169,176,185411,1,2,0:2:0:0:
195,244,185582,1,2,0:2:0:0:
289,129,185925,5,2,0:2:0:0:
315,197,186097,1,2,0:2:0:0:
361,141,186268,1,2,0:2:0:0:
387,209,186439,37,2,0:2:0:0:
341,265,186611,1,2,0:2:0:0:
366,332,186782,1,2,0:2:0:0:
412,277,186954,38,2,L|256:253,1,149.999995422363,2|2,0:1|0:1,0:1:0:0:
238,238,187468,5,2,0:2:0:0:
223,198,187554,1,2,0:2:0:0:
239,148,187639,1,2,0:2:0:0:
291,113,187725,1,2,0:2:0:0:
365,120,187811,6,0,P|387:178|353:233,2,123.000001876831,4|0|4,1:3|1:3|1:3,1:3:0:0:
70,173,188325,2,0,L|318:171,1,246.000003753662,4|0,1:3|1:3,1:3:0:0:
192,49,188839,1,4,1:3:0:0:
193,295,189011,2,0,L|441:293,1,246.000003753662,0|0,1:3|1:3,1:3:0:0:
315,171,189525,1,0,1:3:0:0:
155,361,189697,2,0,P|232:358|205:222,1,246.000003753662,0|0,1:3|1:3,1:3:0:0:
74,335,190211,38,0,B|34:354|34:354|-15:356,6,77.5000005912781,2|0|0|0|2|0|0,2:2|2:3|2:3|2:3|2:3|2:3|2:3,2:3:0:0:
177,283,190554,22,0,P|145:229|169:169,2,123.000001876831,4|0|0,1:3|1:3|1:3,1:3:0:0:
467,222,191068,2,0,L|219:224,1,246.000003753662,4|0,1:3|1:3,1:3:0:0:
345,346,191582,1,0,1:3:0:0:
343,99,191754,1,0,1:3:0:0:
184,299,191925,22,0,P|214:353|278:362,2,123.000001876831,4|0|0,1:3|1:3|1:3,1:3:0:0:
255,46,192439,2,0,L|257:294,1,246.000003753662,4|0,1:3|1:3,1:3:0:0:
379,168,192953,1,0,1:3:0:0:
132,169,193125,1,0,1:3:0:0:
383,241,193297,38,0,P|437:211|446:147,2,123.000001876831,4|0|0,1:3|1:3|1:3,1:3:0:0:
133,169,193811,2,0,L|381:167,1,246.000003753662,4|0,1:3|1:3,1:3:0:0:
255,45,194325,1,4,1:3:0:0:
256,291,194497,2,0,L|254:43,1,246.000003753662,4|0,1:3|1:3,1:3:0:0:
132,169,195011,1,0,1:3:0:0:
320,328,195182,2,0,P|317:251|181:278,1,246.000003753662,0|0,1:3|1:3,1:3:0:0:
445,339,195697,54,2,B|464:337|476:318|465:293|443:291|443:291|409:291|394:261|403:225|441:222|441:222|468:216|479:191|471:158|434:152|434:152|372:148|361:89|388:42|435:42|471:59,1,480,2|0,2:1|2:1,2:1:0:0:
225,202,196039,38,0,P|171:172|162:108,2,123.000001876831,4|0|0,1:3|1:3|1:3,1:3:0:0:
481,128,196554,2,0,L|233:130,1,246.000003753662,4|0,1:3|1:3,1:3:0:0:
359,252,197068,1,0,1:3:0:0:
357,5,197239,1,0,1:3:0:0:
283,260,197411,38,0,P|313:314|377:323,2,123.000001876831,4|0|0,1:3|1:3|1:3,1:3:0:0:
394,116,197925,2,0,B|430:137|361:229|264:125|284:24|423:-28|505:69|464:178,1,354.99998212433,4|0,1:3|1:3,1:3:0:0:
460,178,198439,5,2,2:2:0:0:
429,208,198525,1,2,2:2:0:0:
388,222,198611,1,2,2:2:0:0:
345,220,198697,1,2,2:2:0:0:
305,206,198782,6,0,P|258:141|258:78,1,141.999992849732,4|2,3:3|0:0,0:0:0:0:
484,133,199125,2,0,L|331:127,1,141.999992849732,8|2,3:2|0:0,0:0:0:0:
136,68,199468,1,4,3:3:0:0:
342,8,199639,1,0,3:2:0:0:
296,217,199811,2,0,L|144:212,1,141.999992849732,8|2,3:2|0:0,0:0:0:0:
264,99,200154,2,0,P|341:78|401:99,1,141.999992849732,4|2,3:3|0:0,0:0:0:0:
143,302,200497,2,0,L|148:150,1,141.999992849732,8|2,3:2|0:0,0:0:0:0:
426,168,200839,1,4,3:3:0:0:
220,228,201010,1,0,3:2:0:0:
214,11,201182,5,6,3:2:0:0:
236,55,201268,1,2,0:2:0:0:
224,102,201354,1,2,0:2:0:0:
184,130,201439,1,2,0:2:0:0:
135,125,201525,22,0,P|76:71|62:9,1,141.999992849732,4|2,3:3|0:0,0:0:0:0:
309,100,201868,2,0,L|303:252,1,141.999992849732,8|2,3:2|0:0,0:0:0:0:
18,162,202211,1,4,3:3:0:0:
224,102,202382,1,0,3:2:0:0:
172,310,202554,2,0,L|178:157,1,141.999992849732,8|2,3:2|0:0,0:0:0:0:
407,334,202897,2,0,P|336:371|273:363,1,141.999992849732,4|2,3:3|0:0,0:0:0:0:
430,97,203197,2,0,L|424:250,1,141.999992849732,8|2,3:2|0:0,0:0:0:0:
138,249,203582,1,4,3:3:0:0:
344,189,203753,1,0,3:2:0:0:
138,129,203925,2,0,B|29:148|29:148|9:177,1,141.999992849732,8|2,3:2|0:0,0:0:0:0:
314,319,204268,6,0,P|350:248|342:185,1,141.999992849732,4|2,3:3|0:0,0:0:0:0:
133,228,204611,2,0,L|285:233,1,141.999992849732,8|2,3:2|0:0,0:0:0:0:
94,115,204954,1,0,3:2:0:0:
43,324,205125,1,4,3:3:0:0:
250,264,205297,2,0,L|256:112,1,141.999992849732,8|2,3:2|0:0,0:0:0:0:
47,182,205639,2,0,P|51:262|89:312,1,141.999992849732,4|2,3:3|0:0,0:0:0:0:
235,120,205982,2,0,L|83:114,1,141.999992849732,8|2,3:2|0:0,0:0:0:0:
331,345,206325,1,0,3:2:0:0:
121,187,206496,1,4,3:3:0:0:
134,348,206668,22,0,B|185:404|278:338|222:240|167:258|146:273|146:273|161:255|164:235,1,255.000004863739
356,57,207011,22,0,P|352:136|314:186,1,145.000004425049,4|2,3:3|0:0,0:0:0:0:
58,139,207354,1,8,0:2:0:0:
264,99,207526,1,2,0:0:0:0:
195,297,207697,22,0,P|158:226|166:163,1,145.000004425049,4|2,3:3|0:0,0:0:0:0:
463,176,208039,1,8,0:2:0:0:
257,216,208211,1,2,0:0:0:0:
401,60,208382,22,0,B|450:80|450:80|494:69,1,93.4999981452942
234,109,208554,2,0,B|283:89|283:89|327:100,1,93.4999981452942
67,60,208725,2,0,B|89:108|67:156,3,89.9999972534181,0|0|0|0,3:0|3:0|3:0|3:0,3:0:0:0:
144,196,209068,2,0,B|122:244|144:292,3,89.9999972534181,0|0|0|0,3:0|3:0|3:0|3:0,3:0:0:0:
277,153,209411,54,2,B|252:131|232:131|232:131|347:130|347:130|464:131|465:307|397:342|265:330|274:230|274:230|292:249|312:258,1,597.000014802933,2|0,0:1|0:1,0:1:0:0:
331,258,209754,22,0,L|380:246,3,50,4|0|2|0,0:3|0:3|0:3|0:3,0:3:0:0:
253,231,210097,2,0,L|204:219,3,50,4|0|2|0,0:3|0:3|0:3|0:3,0:3:0:0:
376,166,210439,2,0,L|425:154,3,50,4|0|2|0,0:3|0:3|0:3|0:3,0:3:0:0:
157,291,210782,2,0,L|108:279,1,50,4|0,0:3|0:3,0:3:0:0:
242,345,210954,2,0,L|291:357,1,50,2|0,0:3|0:3,0:3:0:0:
201,164,211125,6,0,L|189:115,3,50,4|0|2|0,0:3|0:3|0:3|0:3,0:3:0:0:
286,218,211468,2,0,L|274:267,3,50,4|0|2|0,0:3|0:3|0:3|0:3,0:3:0:0:
459,48,211811,21,2,0:2:0:0:
459,48,211897,1,2,0:2:0:0:
459,48,211982,1,2,0:2:0:0:
459,48,212068,1,2,0:2:0:0:
459,48,212154,6,2,B|435:67|435:67|375:62,1,85.0000016212464,2|0,0:1|0:1,0:1:0:0:
206,62,212325,2,2,B|230:43|230:43|290:48,1,85.0000016212464,2|0,0:1|0:1,0:1:0:0:
410,242,212497,6,0,L|428:304,3,60.4999982921601,4|0|2|0,0:3|0:3|0:3|0:3,0:3:0:0:
302,206,212839,2,0,L|283:143,3,60.4999982921601,4|0|2|0,0:3|0:3|0:3|0:3,0:3:0:0:
486,183,213182,2,0,L|504:245,3,60.4999982921601,4|0|2|0,0:3|0:3|0:3|0:3,0:3:0:0:
226,265,213525,2,0,L|207:202,1,60.4999982921601,4|0,0:3|0:3,0:3:0:0:
328,305,213697,2,0,L|346:367,1,60.4999982921601,2|0,0:3|0:3,0:3:0:0:
367,130,213868,6,0,L|429:111,3,60.4999982921601,4|0|2|0,0:3|0:3|0:3|0:3,0:3:0:0:
302,206,214211,2,0,L|239:224,3,60.4999982921601,4|0|2|0,0:3|0:3|0:3|0:3,0:3:0:0:
119,162,214554,2,0,L|177:145,3,60.4999982921601,4|0|2|0,0:3|0:3|0:3|0:3,0:3:0:0:
68,334,214897,38,2,B|130:333|130:333|166:313|166:313|257:313|257:313|293:340|293:340|359:339|359:339|392:329,1,318.000000485229,2|0,0:1|0:1,0:1:0:0:
418,109,215239,6,0,L|433:31,3,72.5000022125245,4|0|2|0,0:3|0:3|0:3|0:3,0:3:0:0:
268,147,215582,2,0,L|252:224,3,72.5000022125245,4|0|2|0,0:3|0:3|0:3|0:3,0:3:0:0:
497,165,215925,2,0,L|512:87,3,72.5000022125245,4|0|2|0,0:3|0:3|0:3|0:3,0:3:0:0:
189,91,216268,2,0,L|173:168,1,72.5000022125245,4|0,0:3|0:3,0:3:0:0:
332,274,216439,2,0,L|346:202,1,72.5000022125245,2|0,0:3|0:3,0:3:0:0:
432,37,216611,6,0,L|509:52,3,72.5000022125245,4|0|2|0,0:3|0:3|0:3|0:3,0:3:0:0:
260,105,216954,2,0,L|182:89,3,72.5000022125245,4|0|2|0,0:3|0:3|0:3|0:3,0:3:0:0:
457,284,217297,21,2,0:2:0:0:
433,299,217382,1,2,0:2:0:0:
448,323,217468,1,2,0:2:0:0:
472,308,217554,1,2,0:2:0:0:
452,303,217639,6,0,B|416:276|416:276|334:273,1,107.50000164032,2|0,0:1|0:0,0:0:0:0:
141,301,217811,2,0,B|177:328|177:328|259:331,1,107.50000164032,2|0,0:1|0:0,0:0:0:0:
337,95,217982,6,0,P|349:48|381:22,3,75.9999990722656,4|0|8|0,0:3|0:3|0:2|0:3,0:3:0:0:
402,206,218325,2,0,P|436:239|443:280,3,75.9999990722656,4|0|2|0,0:3|0:3|0:3|0:3,0:3:0:0:
273,206,218668,2,0,P|226:218|187:204,3,75.9999990722656,4|0|8|0,0:3|0:3|0:2|0:3,0:3:0:0:
475,103,219011,37,6,0:3:0:0:
475,103,219097,1,2,0:0:0:0:
475,103,219182,1,2,0:3:0:0:
475,103,219268,1,2,0:0:0:0:
475,103,219354,6,2,B|361:106|352:30|352:30|361:106|286:167|286:167|394:202|374:382|182:360|186:238|186:238|109:263|103:359|103:359|109:262|51:252|51:252|144:268|196:197|211:157|211:157|185:91|90:71|90:71|150:84|183:38,1,1424.9999619484,2|0,0:1|0:1,0:1:0:0:
190,40,220725,6,0,L|292:45,1,93.4999981452942,4|0,0:3|0:3,0:3:0:0:
451,110,220897,2,0,L|349:115,1,93.4999981452942,4|0,0:3|0:3,0:3:0:0:
164,114,221068,2,0,L|266:119,1,93.4999981452942,4|0,0:3|0:3,0:3:0:0:
425,184,221239,2,0,L|323:189,1,93.4999981452942,4|0,0:3|0:3,0:3:0:0:
138,188,221411,2,0,L|240:193,1,93.4999981452942,4|0,0:3|0:3,0:3:0:0:
399,258,221583,2,0,L|297:263,1,93.4999981452942,4|0,0:3|0:3,0:3:0:0:
124,360,221754,38,2,B|112:278|112:278|148:255|148:255|129:139|129:139|159:123|159:123|144:28|144:28|49:67|49:67,1,465.000003547668,2|0,0:1|0:1,0:1:0:0:
38,85,222097,38,0,L|57:184,1,94.9999974632264,4|0,0:3|0:3,0:3:0:0:
191,311,222268,2,0,L|172:212,1,94.9999974632264,4|0,0:3|0:3,0:3:0:0:
112,48,222439,2,0,L|131:147,1,94.9999974632264,4|0,0:3|0:3,0:3:0:0:
265,274,222610,2,0,L|246:175,1,94.9999974632264,4|0,0:3|0:3,0:3:0:0:
186,11,222783,2,0,L|205:110,1,94.9999974632264,4|0,0:3|0:3,0:3:0:0:
339,237,222954,2,0,L|320:138,1,94.9999974632264,4|0,0:3|0:3,0:3:0:0:
486,39,223125,38,2,B|416:27|416:27|355:39,1,125,2|0,0:1|0:1,0:1:0:0:
129,141,223297,2,2,B|199:153|199:153|260:141,1,125,2|0,0:1|0:1,0:1:0:0:
486,348,223468,38,0,L|378:343,1,96.0000023437501,4|0,0:3|0:3,0:3:0:0:
168,269,223639,2,0,L|276:274,1,96.0000023437501,4|0,0:3|0:3,0:3:0:0:
463,261,223811,2,0,L|355:256,1,96.0000023437501,4|0,0:3|0:3,0:3:0:0:
145,182,223982,2,0,L|253:187,1,96.0000023437501,4|0,0:3|0:3,0:3:0:0:
440,174,224154,2,0,L|332:169,1,96.0000023437501,4|0,0:3|0:3,0:3:0:0:
122,95,224325,2,0,L|230:100,1,96.0000023437501,4|0,0:3|0:3,0:3:0:0:
433,38,224497,6,0,L|431:90,3,41.0000006256104,0|0|0|0,0:1|0:1|0:1|0:1,0:1:0:0:
468,65,224839,22,0,L|358:72,1,96.4999976808548,4|0,0:3|0:3,0:3:0:0:
123,133,225011,2,0,L|233:140,1,96.4999976808548,4|0,0:3|0:3,0:3:0:0:
472,144,225182,2,0,L|362:151,1,96.4999976808548,4|0,0:3|0:3,0:3:0:0:
127,212,225354,2,0,L|237:219,1,96.4999976808548,4|0,0:3|0:3,0:3:0:0:
468,262,225525,54,8,P|475:288|473:315,6,48.2499988404274,8|8|8|8|8|8|8,0:3|0:3|0:3|0:3|0:3|0:3|0:3,0:3:0:0:
396,288,225868,2,2,B|273:264|223:357|109:319,1,289.499993042565,2|0,0:2|0:2,0:2:0:0:
108,319,226211,5,8,1:3:0:0:
99,281,226297,1,4,1:3:0:0:
106,242,226382,1,4,1:3:0:0:
128,209,226468,1,4,1:3:0:0:
166,190,226554,5,8,1:3:0:0:
208,192,226639,1,4,1:3:0:0:
243,215,226725,1,4,1:3:0:0:
262,252,226810,1,4,1:3:0:0:
258,297,226897,5,8,1:3:0:0:
212,300,226982,1,4,1:3:0:0:
174,272,227068,1,4,1:3:0:0:
163,227,227154,1,4,1:3:0:0:
184,184,227239,37,8,1:3:0:0:
231,162,227325,1,4,1:3:0:0:
252,114,227411,1,4,1:3:0:0:
238,63,227497,1,4,1:3:0:0:
194,34,227582,5,8,1:3:0:0:
135,40,227668,1,4,1:3:0:0:
93,82,227754,1,4,1:3:0:0:
88,141,227839,1,4,1:3:0:0:
122,189,227925,5,8,1:3:0:0:
183,204,228011,1,4,1:3:0:0:
239,176,228097,1,4,1:3:0:0:
299,190,228182,1,4,1:3:0:0:
335,239,228268,37,8,1:3:0:0:
278,279,228354,1,4,1:3:0:0:
207,272,228439,1,4,1:3:0:0:
152,219,228525,1,4,1:3:0:0:
144,141,228611,5,8,1:3:0:0:
186,76,228697,1,4,1:3:0:0:
264,54,228782,1,4,1:3:0:0:
348,87,228868,1,4,1:3:0:0:
366,184,228954,6,4,P|325:182|357:168,6,89.9999972534181,4|4|4|4|4|4|4,0:3|0:3|0:3|0:3|0:3|0:3|0:3,0:3:0:0:
255,284,229297,38,4,P|272:256|269:284,6,75.0000028610231,4|4|4|4|4|4|4,0:3|0:3|0:3|0:3|0:3|0:3|0:3,0:3:0:0:
236,164,229639,6,4,P|245:183|231:172,6,55.0000016784668,4|4|4|4|4|4|4,0:3|0:3|0:3|0:3|0:3|0:3|0:3,0:3:0:0:
385,297,229982,22,8,B|459:300|459:300|414:365|414:365|385:297,6,208.333333333333,8|8|8|8|8|8|8,0:3|0:3|0:3|0:3|0:3|0:3|0:3,0:3:0:0:
372,301,230325,6,2,B|314:321|278:377|278:377|349:267|217:187|117:283|145:378|145:378|237:378|238:225|238:225|238:150|139:128|94:186|94:186|176:80|279:198|357:148|357:148|272:159|225:105,1,1272.00000194092,2|8,0:1|0:1,0:1:0:0:
230,110,231697,5,4,0:1:0:0:
321,94,231782,1,2,0:0:0:0:
407,125,231868,1,2,0:0:0:0:
465,194,231954,2,0,B|470:258|391:270|391:270|423:251|431:231,1,156.000005236817,2|12,0:0|0:3,0:0:0:0:
407,47,232125,1,2,0:0:0:0:
400,36,232211,2,0,P|316:16|242:32,1,156.000005236817,2|2,0:0|0:0,0:0:0:0:
176,174,232382,5,4,0:3:0:0:
185,267,232468,1,2,0:0:0:0:
251,332,232554,1,2,0:0:0:0:
343,339,232639,2,0,B|406:344|418:265|418:265|400:297|379:305,1,156.000005236817,2|12,0:0|0:3,0:0:0:0:
113,297,232811,1,2,0:0:0:0:
98,305,232897,2,0,P|71:230|135:267,1,156.000005236817,2|2,0:0|0:0,0:0:0:0:
447,357,233068,5,4,0:3:0:0:
436,263,233154,1,2,0:0:0:0:
425,170,233239,1,2,0:0:0:0:
413,76,233325,2,0,B|401:48|375:26|375:26|399:90|359:131,1,156.000005236817,2|12,0:0|0:3,0:0:0:0:
183,141,233497,1,2,0:0:0:0:
177,126,233582,2,0,P|231:68|313:73,1,156.000005236817,2|2,0:0|0:0,0:0:0:0:
273,204,233754,5,4,0:3:0:0:
188,241,233839,1,2,0:0:0:0:
99,214,233925,1,2,0:0:0:0:
48,136,234011,2,0,B|37:72|115:53|115:53|84:75|78:96,1,156.000005236817,2|12,0:0|0:3,0:0:0:0:
40,302,234182,1,2,0:0:0:0:
44,314,234268,2,0,B|95:317|125:333|125:333|151:318|204:315,1,156.000005236817,2|2,0:0|0:0,0:0:0:0:
