osu file format v14

[General]
AudioFilename: Camellia - Light It Up (192kbit_AAC).mp3
AudioLeadIn: 0
PreviewTime: 230319
Countdown: 0
SampleSet: None
StackLeniency: 0.7
Mode: 0
LetterboxInBreaks: 0
WidescreenStoryboard: 1

[Editor]
Bookmarks: 89062,176833,179062,184548,186776,198776,225005,233062,234433,235119,236491,237176,237862,238548,239919,240605,241291,242662,243348,244033,245405,246091,246776,248148,261348,263233,272833,275576,341405
DistanceSpacing: 3.7
BeatDivisor: 4
GridSize: 4
TimelineZoom: 1.6

[Metadata]
Title:Light It Up
TitleUnicode:Light It Up
Artist:Camellia
ArtistUnicode:Camellia
Creator:Zunv
Version:Enlightened
Source:
Tags:かめるかめりあ kamelcamellia
BeatmapID:1024309
BeatmapSetID:479717

[Difficulty]
HPDrainRate:7
CircleSize:4
OverallDifficulty:8
ApproachRate:9.4
SliderMultiplier:2
SliderTickRate:1

[Events]
//Background and Video events
0,0,"Konachan.com - 223819 sample.jpg",0,0
//Break Periods
//Storyboard Layer 0 (Background)
//Storyboard Layer 1 (Fail)
//Storyboard Layer 2 (Pass)
//Storyboard Layer 3 (Foreground)
//Storyboard Sound Samples

[TimingPoints]
1291,342.857142857143,4,3,2,60,1,0
1291,-200,4,2,1,30,0,0
3348,-166.666666666667,4,2,1,30,0,0
3519,-142.857142857143,4,2,1,30,0,0
3691,-125,4,2,1,30,0,0
4033,-111.111111111111,4,2,2,30,0,0
4376,-111.111111111111,4,2,1,30,0,0
4719,-200,4,2,1,30,0,0
8833,-166.666666666667,4,2,1,30,0,0
9005,-142.857142857143,4,2,1,30,0,0
9176,-125,4,2,1,30,0,0
9519,-111.111111111111,4,2,2,30,0,0
9862,-111.111111111111,4,2,1,30,0,0
10548,-142.857142857143,4,2,1,30,0,0
11576,-100,4,2,1,30,0,0
15005,-100,4,2,2,30,0,0
15348,-100,4,2,1,30,0,0
22891,-100,4,2,2,30,0,0
23233,-200,4,3,1,60,0,0
23576,-100,4,3,1,60,0,0
24262,-200,4,3,1,60,0,0
24605,-100,4,3,1,60,0,0
25976,-200,4,3,1,60,0,0
26319,-100,4,3,1,60,0,0
27348,-200,4,3,1,60,0,0
27691,-100,4,3,1,60,0,0
29062,-200,4,3,1,60,0,0
29405,-100,4,3,1,60,0,0
30262,-100,4,3,1,60,0,0
30948,-100,4,3,1,60,0,0
34205,-66.6666666666667,4,3,1,70,0,0
45176,-200,4,3,1,50,0,0
56148,-200,4,3,2,70,0,0
65748,-100,4,3,2,70,0,0
67119,-100,4,3,2,80,0,0
68148,-142.857142857143,4,3,2,80,0,0
68662,-100,4,3,2,80,0,0
69862,-142.857142857143,4,3,2,80,0,0
70376,-100,4,3,2,80,0,0
71576,-142.857142857143,4,3,2,80,0,0
72091,-100,4,3,2,80,0,0
78087,-66.6666666666667,4,3,2,90,0,0
88719,-125,4,3,2,90,0,0
89062,-66.6666666666667,4,3,2,90,0,1
99691,-50,4,3,2,90,0,1
100033,-66.6666666666667,4,3,1,90,0,0
101405,-100,4,3,1,90,0,0
103033,-83.3333333333333,4,3,1,90,0,0
103805,-100,4,3,1,90,0,0
109633,-200,4,3,1,90,0,0
110319,-100,4,3,1,90,0,0
110662,-66.6666666666667,4,3,1,90,0,0
111005,-200,4,3,1,90,0,0
111691,-100,4,3,1,90,0,0
112376,-76.9230769230769,4,3,1,90,0,0
112719,-66.6666666666667,4,3,1,90,0,0
113748,-100,4,3,1,90,0,0
114433,-125,4,3,1,90,0,0
114948,-100,4,3,1,90,0,0
115805,-76.9230769230769,4,3,1,90,0,0
116148,-66.6666666666667,4,3,1,90,0,0
116491,-100,4,3,1,90,0,0
117176,-125,4,3,1,90,0,0
117862,-66.6666666666667,4,3,1,90,0,0
119233,-100,4,3,1,90,0,0
121291,-200,4,3,1,90,0,0
121976,-100,4,3,1,90,0,0
123348,-66.6666666666667,4,3,1,90,0,0
124719,-100,4,3,1,90,0,0
125919,-66.6666666666667,4,3,1,90,0,0
126433,-100,4,3,1,90,0,0
127119,-66.6666666666667,4,3,1,90,0,0
127805,-66.6666666666667,4,3,1,90,0,0
131233,-100,4,3,1,90,0,0
132605,-200,4,3,1,90,0,0
132948,-200,4,2,2,90,0,0
133119,-66.6666666666667,4,3,1,90,0,0
134319,-100,4,3,1,90,0,0
135348,-142.857142857143,4,3,1,90,0,0
135862,-100,4,3,1,90,0,0
137062,-66.6666666666667,4,3,1,90,0,0
137405,-142.857142857143,4,3,1,90,0,0
138091,-66.6666666666667,4,3,1,90,0,0
138605,-100,4,3,1,90,0,0
140833,-142.857142857143,4,3,1,90,0,0
141348,-100,4,3,1,90,0,0
143576,-200,4,3,1,90,0,0
143919,-100,4,3,1,90,0,0
144948,-66.6666666666667,4,3,1,90,0,0
145291,-100,4,3,1,90,0,0
146319,-200,4,3,1,90,0,0
146662,-100,4,3,1,90,0,0
147605,-100,4,3,1,90,0,0
149062,-66.6666666666667,4,3,1,90,0,0
149405,-100,4,3,1,90,0,0
152148,-66.6666666666667,4,3,1,90,0,0
153691,-100,4,3,1,90,0,0
153862,-200,4,3,1,90,0,0
154891,-66.6666666666667,4,3,1,70,0,0
155233,-100,4,3,1,70,0,0
155919,-200,4,3,1,70,0,0
156605,-100,4,3,1,70,0,0
157633,-200,4,3,1,70,0,0
158491,-100,4,3,1,70,0,0
159176,-200,4,3,1,70,0,0
161233,-100,4,3,1,70,0,0
161919,-200,4,3,1,70,0,0
164319,-100,4,3,1,70,0,0
165005,-200,4,3,1,70,0,0
165862,-142.857142857143,4,3,1,70,0,0
175805,-166.666666666667,4,3,1,70,0,0
176491,-200,4,3,1,70,0,0
176833,-200,4,1,67,100,0,0
177005,-200,4,1,66,100,0,0
177176,-200,4,1,67,100,0,0
177348,-200,4,1,69,100,0,0
177519,-200,4,1,69,5,0,0
177691,-200,4,1,67,100,0,0
177862,-200,4,1,66,100,0,0
178033,-200,4,1,67,100,0,0
178205,-200,4,1,67,5,0,0
178376,-200,4,1,74,100,0,0
178548,-200,4,1,67,100,0,0
178719,-200,4,1,69,100,0,0
178891,-200,4,1,69,5,0,0
179062,-200,4,1,67,100,0,0
179233,-200,4,1,69,100,0,0
179405,-200,4,1,71,100,0,0
179576,-200,4,1,74,100,0,0
179748,-200,4,1,71,100,0,0
179919,-200,4,1,78,100,0,0
180091,-200,4,1,74,100,0,0
180262,-200,4,1,74,5,0,0
180433,-200,4,1,71,100,0,0
180605,-200,4,1,74,100,0,0
180776,-200,4,1,76,100,0,0
180948,-200,4,1,74,100,0,0
181119,-200,4,1,72,100,0,0
181291,-200,4,1,71,100,0,0
181462,-200,4,1,72,100,0,0
181633,-200,4,1,72,5,0,0
181805,-200,4,1,71,100,0,0
181976,-200,4,1,67,100,0,0
182148,-200,4,1,69,100,0,0
182319,-200,4,1,67,100,0,0
182491,-200,4,1,66,100,0,0
182662,-200,4,1,67,100,0,0
182833,-200,4,1,69,100,0,0
183005,-200,4,1,69,5,0,0
183176,-200,4,1,67,100,0,0
183348,-200,4,1,66,100,0,0
183519,-200,4,1,67,100,0,0
183691,-200,4,1,67,5,0,0
183862,-200,4,1,74,100,0,0
184033,-200,4,1,67,100,0,0
184205,-200,4,1,69,100,0,0
184376,-200,4,1,69,5,0,0
184548,-200,4,1,67,100,0,0
184719,-200,4,1,69,100,0,0
184891,-200,4,1,71,100,0,0
185062,-200,4,1,74,100,0,0
185233,-200,4,1,71,100,0,0
185405,-200,4,1,78,100,0,0
185576,-200,4,1,74,100,0,0
185748,-200,4,1,74,5,0,0
185919,-200,4,1,71,100,0,0
186091,-200,4,1,74,100,0,0
186262,-200,4,1,76,100,0,0
186433,-200,4,1,74,100,0,0
186776,-200,4,1,84,100,0,0
186862,-200,4,3,1,20,0,0
187805,-100,4,3,1,80,0,0
198776,-66.6666666666667,4,3,1,90,0,0
208376,-100,4,3,1,90,0,0
209405,-66.6666666666667,4,3,1,90,0,0
209748,-100,4,3,1,80,0,0
214891,-66.6666666666667,4,3,1,90,0,0
215233,-100,4,3,1,90,0,0
217291,-76.9230769230769,4,3,1,90,0,0
217633,-166.666666666667,4,3,1,90,0,0
217976,-66.6666666666667,4,3,1,90,0,0
219691,-100,4,3,1,90,0,0
226205,-100,4,3,1,90,0,0
226891,-66.6666666666667,4,3,1,90,0,0
226976,-100,4,3,1,90,0,0
227576,-66.6666666666667,4,3,1,90,0,0
227748,-100,4,3,1,90,0,0
228262,-66.6666666666667,4,3,1,90,0,0
228433,-100,4,3,1,90,0,0
228948,-100,4,3,1,90,0,0
231691,-100,4,3,1,90,0,1
232376,-76.9230769230769,4,3,1,90,0,1
233062,-100,4,3,1,90,0,1
233748,-200,4,3,1,90,0,1
234433,-76.9230769230769,4,3,1,90,0,1
235119,-100,4,3,1,90,0,1
235805,-76.9230769230769,4,3,1,90,0,1
238548,-200,4,3,1,90,0,1
239233,-76.9230769230769,4,3,1,90,0,1
240605,-100,4,3,1,90,0,1
241291,-76.9230769230769,4,3,1,90,0,1
242662,-100,4,2,2,90,0,1
242748,-100,4,3,1,90,0,1
243348,-76.9230769230769,4,3,1,90,0,1
244033,-100,4,3,1,90,0,1
244719,-76.9230769230769,4,3,1,90,0,1
246091,-100,4,3,1,90,0,1
246776,-76.9230769230769,4,3,1,90,0,1
247462,-100,4,3,1,90,0,1
248148,-66.6666666666667,4,3,1,90,0,0
252948,-100,4,3,1,90,0,0
253633,-100,4,2,2,90,0,1
253719,-100,4,3,1,90,0,1
264262,-55.5555555555556,4,3,1,90,0,1
264605,-100,4,3,1,90,0,1
264948,-66.6666666666667,4,3,1,90,0,1
267348,-100,4,3,1,90,0,1
267862,-66.6666666666667,4,3,1,90,0,1
272833,-100,4,3,1,90,0,1
273519,-76.9230769230769,4,3,1,90,0,1
274205,-66.6666666666667,4,3,1,90,0,1
275576,-66.6666666666667,4,3,1,90,0,0
286548,-66.6666666666667,4,2,2,90,0,0
286719,-66.6666666666667,4,3,1,90,0,0
296662,-100,4,3,1,90,0,0
297005,-66.6666666666667,4,3,1,90,0,0
297519,-66.6666666666667,4,2,2,90,0,0
297691,-66.6666666666667,4,3,1,90,0,0
299919,-100,4,3,1,90,0,0
303005,-100,4,3,1,90,0,0
307805,-100,4,3,1,90,0,0
308405,-66.6666666666667,4,3,1,90,0,0
308662,-100,4,3,1,90,0,0
309091,-66.6666666666667,4,3,1,90,0,0
309348,-100,4,3,1,90,0,0
309776,-66.6666666666667,4,3,1,90,0,0
310033,-100,4,3,1,90,0,0
310462,-66.6666666666667,4,3,1,90,0,0
310719,-100,4,3,1,90,0,0
311833,-66.6666666666667,4,3,1,90,0,0
312091,-100,4,3,1,90,0,0
312605,-66.6666666666667,4,3,1,90,0,0
316719,-100,4,3,1,90,0,0
317748,-100,4,3,1,90,0,0
318091,-66.6666666666667,4,3,1,90,0,0
319462,-100,4,3,1,90,0,0
324948,-66.6666666666667,4,3,1,90,0,0
325291,-100,4,3,1,90,0,0
331119,-66.6666666666667,4,3,1,90,0,0
331462,-100,4,3,1,90,0,0
333862,-66.6666666666667,4,3,1,90,0,0
334205,-100,4,3,1,90,0,0
336519,-66.6666666666667,4,3,1,90,0,0
336776,-100,4,3,1,90,0,0
337891,-66.6666666666667,4,3,1,90,0,0
340033,-100,4,3,1,90,0,0
340376,-125,4,3,1,90,0,0
340719,-142.857142857143,4,3,1,90,0,0
341062,-200,4,2,2,90,0,0
341405,-200,4,3,1,90,0,0

[HitObjects]
160,108,1291,6,0,B|115:206,1,100,6|8,0:0|0:0,0:0:0:0:
248,72,1976,2,0,L|288:84,1,25,2|0,0:0|0:0,0:0:0:0:
184,116,2148,2,0,L|160:108,1,25
205,189,2319,2,0,L|277:277,1,100,8|2,0:0|0:0,0:0:0:0:
294,97,3005,2,0,L|332:144,1,50,8|0,0:0|0:0,0:0:0:0:
376,192,3348,6,0,L|368:240,1,29.9999990844727,2|0,0:0|0:0,0:0:0:0:
352,320,3519,6,0,L|360:268,1,34.9999989318848
300,236,3691,6,0,L|208:212,1,80,8|0,0:0|0:0,0:0:0:0:
263,168,4033,6,0,P|193:148|221:215,1,179.999994506836,2|8,0:0|0:0,0:0:0:0:
340,152,4548,1,0,0:0:0:0:
316,80,4719,6,0,L|316:120,1,25,2|0,0:0|0:0,0:0:0:0:
280,192,4891,2,0,L|280:152,1,25
240,104,5062,2,0,L|160:180,2,100,8|2|8,0:0|0:0|0:0,0:0:0:0:
268,28,5919,1,0,0:0:0:0:
328,76,6091,2,0,L|324:115,1,25,2|0,0:0|0:0,0:0:0:0:
272,200,6262,2,0,L|275:160,1,25
252,136,6433,2,0,L|152:104,2,100,8|2|8,0:0|0:0|0:0,0:0:0:0:
340,156,7290,5,0,0:0:0:0:
256,208,7462,2,0,L|260:183,1,25,2|0,0:0|0:0,0:0:0:0:
340,64,7633,2,0,L|335:88,1,25
296,68,7805,2,0,P|232:56|184:84,2,100,8|2|8,0:0|0:0|0:0,0:0:0:0:
252,148,8662,1,0,0:0:0:0:
162,148,8833,6,0,L|128:176,1,29.9999990844727,2|0,0:0|0:0,0:0:0:0:
176,220,9005,6,0,L|204:260,1,34.9999989318848
264,224,9176,6,0,L|360:224,1,80,8|0,0:0|0:0,0:0:0:0:
344,61,9519,6,0,P|328:137|308:61,1,179.999994506836,2|8,0:0|0:0,0:0:0:0:
402,202,10033,1,0,0:0:0:0:
244,236,10205,1,2,0:0:0:0:
244,236,10291,1,0,0:0:0:0:
244,236,10376,2,0,L|160:232,1,44.999998626709
232,308,10548,6,0,P|304:280|300:196,2,139.999995727539,8|2|8,0:0|0:0|0:0,0:0:0:0:
172,268,11405,1,0,0:0:0:0:
252,108,11576,2,0,L|192:136,1,50,2|0,0:0|0:0,0:0:0:0:
340,160,11748,2,0,L|385:138,1,50
216,204,11919,2,0,P|144:168|176:56,2,200,8|2|8,0:0|0:0|0:0,0:0:0:0:
292,100,12776,1,0,0:0:0:0:
332,288,12948,2,0,L|320:212,1,50,2|0,0:0|0:0,0:0:0:0:
208,154,13119,2,0,L|216:206,1,50
148,368,13291,2,0,L|132:264,1,100,8|0,0:0|0:0,0:0:0:0:
48,248,13633,6,0,B|100:193|100:193|145:190|145:190|162:148|203:138,1,200,2|8,0:0|0:0,0:0:0:0:
256,272,14148,1,0,0:0:0:0:
211,211,14319,1,2,0:0:0:0:
211,211,14405,1,0,0:0:0:0:
211,211,14491,1,0,0:0:0:0:
211,211,14576,2,0,L|259:197,1,50,0|8,0:0|0:0,0:0:0:0:
356,144,14833,1,0,0:0:0:0:
211,211,15005,6,0,P|195:287|174:207,1,200,2|8,0:0|0:0,0:0:0:0:
288,260,15691,6,0,L|288:320,3,50,2|0|0|0,0:0|0:0|0:0|0:0,0:0:0:0:
372,225,16033,2,0,L|420:268,3,50,8|0|0|0,0:0|0:0|0:0|0:0,0:0:0:0:
352,148,16376,2,0,L|288:148,3,50,2|0|0|0,0:0|0:0|0:0|0:0,0:0:0:0:
231,100,16719,2,0,L|175:122,3,50,8|0|0|0,0:0|0:0|0:0|0:0,0:0:0:0:
202,184,17062,1,2,0:0:0:0:
229,225,17147,1,0,0:0:0:0:
270,253,17233,1,0,0:0:0:0:
319,262,17319,1,0,0:0:0:0:
367,251,17405,1,8,0:0:0:0:
408,223,17490,1,0,0:0:0:0:
434,180,17576,1,0,0:0:0:0:
441,131,17662,1,0,0:0:0:0:
416,76,17748,6,0,L|360:32,7,50,2|0|0|0|8|0|0|0,0:0|0:0|0:0|0:0|0:0|0:0|0:0|0:0,0:0:0:0:
313,123,18433,2,0,L|261:175,3,50,2|0|0|0,0:0|0:0|0:0|0:0,0:0:0:0:
212,212,18776,2,0,L|247:247,3,50,8|0|0|0,0:0|0:0|0:0|0:0,0:0:0:0:
172,288,19119,2,0,L|98:288,4,50,2|0|0|0|8,0:0|0:0|0:0|0:0|0:0,0:0:0:0:
43,106,19633,5,0,0:0:0:0:
43,106,19805,2,0,L|152:106,1,100
313,106,20148,1,8,0:0:0:0:
313,106,20319,1,0,0:0:0:0:
256,192,20491,12,2,22891,0:0:0:0:
174,240,23233,6,0,B|124:240,1,50,8|0,0:0|0:0,0:0:0:0:
294,240,23576,6,0,B|290:312|218:340,1,100
76,332,23919,1,8,0:0:0:0:
124,168,24091,1,0,0:0:0:0:
208,168,24262,6,0,B|280:168,1,50,8|0,0:0|0:0,0:0:0:0:
100,236,24605,6,0,P|52:160|72:120,1,100,8|0,0:0|0:0,0:0:0:0:
200,72,24948,1,0,0:0:0:0:
230,247,25119,1,0,0:0:0:0:
308,87,25291,1,0,0:0:0:0:
151,170,25462,1,0,0:0:0:0:
328,195,25633,2,0,L|284:180,6,25
296,224,25976,6,0,B|280:280,1,50,8|0,0:0|0:0,0:0:0:0:
125,221,26319,5,8,0:0:0:0:
288,168,26491,1,0,0:0:0:0:
125,221,26662,2,0,B|80:188|76:124,1,100,8|0,0:0|0:0,0:0:0:0:
228,52,27005,1,8,0:0:0:0:
77,136,27176,1,0,0:0:0:0:
232,216,27348,6,0,B|232:266,1,50,8|0,0:0|0:0,0:0:0:0:
466,109,27691,5,8,0:0:0:0:
332,212,27862,1,0,0:0:0:0:
492,264,28033,1,8,0:0:0:0:
380,136,28205,2,0,L|380:100,2,25
296,159,28376,2,0,L|264:191,2,25,8|0|0,0:0|0:0|0:0,0:0:0:0:
256,136,28548,1,0,0:0:0:0:
216,124,28633,1,0,0:0:0:0:
176,128,28719,1,8,0:0:0:0:
296,248,28891,1,0,0:0:0:0:
128,248,29062,6,0,L|128:192,1,50,8|0,0:0|0:0,0:0:0:0:
256,296,29405,5,8,0:0:0:0:
400,180,29576,1,0,0:0:0:0:
264,67,29748,2,0,L|184:147,1,100,8|0,0:0|0:0,0:0:0:0:
264,228,30091,1,8,0:0:0:0:
400,180,30262,6,0,P|396:216|368:248,1,50,0|0,0:3|0:3,0:3:0:0:
256,296,30433,2,0,P|218:279|196:248,1,50,8|0,0:3|0:3,0:3:0:0:
220,128,30605,2,0,P|240:108|292:104,1,50,0|0,0:3|0:3,0:3:0:0:
300,96,30776,5,0,0:0:0:0:
348,304,30948,2,0,B|420:260|452:204|460:148|448:100,1,200
436,112,31376,1,0,0:0:0:0:
404,76,31462,2,0,B|296:0|296:176|168:60,1,250
113,95,31976,2,0,B|128:132|198:184|227:168|277:183|296:165|336:144,1,250
365,208,32491,2,0,P|344:290|279:335,1,150
228,328,32833,2,0,P|108:263|67:143,1,250
32,88,33348,2,0,B|128:60|152:156|152:156|164:212|200:252|256:268|344:232|328:128,1,450
244,160,34205,5,8,0:0:0:0:
388,48,34376,1,0,0:0:0:0:
244,160,34548,1,8,0:0:0:0:
388,48,34719,1,0,0:0:0:0:
220,236,34891,2,0,L|124:236,1,75.0000028610231,8|0,0:0|0:0,0:0:0:0:
80,124,35062,2,0,L|118:59,1,75.0000028610231
245,59,35233,2,0,L|283:123,1,75.0000028610231,8|0,0:0|0:0,0:0:0:0:
220,236,35405,1,0,0:0:0:0:
140,304,35576,2,0,B|127:301|232:356|300:308,1,150.000005722046,8|0,0:0|0:0,0:0:0:0:
376,68,35919,6,0,B|389:71|284:16|212:60,1,150.000005722046,8|0,0:0|0:0,0:0:0:0:
80,120,36262,1,8,0:0:0:0:
64,176,36348,1,0,0:0:0:0:
72,236,36433,1,0,0:0:0:0:
380,72,36605,2,0,L|406:45,6,37.5000014305115,8|0|0|0|0|0|0,0:0|0:0|0:0|0:0|0:0|0:0|0:0,0:0:0:0:
232,132,36948,2,0,B|196:92|196:92|120:152,1,150.000005722046,8|0,0:0|0:0,0:0:0:0:
308,232,37291,2,0,B|344:192|344:192|420:252,1,150.000005722046,8|0,0:0|0:0,0:0:0:0:
440,96,37633,2,0,L|361:67,1,75.0000028610231
218,86,37805,2,0,L|294:113,1,75.0000028610231
396,151,37976,6,0,B|396:205|396:205|356:241|308:231,1,150.000005722046,8|0,0:0|0:0,0:0:0:0:
109,174,38319,2,0,B|60:167|33:121|33:121|51:69,1,150.000005722046,8|0,0:0|0:0,0:0:0:0:
201,29,38662,2,0,B|248:19|288:55|288:55|288:111,1,150.000005722046,8|0,0:0|0:0,0:0:0:0:
259,220,39005,1,0,0:0:0:0:
224,270,39090,1,0,0:0:0:0:
175,305,39176,1,8,0:0:0:0:
68,338,39348,2,0,L|41:364,6,37.5000014305115,8|0|0|0|0|0|0,0:0|0:0|0:0|0:0|0:0|0:0|0:0,0:0:0:0:
168,212,39691,5,8,0:0:0:0:
288,124,39862,1,0,0:0:0:0:
288,124,40033,2,0,P|296:48|368:20,1,150.000005722046,8|0,0:0|0:0,0:0:0:0:
356,96,40376,1,8,0:0:0:0:
356,96,40548,1,0,0:0:0:0:
157,217,40719,2,0,L|124:244,2,37.5000014305115,8|0|0,0:0|0:0|0:0,0:0:0:0:
288,216,40891,2,0,L|288:256,2,37.5000014305115
216,112,41062,5,8,0:0:0:0:
380,188,41233,1,0,0:0:0:0:
216,272,41405,2,0,P|276:324|356:284,1,150.000005722046,8|0,0:0|0:0,0:0:0:0:
192,204,41748,1,8,0:0:0:0:
192,204,41919,2,0,B|96:64,2,150.000005722046,0|8|0,0:0|0:0|0:0,0:0:0:0:
432,296,42433,6,0,L|497:361,1,75.0000028610231
360,328,42605,2,0,L|294:393,1,75.0000028610231
212,260,42776,2,0,L|138:186,1,75.0000028610231
224,120,42948,2,0,L|280:176,1,75.0000028610231
312,64,43119,2,0,L|377:-1,1,75.0000028610231
464,144,43291,2,0,L|404:84,1,75.0000028610231
380,220,43462,2,0,L|433:273,2,75.0000028610231
167,165,43805,6,0,P|160:84|220:48,2,150.000005722046
462,145,44319,1,0,0:0:0:0:
223,121,44491,1,0,0:0:0:0:
452,44,44662,1,0,0:0:0:0:
223,121,44833,1,0,0:0:0:0:
356,220,45176,5,4,0:2:0:0:
271,220,45347,2,0,L|200:220,1,50
221,134,45691,2,0,P|239:117|264:108,11,50
276,176,47748,5,0,0:0:0:0:
340,124,47919,2,0,B|413:99|413:99|371:82,1,100,4|0,0:0|0:0,0:0:0:0:
176,76,48433,6,0,P|155:103|151:139,11,50,4|0|0|0|0|0|0|0|0|0|0|0,0:0|0:0|0:0|0:0|0:0|0:0|0:0|0:0|0:0|0:0|0:0|0:0,0:0:0:0:
219,130,50491,5,0,0:0:0:0:
232,212,50662,2,0,B|216:288|216:288|252:260,1,100,4|0,0:0|0:0,0:0:0:0:
312,244,51176,6,0,P|352:237|376:216,12,50,4|0|0|0|0|0|0|0|0|0|0|0|0,0:0|0:0|0:0|0:0|0:0|0:0|0:0|0:0|0:0|0:0|0:0|0:0|0:0,0:0:0:0:
320,174,53405,2,0,L|262:131,1,50
160,144,53748,2,0,L|218:187,1,50
156,60,54091,2,0,L|115:30,1,50
84,144,54433,2,0,L|56:192,1,50
176,216,54776,2,0,L|204:264,1,50
84,280,55119,2,0,L|56:328,1,50
180,324,55462,2,0,L|223:349,1,50
344,352,55805,2,0,L|372:304,1,50
356,180,56148,6,0,L|404:76,1,100,4|0,0:0|0:0,0:0:0:0:
312,89,56662,1,0,0:0:0:0:
356,188,57005,1,0,0:0:0:0:
275,209,57176,2,0,P|339:265|436:208,1,200
48,104,58205,5,0,0:0:0:0:
368,28,58548,1,0,0:0:0:0:
272,336,58891,2,0,P|228:332|184:276,1,100,4|0,0:0|0:0,0:0:0:0:
336,144,59405,1,0,0:0:0:0:
272,336,59748,1,0,0:0:0:0:
272,345,59919,2,0,B|144:376|120:260,1,200
444,52,60948,5,0,0:0:0:0:
314,127,61291,1,0,0:0:0:0:
444,202,61633,6,0,L|352:260,1,100,4|0,0:0|0:0,0:0:0:0:
298,194,62148,1,0,0:0:0:0:
177,192,62491,1,0,0:0:0:0:
236,132,62662,2,0,P|288:108|336:116,1,100
298,194,63176,5,0,0:0:0:0:
298,194,63348,1,0,0:0:0:0:
177,192,63519,1,0,0:0:0:0:
101,224,63691,2,0,P|132:262|180:276,1,100
362,214,64376,2,0,P|321:242|272:244,1,100,4|0,0:0|0:0,0:0:0:0:
296,164,64891,1,0,0:0:0:0:
101,224,65233,1,0,0:0:0:0:
164,68,65576,5,0,0:0:0:0:
204,52,65662,1,0,0:0:0:0:
244,60,65748,2,0,L|341:97,1,100
275,256,66091,1,0,0:0:0:0:
155,136,66262,1,0,0:0:0:0:
248,344,66605,1,0,0:0:0:0:
188,208,66776,2,0,P|88:176|92:92,1,200,0|4,0:0|0:0,0:0:0:0:
261,95,67291,1,0,0:0:0:0:
380,214,67462,6,0,L|426:304,1,100
312,176,67805,2,0,L|265:266,1,100
392,152,68148,2,0,P|336:96|276:101,1,139.999995727539
116,251,68662,1,0,0:0:0:0:
280,212,68833,2,0,B|216:176|216:176|264:144,1,100
388,244,69176,2,0,B|452:208|452:208|404:176,1,100
284,284,69519,2,0,B|220:248|220:248|268:216,1,100
392,316,69862,6,0,B|360:240|420:240|392:160,1,139.999995727539,4|0,0:0|0:0,0:0:0:0:
260,49,70376,1,0,0:0:0:0:
104,120,70548,2,0,B|132:184|132:184|168:172,1,100
320,120,70891,2,0,B|348:110|348:110|376:174,1,100
216,228,71233,2,0,B|244:292|244:292|280:280,1,100
248,112,71576,6,0,P|272:176|347:189,1,139.999995727539
324,72,72091,5,0,0:0:0:0:
188,72,72262,1,0,0:0:0:0:
120,189,72433,1,0,0:0:0:0:
188,312,72605,2,0,B|249:219|346:188,1,200,4|0,0:0|0:0,0:0:0:0:
484,264,73119,1,0,0:0:0:0:
332,340,73291,1,0,0:0:0:0:
180,264,73462,1,0,0:0:0:0:
108,112,73633,2,0,B|200:36|200:152|300:68,1,200
332,264,74148,5,0,0:0:0:0:
184,180,74319,1,0,0:0:0:0:
332,120,74491,1,0,0:0:0:0:
408,272,74662,2,0,P|346:189|264:230,1,200
120,300,75176,1,0,0:0:0:0:
248,236,75347,5,4,0:0:0:0:
136,108,75519,1,0,0:0:0:0:
248,236,75691,2,0,L|305:317,1,100
348,152,76033,2,0,L|290:70,1,100
120,44,76376,2,0,L|177:125,1,100
256,192,76719,12,4,77748,0:0:0:0:
66,169,78091,6,0,L|190:313,1,150.000005722046,4|0,0:0|0:0,0:0:0:0:
280,166,78433,1,0,0:0:0:0:
445,166,78605,2,0,L|347:53,1,150.000005722046,4|0,0:0|0:0,0:0:0:0:
208,144,78948,1,0,0:0:0:0:
324,260,79119,2,0,L|136:308,1,150.000005722046,4|0,0:0|0:0,0:0:0:0:
296,180,79462,5,0,0:0:0:0:
140,236,79633,1,0,0:0:0:0:
172,72,79805,1,0,0:0:0:0:
328,120,79976,1,0,0:0:0:0:
172,176,80147,1,0,0:0:0:0:
209,16,80319,1,0,0:0:0:0:
358,62,80491,1,0,0:0:0:0:
206,119,80662,1,0,0:0:0:0:
83,168,80833,6,0,L|163:300,1,150.000005722046,4|0,0:0|0:0,0:0:0:0:
326,296,81176,1,0,0:0:0:0:
326,130,81348,2,0,L|406:262,1,150.000005722046,4|0,0:0|0:0,0:0:0:0:
238,258,81691,1,0,0:0:0:0:
121,141,81862,1,0,0:0:0:0:
284,112,82033,1,0,0:0:0:0:
88,224,82205,6,0,P|32:140|60:72,1,150.000005722046,4|0,0:0|0:0,0:0:0:0:
196,36,82548,1,0,0:0:0:0:
312,152,82719,2,0,L|160:224,1,150.000005722046,4|0,0:0|0:0,0:0:0:0:
24,152,83062,1,0,0:0:0:0:
176,92,83233,1,0,0:0:0:0:
341,92,83405,1,0,0:0:0:0:
424,236,83576,6,0,L|288:171,1,150.000005722046,4|0,0:0|0:0,0:0:0:0:
164,280,83919,1,0,0:0:0:0:
164,114,84091,2,0,L|28:178,1,150.000005722046,4|0,0:0|0:0,0:0:0:0:
192,177,84433,1,0,0:0:0:0:
376,176,84605,6,0,L|240:111,1,150.000005722046,4|0,0:0|0:0,0:0:0:0:
104,229,84948,1,0,0:0:0:0:
164,76,85119,1,0,0:0:0:0:
220,232,85291,1,0,0:0:0:0:
88,132,85462,1,0,0:0:0:0:
252,136,85633,1,0,0:0:0:0:
120,236,85805,1,0,0:0:0:0:
164,76,85976,2,0,L|172:113,6,37.5000014305115
328,236,86319,6,0,L|200:316,1,150.000005722046,4|0,0:0|0:0,0:0:0:0:
200,149,86662,1,0,0:0:0:0:
348,80,86833,2,0,L|336:240,1,150.000005722046,4|0,0:0|0:0,0:0:0:0:
196,316,87176,1,0,0:0:0:0:
92,188,87348,1,0,0:0:0:0:
252,176,87519,1,0,0:0:0:0:
252,176,87691,6,0,L|332:47,1,150.000005722046,4|0,0:0|0:0,0:0:0:0:
331,213,88033,1,0,0:0:0:0:
165,213,88205,2,0,L|86:341,1,150.000005722046,4|0,0:0|0:0,0:0:0:0:
245,296,88548,1,0,0:0:0:0:
360,180,88719,2,0,L|320:140,1,40
256,76,88891,2,0,L|292:112,1,40
144,104,89062,6,0,B|144:164|144:164|176:196|232:184,1,150.000005722046,4|0,0:0|0:0,0:0:0:0:
472,260,89405,2,0,B|472:200|472:200|440:168|384:180,1,150.000005722046,8|0,0:0|0:0,0:0:0:0:
136,232,89748,2,0,B|93:224|93:224|121:340,1,150.000005722046,4|0,0:0|0:0,0:0:0:0:
344,224,90091,2,0,B|387:232|387:232|362:128,1,150.000005722046,8|0,0:0|0:0,0:0:0:0:
116,68,90433,6,0,B|72:163|72:163|138:179,1,150.000005722046,4|0,0:0|0:0,0:0:0:0:
372,300,90776,2,0,B|480:304|468:180|416:164,1,150.000005722046,8|0,0:0|0:0,0:0:0:0:
232,72,91119,2,0,B|136:84|148:176,1,150.000005722046,4|0,0:0|0:0,0:0:0:0:
368,332,91462,1,0,0:0:0:0:
224,152,91633,1,0,0:0:0:0:
432,304,91805,6,0,B|530:260|465:154|411:162,1,150.000005722046,4|0,0:0|0:0,0:0:0:0:
256,336,92148,1,8,0:0:0:0:
48,192,92319,1,0,0:0:0:0:
256,44,92491,2,0,B|280:92|280:92|356:88|368:168,1,150.000005722046,4|0,0:0|0:0,0:0:0:0:
156,300,92833,1,8,0:0:0:0:
48,192,93005,1,0,0:0:0:0:
198,320,93176,6,0,P|267:301|279:231,1,150.000005722046,4|0,0:0|0:0,0:0:0:0:
292,164,93519,2,0,P|223:182|211:253,1,150.000005722046,8|0,0:0|0:0,0:0:0:0:
344,208,93862,2,0,B|423:207|443:113,1,150.000005722046,4|0,0:0|0:0,0:0:0:0:
178,132,94205,2,0,B|116:81|41:139,1,150.000005722046,8|0,0:0|0:0,0:0:0:0:
302,200,94548,5,4,0:0:0:0:
100,48,94719,1,0,0:0:0:0:
338,141,94891,2,0,P|365:228|274:265,1,150.000005722046,8|0,0:0|0:0,0:0:0:0:
158,89,95233,1,4,0:0:0:0:
256,324,95405,1,0,0:0:0:0:
43,186,95576,2,0,L|175:74,1,150.000005722046,8|0,0:0|0:0,0:0:0:0:
306,128,95919,5,4,0:0:0:0:
256,304,96091,1,0,0:0:0:0:
216,52,96262,2,0,B|244:104|196:148|196:148|136:200,1,150.000005722046,8|0,0:0|0:0,0:0:0:0:
356,344,96605,2,0,B|328:292|376:248|376:248|408:219,1,150.000005722046,4|0,0:0|0:0,0:0:0:0:
163,176,96948,2,0,P|152:244|208:198,1,150.000005722046,8|0,0:0|0:0,0:0:0:0:
372,179,97291,6,0,B|364:168|396:264|440:220|464:292,1,150.000005722046,4|0,0:0|0:0,0:0:0:0:
120,116,97633,2,0,P|192:108|232:184,1,150.000005722046,8|0,0:0|0:0,0:0:0:0:
236,276,97976,2,0,B|152:316|84:268,1,150.000005722046,4|0,0:0|0:0,0:0:0:0:
163,176,98319,1,8,0:0:0:0:
332,108,98491,1,0,0:0:0:0:
236,276,98662,1,4,0:0:0:0:
236,276,98833,1,0,0:0:0:0:
236,276,99005,6,0,P|164:188|240:120,1,225.000008583069,8|0,0:0|0:0,0:0:0:0:
240,200,99348,2,0,P|312:112|244:40,1,225.000008583069,4|0,0:0|0:0,0:0:0:0:
163,61,99691,2,0,P|91:152|132:306,1,200,8|0,0:0|0:0,0:0:0:0:
200,264,100033,1,4,0:0:0:0:
200,264,100119,1,0,0:0:0:0:
200,264,100205,2,0,L|284:264,1,75.0000028610231
192,128,100376,1,8,0:0:0:0:
192,128,100462,1,0,0:0:0:0:
192,128,100548,2,0,L|244:200,1,75.0000028610231
332,148,100719,1,4,0:0:0:0:
332,148,100805,1,0,0:0:0:0:
332,148,100891,2,0,L|332:56,1,75.0000028610231
252,36,101062,6,0,L|208:36,4,37.5000014305115,8|0|0|0|0,0:0|0:0|0:0|0:0|0:0,0:0:0:0:
216,120,101405,6,0,L|244:184,1,50,4|0,0:0|0:0,0:0:0:0:
360,153,101576,2,0,L|388:217,1,50
236,165,101748,2,0,L|264:229,1,50,8|0,0:0|0:0,0:0:0:0:
380,198,101919,2,0,L|408:262,1,50
256,210,102091,2,0,L|284:274,1,50,4|0,0:0|0:0,0:0:0:0:
400,243,102262,2,0,L|428:307,1,50
256,332,102433,6,0,L|192:332,2,50,8|0|0,0:0|0:0|0:0,0:0:0:0:
96,260,102776,1,4,0:0:0:0:
128,244,102862,1,0,0:0:0:0:
160,224,102948,2,0,L|240:176,1,50
371,265,103119,1,8,0:0:0:0:
339,281,103205,1,0,0:0:0:0:
307,301,103291,2,0,L|219:353,1,59.9999981689454
193,233,103462,1,4,0:0:0:0:
202,198,103548,1,0,0:0:0:0:
209,161,103634,2,0,L|229:60,1,59.9999981689454
308,64,103805,6,0,L|346:95,2,50,8|0|0,0:0|0:0|0:0,0:0:0:0:
288,264,104148,6,0,P|300:296|340:288,1,50,4|0,0:0|0:0,0:0:0:0:
401,211,104319,2,0,P|433:199|425:159,1,50
347,96,104491,2,0,P|335:64|295:72,1,50,8|0,0:0|0:0,0:0:0:0:
233,148,104662,2,0,P|201:160|209:200,1,50
321,172,104833,6,0,L|296:169,4,25,4|0|0|0|0,0:0|0:0|0:0|0:0|0:0,0:0:0:0:
380,268,105091,2,0,L|328:260,1,50,0|8,0:0|0:0,0:0:0:0:
323,349,105262,2,0,L|298:346,4,25
104,216,105519,5,4,0:0:0:0:
118,184,105604,1,0,0:0:0:0:
152,162,105690,1,0,0:0:0:0:
268,168,105862,5,8,0:0:0:0:
249,204,105947,1,0,0:0:0:0:
213,226,106033,1,0,0:0:0:0:
193,158,106205,5,4,0:0:0:0:
212,122,106290,1,0,0:0:0:0:
247,100,106377,1,0,0:0:0:0:
321,110,106547,5,8,0:0:0:0:
302,146,106633,1,0,0:0:0:0:
268,168,106719,1,0,0:0:0:0:
247,100,106890,5,4,0:0:0:0:
266,64,106976,1,0,0:0:0:0:
300,41,107062,1,0,0:0:0:0:
374,51,107233,5,8,0:0:0:0:
355,87,107318,1,0,0:0:0:0:
321,110,107404,1,0,0:0:0:0:
279,113,107490,1,0,0:0:0:0:
240,107,107576,1,4,0:0:0:0:
204,91,107662,1,0,0:0:0:0:
172,67,107748,1,0,0:0:0:0:
140,47,107833,1,0,0:0:0:0:
100,43,107919,1,8,0:0:0:0:
60,55,108005,1,0,0:0:0:0:
28,80,108091,1,0,0:0:0:0:
156,188,108262,6,0,L|128:204,6,25,4|0|0|0|0|0|0,0:0|0:0|0:0|0:0|0:0|0:0|0:0,0:0:0:0:
204,260,108605,2,0,L|232:276,6,25,8|0|0|0|0|0|0,0:0|0:0|0:0|0:0|0:0|0:0|0:0,0:0:0:0:
232,84,108948,2,0,L|260:68,6,25,4|0|0|0|0|0|0,0:0|0:0|0:0|0:0|0:0|0:0|0:0,0:0:0:0:
336,312,109291,2,0,L|368:340,6,25,8|0|0|0|0|0|0,0:0|0:0|0:0|0:0|0:0|0:0|0:0,0:0:0:0:
124,196,109633,6,0,L|168:104,1,100,4|0,0:0|0:0,0:0:0:0:
260,312,110148,1,0,0:0:0:0:
260,312,110319,6,0,L|164:268,1,100
244,128,110662,6,0,P|368:100|404:136,1,150.000005722046
320,168,111005,6,8,B|292:220|224:212,1,100
284,288,111519,1,8,0:0:0:0:
408,64,111691,2,0,B|448:172|372:252,1,200,8|0,0:0|0:0,0:0:0:0:
264,112,112205,1,0,0:0:0:0:
60,200,112376,2,0,L|208:288,1,129.999994049073
452,200,112719,2,0,L|292:296,1,150.000005722046
364,88,113062,2,0,L|364:176,1,75.0000028610231
108,192,113233,2,0,L|108:280,1,75.0000028610231
288,56,113405,2,0,L|288:144,1,75.0000028610231
104,80,113576,1,0,0:0:0:0:
304,280,113748,6,8,B|408:284|425:188,1,150,8|0,0:0|0:0,0:0:0:0:
425,163,114091,1,8,0:0:0:0:
201,132,114262,1,8,0:0:0:0:
147,259,114433,2,0,B|191:260|191:260|255:280|255:280|331:280,1,160,8|0,0:0|0:0,0:0:0:0:
458,122,114948,1,0,0:0:0:0:
140,112,115119,5,0,0:0:0:0:
120,144,115205,1,0,0:0:0:0:
112,184,115291,1,0,0:0:0:0:
124,220,115376,1,0,0:0:0:0:
152,256,115462,2,0,B|212:280|264:240,1,100
384,76,115805,2,0,P|328:108|260:52,1,129.999994049073
44,192,116148,2,0,P|120:152|184:172,1,150.000005722046
344,176,116491,6,8,B|357:316|441:310,1,150,8|0,0:0|0:0,0:0:0:0:
444,318,116833,1,8,0:0:0:0:
418,76,117005,1,8,0:0:0:0:
272,160,117176,2,0,B|257:214|257:214|257:276|257:276|238:345,1,160,8|0,0:0|0:0,0:0:0:0:
444,252,117691,1,0,0:0:0:0:
164,48,117862,6,0,B|12:152,1,150.000005722046,4|0,0:0|0:0,0:0:0:0:
252,200,118205,2,0,B|284:228|284:228|332:168|416:216,1,150.000005722046
136,104,118548,2,0,L|240:188|240:188,1,75.0000028610231
408,320,118719,2,0,L|308:236|308:236,1,75.0000028610231
136,320,118891,2,0,L|240:236|240:236,1,75.0000028610231
272,212,119062,1,0,0:0:0:0:
436,136,119233,6,0,P|380:68|252:52,1,200
112,32,119748,1,0,0:0:0:0:
140,208,119919,2,0,L|176:316,1,100
340,302,120262,1,0,0:0:0:0:
348,279,120347,1,0,0:0:0:0:
356,255,120433,1,0,0:0:0:0:
364,232,120519,1,0,0:0:0:0:
372,208,120605,6,0,B|396:136|360:104|360:104|384:84|384:84|304:52,1,200
240,216,121119,1,0,0:0:0:0:
304,160,121291,2,0,P|232:132|164:176,1,150
320,276,121976,6,8,P|220:316|157:271,1,150,8|0,0:0|0:0,0:0:0:0:
153,280,122319,1,8,0:0:0:0:
228,112,122491,1,8,0:0:0:0:
396,112,122662,2,0,P|332:140|224:252,1,200,8|0,0:0|0:0,0:0:0:0:
72,268,123176,1,0,0:0:0:0:
192,44,123348,6,0,B|164:72|164:72|96:104|96:104|64:136,1,150.000005722046
272,288,123691,2,0,P|248:192|312:144,1,150.000005722046
436,232,124033,2,0,L|458:303,1,75.0000028610231
348,232,124205,2,0,L|372:308,1,75.0000028610231
264,232,124376,2,0,L|288:308,1,75.0000028610231
180,228,124548,1,0,0:0:0:0:
184,64,124719,6,8,B|232:88|232:88|281:88|281:88|362:126,1,150,8|0,0:0|0:0,0:0:0:0:
360,129,125062,1,8,0:0:0:0:
465,231,125233,1,8,0:0:0:0:
316,220,125405,2,0,P|223:183|123:203,1,200,8|0,0:0|0:0,0:0:0:0:
204,348,125919,1,0,0:0:0:0:
316,220,126091,5,0,0:0:0:0:
309,195,126176,1,0,0:0:0:0:
302,171,126262,1,0,0:0:0:0:
295,147,126348,1,0,0:0:0:0:
288,124,126433,6,0,B|248:0|104:56,1,200
52,200,126948,1,0,0:0:0:0:
269,318,127119,2,0,P|302:233|216:205,1,150.000005722046
268,202,127462,1,0,0:0:0:0:
84,96,127805,6,0,B|120:184|120:184|168:136,1,150.000005722046,8|0,0:0|0:0,0:0:0:0:
392,40,128148,2,0,B|428:128|428:128|476:80,1,150.000005722046,8|0,0:0|0:0,0:0:0:0:
236,204,128491,6,0,B|184:244|184:244|252:300|252:300,1,150.000005722046,8|0,0:0|0:0,0:0:0:0:
316,60,128833,2,0,B|304:128|304:128|224:100|224:100,1,150.000005722046,8|0,0:0|0:0,0:0:0:0:
72,304,129176,6,0,L|236:252,1,150.000005722046,8|0,0:0|0:0,0:0:0:0:
440,80,129519,2,0,L|276:132,1,150.000005722046,8|0,0:0|0:0,0:0:0:0:
41,125,129862,6,0,P|93:197|177:170,1,150.000005722046,8|0,0:0|0:0,0:0:0:0:
368,68,130205,2,0,P|439:74|473:138,1,150.000005722046,8|0,0:0|0:0,0:0:0:0:
268,292,130548,5,0,0:0:0:0:
268,292,130719,1,0,0:0:0:0:
96,104,130891,5,0,0:0:0:0:
96,104,131062,1,0,0:0:0:0:
350,104,131233,6,0,L|388:160,4,50
268,292,131748,1,0,0:0:0:0:
116,368,131919,2,0,B|52:348|52:348|64:272,1,100
136,164,132262,1,0,0:0:0:0:
288,88,132433,1,0,0:0:0:0:
216,132,132605,6,0,P|204:76|228:28,1,100,8|2,0:0|0:0,0:0:0:0:
455,62,133119,5,0,0:0:0:0:
388,308,133291,1,8,0:0:0:0:
216,132,133462,1,0,0:0:0:0:
456,192,133633,1,4,0:0:0:0:
212,268,133805,2,0,L|212:356,1,75.0000028610231
172,204,133976,2,0,P|130:126|180:56,1,150.000005722046,8|0,0:0|0:0,0:0:0:0:
269,75,134319,2,0,L|320:180,1,100,4|0,0:0|0:0,0:0:0:0:
280,336,134662,2,0,P|236:279|162:297,1,150,8|0,0:0|0:0,0:0:0:0:
121,144,135005,6,0,L|75:164,1,50
152,75,135176,2,0,L|216:47,1,50
269,75,135348,2,0,P|325:95|373:171,1,139.999995727539
280,280,135862,5,0,0:0:0:0:
128,208,136033,2,0,B|128:104,1,100,8|0,0:0|0:0,0:0:0:0:
296,60,136376,2,0,B|356:61|356:61|410:102,1,100,4|0,0:0|0:0,0:0:0:0:
324,140,136633,1,0,0:0:0:0:
256,192,136719,2,0,B|288:248|368:224,1,100,8|0,0:0|0:0,0:0:0:0:
88,276,137062,6,0,L|80:364,1,75.0000028610231,4|0,0:0|0:0,0:0:0:0:
181,130,137233,2,0,L|173:218,1,75.0000028610231
268,312,137405,2,0,L|276:232,1,69.9999978637696
192,53,137748,2,0,P|235:71|259:125,1,104.999996795654
268,312,138091,2,0,B|316:264|380:264|380:264|442:162,1,225.000008583069,0|4,0:0|0:0,0:0:0:0:
439,139,138433,1,0,0:0:0:0:
192,53,138605,5,0,0:0:0:0:
80,275,138776,1,8,0:0:0:0:
332,260,138948,1,0,0:0:0:0:
184,176,139119,2,0,P|156:228|168:268,1,100
176,292,139376,1,0,0:0:0:0:
200,324,139462,1,8,0:0:0:0:
420,220,139633,1,0,0:0:0:0:
420,220,139805,2,0,B|412:148|336:144,1,100,4|0,0:0|0:0,0:0:0:0:
192,149,140148,5,8,0:0:0:0:
272,300,140319,1,0,0:0:0:0:
363,149,140491,1,0,0:0:0:0:
340,93,140576,1,0,0:0:0:0:
294,57,140662,1,0,0:0:0:0:
233,45,140748,1,0,0:0:0:0:
180,56,140833,2,0,P|121:86|100:160,1,139.999995727539
198,263,141348,5,0,0:0:0:0:
317,143,141519,1,0,0:0:0:0:
317,143,141691,1,0,0:0:0:0:
160,204,141862,2,0,L|108:204,1,50
272,79,142033,2,0,L|312:40,1,50
308,212,142205,2,0,B|380:208|432:160|444:80,1,200
280,40,142719,5,0,0:0:0:0:
144,140,142891,2,0,B|112:192|112:192|168:240,1,100
296,284,143233,2,0,L|364:320,1,50
248,101,143405,2,0,L|284:33,1,50
316,132,143576,6,0,L|292:184,1,50
104,47,143919,6,0,B|110:95|110:95|136:104|136:104|185:61|240:95,1,150,4|0,0:0|0:0,0:0:0:0:
248,101,144262,1,8,0:0:0:0:
60,268,144433,1,0,0:0:0:0:
192,152,144605,1,4,0:0:0:0:
392,344,144776,1,0,0:0:0:0:
432,292,144862,1,0,0:0:0:0:
460,232,144948,2,0,B|488:176|480:40|400:168,1,150.000005722046,8|0,0:0|0:0,0:0:0:0:
306,236,145291,2,0,B|272:176|272:176|211:212|211:212,1,100,4|0,0:0|0:0,0:0:0:0:
75,192,145633,2,0,B|109:132|109:132|135:148,1,100,8|0,0:0|0:0,0:0:0:0:
296,96,145976,6,0,L|376:96,1,50,4|0,0:0|0:0,0:0:0:0:
284,157,146148,2,0,L|340:213,1,50
236,208,146319,6,0,L|216:252,1,25
208,268,146491,1,0,0:0:0:0:
56,252,146662,2,0,P|28:180|48:136,1,100
174,65,147005,2,0,L|309:28,1,100,8|0,0:0|0:0,0:0:0:0:
234,194,147348,2,0,B|228:236|148:260,1,100,4|0,0:0|0:0,0:0:0:0:
129,269,147605,1,0,0:0:0:0:
92,286,147691,1,8,0:0:0:0:
96,116,147862,1,0,0:0:0:0:
252,44,148033,6,0,L|200:68,1,50
312,140,148205,2,0,L|388:176,1,50
216,200,148376,2,0,L|92:256,1,100
292,284,148719,2,0,L|392:332,1,100
432,164,149062,2,0,B|400:136|400:136|328:128,1,75.0000028610231
256,196,149233,2,0,B|223:192|223:192|191:164,1,75.0000028610231
223,90,149405,6,0,B|340:44|340:44,1,100
408,200,149748,1,8,0:0:0:0:
244,236,149919,1,0,0:0:0:0:
188,220,150005,1,0,0:0:0:0:
144,200,150091,2,0,B|93:84|93:84,1,100,4|0,0:0|0:0,0:0:0:0:
260,48,150433,5,8,0:0:0:0:
320,208,150605,1,0,0:0:0:0:
174,136,150776,2,0,B|98:112|66:200,1,100,4|0,0:0|0:0,0:0:0:0:
260,296,151119,5,8,0:0:0:0:
260,100,151291,1,0,0:0:0:0:
136,216,151462,2,0,B|168:312,1,100,4|0,0:0|0:0,0:0:0:0:
260,100,151805,5,8,0:0:0:0:
416,164,151976,1,0,0:0:0:0:
480,36,152148,2,0,B|416:20|392:92|308:56,1,150.000005722046,4|0,0:0|0:0,0:0:0:0:
304,68,152405,1,0,0:0:0:0:
264,80,152491,2,0,B|175:123|175:123|192:171,1,150.000005722046,8|0,0:0|0:0,0:0:0:0:
444,244,152833,2,0,B|422:340|422:340|371:334,1,150.000005722046,4|0,0:0|0:0,0:0:0:0:
332,328,153091,1,0,0:0:0:0:
296,320,153176,2,0,B|219:310|219:310|246:237,1,150.000005722046,8|0,0:0|0:0,0:0:0:0:
76,48,153519,1,4,0:0:0:0:
224,136,153691,6,0,L|160:156,1,50
284,172,153862,6,0,L|332:208,1,50
404,236,154205,2,0,L|384:248,14,12.5
352,272,154891,6,0,L|196:324,1,150.000005722046,4|0,0:0|0:0,0:0:0:0:
220,152,155233,1,0,0:0:0:0:
390,152,155405,1,0,0:0:0:0:
88,36,155748,1,0,0:0:0:0:
44,108,155919,6,0,B|128:184,1,100,4|0,0:0|0:0,0:0:0:0:
336,56,156605,6,0,P|372:80|332:176,1,150
280,120,156948,2,0,P|244:144|284:240,1,150
308,256,157291,1,0,0:0:0:0:
156,176,157633,6,0,B|156:116|156:116|208:84,1,100,4|0,0:0|0:0,0:0:0:0:
276,68,158148,1,0,0:0:0:0:
337,222,158491,6,0,L|373:266,1,50
292,296,158662,2,0,P|252:208|324:136,1,200
222,116,159176,5,0,0:0:0:0:
276,68,159348,2,0,P|225:45|172:64,1,100
116,192,159862,1,0,0:0:0:0:
116,276,160033,2,0,P|156:304|212:312,1,100,0|4,0:0|0:0,0:0:0:0:
212,156,160548,1,0,0:0:0:0:
116,192,160719,2,0,B|148:248|148:248,1,50
220,268,161062,1,0,0:0:0:0:
372,196,161233,6,0,L|424:188,1,50
384,268,161405,2,0,P|300:212|344:128,1,200
396,24,161919,5,0,0:0:0:0:
311,24,162091,2,0,B|256:44|256:44|234:79,1,100
316,108,162605,1,0,0:0:0:0:
240,148,162776,2,0,P|278:187|328:196,1,100,0|4,0:0|0:0,0:0:0:0:
312,104,163291,5,0,0:0:0:0:
356,176,163462,2,0,L|356:236,1,50
284,172,163805,2,0,P|244:140|244:80,1,100
408,92,164319,2,0,L|436:152,1,50
440,224,164491,6,0,P|400:296|284:268,1,200
280,200,165005,1,0,0:0:0:0:
212,148,165176,2,0,P|195:186|208:248,1,100,0|4,0:0|0:0,0:0:0:0:
280,200,165691,1,0,0:0:0:0:
322,200,165776,1,0,0:0:0:0:
364,200,165862,6,0,L|396:128,1,69.9999978637696,4|0,0:0|0:0,0:0:0:0:
280,100,166205,1,0,0:0:0:0:
196,16,166376,1,0,0:0:0:0:
111,100,166548,2,0,L|63:172,1,69.9999978637696
192,160,166891,2,0,B|244:212|244:212|192:264,1,139.999995727539
88,208,167405,5,0,0:0:0:0:
88,89,167576,1,0,0:0:0:0:
172,4,167748,1,0,0:0:0:0:
292,4,167919,2,0,L|348:60,1,69.9999978637696
219,129,168262,2,0,P|202:98|171:83,1,69.9999978637696
132,75,168519,1,0,0:0:0:0:
104,104,168605,6,0,P|132:172|208:224,1,139.999995727539,4|0,0:0|0:0,0:0:0:0:
301,213,169119,1,0,0:0:0:0:
301,93,169291,2,0,L|376:128,1,69.9999978637696
388,240,169633,2,0,P|379:266|272:300,1,139.999995727539
282,184,170148,5,0,0:0:0:0:
163,184,170319,2,0,L|75:184,1,69.9999978637696
177,99,170662,1,0,0:0:0:0:
260,15,170833,1,0,0:0:0:0:
260,134,171005,1,0,0:0:0:0:
148,172,171176,1,0,0:0:0:0:
52,100,171348,6,0,P|64:36|140:12,1,139.999995727539,4|0,0:0|0:0,0:0:0:0:
216,92,171862,1,0,0:0:0:0:
108,304,172205,1,0,0:0:0:0:
108,185,172376,2,0,P|148:213|248:185,1,139.999995727539
172,96,172891,5,0,0:0:0:0:
292,92,173062,2,0,B|350:68|350:68|390:108,1,104.999996795654
412,148,173405,2,0,B|361:187|361:187|312:188,1,104.999996795654
304,132,173748,2,0,B|256:84|256:84|168:84,1,139.999995727539,0|4,0:0|0:0,0:0:0:0:
99,168,174262,5,0,0:0:0:0:
217,168,174433,2,0,L|280:104,1,69.9999978637696
380,148,174776,1,0,0:0:0:0:
312,244,174948,2,0,L|252:244,1,34.9999989318848
216,240,175119,2,0,P|156:208|216:96,1,209.999993591309
302,97,175805,2,0,P|362:117|382:157,1,89.9999972534181
312,168,176148,2,0,P|356:208|404:200,1,89.9999972534181
424,196,176491,2,0,P|449:154|443:105,1,100,0|8,0:0|0:0,0:0:0:0:
347,147,177005,5,0,0:0:0:0:
286,87,177176,1,0,0:0:0:0:
201,87,177348,2,0,L|160:128,1,50,8|0,0:0|0:0,0:0:0:0:
225,182,177691,1,0,0:0:0:0:
225,266,177862,1,0,0:0:0:0:
140,266,178033,2,0,L|76:266,1,50,8|0,0:0|0:0,0:0:0:0:
88,100,178376,5,0,0:0:0:0:
148,160,178548,1,0,0:0:0:0:
207,219,178719,2,0,L|247:259,1,50,8|0,0:0|0:0,0:0:0:0:
302,314,179062,1,0,0:0:0:0:
361,254,179233,1,0,0:0:0:0:
300,193,179405,1,0,0:0:0:0:
260,40,179576,6,0,L|260:96,1,50,8|0,0:0|0:0,0:0:0:0:
376,40,179919,1,0,0:0:0:0:
436,100,180091,2,0,L|396:140,1,50,8|0,0:0|0:0,0:0:0:0:
314,133,180433,1,0,0:0:0:0:
253,193,180605,1,0,0:0:0:0:
193,133,180776,2,0,L|156:96,1,50,8|0,0:0|0:0,0:0:0:0:
97,157,181119,5,0,0:0:0:0:
157,217,181291,1,0,0:0:0:0:
241,217,181462,2,0,L|297:217,1,50,8|0,0:0|0:0,0:0:0:0:
351,156,181805,1,0,0:0:0:0:
410,215,181976,1,0,0:0:0:0:
349,275,182148,2,0,L|304:320,1,50,8|0,0:0|0:0,0:0:0:0:
228,310,182491,5,0,0:0:0:0:
143,310,182662,1,0,0:0:0:0:
83,250,182833,2,0,L|83:191,1,50,8|0,0:0|0:0,0:0:0:0:
143,139,183176,1,0,0:0:0:0:
203,199,183348,1,0,0:0:0:0:
262,139,183519,2,0,L|311:139,1,50,8|0,0:0|0:0,0:0:0:0:
402,48,183862,5,0,0:0:0:0:
317,48,184033,1,0,0:0:0:0:
256,108,184205,2,0,L|217:147,1,50,8|0,0:0|0:0,0:0:0:0:
220,228,184548,1,0,0:0:0:0:
304,228,184719,1,0,0:0:0:0:
364,167,184891,1,0,0:0:0:0:
317,48,185062,6,0,L|280:84,1,50,8|0,0:0|0:0,0:0:0:0:
220,143,185405,1,0,0:0:0:0:
160,83,185576,2,0,L|124:45,1,50,8|0,0:0|0:0,0:0:0:0:
65,107,185919,1,0,0:0:0:0:
125,167,186091,1,0,0:0:0:0:
209,167,186262,1,0,0:0:0:0:
268,107,186433,2,0,B|303:72|303:72|356:72,1,100,8|8,0:0|0:0,0:0:0:0:
256,192,186862,12,0,187633,0:0:0:0:
116,88,187805,6,0,B|88:120|88:120|120:188,1,100,4|0,0:2|0:0,0:0:0:0:
233,292,188148,1,0,0:0:0:0:
352,172,188319,6,0,B|380:140|380:140|348:72,1,100,4|0,0:0|0:0,0:0:0:0:
232,180,188662,1,0,0:0:0:0:
372,272,188833,6,0,B|413:262|413:262|427:188,1,100,4|0,0:0|0:0,0:0:0:0:
303,85,189176,1,0,0:0:0:0:
172,196,189348,1,0,0:0:0:0:
336,240,189519,1,0,0:0:0:0:
244,96,189691,1,0,0:0:0:0:
204,260,189862,1,0,0:0:0:0:
352,176,190033,1,0,0:0:0:0:
176,128,190205,6,0,L|92:164,1,50
196,204,190376,2,0,L|220:252,1,50
244,152,190548,2,0,P|272:104|312:76,1,100,4|0,0:0|0:0,0:0:0:0:
352,176,190891,1,0,0:0:0:0:
251,248,191062,6,0,P|236:194|245:146,1,100,4|0,0:0|0:0,0:0:0:0:
408,192,191405,1,0,0:0:0:0:
312,332,191576,6,0,L|240:332,1,50
251,248,191748,2,0,L|207:212,1,50
160,284,191919,2,4,P|125:223|143:171,1,100,0|0,0:0|0:0,0:0:0:0:
208,52,192262,1,0,0:0:0:0:
308,188,192433,6,0,P|332:248|320:288,1,100,4|0,0:0|0:0,0:0:0:0:
180,368,192776,1,0,0:0:0:0:
40,272,192948,1,0,0:0:0:0:
180,176,193119,1,0,0:0:0:0:
324,280,193291,6,0,L|420:212,1,100,4|0,0:0|0:0,0:0:0:0:
260,136,193633,1,0,0:0:0:0:
405,222,193805,6,4,L|445:110,1,100,0|0,0:0|0:0,0:0:0:0:
305,22,194148,1,0,0:0:0:0:
108,88,194319,6,0,L|76:188,1,100,0|0,0:2|0:0,0:0:0:0:
180,320,194662,1,0,0:0:0:0:
348,300,194833,1,0,0:0:0:0:
396,136,195005,1,0,0:0:0:0:
240,68,195176,1,0,0:0:0:0:
108,180,195348,1,0,0:0:0:0:
244,284,195519,1,0,0:0:0:0:
320,132,195691,2,0,L|312:108,6,25
240,108,196033,6,0,L|140:188,1,100,4|0,0:0|0:0,0:0:0:0:
328,212,196376,1,0,0:0:0:0:
496,248,196548,6,0,L|417:310,1,100,4|0,0:0|0:0,0:0:0:0:
248,284,196891,1,0,0:0:0:0:
184,128,197062,1,0,0:0:0:0:
120,284,197233,1,0,0:0:0:0:
280,224,197405,6,0,L|360:128,1,100,4|0,0:0|0:0,0:0:0:0:
204,244,197748,1,0,0:0:0:0:
344,147,197919,6,0,L|424:51,1,100,4|0,0:0|0:0,0:0:0:0:
244,20,198262,1,0,0:0:0:0:
135,147,198433,1,0,0:0:0:0:
120,188,198519,1,0,0:0:0:0:
136,228,198605,1,0,0:0:0:0:
376,120,198776,6,0,B|440:176|352:272,1,150.000005722046,4|0,0:0|0:0,0:0:0:0:
116,304,199119,2,0,B|164:272|164:272|176:216|176:216|232:164,1,150.000005722046,8|0,0:0|0:0,0:0:0:0:
412,336,199462,2,0,P|348:344|280:288,1,150.000005722046,4|0,0:0|0:0,0:0:0:0:
92,124,199805,2,0,B|144:44|240:64,1,150.000005722046,8|0,0:0|0:0,0:0:0:0:
116,304,200148,6,0,B|151:258|151:258|145:201|145:201|183:135,1,150.000005722046,4|0,0:0|0:0,0:0:0:0:
404,80,200491,2,0,B|324:68|320:232,1,150.000005722046,8|0,0:0|0:0,0:0:0:0:
84,96,200833,2,0,P|168:64|232:92,1,150.000005722046,4|0,0:0|0:0,0:0:0:0:
432,227,201176,1,0,0:0:0:0:
207,350,201348,1,0,0:0:0:0:
181,27,201519,6,0,P|252:23|290:83,1,150.000005722046,4|0,0:0|0:0,0:0:0:0:
340,349,201862,2,0,B|282:328|282:328|242:360|242:360|200:347|200:347,1,150.000005722046,8|0,0:0|0:0,0:0:0:0:
352,108,202205,2,0,B|352:148|352:148|380:144|380:144|412:180|412:180|412:216,1,150.000005722046,4|0,0:0|0:0,0:0:0:0:
231,282,202548,2,0,P|160:296|137:364,1,150.000005722046,8|0,0:0|0:0,0:0:0:0:
340,200,202891,6,0,P|380:280|440:280,1,150.000005722046,4|0,0:0|0:0,0:0:0:0:
204,172,203233,2,0,P|132:168|68:208,1,150.000005722046,8|0,0:0|0:0,0:0:0:0:
296,244,203576,2,0,B|340:292|364:264|396:236|444:296,1,150.000005722046,4|0,0:0|0:0,0:0:0:0:
284,72,203919,1,0,0:0:0:0:
67,208,204091,1,0,0:0:0:0:
360,280,204262,6,0,P|360:204|272:172,1,150.000005722046,4|0,0:0|0:0,0:0:0:0:
108,76,204605,2,0,P|123:146|191:170,1,150.000005722046,8|0,0:0|0:0,0:0:0:0:
244,352,204948,2,0,P|168:312|88:320,1,150.000005722046,4|0,0:0|0:0,0:0:0:0:
216,80,205291,2,0,B|276:128|276:128|340:84,1,150.000005722046,8|0,0:0|0:0,0:0:0:0:
428,324,205633,6,0,B|368:292|368:292|320:312|320:312|276:296,1,150.000005722046,4|0,0:0|0:0,0:0:0:0:
144,92,205976,2,0,P|192:148|268:132,1,150.000005722046,8|0,0:0|0:0,0:0:0:0:
120,348,206319,2,0,P|60:300|56:232,1,150.000005722046,4|0,0:0|0:0,0:0:0:0:
261,137,206662,2,0,L|313:137,6,37.5000014305115
378,133,207005,2,0,P|366:183|273:214,1,150.000005722046,4|0,0:0|0:0,0:0:0:0:
261,137,207348,2,0,P|201:182|213:266,1,150.000005722046,8|0,0:0|0:0,0:0:0:0:
120,348,207691,2,0,P|76:280|70:182,1,150.000005722046,4|0,0:0|0:0,0:0:0:0:
224,56,208033,2,0,P|152:96|112:160,1,150.000005722046,8|0,0:0|0:0,0:0:0:0:
224,296,208376,6,0,L|196:236,1,50,12|0,0:0|0:0,0:0:0:0:
236,172,208548,2,0,L|301:177,1,50,12|0,0:0|0:0,0:0:0:0:
364,212,208719,2,0,L|303:292,1,100,12|0,0:0|0:0,0:0:0:0:
135,316,209062,2,0,L|92:208,1,100,8|0,0:0|0:0,0:0:0:0:
308,52,209405,2,0,B|360:136|260:184,1,150.000005722046,4|0,0:0|0:0,0:0:0:0:
156,52,209748,6,0,L|200:96,15,50
148,144,211119,2,0,L|148:204,7,50
232,164,211805,6,0,L|192:204,1,50
267,270,211976,2,0,L|311:314,1,50
374,233,212148,2,0,L|422:185,1,50
338,126,212319,2,0,L|274:62,1,50
232,164,212491,6,0,L|272:204,15,50
184,228,213862,2,0,L|112:204,11,50
192,96,214891,6,0,B|260:96|260:96|280:124|280:124|352:124,1,150.000005722046
268,280,215233,6,0,L|204:280,7,50
184,228,215919,2,0,L|256:192,7,50
320,236,216605,2,0,L|360:280,7,50
244,296,217291,6,0,L|148:296,1,64.9999970245363
179,185,217462,2,0,L|111:133,1,64.9999970245363
112,74,217633,2,0,B|72:46|72:46|16:46,1,89.9999972534181
180,96,217976,6,0,B|228:96|228:96|256:156|256:156|320:156,1,150.000005722046
54,68,218319,1,0,0:0:0:0:
112,316,218491,1,0,0:0:0:0:
352,228,218662,6,0,B|408:168|356:88,1,150.000005722046
264,328,219005,1,0,0:0:0:0:
176,88,219176,1,0,0:0:0:0:
56,316,219348,6,0,B|112:296|112:296|148:304|148:304|200:288,1,150.000005722046
364,244,219691,2,0,B|456:156|380:60,1,200
216,68,220205,1,0,0:0:0:0:
96,187,220376,2,0,B|144:232|144:232|196:232|196:232,1,100
352,232,220719,2,0,P|376:232|404:224,1,50
264,152,220891,2,0,P|240:152|212:160,1,50
367,189,221062,2,0,P|384:172|398:146,1,50
248,194,221234,2,0,P|231:211|217:237,1,50
348,148,221405,2,0,P|348:124|339:96,1,50
268,236,221577,2,0,P|268:260|276:288,1,50
313,138,221748,2,0,L|285:122,6,25
437,284,222092,6,0,L|457:356,1,50
274,284,222263,2,0,L|261:236,1,50
344,188,222434,2,0,L|357:236,1,50
181,188,222605,2,0,L|168:140,1,50
253,92,222777,2,0,L|266:140,1,50
90,92,222948,2,0,L|77:44,1,50
72,208,223119,2,0,L|50:220,2,25
233,243,223291,2,0,L|271:221,2,25
288,312,223462,6,0,L|348:312,1,50
377,214,223633,2,0,L|428:184,1,50
404,85,223805,2,0,L|434:33,1,50
294,11,223976,6,0,L|234:11,1,50
205,109,224147,2,0,L|153:138,1,50
178,238,224319,2,0,L|148:289,1,50
271,189,224491,6,0,L|327:221,3,50
397,172,224833,2,0,P|420:155|437:132,1,50
244,42,225005,2,0,P|236:65|233:90,1,50
329,116,225176,2,0,P|339:93|343:68,1,50
128,56,225348,2,0,P|132:80|142:103,1,50
188,200,225519,2,0,L|200:220,2,25
308,192,225691,2,0,L|294:216,6,25
252,128,226033,2,0,L|212:128,2,25
160,144,226205,5,0,0:0:0:0:
125,179,226290,1,0,0:0:0:0:
110,226,226376,1,0,0:0:0:0:
119,275,226462,1,0,0:0:0:0:
148,315,226547,1,0,0:0:0:0:
192,337,226633,1,0,0:0:0:0:
242,337,226719,1,0,0:0:0:0:
286,315,226805,1,0,0:0:0:0:
312,280,226891,2,0,L|228:196,1,75.0000028610231
322,150,227062,5,0,0:3:0:0:
365,122,227147,1,0,0:3:0:0:
415,117,227233,1,0,0:3:0:0:
459,137,227319,1,0,0:3:0:0:
489,176,227404,1,0,0:3:0:0:
494,225,227490,1,0,0:3:0:0:
476,271,227576,2,0,L|360:272,1,75.0000028610231,0|0,0:3|0:3,0:3:0:0:
386,170,227748,5,0,0:0:0:0:
375,120,227833,1,0,0:0:0:0:
343,82,227919,1,0,0:0:0:0:
297,66,228005,1,0,0:0:0:0:
248,74,228090,1,0,0:0:0:0:
210,106,228176,1,0,0:0:0:0:
192,151,228262,2,0,L|276:232,1,75.0000028610231
326,158,228433,5,0,0:0:0:0:
376,169,228518,1,0,0:0:0:0:
414,201,228604,1,0,0:0:0:0:
430,247,228690,1,0,0:0:0:0:
422,296,228775,1,0,0:0:0:0:
390,334,228861,1,0,0:0:0:0:
344,352,228948,6,0,L|326:334,6,25
237,245,229291,2,0,L|269:213,6,25
377,104,229633,2,0,L|401:80,6,25
126,104,229976,2,0,L|98:76,6,25
292,260,230319,6,0,B|224:296|224:296|208:232|208:232|112:196|112:196,1,200
268,88,230833,1,0,0:0:0:0:
396,212,231005,2,0,L|376:276,1,50
308,212,231176,2,0,L|236:184,1,50
200,256,231348,2,0,L|316:300,1,100
392,295,231691,5,4,0:0:0:0:
440,286,231776,1,0,0:0:0:0:
474,251,231862,1,0,0:0:0:0:
479,202,231948,1,0,0:0:0:0:
453,160,232033,1,8,0:0:0:0:
407,142,232119,1,0,0:0:0:0:
360,156,232205,1,0,0:0:0:0:
331,195,232291,1,0,0:0:0:0:
304,256,232376,5,4,0:0:0:0:
262,305,232461,1,0,0:0:0:0:
202,327,232547,1,0,0:0:0:0:
138,316,232633,1,0,0:0:0:0:
89,275,232718,1,8,0:0:0:0:
66,215,232804,1,0,0:0:0:0:
77,151,232890,1,0,0:0:0:0:
117,101,232976,1,0,0:0:0:0:
164,80,233062,6,0,L|188:172,1,50,4|0,0:0|0:0,0:0:0:0:
260,89,233233,2,0,L|212:160,1,50
318,167,233405,2,0,L|248:176,1,50,8|0,0:0|0:0,0:0:0:0:
300,263,233576,2,0,L|248:216,1,50
203,193,233748,5,4,0:0:0:0:
224,180,233833,1,0,0:0:0:0:
246,167,233919,1,0,0:0:0:0:
267,155,234005,1,0,0:0:0:0:
289,142,234090,1,8,0:0:0:0:
311,130,234176,1,0,0:0:0:0:
332,117,234262,1,0,0:0:0:0:
354,105,234348,1,0,0:0:0:0:
376,92,234433,6,0,L|421:170,1,64.9999970245363,4|0,0:0|0:0,0:0:0:0:
303,275,234605,2,0,L|270:218,1,64.9999970245363
256,28,234776,2,0,L|301:106,1,64.9999970245363,8|0,0:0|0:0,0:0:0:0:
183,211,234948,2,0,L|150:154,1,64.9999970245363
104,108,235119,5,4,0:0:0:0:
57,124,235204,1,0,0:0:0:0:
25,162,235290,1,0,0:0:0:0:
15,210,235376,1,0,0:0:0:0:
30,257,235461,1,8,0:0:0:0:
66,291,235547,1,0,0:0:0:0:
114,302,235633,1,0,0:0:0:0:
161,289,235719,1,0,0:0:0:0:
218,213,235805,5,4,0:0:0:0:
218,213,235891,1,0,0:0:0:0:
218,213,235976,2,0,L|135:165,1,64.9999970245363,4|0,0:0|0:0,0:0:0:0:
312,212,236148,1,8,0:0:0:0:
312,212,236233,1,0,0:0:0:0:
312,212,236319,2,0,L|344:155,1,64.9999970245363,4|0,0:0|0:0,0:0:0:0:
279,270,236491,6,0,L|231:353,1,64.9999970245363
105,244,236662,2,0,L|137:188,1,64.9999970245363
251,157,236833,2,0,L|219:213,1,64.9999970245363,8|0,0:0|0:0,0:0:0:0:
77,131,237005,2,0,L|109:75,1,64.9999970245363
256,40,237176,5,4,0:0:0:0:
318,54,237261,1,0,0:0:0:0:
370,93,237347,1,0,0:0:0:0:
400,150,237433,1,0,0:0:0:0:
404,215,237518,1,8,0:0:0:0:
381,275,237604,1,0,0:0:0:0:
336,320,237690,1,0,0:0:0:0:
275,343,237776,1,0,0:0:0:0:
176,312,237862,6,0,L|83:287,1,64.9999970245363
232,240,238033,2,0,L|295:224,1,64.9999970245363
176,168,238205,2,0,L|92:119,1,64.9999970245363,12|0,0:0|0:0,0:0:0:0:
232,96,238376,2,0,L|288:64,1,64.9999970245363
424,100,238548,1,4,0:0:0:0:
440,118,238633,1,0,0:0:0:0:
453,140,238719,1,0,0:0:0:0:
460,163,238805,1,0,0:0:0:0:
463,188,238890,1,8,0:0:0:0:
461,213,238976,1,0,0:0:0:0:
454,237,239062,1,0,0:0:0:0:
443,259,239148,1,0,0:0:0:0:
348,304,239233,5,4,0:0:0:0:
302,316,239319,1,0,0:0:0:0:
258,328,239405,2,0,L|189:345,1,64.9999970245363
68,252,239576,1,8,0:0:0:0:
114,240,239662,1,0,0:0:0:0:
158,228,239748,2,0,L|225:209,1,64.9999970245363
350,210,239919,6,0,L|418:210,1,64.9999970245363,4|0,0:0|0:0,0:0:0:0:
300,148,240091,2,0,L|365:148,1,64.9999970245363
248,208,240262,2,0,L|183:208,1,64.9999970245363,8|0,0:0|0:0,0:0:0:0:
296,272,240433,2,0,L|188:272,1,64.9999970245363
364,268,240605,5,4,0:0:0:0:
412,260,240690,1,0,0:0:0:0:
452,231,240776,1,0,0:0:0:0:
474,186,240862,1,0,0:0:0:0:
472,137,240947,1,8,0:0:0:0:
448,94,241033,1,0,0:0:0:0:
406,67,241119,1,0,0:0:0:0:
357,62,241205,1,0,0:0:0:0:
312,80,241291,6,0,L|252:140,1,64.9999970245363,4|0,0:0|0:0,0:0:0:0:
228,252,241462,2,0,L|155:294,1,64.9999970245363
128,160,241633,2,0,L|44:112,1,64.9999970245363
180,56,241805,2,0,B|232:56|232:56|256:32|256:32|320:56,1,129.999994049073
408,264,242148,6,0,L|308:220,1,64.9999970245363
222,178,242319,2,0,B|196:223|196:223|204:255|204:255|152:299,1,129.999994049073
71,127,242662,5,2,0:0:0:0:
74,176,242747,1,0,0:0:0:0:
90,224,242833,1,0,0:0:0:0:
117,266,242919,1,0,0:0:0:0:
153,300,243004,1,8,0:0:0:0:
197,325,243090,1,0,0:0:0:0:
245,338,243176,1,0,0:0:0:0:
294,339,243262,1,0,0:0:0:0:
380,308,243348,6,0,L|440:284,1,64.9999970245363,4|0,0:0|0:0,0:0:0:0:
262,209,243519,2,0,L|200:192,1,64.9999970245363
374,209,243691,2,0,L|436:191,1,64.9999970245363,8|0,0:0|0:0,0:0:0:0:
264,308,243862,2,0,L|201:290,1,64.9999970245363
128,296,244033,5,4,0:0:0:0:
78,293,244118,1,0,0:0:0:0:
40,262,244204,1,0,0:0:0:0:
26,215,244290,1,0,0:0:0:0:
42,169,244375,1,8,0:0:0:0:
81,140,244461,1,0,0:0:0:0:
131,139,244547,1,0,0:0:0:0:
171,167,244633,1,0,0:0:0:0:
188,213,244718,5,4,0:0:0:0:
211,273,244804,1,0,0:0:0:0:
261,313,244890,1,0,0:0:0:0:
325,322,244976,1,0,0:0:0:0:
384,297,245061,1,8,0:0:0:0:
423,246,245147,1,0,0:0:0:0:
429,182,245233,1,0,0:0:0:0:
403,123,245319,1,0,0:0:0:0:
352,80,245405,6,0,L|352:192,1,64.9999970245363,4|0,0:0|0:0,0:0:0:0:
216,92,245576,2,0,L|268:183,1,64.9999970245363
124,184,245747,2,0,L|193:224,1,64.9999970245363,8|0,0:0|0:0,0:0:0:0:
92,320,245919,2,0,L|172:320,1,64.9999970245363
217,316,246090,5,4,0:0:0:0:
266,315,246175,1,0,0:0:0:0:
314,302,246261,1,0,0:0:0:0:
358,277,246347,1,0,0:0:0:0:
393,242,246432,1,8,0:0:0:0:
419,199,246518,1,0,0:0:0:0:
432,151,246604,1,0,0:0:0:0:
434,101,246690,1,0,0:0:0:0:
368,32,246776,6,0,L|310:2,1,64.9999970245363,4|0,0:0|0:0,0:0:0:0:
235,149,246947,2,0,L|292:178,1,64.9999970245363
256,65,247119,2,0,L|198:35,1,64.9999970245363,8|0,0:0|0:0,0:0:0:0:
124,182,247291,2,0,L|181:211,1,64.9999970245363,4|0,0:0|0:0,0:0:0:0:
232,236,247462,5,4,0:0:0:0:
281,235,247547,1,0,0:0:0:0:
324,211,247633,1,0,0:0:0:0:
351,170,247719,1,0,0:0:0:0:
355,120,247804,1,8,0:0:0:0:
334,75,247890,1,0,0:0:0:0:
295,45,247976,1,0,0:0:0:0:
246,38,248062,1,0,0:0:0:0:
164,96,248148,6,0,L|164:180,1,75.0000028610231,4|0,0:0|0:0,0:0:0:0:
216,268,248319,2,0,L|302:318,1,75.0000028610231
386,325,248491,2,0,B|427:300|427:300|408:245|408:245|444:188,1,150.000005722046,4|0,0:0|0:0,0:0:0:0:
442,173,248748,1,0,0:0:0:0:
442,129,248833,1,0,0:0:0:0:
422,89,248919,1,0,0:0:0:0:
394,61,249005,2,0,L|298:39,1,75.0000028610231
196,64,249176,6,0,B|209:84|209:84|215:116|215:116|264:129|264:129|300:170,1,150.000005722046,8|0,0:0|0:0,0:0:0:0:
324,184,249434,1,0,0:0:0:0:
344,224,249520,1,0,0:0:0:0:
344,264,249605,1,0,0:0:0:0:
328,292,249691,2,0,B|302:321|302:321|266:321,1,75.0000028610231
140,300,249862,6,0,B|156:289|156:289|145:263|145:263|188:249|188:249|178:227|178:227|189:184,1,150.000005722046,4|0,0:0|0:0,0:0:0:0:
200,160,250119,1,0,0:0:0:0:
228,136,250205,1,0,0:0:0:0:
264,128,250291,1,0,0:0:0:0:
300,132,250376,2,0,L|384:148,1,75.0000028610231
464,84,250548,2,0,B|435:78|435:78|411:106|379:35|355:70|355:70|321:63,1,150.000005722046,8|0,0:0|0:0,0:0:0:0:
200,52,250805,6,0,L|116:80,1,75.0000028610231
92,112,250976,1,0,0:0:0:0:
76,152,251062,1,0,0:0:0:0:
72,196,251148,1,0,0:0:0:0:
88,240,251233,2,0,B|122:235|122:235|128:283|128:283|165:307|189:256|189:256|245:289,1,225.000008583069,4|0,0:0|0:0,0:0:0:0:
280,256,251576,2,0,B|290:245|256:185|256:185|213:206|213:206|172:161|172:161|191:125,1,225.000008583069,4|0,0:0|0:0,0:0:0:0:
224,104,251919,2,0,B|276:60|276:60|321:86|321:86|315:50|315:50|382:93,1,225.000008583069,8|0,0:0|0:0,0:0:0:0:
456,196,252262,6,0,L|414:268,1,75.0000028610231,8|0,0:0|0:0,0:0:0:0:
287,185,252433,2,0,L|327:115,1,75.0000028610231,8|0,0:0|0:0,0:0:0:0:
327,274,252605,2,0,L|285:346,1,75.0000028610231,8|0,0:0|0:0,0:0:0:0:
160,263,252776,2,0,L|200:193,1,75.0000028610231,8|0,0:0|0:0,0:0:0:0:
240,120,252948,2,0,L|280:56,7,50,8|0|0|0|0|0|0|0,0:0|0:0|0:0|0:0|0:0|0:0|0:0|0:0,0:0:0:0:
296,52,253633,5,2,0:0:0:0:
341,34,253718,1,0,0:0:0:0:
389,47,253804,1,0,0:0:0:0:
418,86,253890,1,0,0:0:0:0:
419,136,253975,1,8,0:0:0:0:
389,175,254061,1,0,0:0:0:0:
342,189,254147,1,0,0:0:0:0:
296,202,254233,1,0,0:0:0:0:
267,241,254319,1,4,0:0:0:0:
268,290,254405,1,0,0:0:0:0:
297,329,254490,1,0,0:0:0:0:
345,343,254576,1,0,0:0:0:0:
390,325,254662,1,8,0:0:0:0:
420,286,254747,1,0,0:0:0:0:
420,237,254833,1,0,0:0:0:0:
390,197,254919,1,0,0:0:0:0:
343,183,255004,5,4,0:0:0:0:
305,215,255090,1,0,0:0:0:0:
257,223,255176,1,0,0:0:0:0:
211,205,255262,1,0,0:0:0:0:
180,167,255347,1,8,0:0:0:0:
173,118,255433,1,0,0:0:0:0:
192,72,255519,1,0,0:0:0:0:
231,42,255605,1,0,0:0:0:0:
280,36,255690,1,4,0:0:0:0:
325,56,255776,1,0,0:0:0:0:
368,88,255862,6,0,L|424:144,5,50,0|0|8|0|0|0,0:0|0:0|0:0|0:0|0:0|0:0,0:0:0:0:
428,168,256376,5,4,0:0:0:0:
392,203,256461,1,0,0:0:0:0:
357,238,256547,1,0,0:0:0:0:
321,274,256633,1,0,0:0:0:0:
286,309,256718,1,8,0:0:0:0:
251,344,256804,1,0,0:0:0:0:
206,368,256891,1,0,0:0:0:0:
157,359,256976,1,0,0:0:0:0:
118,328,257062,1,4,0:0:0:0:
99,282,257148,1,0,0:0:0:0:
105,233,257233,1,0,0:0:0:0:
133,193,257319,1,0,0:0:0:0:
176,166,257405,1,8,0:0:0:0:
223,153,257490,1,0,0:0:0:0:
264,178,257576,1,0,0:0:0:0:
273,226,257662,1,0,0:0:0:0:
244,265,257747,5,4,0:0:0:0:
196,270,257833,1,0,0:0:0:0:
147,262,257919,1,0,0:0:0:0:
104,236,258004,1,0,0:0:0:0:
79,194,258090,1,8,0:0:0:0:
76,144,258176,1,0,0:0:0:0:
97,99,258261,1,0,0:0:0:0:
137,70,258347,1,0,0:0:0:0:
187,65,258433,6,0,P|256:77|295:150,1,150,4|0,0:0|0:0,0:0:0:0:
294,191,258776,2,0,L|246:239,1,50
258,277,258948,2,0,L|314:333,1,50
184,248,259119,5,4,0:0:0:0:
184,297,259204,1,0,0:0:0:0:
204,343,259290,1,0,0:0:0:0:
240,377,259376,1,0,0:0:0:0:
286,395,259461,1,8,0:0:0:0:
336,394,259547,1,0,0:0:0:0:
381,374,259633,1,0,0:0:0:0:
416,338,259719,1,0,0:0:0:0:
433,292,259804,1,4,0:0:0:0:
432,242,259890,1,0,0:0:0:0:
412,197,259976,1,0,0:0:0:0:
376,163,260061,1,0,0:0:0:0:
329,145,260148,5,8,0:0:0:0:
313,192,260233,1,0,0:0:0:0:
279,229,260319,1,0,0:0:0:0:
234,250,260405,1,0,0:0:0:0:
185,252,260490,1,4,0:0:0:0:
138,234,260576,1,0,0:0:0:0:
102,200,260662,1,0,0:0:0:0:
82,154,260748,1,0,0:0:0:0:
81,105,260833,1,8,0:0:0:0:
100,59,260919,1,0,0:0:0:0:
135,23,261005,1,0,0:0:0:0:
180,4,261090,1,0,0:0:0:0:
230,4,261176,1,4,0:0:0:0:
276,24,261262,1,0,0:0:0:0:
316,52,261348,6,0,L|368:92,5,50,0|0|8|0|0|0,0:0|0:0|0:0|0:0|0:0|0:0,0:0:0:0:
328,116,261862,5,4,0:0:0:0:
301,158,261947,1,0,0:0:0:0:
262,189,262033,1,0,0:0:0:0:
216,206,262119,1,0,0:0:0:0:
166,207,262204,1,8,0:0:0:0:
118,192,262290,1,0,0:0:0:0:
79,162,262376,1,0,0:0:0:0:
64,115,262461,1,0,0:0:0:0:
74,67,262547,1,4,0:0:0:0:
106,29,262633,1,0,0:0:0:0:
153,13,262718,1,0,0:0:0:0:
201,21,262804,1,0,0:0:0:0:
240,52,262890,1,8,0:0:0:0:
259,97,262975,1,0,0:0:0:0:
264,147,263061,1,0,0:0:0:0:
269,197,263147,1,0,0:0:0:0:
252,240,263233,6,0,L|192:300,1,50,4|0,0:0|0:0,0:0:0:0:
272,328,263405,2,0,L|336:392,1,50
348,268,263576,2,0,L|424:192,1,100,8|0,0:0|0:0,0:0:0:0:
336,138,263919,2,0,L|220:138,1,100,4|0,0:0|0:0,0:0:0:0:
100,220,264262,2,0,B|152:212|152:212|188:256|188:256|256:236,1,179.999994506836,8|0,0:0|0:0,0:0:0:0:
224,160,264605,6,0,L|240:132,6,25
348,124,264948,6,0,P|368:232|296:244,1,150.000005722046
96,184,265291,2,0,L|168:112,1,75.0000028610231
191,251,265462,2,0,L|311:251,1,75.0000028610231
272,120,265633,2,0,P|320:52|396:64,1,150.000005722046
393,303,265976,2,0,B|313:267|313:267|277:291|277:291|181:247,1,225.000008583069
324,180,266319,2,0,P|348:108|292:44,1,150.000005722046
112,252,266662,6,0,L|112:340,1,75.0000028610231
266,251,266833,2,0,L|334:319,1,75.0000028610231
400,192,267005,2,0,L|472:120,1,75.0000028610231
284,92,267176,2,0,L|216:24,1,75.0000028610231
104,72,267348,6,0,B|48:96|48:96|32:144,2,100
392,220,267862,6,0,L|332:280,1,75.0000028610231
224,212,268033,2,0,L|140:212,1,75.0000028610231
240,120,268205,2,0,L|300:180,1,75.0000028610231
256,296,268376,2,0,L|196:356,1,75.0000028610231
80,296,268548,2,0,L|20:236,1,75.0000028610231
68,120,268719,2,0,L|128:60,1,75.0000028610231
236,12,268891,2,0,L|289:65,1,75.0000028610231
198,155,269062,2,0,L|286:243,1,75.0000028610231
160,298,269233,2,0,L|216:354,5,75.0000028610231
212,220,269748,2,0,L|212:128,1,75.0000028610231
136,224,269919,2,0,L|64:288,1,75.0000028610231
304,260,270091,6,0,L|384:260,1,75.0000028610231
304,156,270262,2,0,L|390:106,1,75.0000028610231
252,64,270433,1,0,0:0:0:0:
252,64,270519,1,0,0:0:0:0:
252,64,270605,2,0,L|172:64,1,75.0000028610231
120,180,270776,1,0,0:0:0:0:
120,180,270862,1,0,0:0:0:0:
120,180,270948,2,0,L|208:180,1,75.0000028610231
252,292,271119,1,0,0:0:0:0:
252,292,271205,1,0,0:0:0:0:
252,292,271291,2,0,L|172:292,1,75.0000028610231
195,180,271462,6,0,L|131:244,1,75.0000028610231
188,112,271633,2,0,L|132:56,1,75.0000028610231
256,108,271805,2,0,L|312:52,1,75.0000028610231
260,172,271976,2,0,L|344:256,1,75.0000028610231
227,297,272148,2,0,L|167:356,1,75.0000028610231
83,259,272319,2,0,L|144:197,1,75.0000028610231
260,172,272491,2,0,L|200:231,1,75.0000028610231
117,135,272662,2,0,L|178:73,1,75.0000028610231
244,92,272833,5,0,0:0:0:0:
209,128,272918,1,0,0:0:0:0:
173,163,273004,1,0,0:0:0:0:
138,198,273090,1,0,0:0:0:0:
103,234,273175,1,0,0:0:0:0:
86,280,273261,1,0,0:0:0:0:
102,326,273347,1,0,0:0:0:0:
145,348,273433,1,0,0:0:0:0:
191,333,273519,5,0,0:0:0:0:
242,294,273604,1,0,0:0:0:0:
266,235,273690,1,0,0:0:0:0:
255,172,273776,1,0,0:0:0:0:
212,124,273861,1,0,0:0:0:0:
150,106,273947,1,0,0:0:0:0:
88,123,274033,1,0,0:0:0:0:
45,171,274118,1,0,0:0:0:0:
28,224,274205,6,0,P|48:300|136:340,1,150.000005722046
360,337,274548,2,0,L|496:269,1,150.000005722046
432,132,274891,2,0,L|360:168,1,75.0000028610231
244,92,275062,2,0,L|176:58,1,75.0000028610231
72,132,275233,2,0,L|4:165,1,75.0000028610231
192,205,275405,2,0,L|259:238,1,75.0000028610231
348,236,275576,6,0,P|292:168|332:100,1,150.000005722046,4|0,0:2|0:0,0:0:0:0:
184,340,275919,1,8,0:0:0:0:
76,112,276091,1,0,0:0:0:0:
320,36,276262,2,0,P|384:76|384:144,1,150.000005722046,4|0,0:0|0:0,0:0:0:0:
256,368,276605,1,8,0:0:0:0:
144,140,276776,1,0,0:0:0:0:
388,216,276948,6,0,P|452:168|412:80,1,150.000005722046,4|0,0:0|0:0,0:0:0:0:
192,60,277291,1,8,0:0:0:0:
84,292,277462,1,0,0:0:0:0:
280,132,277633,2,0,B|240:120|240:120|176:160|120:96,1,150.000005722046,4|0,0:0|0:0,0:0:0:0:
332,288,277976,1,8,0:0:0:0:
192,60,278148,1,0,0:0:0:0:
384,236,278319,6,0,P|384:340|304:356,1,150.000005722046,4|0,0:0|0:0,0:0:0:0:
156,196,278662,1,8,0:0:0:0:
156,196,278833,1,0,0:0:0:0:
412,172,279005,2,0,B|498:235|461:330,1,150.000005722046,4|0,0:0|0:0,0:0:0:0:
220,352,279348,1,8,0:0:0:0:
48,164,279519,1,0,0:0:0:0:
268,296,279691,6,0,P|360:324|396:280,1,150.000005722046,4|0,0:0|0:0,0:0:0:0:
476,52,280033,1,8,0:0:0:0:
328,260,280205,1,0,0:0:0:0:
180,52,280376,2,0,B|104:80|124:184,1,150.000005722046,4|0,0:0|0:0,0:0:0:0:
328,348,280719,1,8,0:0:0:0:
472,136,280891,1,0,0:0:0:0:
276,296,281062,6,0,P|344:276|400:360,1,150.000005722046,4|0,0:0|0:0,0:0:0:0:
141,325,281405,1,8,0:0:0:0:
272,104,281576,1,0,0:0:0:0:
397,325,281748,2,0,B|376:256|376:256|340:248|340:248|308:204,1,150.000005722046,4|0,0:0|0:0,0:0:0:0:
100,76,282091,1,8,0:0:0:0:
141,325,282262,1,0,0:0:0:0:
312,140,282433,6,0,P|380:176|364:268,1,150.000005722046,4|0,0:0|0:0,0:0:0:0:
383,242,282776,1,8,0:0:0:0:
141,325,282948,1,0,0:0:0:0:
88,104,283119,2,0,P|36:160|72:232,1,150.000005722046,4|0,0:0|0:0,0:0:0:0:
308,272,283462,1,8,0:0:0:0:
345,234,283548,1,0,0:0:0:0:
380,196,283633,1,0,0:0:0:0:
418,159,283719,1,0,0:0:0:0:
455,121,283805,6,0,B|428:80|428:80|396:84|396:84|332:24,1,150.000005722046,4|0,0:0|0:0,0:0:0:0:
264,104,284148,2,0,B|232:164|232:164|260:184|260:184|252:252,1,150.000005722046,8|0,0:0|0:0,0:0:0:0:
345,234,284491,2,0,B|380:200|380:200|356:168|356:168|388:116,1,150.000005722046,4|0,0:0|0:0,0:0:0:0:
136,88,284833,2,0,B|152:132|152:132|120:152|120:168|160:224|160:224,1,150.000005722046,8|0,0:0|0:0,0:0:0:0:
412,184,285176,6,0,P|460:120|424:56,1,150.000005722046,4|0,0:0|0:0,0:0:0:0:
188,132,285519,2,0,P|140:196|176:260,1,150.000005722046,8|0,0:0|0:0,0:0:0:0:
299,234,285862,2,0,P|370:242|412:184,1,150.000005722046,4|0,0:0|0:0,0:0:0:0:
299,82,286205,1,8,0:0:0:0:
256,68,286291,1,0,0:0:0:0:
212,64,286376,1,0,0:0:0:0:
168,64,286462,1,0,0:0:0:0:
124,72,286548,1,2,0:0:0:0:
299,234,286719,5,0,0:0:0:0:
80,128,286891,2,0,P|56:48|112:0,1,150.000005722046,8|0,0:0|0:0,0:0:0:0:
332,100,287233,1,4,0:0:0:0:
104,220,287405,1,0,0:0:0:0:
336,324,287576,1,8,0:0:0:0:
192,112,287748,1,0,0:0:0:0:
388,276,287919,6,0,P|304:260|264:328,1,150.000005722046,4|0,0:0|0:0,0:0:0:0:
124,92,288262,2,0,P|148:168|216:180,1,150.000005722046,8|0,0:0|0:0,0:0:0:0:
412,24,288605,2,0,B|476:104|400:164,1,150.000005722046,4|0,0:0|0:0,0:0:0:0:
332,232,288948,1,8,0:0:0:0:
300,252,289033,1,0,0:0:0:0:
264,268,289119,1,0,0:0:0:0:
228,276,289205,1,0,0:0:0:0:
192,280,289291,6,0,B|124:260|124:260|128:220|128:220|84:188,1,150.000005722046,4|0,0:0|0:0,0:0:0:0:
292,36,289633,1,8,0:0:0:0:
440,244,289805,1,0,0:0:0:0:
192,280,289976,2,0,B|136:284|136:284|128:232|128:232|96:196,1,150.000005722046,4|0,0:0|0:0,0:0:0:0:
292,36,290319,2,0,P|336:80|288:160,1,150.000005722046,8|0,0:0|0:0,0:0:0:0:
148,148,290662,2,0,P|62:140|31:221,1,150.000005722046
365,260,291005,2,0,P|297:208|309:148,1,150.000005722046,8|0,0:0|0:0,0:0:0:0:
144,300,291348,2,0,P|212:248|200:188,1,150.000005722046,4|0,0:0|0:0,0:0:0:0:
88,96,291691,1,8,0:0:0:0:
123,86,291776,1,0,0:0:0:0:
159,76,291862,1,0,0:0:0:0:
195,67,291948,1,0,0:0:0:0:
228,56,292033,6,0,B|288:56|288:56|344:160,1,150.000005722046,4|0,0:0|0:0,0:0:0:0:
236,195,292376,2,0,B|229:232|229:232|310:234|310:234|323:336,1,150.000005722046,8|0,0:0|0:0,0:0:0:0:
112,256,292719,2,0,P|80:192|124:120,1,150.000005722046,4|0,0:0|0:0,0:0:0:0:
164,192,293062,2,0,P|192:240|160:324,1,150.000005722046,8|0,0:0|0:0,0:0:0:0:
300,108,293405,6,0,B|237:135|237:135|221:103|221:103|135:111,1,150.000005722046,4|0,0:0|0:0,0:0:0:0:
312,324,293748,6,0,B|346:293|346:293|378:310|378:310|413:251,1,150.000005722046,8|0,0:0|0:0,0:0:0:0:
184,292,294091,2,0,L|108:240,1,75.0000028610231,4|0,0:0|0:0,0:0:0:0:
228,176,294262,2,0,L|328:124,1,75.0000028610231
196,60,294433,1,8,0:0:0:0:
160,64,294519,1,0,0:0:0:0:
124,80,294605,1,0,0:0:0:0:
96,104,294691,1,0,0:0:0:0:
76,136,294776,6,0,B|112:192|236:208,1,150.000005722046
312,132,295119,2,0,L|392:192,1,75.0000028610231
268,252,295291,2,0,P|196:280|127:213,1,150.000005722046
152,116,295633,2,0,L|212:52,1,75.0000028610231
244,184,295805,2,0,L|320:224,1,75.0000028610231
200,284,295976,2,0,P|120:308|72:240,1,150.000005722046
80,140,296319,5,0,0:0:0:0:
96,96,296405,1,0,0:0:0:0:
136,64,296491,1,0,0:0:0:0:
304,68,296662,6,0,B|276:116|276:116|180:92|168:192,1,200
400,272,297176,6,0,L|324:248,1,75.0000028610231
360,124,297348,2,0,L|420:64,1,75.0000028610231
284,60,297519,6,0,B|220:68|220:68|200:96|200:96|136:112,1,150.000005722046,2|0,0:0|0:0,0:0:0:0:
52,344,297862,6,0,B|116:336|116:336|136:308|136:308|200:292,1,150.000005722046,8|0,0:0|0:0,0:0:0:0:
384,132,298205,2,0,B|336:156|336:156|292:136|292:136|244:160,1,150.000005722046,4|0,0:0|0:0,0:0:0:0:
454,324,298548,2,0,B|405:302|405:302|397:258|397:258|350:204,1,150.000005722046,8|0,0:0|0:0,0:0:0:0:
116,228,298891,6,0,B|96:144|152:76,1,150.000005722046,4|0,0:0|0:0,0:0:0:0:
363,219,299233,2,0,B|290:242|263:179|263:179|223:167,1,150.000005722046,8|0,0:0|0:0,0:0:0:0:
328,157,299576,2,0,L|436:49,1,150.000005722046,4|0,0:0|0:0,0:0:0:0:
188,120,299919,6,0,P|164:176|272:232,1,200,8|4,0:0|0:0,0:0:0:0:
376,112,300433,1,0,0:0:0:0:
327,273,300605,2,0,P|270:310|220:294,1,100,8|0,0:0|0:0,0:0:0:0:
152,180,300948,2,0,B|200:132|200:132|188:88,1,100,4|0,0:0|0:0,0:0:0:0:
339,140,301291,2,0,L|427:212,1,100,8|0,0:0|0:0,0:0:0:0:
267,209,301633,2,0,L|155:253,1,100,4|0,0:0|0:0,0:0:0:0:
128,96,301976,2,0,L|228:176,1,100,8|0,0:0|0:0,0:0:0:0:
204,328,302319,2,0,P|148:336|100:280,1,100,4|0,0:0|0:0,0:0:0:0:
267,209,302662,2,0,L|347:133,1,100,8|0,0:0|0:0,0:0:0:0:
148,120,303005,6,0,B|120:144|120:144|160:184|160:184|128:232|128:232|168:264|168:264|226:254|226:254,1,250,4|0,0:0|0:0,0:0:0:0:
244,164,303519,2,0,B|300:164|300:164|276:92|276:92|332:52|332:52|384:92|384:92|408:152|408:152|360:212,1,400
429,258,304376,2,0,L|357:336,1,100
163,340,304719,2,0,L|230:266,1,100
234,150,305062,2,0,L|143:108,1,100
340,80,305405,2,0,L|328:56,6,25
296,76,305748,6,0,B|240:72|240:72|228:104|228:104|180:120|180:120|108:100,1,200
72,192,306262,2,0,B|68:240|68:240|104:236|104:236|104:308|104:308|128:352|184:276|184:276|216:312|216:312|316:292|316:292,1,400
288,236,307119,2,0,B|320:212|320:212|292:176|292:176|344:160|344:160|364:120|364:120|300:108|300:108|300:48,1,300
168,84,307805,6,0,L|100:168,1,100
244,264,308148,2,0,B|295:259|295:259|360:224,1,100
248,144,308405,6,0,L|276:40,1,75.0000028610231
408,168,308662,5,0,0:0:0:0:
308,304,308833,2,0,B|232:324|232:324|188:292,1,100
136,208,309091,6,0,B|264:184,1,75.0000028610231
332,76,309348,5,0,0:0:0:0:
168,40,309519,2,0,B|150:78|150:78|174:117|174:117|151:162,1,100
272,200,309776,6,0,L|324:100,1,75.0000028610231
356,300,310033,5,0,0:0:0:0:
376,132,310205,2,0,P|352:80|292:68,1,100
457,126,310462,6,0,L|494:20,1,75.0000028610231
372,200,310719,5,0,0:0:0:0:
220,124,310891,1,0,0:0:0:0:
184,144,310976,1,0,0:0:0:0:
148,164,311062,1,0,0:0:0:0:
112,180,311148,1,0,0:0:0:0:
76,200,311233,1,0,0:0:0:0:
216,300,311405,1,0,0:0:0:0:
292,148,311576,2,0,P|292:88|260:56,1,100
160,132,311833,6,0,L|240:116,1,75.0000028610231
112,236,312091,5,0,0:0:0:0:
280,244,312262,2,0,L|392:264,1,100
220,60,312605,6,0,L|144:56,1,75.0000028610231
72,160,312776,2,0,L|106:227,1,75.0000028610231
232,208,312948,2,0,B|264:156|264:156|308:156|308:156|332:112,1,150.000005722046
124,296,313291,2,0,P|176:232|136:160,1,150.000005722046
400,104,313633,2,0,L|436:324,1,150.000005722046
176,320,313976,5,0,0:0:0:0:
288,92,314148,1,0,0:0:0:0:
432,304,314319,1,0,0:0:0:0:
176,320,314491,2,0,L|176:220,1,75.0000028610231
68,172,314663,2,0,B|112:96|208:112,1,150.000005722046
412,92,315005,1,0,0:0:0:0:
276,308,315176,2,0,L|232:228,1,75.0000028610231
304,132,315348,2,0,B|288:188|288:188|244:156|196:184,1,150.000005722046
236,60,315691,5,0,0:0:0:0:
444,208,315862,2,0,L|384:260,1,75.0000028610231
268,212,316033,2,0,P|208:256|136:212,1,150.000005722046
348,72,316376,2,0,L|392:56,6,37.5000014305115
257,97,316719,6,0,L|213:71,1,50
308,148,316891,2,0,L|358:148,1,50
258,197,317062,2,0,L|195:233,1,50
172,168,317233,6,0,L|215:143,1,50
121,219,317405,2,0,L|71:219,1,50
171,268,317576,2,0,L|233:304,1,50
284,304,317748,1,0,0:0:0:0:
321,270,317833,1,0,0:0:0:0:
358,237,317919,1,0,0:0:0:0:
396,204,318005,1,0,0:0:0:0:
400,156,318091,2,0,L|376:128,28,37.5000014305115
204,132,319462,6,0,L|136:244,1,100,4|0,0:2|0:0,0:0:0:0:
316,260,319805,2,0,L|424:264,1,100,8|0,0:0|0:0,0:0:0:0:
312,128,320148,2,0,L|244:32,1,100,4|0,0:0|0:0,0:0:0:0:
132,168,320491,1,8,0:0:0:0:
240,300,320662,1,0,0:0:0:0:
196,136,320833,6,0,P|144:100|88:112,1,100,4|0,0:0|0:0,0:0:0:0:
224,228,321176,2,0,P|296:252|312:300,1,100,8|0,0:0|0:0,0:0:0:0:
332,100,321519,2,0,L|276:108,1,50,4|0,0:0|0:0,0:0:0:0:
340,172,321691,2,0,L|380:236,1,50
416,144,321862,2,0,L|436:120,6,25,8|0|0|0|0|0|0,0:0|0:0|0:0|0:0|0:0|0:0|0:0,0:0:0:0:
444,224,322205,6,0,P|420:276|360:292,1,100,4|0,0:0|0:0,0:0:0:0:
288,152,322548,2,0,B|316:104|316:104|292:52,1,100,8|0,0:0|0:0,0:0:0:0:
144,136,322891,1,4,0:0:0:0:
176,304,323062,1,0,0:0:0:0:
336,252,323233,2,0,B|340:204|340:204|404:196,1,100,8|0,0:0|0:0,0:0:0:0:
448,128,323576,6,0,B|420:88|420:88|364:104,1,100,4|0,0:0|0:0,0:0:0:0:
204,72,323919,1,8,0:0:0:0:
104,208,324091,1,0,0:0:0:0:
272,216,324262,1,0,0:0:0:0:
376,80,324433,2,0,L|404:80,2,25
405,177,324605,2,0,L|413:201,2,25
368,168,324776,1,0,0:0:0:0:
340,160,324862,1,0,0:0:0:0:
306,151,324948,6,0,P|251:139|128:148,1,150.000005722046,4|0,0:0|0:0,0:0:0:0:
80,240,325291,6,0,L|120:336,1,100,8|0,0:0|0:0,0:0:0:0:
284,296,325633,1,4,0:0:0:0:
420,196,325805,1,0,0:0:0:0:
256,232,325976,2,0,P|212:292|232:340,2,100,12|0|0,0:0|0:0|0:0,0:0:0:0:
148,100,326491,6,0,L|120:116,2,25
232,80,326662,2,0,L|256:80,2,25
208,164,326833,2,0,L|200:192,2,25
292,152,327005,2,0,L|352:140,1,50
352,228,327176,2,0,L|328:280,1,50
256,232,327348,6,0,B|224:216|224:216|212:264|144:280|104:248|104:248,1,150
112,216,327691,6,0,B|132:164|132:164|116:124|116:124|168:64|168:64|264:84,1,250
244,116,328205,6,0,B|240:176|240:176|300:204|300:204|348:144|348:144|396:176,1,250
392,212,328719,6,0,B|372:280|372:280|300:288|300:288|260:268,1,150
248,264,329062,6,0,B|252:208|252:208|272:188|272:188|208:152|208:152|224:116|224:116|200:88|200:88|124:96|124:96,1,300
104,120,329662,6,0,B|58:163|58:163|105:220|105:220|102:259|102:259|168:256|168:256|184:328|184:328|248:348|248:348|320:316,1,450,0|4,0:0|0:0,0:0:0:0:
332,201,330605,5,0,0:0:0:0:
248,56,330776,2,0,L|152:120,1,100,8|0,0:0|0:0,0:0:0:0:
36,332,331119,6,0,L|176:296,1,75.0000028610231,4|0,0:0|0:0,0:0:0:0:
228,260,331291,2,0,L|280:144,1,75.0000028610231
288,112,331462,6,0,P|340:80|404:104,1,100,8|0,0:0|0:0,0:0:0:0:
444,240,331805,6,0,P|420:288|352:296,1,100,4|0,0:0|0:0,0:0:0:0:
258,191,332148,2,0,L|150:147,1,100,8|0,0:0|0:0,0:0:0:0:
76,288,332491,1,4,0:0:0:0:
114,296,332576,1,0,0:0:0:0:
153,304,332662,1,0,0:0:0:0:
258,191,332833,2,0,L|298:191,6,25,8|0|0|0|0|0|0,0:0|0:0|0:0|0:0|0:0|0:0|0:0,0:0:0:0:
320,129,333176,6,0,P|356:185|328:245,1,100,4|0,0:0|0:0,0:0:0:0:
199,149,333519,2,0,P|191:213|219:249,1,100,8|0,0:0|0:0,0:0:0:0:
448,348,333862,6,0,L|464:240,1,75.0000028610231,4|0,0:0|0:0,0:0:0:0:
332,276,334033,2,0,L|264:216,1,75.0000028610231
304,144,334205,6,0,P|324:84|380:64,1,100,8|0,0:0|0:0,0:0:0:0:
182,66,334548,6,0,P|221:95|231:143,1,100,4|0,0:0|0:0,0:0:0:0:
180,304,334891,2,0,L|60:280,1,100,8|0,0:0|0:0,0:0:0:0:
240,224,335233,1,4,0:0:0:0:
276,208,335319,1,0,0:0:0:0:
312,188,335405,1,0,0:0:0:0:
172,92,335576,2,0,L|132:96,2,25,8|0|0,0:0|0:0|0:0,0:0:0:0:
152,176,335748,2,0,L|148:244,1,50
204,288,335919,6,0,P|236:300|304:260,1,100,4|0,0:0|0:0,0:0:0:0:
388,132,336262,2,0,L|296:80,1,100,8|0,0:0|0:0,0:0:0:0:
356,200,336519,6,4,L|256:244,1,75.0000028610231,0|4,0:0|0:0,0:0:0:0:
168,108,336776,5,0,0:0:0:0:
164,280,336948,2,0,L|192:296,2,25,8|0|0,0:0|0:0|0:0,0:0:0:0:
244,248,337119,2,0,L|280:260,2,25
292,176,337291,2,0,L|364:88,1,100,4|0,0:0|0:0,0:0:0:0:
400,264,337633,2,0,L|444:360,1,100,8|0,0:0|0:0,0:0:0:0:
328,292,337891,6,0,L|244:348,1,75.0000028610231,0|4,0:0|0:0,0:0:0:0:
244,164,338148,5,0,0:0:0:0:
368,48,338319,1,8,0:0:0:0:
436,204,338491,1,0,0:0:0:0:
287,287,338662,1,4,0:0:0:0:
256,284,338748,1,0,0:0:0:0:
226,282,338833,2,0,L|132:274,1,75.0000028610231
74,127,339005,1,8,0:0:0:0:
118,131,339091,1,0,0:0:0:0:
162,135,339176,2,0,L|255:145,1,75.0000028610231
436,204,339348,1,4,0:0:0:0:
405,201,339434,1,0,0:0:0:0:
375,199,339519,2,0,L|281:191,1,75.0000028610231
148,52,339691,1,8,0:0:0:0:
192,56,339777,1,0,0:0:0:0:
236,60,339862,2,0,L|329:70,1,75.0000028610231
419,114,340033,2,0,B|443:145|443:145|431:189|431:189|443:225,1,100,4|0,0:0|0:0,0:0:0:0:
300,192,340376,6,0,L|208:248,1,80,8|0,0:0|0:0,0:0:0:0:
168,124,340719,6,0,L|152:192,1,69.9999978637696,4|0,0:0|0:0,0:0:0:0:
196,256,341062,6,0,P|140:268|92:236,1,100,2|4,0:0|0:2,0:0:0:0:
