osu file format v14

[General]
AudioFilename: audio.mp3
AudioLeadIn: 0
PreviewTime: 43449
Countdown: 1
SampleSet: None
StackLeniency: 0.7
Mode: 0
LetterboxInBreaks: 0
WidescreenStoryboard: 1

[Editor]
DistanceSpacing: 1
BeatDivisor: 4
GridSize: 4
TimelineZoom: 3.399999

[Metadata]
Title:Lifelight (Camellia's Hardstyle Bootleg)
TitleUnicode:命の灯火 (Camellia's Hardstyle Bootleg)
Artist:Camellia
ArtistUnicode:かめりあ
Creator:yf_bmp
Version:Tilt Attack
Source:
Tags:Smash Bros
BeatmapID:1967520
BeatmapSetID:942266

[Difficulty]
HPDrainRate:5
CircleSize:3.8
OverallDifficulty:6
ApproachRate:8.2
SliderMultiplier:1.6
SliderTickRate:1

[Events]
//Background and Video events
0,0,"hd.jpg",0,0
//Break Periods
2,139649,143499
//Storyboard Layer 0 (Background)
//Storyboard Layer 1 (Fail)
//Storyboard Layer 2 (Pass)
//Storyboard Layer 3 (Foreground)
//Storyboard Sound Samples

[TimingPoints]
249,400,4,2,1,20,1,0
249,-133.333333333333,4,2,1,25,0,0
1049,-114.942528735632,4,2,1,30,0,0
1449,-100,4,2,1,40,0,0
1849,-200,4,2,1,15,0,0
13049,-100,4,2,1,20,0,0
13249,-100,4,2,1,30,0,0
14649,-100,4,2,2,60,0,0
17049,-133.333333333333,4,2,2,60,0,0
17649,-100,4,2,2,60,0,0
20249,-133.333333333333,4,2,2,60,0,0
21049,-100,4,2,2,60,0,0
29949,-100,4,2,2,30,0,0
30049,-100,4,2,2,40,0,0
30149,-100,4,2,2,50,0,0
30249,-100,4,2,1,60,0,0
30649,-100,4,2,1,50,0,0
43049,-83.3333333333333,4,2,1,60,0,0
43449,-100,4,2,1,60,0,0
69049,-114.942528735632,4,2,1,60,0,0
69449,-114.942528735632,4,2,1,20,0,0
69849,-114.942528735632,4,2,1,25,0,0
70249,-114.942528735632,4,2,1,30,0,0
70649,-114.942528735632,4,2,1,35,0,0
71049,-114.942528735632,4,2,1,40,0,0
71449,-114.942528735632,4,2,1,45,0,0
71749,-114.942528735632,4,2,1,30,0,0
72249,-100,4,2,1,50,0,0
73749,-100,4,2,1,60,0,0
75449,-100,4,2,2,40,0,0
85049,-200,4,2,2,40,0,0
86249,-100,4,2,2,40,0,0
86649,-100,4,2,1,40,0,0
87849,-100,4,2,1,40,0,0
87949,-100,4,2,2,40,0,0
101049,-100,4,2,2,40,0,0
101849,-100,4,2,2,40,0,0
105449,-100,4,2,1,40,0,0
105499,-100,4,2,2,40,0,0
105849,-100,4,2,1,40,0,0
106249,-100,4,2,2,40,0,0
110649,-100,4,2,1,40,0,0
113449,-76.9230769230769,4,2,1,40,0,0
113849,-90.9090909090909,4,2,2,60,0,0
113949,-90.9090909090909,4,2,1,60,0,0
114649,-90.9090909090909,4,2,2,60,0,0
114749,-90.9090909090909,4,2,1,60,0,0
116249,-90.9090909090909,4,2,2,60,0,0
116299,-90.9090909090909,4,2,1,60,0,0
117849,-90.9090909090909,4,2,2,60,0,0
117949,-90.9090909090909,4,2,1,60,0,0
119449,-90.9090909090909,4,2,2,60,0,0
119549,-90.9090909090909,4,2,1,60,0,0
121049,-90.9090909090909,4,2,2,60,0,0
121149,-90.9090909090909,4,2,1,60,0,0
122649,-90.9090909090909,4,2,2,60,0,0
122749,-90.9090909090909,4,2,1,60,0,0
126649,-90.9090909090909,4,2,1,60,0,1
137249,-90.9090909090909,4,2,2,60,0,1
137349,-90.9090909090909,4,2,1,60,0,1
139449,-90.9090909090909,4,2,1,40,0,0
144249,-100,4,2,1,40,0,0
145449,-76.9230769230769,4,2,1,40,0,0
145849,-100,4,2,2,50,0,0
158049,-100,4,2,1,50,0,0
158649,-100,4,2,1,60,0,0
158949,-100,4,2,2,60,0,0
174649,-100,4,2,2,40,0,0
174749,-100,4,2,1,40,0,0
175049,-90.9090909090909,4,2,1,40,0,0
175449,-83.3333333333333,4,2,1,40,0,0
175849,-76.9230769230769,4,2,1,40,0,0
176249,-100,4,2,1,40,0,0
177149,-100,4,2,1,30,0,0
177249,-100,4,2,1,40,0,0
177349,-100,4,2,1,50,0,0
177449,-100,4,2,1,60,0,0
177849,-100,4,2,1,40,0,0
190249,-76.9230769230769,4,2,1,40,0,0
190649,-90.9090909090909,4,2,2,60,0,0
190749,-90.9090909090909,4,2,1,60,0,0
191849,-90.9090909090909,4,2,2,60,0,0
191949,-90.9090909090909,4,2,1,60,0,0
203449,-90.9090909090909,4,2,1,60,0,1
214049,-90.9090909090909,4,2,2,60,0,1
214149,-90.9090909090909,4,2,1,60,0,1
216249,-90.9090909090909,4,2,1,40,0,0

[Colours]
Combo1 : 77,193,206
Combo2 : 255,0,128

[HitObjects]
120,184,249,6,0,P|100:184|80:192,7,30.0000011444092
184,132,1049,6,0,P|194:114|197:93,3,34.8000002920532
196,212,1449,6,0,P|206:229|222:242,1,40
300,268,1649,2,0,P|320:268|340:260,1,40
404,208,1849,5,4,0:1:0:0:
396,216,2649,1,2,0:0:0:0:
392,228,3449,2,0,P|387:177|408:56,1,160,2|0,0:0|0:0,0:0:0:0:
92,20,5049,5,2,0:0:0:0:
172,36,5849,1,2,0:0:0:0:
120,96,6649,2,0,P|192:116|280:84,1,160,2|0,0:0|0:0,0:0:0:0:
408,300,8249,5,4,0:1:0:0:
484,324,9049,1,2,0:0:0:0:
428,380,9849,2,0,P|377:384|256:364,1,160,2|0,0:0|0:0,0:0:0:0:
120,144,11449,6,0,L|-28:131,2,120,2|2|0,0:0|0:0|0:0,0:0:0:0:
196,196,13049,6,0,P|198:157|206:98,1,80,2|8,0:2|1:0,0:0:0:0:
240,48,13349,2,0,L|236:18,2,20,8|8|8,1:0|1:0|1:0,0:0:0:0:
288,128,13549,1,8,1:0:0:0:
288,128,13649,2,0,L|333:118,1,40,8|0,1:0|1:0,0:0:0:0:
408,100,13849,1,0,1:0:0:0:
340,0,14049,2,0,L|350:45,1,40,0|0,1:0|1:0,0:0:0:0:
384,180,14249,1,6,1:3:0:0:
404,260,14449,1,0,1:0:0:0:
424,340,14649,5,4,1:1:0:0:
268,356,14949,1,2,2:1:0:0:
268,356,15049,2,0,L|340:348,1,40,8|0,0:0|0:0,0:0:0:0:
328,236,15249,2,0,P|255:196|176:220,1,160,2|0,0:1|0:0,0:0:0:0:
56,348,15849,1,2,0:1:0:0:
132,328,16049,1,2,0:1:0:0:
108,252,16249,6,0,B|96:208|96:208|104:188|104:188|89:137,2,120,2|2|2,0:1|0:1|0:1,0:0:0:0:
20,248,17049,6,2,B|8:204|8:204|16:184|16:184|1:133,1,120,2|8,0:1|0:0,0:1:0:0:
156,8,17649,6,0,L|128:16,4,20,0|0|2|2|2,0:0|0:0|0:0|0:0|0:1,0:0:0:0:
296,132,18149,1,2,2:1:0:0:
296,132,18249,2,0,L|288:204,1,40,8|0,0:0|0:0,0:0:0:0:
196,240,18449,2,2,P|156:167|180:88,1,160,2|0,0:1|0:0,0:1:0:0:
291,171,19049,1,8,0:0:0:0:
346,227,19249,1,2,0:1:0:0:
400,169,19449,6,0,B|432:136|432:136|453:133|453:133|489:95,2,120,2|2|2,0:1|0:1|0:1,0:0:0:0:
359,90,20249,6,2,B|391:57|391:57|412:54|412:54|448:16,1,120,2|8,0:1|0:0,0:1:0:0:
452,236,21049,5,2,0:1:0:0:
296,220,21349,1,2,2:1:0:0:
296,220,21449,2,0,L|368:228,1,40,8|0,0:2|0:0,0:0:0:0:
356,340,21649,2,2,P|283:379|204:356,1,160,2|0,0:1|0:0,0:1:0:0:
84,228,22249,1,8,0:0:0:0:
160,248,22449,1,2,0:1:0:0:
140,172,22649,6,0,B|128:128|128:128|136:108|136:108|121:58,2,120,2|2|2,0:1|0:1|0:1,0:0:0:0:
220,184,23449,6,2,B|264:172|264:172|277:155|277:155|327:143|327:143|348:151|348:151|373:146,1,160,2|8,0:1|0:0,0:1:0:0:
424,376,24249,5,2,0:1:0:0:
488,276,24549,1,2,2:1:0:0:
488,276,24649,2,0,L|480:348,1,40,8|0,0:0|0:0,0:0:0:0:
408,296,24849,1,2,0:1:0:0:
492,196,25049,2,0,B|500:168|500:168|472:100,1,80,0|2,0:2|0:1,0:0:0:0:
412,80,25449,1,8,0:0:0:0:
367,147,25649,1,2,0:1:0:0:
332,76,25849,6,0,B|304:52|304:52|208:68,2,120,2|2|2,0:1|0:1|0:1,0:0:0:0:
288,144,26649,2,0,L|189:160,1,80,2|0,0:1|0:0,0:0:0:0:
224,192,26949,2,0,L|125:208,1,80,2|0,0:1|0:0,0:0:0:0:
160,240,27249,2,0,L|91:251,1,40,2|0,0:1|0:0,0:0:0:0:
36,260,27449,5,2,0:2:0:0:
152,324,27749,1,2,0:0:0:0:
152,324,27849,1,8,0:0:0:0:
8,336,28049,1,2,0:0:0:0:
84,376,28249,5,8,0:0:0:0:
156,324,28649,1,8,0:0:0:0:
244,316,29049,1,8,0:0:0:0:
324,348,29449,1,8,0:0:0:0:
412,356,29849,5,8,0:0:0:0:
432,352,29949,1,0,1:0:0:0:
452,340,30049,1,0,1:0:0:0:
464,324,30149,1,0,1:0:0:0:
468,304,30249,5,4,1:3:0:0:
460,272,30349,1,0,1:0:0:0:
436,248,30449,2,0,P|412:240|388:240,1,40,0|0,1:0|1:0,0:0:0:0:
320,264,30649,6,0,L|312:168,7,80,12|8|8|8|8|8|8|8,1:0|1:0|1:0|1:0|1:0|1:0|1:0|1:0,0:0:0:0:
344,112,32149,1,8,1:0:0:0:
344,112,32249,6,0,L|248:104,1,80,8|8,1:0|1:0,0:0:0:0:
188,84,32649,2,0,L|284:76,1,80,8|8,1:0|1:0,0:0:0:0:
344,112,33049,2,0,L|248:104,1,80,8|8,1:0|1:0,0:0:0:0:
188,84,33449,2,0,L|180:180,1,80,8|8,1:0|1:0,0:0:0:0:
177,247,33749,1,8,1:0:0:0:
177,247,33849,6,0,L|81:239,7,80,8|8|8|8|8|8|8|8,1:0|1:0|1:0|1:0|1:0|1:0|1:0|1:0,0:0:0:0:
16,248,35349,1,8,1:0:0:0:
16,248,35449,6,0,L|24:152,1,80,8|8,1:0|1:0,0:0:0:0:
44,92,35849,2,0,L|52:188,1,80,8|8,1:0|1:0,0:0:0:0:
16,248,36249,2,0,L|24:152,1,80,8|8,1:0|1:0,0:0:0:0:
44,92,36549,1,0,1:0:0:0:
44,92,36649,2,0,L|52:188,1,80,8|8,1:0|1:0,0:0:0:0:
96,240,36949,1,0,1:0:0:0:
104,244,37049,6,0,L|180:236,3,40,4|0|0|0,1:0|1:0|1:0|1:0,0:0:0:0:
132,324,37449,2,0,L|124:400,3,40,0|0|0|0,1:0|1:0|1:0|1:0,0:0:0:0:
212,292,37849,2,0,L|288:300,3,40,0|0|0|0,1:0|1:0|1:0|1:0,0:0:0:0:
224,208,38249,2,0,L|216:132,3,40,0|0|0|0,1:0|1:0|1:0|1:0,0:0:0:0:
284,118,38649,6,0,L|305:83,1,40,0|0,1:0|1:0,0:0:0:0:
318,142,38849,2,0,L|353:122,1,40,0|0,1:0|1:0,0:0:0:0:
334,179,39049,2,0,L|374:180,3,40,0|0|0|0,1:0|1:0|1:0|1:0,0:0:0:0:
330,220,39449,6,0,L|365:241,1,40,0|0,1:0|1:0,0:0:0:0:
306,254,39649,2,0,L|325:289,1,40,0|0,1:0|1:0,0:0:0:0:
269,270,39849,2,0,L|268:310,3,40,0|0|0|0,1:0|1:0|1:0|1:0,0:0:0:0:
228,266,40249,6,0,L|209:296,14,20,0|0|0|0|0|0|0|0|0|0|0|0|0|0|0,1:0|1:0|1:0|1:0|1:0|1:0|1:0|1:0|1:0|1:0|1:0|1:0|1:0|1:0|1:0,0:0:0:0:
194,242,41049,2,0,L|163:259,14,20,0|0|0|0|0|0|0|0|0|0|0|0|0|0|0,1:0|1:0|1:0|1:0|1:0|1:0|1:0|1:0|1:0|1:0|1:0|1:0|1:0|1:0|1:0,0:0:0:0:
177,204,41849,5,0,1:0:0:0:
120,148,42049,2,0,L|124:112,3,26.6666666666667,0|0|0|0,1:0|1:0|1:0|1:0,0:0:0:0:
204,128,42382,2,0,P|233:126|288:108,1,53.3333333333333,0|0,1:1|1:1,0:0:0:0:
312,56,42649,1,0,1:0:0:0:
372,132,42849,1,0,1:0:0:0:
468,100,43049,6,0,B|496:172|436:164|461:239,1,143.999995605469,4|0,1:3|0:0,0:0:0:0:
468,252,43449,6,0,P|428:272|360:260,1,80,6|0,1:0|0:0,0:0:0:0:
364,296,43749,2,0,L|356:240,1,40,2|0,0:1|1:0,0:0:0:0:
304,120,44049,2,0,P|291:167|280:244,1,120,2|0,0:1|0:0,0:0:0:0:
208,280,44449,2,0,P|204:256|184:224,1,40,2|0,0:1|0:0,0:0:0:0:
204,204,44649,2,0,P|200:164|212:92,1,80,0|2,1:0|0:1,0:0:0:0:
124,104,45049,6,0,B|140:87|140:87|76:16,1,80,2|0,1:1|0:0,0:0:0:0:
80,175,45349,2,0,B|85:197|85:197|178:177,1,80,2|0,0:1|0:0,0:0:0:0:
42,98,45649,2,0,B|19:91|19:91|-9:182,1,80,2|2,0:1|1:0,0:0:0:0:
52,348,46149,1,0,1:0:0:0:
52,348,46249,1,0,1:0:0:0:
172,340,46449,1,0,1:0:0:0:
292,332,46649,5,2,1:1:0:0:
172,316,46849,1,0,1:0:0:0:
52,296,47049,1,0,1:0:0:0:
124,244,47249,6,0,P|171:231|248:220,1,120,2|0,0:1|0:0,0:0:0:0:
284,148,47649,2,0,P|260:144|228:124,1,40,2|0,0:1|0:0,0:0:0:0:
204,140,47849,2,0,P|208:100|196:28,1,80,0|2,1:0|0:1,0:0:0:0:
288,48,48249,6,0,B|330:10|330:10|347:26,1,80,2|0,1:1|0:0,0:0:0:0:
428,8,48549,2,0,B|440:64|440:64|418:69,1,80,2|0,0:1|0:0,0:0:0:0:
387,147,48849,2,0,B|333:130|333:130|340:107,1,80,2|2,0:1|1:0,0:0:0:0:
484,272,49349,1,0,1:0:0:0:
484,272,49449,1,0,1:0:0:0:
364,280,49649,1,0,1:0:0:0:
244,288,49849,5,2,1:1:0:0:
364,304,50049,1,0,1:0:0:0:
364,304,50149,1,0,1:0:0:0:
364,304,50249,1,0,1:0:0:0:
484,320,50449,2,0,P|488:240|476:192,1,120,2|0,0:1|0:0,0:0:0:0:
412,156,50849,2,0,P|416:132|436:100,1,40,2|0,0:1|0:0,0:0:0:0:
420,76,51049,2,0,P|460:80|532:68,1,80,0|2,1:0|0:1,0:0:0:0:
356,24,51449,5,2,1:0:0:0:
232,68,51749,1,2,0:1:0:0:
232,68,51849,1,0,1:0:0:0:
196,148,52049,1,2,0:1:0:0:
108,156,52249,2,2,P|104:120|92:28,1,120,2|0,1:1|1:0,0:1:0:0:
20,148,52849,1,0,1:0:0:0:
12,192,52949,1,2,1:1:0:0:
4,236,53049,5,2,1:0:0:0:
120,300,53349,1,2,1:0:0:0:
252,284,53649,1,2,1:0:0:0:
136,220,53949,2,0,L|144:188,2,20,0|0|2,1:0|1:0|1:0,0:0:0:0:
118,306,54249,1,2,1:0:0:0:
196,344,54449,1,0,1:0:0:0:
256,280,54649,5,2,1:0:0:0:
344,184,54949,1,2,1:0:0:0:
448,264,55249,1,2,1:0:0:0:
416,344,55449,5,2,1:0:0:0:
360,276,55649,2,0,L|364:232,1,40,0|0,1:0|1:0,0:0:0:0:
371,153,55849,5,14,1:3:0:0:
368,148,56249,6,0,B|380:64|380:64|336:80,1,120,4|2,1:0|2:1,0:0:0:0:
292,136,56649,2,0,B|305:43|305:43|272:24,1,120,0|0,1:0|2:0,0:0:0:0:
216,120,57049,2,0,B|235:-9,1,120,0|0,1:0|2:0,0:0:0:0:
152,28,57449,2,0,L|120:0,1,40,0|0,1:0|0:0,0:0:0:0:
84,76,57649,2,0,L|116:104,1,40,2|0,1:1|0:0,0:0:0:0:
136,184,57849,6,0,B|43:171|43:171|24:204,1,120,2|2,1:1|2:1,0:0:0:0:
80,256,58249,2,0,L|165:267,1,80,0|2,1:0|1:1,0:0:0:0:
236,240,58549,1,0,1:0:0:0:
232,244,58649,1,2,1:0:0:0:
352,264,58849,1,0,1:0:0:0:
472,284,59049,1,0,1:0:0:0:
352,304,59249,1,0,1:0:0:0:
232,324,59449,5,2,1:1:0:0:
352,344,59649,1,0,1:0:0:0:
352,344,59749,1,2,1:1:0:0:
352,344,59849,2,0,B|352:248,1,80,0|2,1:0|0:1,0:0:0:0:
384,180,60249,6,0,B|300:192|300:192|316:148,1,120,0|0,1:0|2:0,0:0:0:0:
372,104,60649,2,0,B|279:117|279:117|260:84,1,120,0|0,1:0|2:0,0:0:0:0:
356,28,61049,2,0,B|227:47,1,120,2|2,1:1|2:1,0:0:0:0:
164,116,61449,2,0,B|174:98|174:98|140:24,1,80,0|2,1:0|2:1,0:0:0:0:
12,48,61849,6,0,B|2:66|2:66|36:140,1,80,2|0,1:0|2:0,0:0:0:0:
4,152,62149,2,0,B|12:170|12:170|92:186,1,80,0|0,1:0|2:0,0:0:0:0:
92,216,62449,2,0,L|120:187,1,40,0|0,1:0|0:0,0:0:0:0:
164,116,62649,6,0,B|280:88,1,120,6|2,1:0|2:1,0:0:0:0:
197,162,63049,2,0,B|211:183|211:183|303:162,1,120,0|0,1:0|2:0,0:0:0:0:
248,222,63449,2,0,B|238:255|238:255|321:236,1,120,0|0,1:0|2:0,0:0:0:0:
392,280,63849,2,0,L|420:312,1,40,0|0,1:0|0:0,0:0:0:0:
344,348,64049,2,0,L|316:316,1,40,2|0,1:1|0:0,0:0:0:0:
240,340,64249,6,0,B|192:328|192:328|112:364,1,120,2|2,1:1|0:1,0:0:0:0:
180,284,64649,2,0,B|132:272|132:272|52:308,1,120,0|0,1:0|0:0,0:0:0:0:
120,224,65049,1,2,1:1:0:0:
244,152,65349,1,0,1:0:0:0:
120,76,65649,1,0,1:0:0:0:
160,148,65849,6,0,L|184:192,1,40,4|0,1:2|0:0,0:0:0:0:
220,272,66149,2,0,L|244:228,1,40,4|0,1:2|0:0,0:0:0:0:
296,160,66449,2,0,L|245:161,1,40,4|0,1:2|0:0,0:0:0:0:
320,240,66749,2,0,L|324:272,3,20,0|0|4|0,1:0|1:0|1:0|1:0,0:0:0:0:
376,176,67049,6,0,L|412:140,1,40,0|0,1:0|0:0,0:0:0:0:
460,88,67249,2,0,L|496:52,1,40,0|0,1:0|0:0,0:0:0:0:
416,20,67449,6,0,B|385:-3|385:-3|345:7,1,80,4|0,1:0|0:0,0:0:0:0:
308,80,67749,2,0,B|277:103|277:103|237:92,1,80,0|0,1:0|0:0,0:0:0:0:
172,48,68049,2,0,L|164:20,4,20,0|0|0|0|0,1:0|1:0|1:0|1:0|1:0,0:0:0:0:
76,108,68449,1,0,1:0:0:0:
76,108,68549,1,0,1:0:0:0:
76,108,68649,2,0,L|52:28,1,80,8|0,1:3|0:3,0:0:0:0:
0,136,69049,6,0,P|12:176|12:216,1,69.6000005841065,4|0,1:1|0:0,0:0:0:0:
88,280,69449,2,0,L|96:204,1,69.6000005841065,0|0,1:1|0:0,0:0:0:0:
160,128,69849,2,0,P|193:125|232:160,1,69.6000005841065,0|0,1:1|0:0,0:0:0:0:
244,248,70249,2,0,L|164:256,1,69.6000005841065,0|0,1:0|0:0,0:0:0:0:
308,300,70649,2,0,P|325:267|324:232,1,69.6000005841065,0|0,1:0|0:0,0:0:0:0:
304,132,71049,2,0,L|380:120,1,69.6000005841065,0|0,1:0|0:0,0:0:0:0:
464,208,71449,2,0,L|388:196,1,69.6000005841065,0|0,1:0|0:0,0:0:0:0:
404,280,71749,2,0,L|412:308,6,17.4000001460266,0|0|0|0|0|0|0,1:0|1:0|1:0|1:0|1:0|1:0|1:0,0:0:0:0:
384,372,72149,1,0,1:0:0:0:
384,372,72249,6,0,L|288:368,1,80,0|0,1:0|0:0,0:0:0:0:
200,380,72649,2,0,P|204:342|204:284,1,80,0|0,1:0|0:0,0:0:0:0:
112,256,73049,2,0,P|107:293|108:352,1,80,0|0,1:0|0:0,0:0:0:0:
16,288,73449,2,0,L|-4:184,1,80,0|0,1:0|0:0,0:0:0:0:
48,148,73749,6,0,P|60:144|76:136,2,20,8|8|8,1:2|1:2|1:2,0:0:0:0:
40,4,74149,1,8,1:2:0:0:
44,12,74249,2,0,L|100:16,1,40,8|8,1:2|1:2,0:0:0:0:
164,20,74449,1,8,1:2:0:0:
244,88,74649,1,8,1:2:0:0:
236,128,74749,1,8,1:2:0:0:
228,168,74849,1,8,1:2:0:0:
220,208,74949,1,8,1:2:0:0:
212,248,75049,6,0,L|320:244,1,80,6|0,1:3|3:0,0:0:0:0:
452,235,75449,5,4,0:1:0:0:
372,288,75849,1,8,0:0:0:0:
368,192,76249,1,8,0:0:0:0:
364,96,76649,1,8,0:0:0:0:
280,48,76849,1,0,0:0:0:0:
280,48,76949,1,0,0:0:0:0:
280,48,77049,5,8,0:0:0:0:
204,108,77449,1,8,0:0:0:0:
112,76,77849,1,8,0:0:0:0:
188,16,78249,1,8,0:0:0:0:
220,200,78649,5,8,0:0:0:0:
172,284,79049,1,8,0:0:0:0:
268,280,79449,1,8,0:0:0:0:
364,276,79849,1,8,0:0:0:0:
412,192,80199,6,0,L|440:188,1,20,2|8,0:0|0:0,0:0:0:0:
352,116,80649,1,10,0:0:0:0:
384,24,81049,1,10,0:0:0:0:
444,100,81349,6,0,L|472:96,2,20,0|2|10,3:0|0:0|0:0,0:0:0:0:
352,116,81649,1,2,0:0:0:0:
260,132,81849,5,8,0:0:0:0:
220,220,82249,1,8,0:0:0:0:
176,308,82649,1,8,0:0:0:0:
124,228,83049,1,8,0:0:0:0:
28,236,83249,1,0,0:0:0:0:
28,236,83349,1,0,0:0:0:0:
28,236,83449,5,8,0:0:0:0:
124,228,83849,1,8,0:0:0:0:
164,140,84249,1,8,0:0:0:0:
112,60,84649,1,8,0:0:0:0:
18,69,85049,6,0,B|66:100|124:72|110:41|168:13|223:49,1,220,2|0,0:0|0:0,0:0:0:0:
240,64,86249,6,0,L|252:44,2,20,2|2|2,0:0|0:0|0:0,0:0:0:0:
248,88,86449,2,0,L|288:80,1,40,2|2,0:0|0:0,0:0:0:0:
368,64,86649,6,0,P|425:57|492:84,1,120,4|0,1:2|0:0,0:0:0:0:
488,100,87049,2,0,P|441:133|370:144,1,120,4|0,1:2|0:0,0:0:0:0:
368,164,87449,2,0,L|364:240,3,40,4|0|0|0,1:3|3:0|3:0|3:0,0:0:0:0:
364,286,87849,5,6,1:3:0:0:
288,240,88049,1,0,1:0:0:0:
204,268,88249,5,4,1:0:0:0:
220,180,88449,2,0,P|220:160|208:132,2,40,0|0|8,3:0|3:0|1:2,0:0:0:0:
136,212,88849,1,2,3:2:0:0:
76,148,89049,2,0,P|76:96|92:56,1,80,8|2,1:2|3:2,0:0:0:0:
104,64,89349,1,0,3:0:0:0:
104,64,89449,1,8,1:2:0:0:
192,60,89649,2,0,P|192:40|204:12,2,40,0|0|8,3:0|3:0|1:2,0:0:0:0:
276,80,90049,1,0,3:0:0:0:
364,88,90249,2,0,P|356:48|328:8,1,80,8|0,1:2|3:0,0:0:0:0:
284,84,90649,5,10,1:2:0:0:
316,156,90849,1,2,3:2:0:0:
276,228,91049,1,8,1:2:0:0:
312,300,91249,1,2,3:2:0:0:
388,280,91449,6,0,L|476:256,1,80,8|2,1:2|3:2,0:0:0:0:
484,272,91749,1,0,3:0:0:0:
484,272,91849,1,8,1:2:0:0:
444,348,92049,1,0,3:0:0:0:
384,284,92249,2,0,P|380:261|392:216,4,40,8|0|2|0|8,1:2|3:0|0:0|3:0|1:2,0:0:0:0:
304,320,92849,1,0,1:0:0:0:
236,264,93049,6,0,P|206:259|148:300,1,80,10|0,1:2|2:0,0:0:0:0:
120,356,93449,2,0,P|90:360|32:320,1,80,10|0,1:2|1:0,0:0:0:0:
44,252,93849,1,10,1:2:0:0:
108,188,94049,1,2,0:0:0:0:
108,188,94149,6,0,L|140:196,2,20,2|2|8,0:0|0:0|1:2,0:0:0:0:
20,168,94449,1,2,0:0:0:0:
108,180,94649,5,8,1:2:0:0:
124,92,94849,2,0,P|124:72|112:44,2,40,0|0|8,3:0|3:0|1:2,0:0:0:0:
36,80,95249,1,2,3:2:0:0:
120,100,95449,2,0,P|172:100|212:84,1,80,8|2,1:2|3:2,0:0:0:0:
204,72,95749,1,0,3:0:0:0:
204,72,95849,1,8,1:2:0:0:
292,88,96049,2,0,P|292:68|304:40,2,40,0|0|8,3:0|3:0|1:2,0:0:0:0:
340,160,96449,1,0,3:0:0:0:
252,168,96649,2,0,P|212:176|172:204,1,80,10|2,1:2|3:2,0:0:0:0:
176,284,97049,5,10,1:2:0:0:
248,252,97249,1,2,3:2:0:0:
320,292,97449,1,8,1:2:0:0:
392,256,97649,1,2,3:2:0:0:
372,180,97849,6,0,L|348:92,1,80,8|0,1:2|3:0,0:0:0:0:
364,84,98149,1,0,3:0:0:0:
364,84,98249,1,8,1:2:0:0:
444,116,98449,1,0,3:0:0:0:
500,48,98649,2,0,P|504:25|492:-20,4,40,8|0|0|0|8,1:2|3:0|3:0|3:0|1:2,0:0:0:0:
448,120,99249,1,0,3:0:0:0:
496,192,99449,6,0,P|501:222|460:280,1,80,10|0,1:2|2:0,0:0:0:0:
404,308,99849,2,0,P|400:338|440:396,1,80,2|0,1:2|3:0,0:0:0:0:
508,384,100249,1,2,1:2:0:0:
320,368,100649,6,0,L|288:376,8,20,2|2|0|0|0|0|0|0|4,3:2|3:2|3:2|3:2|3:2|3:2|3:2|3:2|1:1,0:0:0:0:
200,308,101349,1,2,0:0:0:0:
244,312,101449,1,8,0:0:0:0:
128,352,101649,1,2,0:0:0:0:
56,308,101849,6,0,L|60:284,2,20,8|0|0,0:0|0:0|0:0,0:0:0:0:
116,192,102149,1,0,3:0:0:0:
116,192,102249,6,0,L|112:168,7,20,4|0|0|0|0|0|0|0,1:1|3:0|3:0|3:0|3:0|3:0|3:0|3:0,0:0:0:0:
108,150,102649,5,8,0:0:0:0:
208,84,102949,1,2,3:2:0:0:
164,88,103049,1,8,1:0:0:0:
280,128,103249,1,2,3:2:0:0:
352,84,103449,6,0,L|348:60,2,20,8|0|0,0:0|3:0|3:0,0:0:0:0:
496,56,103849,6,0,L|488:108,1,40,8|0,3:2|3:0,0:0:0:0:
456,116,104049,2,0,L|464:168,1,40,0|0,3:0|3:0,0:0:0:0:
476,236,104249,5,0,1:0:0:0:
364,280,104549,1,2,3:2:0:0:
404,284,104649,1,8,0:0:0:0:
388,196,104849,1,2,3:2:0:0:
304,216,105049,6,0,L|272:212,2,20,8|0|0,0:0|3:0|3:0,0:0:0:0:
252,96,105349,1,0,3:0:0:0:
252,96,105449,6,0,L|256:120,7,20,4|0|0|0|0|0|0|0,1:2|3:2|3:2|3:2|3:2|3:2|3:2|3:2,0:0:0:0:
260,138,105849,6,0,L|168:128,1,80,4|0,1:2|3:0,0:0:0:0:
120,228,106249,2,0,L|212:218,1,80,4|0,1:1|3:0,0:0:0:0:
248,288,106549,6,0,L|251:312,2,20,0|0|0,1:0|1:0|1:0,0:0:0:0:
208,304,106749,6,0,L|141:311,2,40,0|0|0,1:2|1:0|3:0,0:0:0:0:
292,292,107049,2,0,L|359:285,1,40,0|0,1:2|3:0,0:0:0:0:
376,304,107249,2,0,B|372:284|372:284|373:264,1,40,0|0,1:2|3:0,0:0:0:0:
400,188,107449,6,0,P|432:164|516:156,2,120,4|2|2,1:1|0:2|0:2,0:0:0:0:
296,200,108249,2,0,P|296:184|256:116,1,80,8|0,0:2|0:0,0:0:0:0:
176,108,108649,1,4,1:0:0:0:
176,108,108749,1,0,0:0:0:0:
176,108,108849,6,0,L|312:100,1,120,2|0,0:0|3:0,0:0:0:0:
336,99,109249,2,0,L|384:95,1,40,2|0,3:2|3:0,0:0:0:0:
456,92,109449,5,0,1:2:0:0:
420,248,109849,6,0,P|427:295|472:344,1,80,8|0,0:0|3:0,0:0:0:0:
388,380,110249,2,0,P|342:363|278:377,1,80,2|0,0:0|3:0,0:0:0:0:
317,272,110649,6,0,P|162:159|332:258,1,600,4|0,1:1|0:0,0:0:0:0:
316,226,112249,6,0,L|164:226,1,120,2|2,0:0|0:0,0:0:0:0:
222,138,112849,2,0,L|222:290,1,120,2|2,0:0|0:0,0:0:0:0:
148,340,113349,1,0,0:0:0:0:
148,340,113449,6,0,P|68:340|32:272,1,155.999992858887,6|0,1:3|0:0,0:0:0:0:
60,204,113849,6,0,P|77:183|68:116,1,88.000002685547,6|0,1:0|0:0,0:0:0:0:
44,96,114149,1,2,1:0:0:0:
144,8,114449,2,0,P|134:27|132:60,2,44.0000013427735,0|0|4,1:2|3:0|1:2,0:0:0:0:
216,100,114849,1,0,1:0:0:0:
216,100,114949,1,0,1:0:0:0:
216,100,115049,1,0,1:0:0:0:
312,96,115249,2,0,P|314:74|305:54,3,44.0000013427735,2|0|2|0,1:0|3:0|3:1|3:0,0:0:0:0:
328,132,115649,5,0,1:0:0:0:
424,56,115849,2,0,P|422:32|428:4,3,44.0000013427735,0|0|2|0,1:0|3:0|3:1|3:0,0:0:0:0:
444,88,116249,1,4,1:2:0:0:
376,216,116549,1,0,1:0:0:0:
328,228,116649,1,0,1:0:0:0:
448,256,116849,1,0,1:0:0:0:
336,312,117049,6,0,P|337:340|348:356,3,44.0000013427735,2|0|0|0,1:0|3:0|3:0|3:0,0:0:0:0:
268,384,117449,2,0,P|224:383|186:361,1,88.000002685547,2|0,1:0|3:0,0:0:0:0:
136,256,117849,1,12,0:0:0:0:
48,328,118049,5,0,1:0:0:0:
64,216,118249,1,0,1:0:0:0:
80,104,118449,2,0,P|78:76|64:56,3,44.0000013427735,0|0|2|0,1:0|3:0|3:1|3:0,0:0:0:0:
48,136,118849,1,0,1:0:0:0:
96,140,118949,1,2,1:1:0:0:
184,104,119149,1,0,1:0:0:0:
184,104,119249,1,2,1:1:0:0:
184,104,119349,1,0,1:0:0:0:
184,104,119449,6,2,L|176:4,1,88.000002685547,4|0,1:2|0:0,0:1:0:0:
220,32,119749,1,0,1:0:0:0:
408,56,120049,1,0,1:0:0:0:
464,144,120249,6,0,P|447:165|456:232,1,88.000002685547,2|0,1:1|0:0,0:0:0:0:
480,252,120549,1,2,1:1:0:0:
380,340,120849,2,0,P|390:321|392:288,2,44.0000013427735,0|0|4,1:0|3:0|1:2,0:0:0:0:
308,248,121249,1,0,1:0:0:0:
308,248,121349,1,0,1:0:0:0:
308,248,121449,1,0,1:0:0:0:
212,252,121649,2,0,P|210:274|219:294,3,44.0000013427735,2|0|0|0,1:0|3:0|3:0|3:0,0:0:0:0:
196,216,122049,5,0,1:0:0:0:
100,292,122249,2,0,P|102:316|96:344,3,44.0000013427735,0|0|0|0,1:0|3:0|3:0|3:0,0:0:0:0:
96,256,122649,1,4,1:2:0:0:
60,228,122749,1,0,1:0:0:0:
0,116,122949,1,0,1:0:0:0:
40,124,123049,1,0,1:0:0:0:
80,132,123149,1,0,1:0:0:0:
120,140,123249,2,0,L|176:152,1,44.0000013427735,0|0,1:0|1:0,0:0:0:0:
208,160,123449,6,0,L|204:52,1,88.000002685547,4|0,1:2|2:0,0:0:0:0:
292,52,123749,2,0,B|232:44|232:44|210:75,1,88.000002685547,4|0,1:2|0:2,0:2:0:0:
288,132,124049,2,0,B|312:143|312:143|360:106,1,88.000002685547,4|0,1:1|0:2,0:2:0:0:
372,28,124349,2,0,L|358:11,2,22.0000006713867,0|0|4,1:0|1:0|1:1,0:0:0:0:
441,116,124649,1,0,1:0:0:0:
512,204,124849,1,2,1:0:0:0:
400,224,125049,6,0,B|376:256|376:256|372:356,2,132.00000402832,4|4|4,1:2|1:2|1:2,0:0:0:0:
476,336,125849,6,0,L|376:332,1,88.000002685547,6|0,1:0|1:0,0:0:0:0:
372,347,126149,1,0,1:0:0:0:
372,347,126249,1,14,1:3:0:0:
376,356,126649,6,0,B|332:368|304:336|304:336|276:328|256:348,1,132.00000402832,4|0,1:0|0:0,0:0:0:0:
224,328,127049,2,0,P|240:292|232:256,1,44.0000013427735,0|0,1:0|0:0,0:0:0:0:
192,224,127249,2,0,P|145:237|72:240,1,88.000002685547,2|0,0:1|1:0,0:0:0:0:
0,168,127649,2,0,P|4:144|24:112,1,44.0000013427735,2|0,0:1|0:0,0:0:0:0:
4,92,127849,2,0,P|8:52|-4:-20,1,88.000002685547,0|2,1:0|1:1,0:0:0:0:
108,88,128249,6,0,B|90:103|90:103|148:179,1,88.000002685547,2|0,1:1|0:0,0:0:0:0:
158,21,128549,1,2,0:1:0:0:
158,21,128649,2,0,B|154:-1|154:-1|60:10,1,88.000002685547,0|2,1:1|1:1,0:0:0:0:
189,101,128949,1,0,1:0:0:0:
189,101,129049,1,2,1:0:0:0:
308,118,129249,1,0,1:0:0:0:
428,138,129449,1,0,1:0:0:0:
308,146,129649,1,0,1:0:0:0:
188,154,129849,5,2,1:1:0:0:
308,170,130049,2,0,P|304:204|292:216,2,44.0000013427735,0|2|0,1:1|1:1|1:1,0:0:0:0:
388,224,130449,2,0,P|396:164|411:106,1,88.000002685547,2|0,0:1|1:0,0:0:0:0:
428,12,130849,2,0,P|452:16|484:36,1,44.0000013427735,2|0,0:1|0:0,0:0:0:0:
508,20,131049,2,0,P|504:60|516:132,1,88.000002685547,0|2,1:0|0:1,0:0:0:0:
452,204,131449,6,0,B|469:219|469:219|411:295,1,88.000002685547,2|0,1:1|0:0,0:0:0:0:
402,137,131749,1,2,0:1:0:0:
402,137,131849,2,0,B|405:114|405:114|499:126,1,88.000002685547,0|2,1:1|1:0,0:0:0:0:
312,212,132249,6,2,B|268:200|240:232|240:232|212:240|192:220,1,132.00000402832,2|0,1:0|1:0,0:1:0:0:
172,184,132649,1,4,0:3:0:0:
248,124,132849,1,0,1:0:0:0:
216,32,133049,6,2,L|68:40,1,132.00000402832,4|2,1:1|0:1,0:1:0:0:
40,44,133449,1,0,1:0:0:0:
80,132,133649,2,0,P|84:212|72:244,1,88.000002685547,2|0,0:1|1:0,0:0:0:0:
12,284,134049,2,0,P|16:308|36:340,1,44.0000013427735,2|0,0:1|0:0,0:0:0:0:
20,364,134249,2,0,P|60:360|132:372,1,88.000002685547,0|2,1:0|1:1,0:0:0:0:
216,304,134649,6,0,B|232:256|200:212|200:212|223:216|256:188,1,132.00000402832,2|2,1:1|0:1,0:1:0:0:
264,176,135049,1,0,1:0:0:0:
348,220,135249,1,2,0:1:0:0:
392,136,135449,2,2,B|405:111|404:72|404:72|418:107|442:124,2,132.00000402832,2|0|0,1:1|1:0|1:0,0:1:0:0:
508,224,136249,5,4,1:2:0:0:
364,300,136549,1,4,1:2:0:0:
204,292,136849,1,4,1:1:0:0:
348,220,137149,2,0,L|340:188,2,22.0000006713867,0|0|4,1:0|1:0|1:1,0:0:0:0:
366,306,137449,1,2,1:0:0:0:
284,360,137649,1,0,1:0:0:0:
208,300,137849,6,0,B|216:260|216:260|204:200,1,88.000002685547,0|0,1:0|0:0,0:0:0:0:
196,172,138149,1,4,1:2:0:0:
96,84,138449,2,0,L|100:52,4,22.0000006713867,0|0|0|0|0,1:0|1:0|1:0|1:0|1:0,0:0:0:0:
67,168,138849,2,0,L|111:172,1,44.0000013427735,0|0,1:0|1:0,0:0:0:0:
191,179,139049,5,4,1:3:0:0:
252,104,139249,1,0,0:0:0:0:
188,32,139449,5,4,0:1:0:0:
196,296,144249,5,0,1:0:0:0:
236,220,144449,2,0,P|236:200|220:180,3,26.6666666666667,8|8|8|8,1:2|1:2|1:2|1:2,0:0:0:0:
284,292,144849,1,8,1:2:0:0:
284,292,144949,1,8,1:2:0:0:
284,292,145049,2,0,P|300:304|332:304,1,40,0|0,1:0|0:0,0:0:0:0:
356,324,145249,2,0,P|375:318|393:292,1,40,0|0,1:0|0:0,0:0:0:0:
416,236,145449,6,0,L|400:76,1,155.999992858887,14|0,1:3|0:0,0:0:0:0:
424,44,145849,5,4,1:1:0:0:
268,28,146149,1,2,2:1:0:0:
268,28,146249,2,0,L|340:36,1,40,8|0,0:0|0:0,0:0:0:0:
328,148,146449,2,0,B|260:112|256:200|179:165,1,160,2|0,0:1|0:0,0:0:0:0:
184,12,147049,1,2,0:1:0:0:
179,165,147249,1,2,0:1:0:0:
208,88,147449,6,0,B|146:106|150:58|92:73,2,120,2|2|2,0:1|0:1|0:1,0:0:0:0:
179,165,148249,2,2,B|105:164|159:225|65:237|37:188|76:148|100:167|87:185,1,160,2|8,0:1|0:0,0:1:0:0:
48,312,148849,6,0,P|41:294|41:273,2,40,0|0|2,0:0|0:0|0:1,0:0:0:0:
204,332,149349,1,2,2:1:0:0:
204,332,149449,2,0,L|132:324,1,40,8|0,0:0|0:0,0:0:0:0:
120,236,149649,2,2,B|188:272|192:184|269:219,1,160,2|0,0:1|0:0,0:1:0:0:
304,296,150249,1,2,0:1:0:0:
336,164,150449,1,2,0:1:0:0:
376,244,150649,6,0,B|438:262|434:214|492:229,2,120,2|2|2,0:1|0:1|0:1,0:0:0:0:
336,164,151449,6,2,B|335:90|396:144|408:50|359:22|319:61|338:85|356:72,1,160,2|8,0:1|0:0,0:1:0:0:
88,44,152249,5,2,0:1:0:0:
244,28,152549,1,2,2:1:0:0:
244,28,152649,2,0,L|172:36,1,40,8|0,0:2|0:0,0:0:0:0:
184,148,152849,2,2,B|252:112|256:200|333:165,1,160,2|0,0:1|0:0,0:1:0:0:
328,12,153449,1,2,0:1:0:0:
333,165,153649,1,2,0:1:0:0:
304,88,153849,6,0,B|366:106|362:58|420:73,2,120,2|2|2,0:1|0:1|0:1,0:0:0:0:
184,148,154649,2,2,B|110:149|164:88|70:76|42:125|81:165|105:146|92:128,1,160,2|8,0:1|0:0,0:1:0:0:
224,228,155249,6,0,P|224:247|216:266,2,40,0|2|2,0:0|0:1|0:1,0:0:0:0:
353,349,155749,1,2,2:1:0:0:
353,349,155849,2,0,L|425:341,1,40,8|0,0:0|0:0,0:0:0:0:
373,269,156049,1,2,0:1:0:0:
273,353,156249,2,0,B|245:361|245:361|177:333,1,80,8|2,0:2|0:1,0:0:0:0:
156,272,156649,1,8,0:0:0:0:
224,228,156849,1,2,0:1:0:0:
152,192,157049,6,0,B|128:164|128:164|144:68,1,120,8|2,0:2|0:1,0:1:0:0:
168,100,157449,2,0,L|84:108,1,80,8|2,0:0|0:1,0:0:0:0:
8,20,157849,2,0,B|28:4|28:4|92:28,1,80,2|8,1:1|0:3,0:0:0:0:
78,23,158149,1,8,0:3:0:0:
78,23,158249,1,12,1:3:0:0:
172,96,158449,2,0,L|179:56,1,40,0|2,0:0|0:0,0:0:0:0:
252,24,158649,5,6,1:1:0:0:
392,80,158949,1,0,0:0:0:0:
392,80,159049,2,2,B|436:91|443:137|414:173|370:161|370:161|375:186|365:136|325:149|296:184|304:230|348:242|348:242,1,280,10|0,1:1|0:0,0:1:0:0:
424,260,159849,2,2,P|439:247|436:212,1,40,10|0,1:0|0:0,0:1:0:0:
368,316,160049,2,2,P|380:331|416:328,1,40,2|0,0:1|0:0,0:1:0:0:
292,300,160249,6,0,P|276:312|279:348,2,40,10|0|0,1:0|0:0|0:0,0:0:0:0:
272,224,160549,1,0,0:0:0:0:
272,224,160649,2,2,B|251:241|228:233|228:233|206:266|173:268|146:239|146:239|160:294|121:332|65:330|40:285,1,320,10|8,1:1|1:0,0:1:0:0:
64,184,161649,1,2,0:1:0:0:
64,184,161749,1,2,0:1:0:0:
64,184,161849,2,2,B|88:168|75:136|75:136|88:88|116:162|126:115|126:115|104:56|116:12|156:116|168:72|168:72|152:32|164:-4,1,320,8|8,1:0|1:0,0:1:0:0:
264,32,162849,2,2,P|266:51|276:69,1,40,2|0,0:1|0:0,0:1:0:0:
300,88,163049,1,8,1:0:0:0:
408,6,163249,2,2,P|390:15|370:18,1,40,2|0,0:1|0:0,0:1:0:0:
380,88,163449,6,2,B|425:86|456:56|456:56|496:116|496:116|444:156|386:159|386:159|388:232|388:232|472:220|513:189,1,480,10|8,1:1|1:0,0:1:0:0:
504,296,164849,6,0,L|500:324,4,20,0|2|2|2|4,0:0|0:0|0:1|0:1|1:1,0:0:0:0:
376,324,165349,1,0,3:0:0:0:
376,324,165449,2,2,B|364:368|318:375|282:346|294:302|294:302|269:307|319:297|306:257|271:228|225:236|213:280|213:280,1,280,10|0,1:1|0:0,0:1:0:0:
224,356,166249,2,0,P|203:357|172:344,1,40,8|0,1:0|0:0,0:0:0:0:
140,292,166449,2,0,P|139:271|152:240,1,40,2|0,0:1|0:0,0:0:0:0:
112,360,166649,2,0,P|92:365|72:364,2,40,10|0|0,1:0|0:0|0:0,0:0:0:0:
64,288,166949,1,0,0:0:0:0:
64,288,167049,6,2,B|52:268|61:243|61:243|88:220|80:176|46:162|46:162|0:136|0:76|42:37|92:56,1,320,10|8,1:1|1:0,0:1:0:0:
164,128,168049,1,2,0:1:0:0:
164,128,168149,1,2,0:1:0:0:
164,128,168249,2,2,B|196:128|199:162|199:162|256:125|232:200|232:200|260:156|320:148,1,240,10|2,1:1|0:0,0:1:0:0:
388,172,169049,1,8,1:0:0:0:
372,92,169249,2,0,P|368:68|380:32,1,40,2|0,0:0|0:0,0:0:0:0:
388,24,169449,1,8,1:0:0:0:
448,76,169649,2,0,P|471:75|496:68,1,40,2|0,1:2|0:0,0:0:0:0:
508,48,169849,6,0,P|483:118|484:184,1,120,8|2,1:0|0:0,0:0:0:0:
508,180,170249,2,0,P|502:203|496:232,2,40,8|0|2,1:0|3:0|3:2,0:0:0:0:
424,240,170549,1,0,3:0:0:0:
428,248,170649,6,0,P|388:244|352:264,1,80,0|0,1:0|3:2,0:0:0:0:
276,304,170949,1,2,3:2:0:0:
280,308,171049,2,0,P|278:280|268:244,1,40,0|0,1:0|3:0,0:0:0:0:
212,224,171249,2,0,L|216:196,4,20,2|0|0|0|4,1:2|1:0|1:0|1:0|1:0,0:0:0:0:
256,192,171549,12,0,174249,1:0:0:0:
36,260,174649,6,0,P|36:240|44:216,3,40,4|0|0|0,1:1|1:0|1:0|1:0,0:0:0:0:
120,224,175049,6,0,P|120:204|112:180,3,44.0000013427735,0|0|0|0,1:0|1:0|1:0|1:0,0:0:0:0:
200,248,175449,6,0,P|200:226|208:201,3,47.9999985351563,0|0|0|0,1:0|1:0|1:0|1:0,0:0:0:0:
288,212,175849,6,0,P|288:188|278:161,3,51.999997619629,0|0|0|0,1:0|1:0|1:0|1:0,0:0:0:0:
212,120,176249,1,4,1:2:0:0:
320,0,176549,1,4,1:2:0:0:
360,164,176849,1,4,1:2:0:0:
440,188,177049,5,4,1:2:0:0:
457,178,177149,1,0,1:0:0:0:
471,161,177249,1,0,1:0:0:0:
477,141,177349,1,0,1:0:0:0:
474,121,177449,5,12,1:3:0:0:
455,94,177549,1,0,1:0:0:0:
425,79,177649,2,0,P|399:79|377:87,1,40,0|0,1:0|1:0,0:0:0:0:
320,120,177849,6,0,L|312:216,7,80,12|8|8|8|8|8|8|8,1:0|1:0|1:0|1:0|1:0|1:0|1:0|1:0,0:0:0:0:
344,272,179349,1,8,1:0:0:0:
344,272,179449,6,0,L|248:280,1,80,8|8,1:0|1:0,0:0:0:0:
188,300,179849,2,0,L|284:308,1,80,8|8,1:0|1:0,0:0:0:0:
344,272,180249,2,0,L|248:280,1,80,8|8,1:0|1:0,0:0:0:0:
188,300,180649,2,0,L|180:204,1,80,8|8,1:0|1:0,0:0:0:0:
177,137,180949,1,8,1:0:0:0:
177,137,181049,6,0,L|81:145,7,80,8|8|8|8|8|8|8|8,1:0|1:0|1:0|1:0|1:0|1:0|1:0|1:0,0:0:0:0:
16,136,182549,1,8,1:0:0:0:
16,136,182649,6,0,L|24:232,1,80,8|8,1:0|1:0,0:0:0:0:
44,292,183049,2,0,L|52:196,1,80,8|8,1:0|1:0,0:0:0:0:
16,136,183449,2,0,L|24:232,1,80,8|8,1:0|1:0,0:0:0:0:
44,292,183749,1,8,1:0:0:0:
44,292,183849,2,0,L|52:196,1,80,8|8,1:0|1:0,0:0:0:0:
96,144,184149,1,8,1:0:0:0:
104,140,184249,6,0,L|180:148,3,40,4|0|0|0,1:0|1:0|1:0|1:0,0:0:0:0:
132,60,184649,2,0,L|124:-16,3,40,0|0|0|0,1:0|1:0|1:0|1:0,0:0:0:0:
212,92,185049,2,0,L|288:84,3,40,0|0|0|0,1:0|1:0|1:0|1:0,0:0:0:0:
224,176,185449,2,0,L|216:252,3,40,0|0|0|0,1:0|1:0|1:0|1:0,0:0:0:0:
284,266,185849,6,0,L|305:301,1,40,0|0,1:0|1:0,0:0:0:0:
318,242,186049,2,0,L|353:262,1,40,0|0,1:0|1:0,0:0:0:0:
334,205,186249,2,0,L|374:204,3,40,0|0|0|0,1:0|1:0|1:0|1:0,0:0:0:0:
330,164,186649,6,0,L|365:143,1,40,0|0,1:0|1:0,0:0:0:0:
306,130,186849,2,0,L|325:95,1,40,0|0,1:0|1:0,0:0:0:0:
269,114,187049,2,0,L|268:74,3,40,0|0|0|0,1:0|1:0|1:0|1:0,0:0:0:0:
228,118,187449,6,0,L|209:88,14,20,0|0|0|0|0|0|0|0|0|0|0|0|0|0|0,1:0|1:0|1:0|1:0|1:0|1:0|1:0|1:0|1:0|1:0|1:0|1:0|1:0|1:0|1:0,0:0:0:0:
194,142,188249,2,0,L|163:125,14,20,0|0|0|0|0|0|0|0|0|0|0|0|0|0|0,1:0|1:0|1:0|1:0|1:0|1:0|1:0|1:0|1:0|1:0|1:0|1:0|1:0|1:0|1:0,0:0:0:0:
177,180,189049,5,0,1:0:0:0:
128,256,189249,2,0,L|154:253,3,26.6666666666667,0|0|0|0,1:0|1:0|1:0|1:0,0:0:0:0:
218,293,189582,2,0,L|274:297,1,53.3333333333333,0|0,1:0|1:0,0:0:0:0:
338,265,189849,1,0,1:0:0:0:
424,324,190049,1,0,1:0:0:0:
444,220,190249,6,0,L|464:108,1,103.999995239258,14|0,1:3|1:0,0:0:0:0:
376,164,190649,6,0,P|355:181|288:172,1,88.000002685547,4|0,1:1|0:0,0:0:0:0:
268,148,190949,1,0,1:0:0:0:
268,148,191049,2,0,L|264:112,2,22.0000006713867,0|0|0,1:0|1:0|1:0,0:0:0:0:
216,212,191249,2,0,P|197:202|164:200,1,44.0000013427735,0|0,1:0|1:0,0:0:0:0:
132,216,191449,1,0,1:0:0:0:
75,126,191649,2,0,L|119:136,1,44.0000013427735,0|0,1:0|0:0,0:0:0:0:
156,64,191849,1,4,1:0:0:0:
160,72,192549,5,2,0:0:0:0:
164,80,192649,2,0,P|195:79|220:68,3,44.0000013427735,0|0|0|0,1:0|1:0|1:0|1:0,0:0:0:0:
264,16,193049,1,4,1:0:0:0:
376,56,193349,1,0,1:0:0:0:
328,68,193449,1,0,1:0:0:0:
448,96,193649,1,0,1:0:0:0:
388,204,193849,6,0,P|388:220|392:228,4,22.0000006713867,4|0|0|0|0,1:0|1:0|1:0|1:0|1:0,0:0:0:0:
424,252,194149,1,0,1:0:0:0:
424,252,194249,2,0,L|364:268,1,44.0000013427735,0|0,1:0|0:0,0:0:0:0:
440,328,194449,2,0,L|380:344,1,44.0000013427735,0|0,1:0|0:0,0:0:0:0:
324,380,194649,1,0,1:2:0:0:
300,260,194849,2,0,L|295:230,4,22.0000006713867,0|0|0|0|0,1:0|1:0|1:0|1:0|1:0,0:0:0:0:
208,340,195249,1,4,1:2:0:0:
216,340,195649,5,0,1:0:0:0:
168,348,195749,1,0,1:0:0:0:
24,232,196049,1,0,1:0:0:0:
24,232,196149,1,0,1:0:0:0:
24,232,196249,2,0,L|32:132,1,88.000002685547,4|0,1:2|0:0,0:0:0:0:
36,64,196549,1,4,1:0:0:0:
144,212,196849,1,0,1:0:0:0:
168,92,197049,5,6,1:0:0:0:
288,120,197249,1,0,1:0:0:0:
288,120,197349,1,2,1:0:0:0:
288,120,197449,1,0,1:0:0:0:
252,8,197649,2,0,L|240:60,1,44.0000013427735,2|0,1:1|0:0,0:0:0:0:
216,160,197849,6,0,P|241:191|292:198,1,88.000002685547,0|0,1:0|0:0,0:0:0:0:
404,160,198249,1,0,1:0:0:0:
380,40,198449,1,2,1:0:0:0:
289,119,198649,2,0,B|348:92|360:140|420:112,1,132.00000402832,2|2,1:0|0:1,0:0:0:0:
484,68,199049,2,0,P|496:96|480:160,1,88.000002685547,0|2,1:0|0:1,0:0:0:0:
396,236,199449,5,2,1:1:0:0:
380,40,199749,1,0,1:0:0:0:
316,228,200049,2,0,L|271:223,1,44.0000013427735,0|0,1:0|0:0,0:0:0:0:
200,260,200249,6,0,L|204:368,1,88.000002685547,4|0,1:2|0:0,0:0:0:0:
116,368,200549,2,0,B|176:376|176:376|198:345,1,88.000002685547,4|0,1:2|0:2,0:2:0:0:
120,288,200849,2,0,B|96:277|96:277|48:314,1,88.000002685547,4|0,1:1|0:2,0:2:0:0:
16,244,201149,6,0,L|8:224,2,22.0000006713867,0|0|4,1:0|1:0|1:1,0:0:0:0:
71,116,201449,1,0,1:0:0:0:
0,204,201649,1,0,1:0:0:0:
112,224,201849,2,0,B|203:220|203:220|235:196,2,132.00000402832,4|4|4,1:2|1:2|1:2,0:0:0:0:
36,336,202649,6,0,L|136:332,1,88.000002685547,6|0,1:1|1:0,0:0:0:0:
140,347,202949,1,0,1:0:0:0:
140,347,203049,1,14,1:3:0:0:
136,356,203449,6,0,B|180:368|208:336|208:336|236:328|256:348,1,132.00000402832,4|0,1:1|0:0,0:0:0:0:
288,328,203849,2,0,P|272:292|280:256,1,44.0000013427735,0|0,1:0|0:0,0:0:0:0:
320,224,204049,2,0,P|367:237|440:240,1,88.000002685547,2|0,0:1|1:0,0:0:0:0:
512,164,204449,2,0,P|508:140|488:108,1,44.0000013427735,2|0,0:1|0:0,0:0:0:0:
508,88,204649,2,0,P|504:48|516:-24,1,88.000002685547,0|2,1:0|0:1,0:0:0:0:
404,88,205049,6,0,B|422:103|422:103|364:179,1,88.000002685547,2|0,1:1|0:0,0:0:0:0:
354,21,205349,1,2,0:1:0:0:
354,21,205449,2,0,B|358:-1|358:-1|452:10,1,88.000002685547,0|2,1:1|0:1,0:0:0:0:
323,101,205749,1,2,1:1:0:0:
323,101,205849,1,2,1:0:0:0:
204,118,206049,1,0,1:0:0:0:
84,138,206249,1,0,1:0:0:0:
168,48,206449,1,0,1:0:0:0:
168,48,206549,1,2,1:1:0:0:
168,48,206649,5,2,1:1:0:0:
204,170,206849,2,0,P|208:204|220:216,2,44.0000013427735,0|2|0,1:1|1:1|1:1,0:0:0:0:
124,224,207249,2,0,P|116:164|101:106,1,88.000002685547,2|0,0:1|1:0,0:0:0:0:
84,12,207649,2,0,P|60:16|28:36,1,44.0000013427735,2|0,0:1|0:0,0:0:0:0:
4,20,207849,2,0,P|8:60|-4:132,1,88.000002685547,0|2,1:0|0:1,0:0:0:0:
60,204,208249,6,0,B|43:219|43:219|101:295,1,88.000002685547,2|0,1:1|0:0,0:0:0:0:
110,137,208549,1,2,0:1:0:0:
110,137,208649,2,0,B|107:114|107:114|13:126,1,88.000002685547,0|2,1:1|0:1,0:0:0:0:
200,212,209049,6,0,B|244:200|272:232|272:232|300:240|320:220,1,132.00000402832,0|0,1:2|1:0,0:0:0:0:
340,184,209449,1,4,0:3:0:0:
264,124,209649,1,0,1:0:0:0:
296,32,209849,6,2,L|444:40,1,132.00000402832,4|2,1:1|0:1,0:1:0:0:
472,44,210249,1,0,1:0:0:0:
432,132,210449,2,0,P|428:212|440:244,1,88.000002685547,2|0,0:1|1:0,0:0:0:0:
500,284,210849,2,0,P|496:308|476:340,1,44.0000013427735,2|0,0:1|0:0,0:0:0:0:
492,364,211049,2,0,P|452:360|380:372,1,88.000002685547,0|2,1:0|1:1,0:0:0:0:
296,304,211449,6,0,B|280:256|312:212|312:212|289:216|256:188,1,132.00000402832,2|2,1:1|0:1,0:1:0:0:
248,176,211849,1,0,1:0:0:0:
164,220,212049,1,2,0:1:0:0:
120,136,212249,2,0,B|107:111|108:72|108:72|94:107|70:124,2,132.00000402832,2|0|0,1:1|1:0|1:0,0:1:0:0:
84,208,212949,1,2,1:1:0:0:
84,208,213049,5,4,1:2:0:0:
228,284,213349,1,4,1:2:0:0:
388,276,213649,1,4,1:1:0:0:
244,204,213949,2,0,L|252:172,2,22.0000006713867,0|0|4,1:0|1:0|1:0,0:0:0:0:
312,316,214249,1,0,1:2:0:0:
368,196,214449,1,0,1:0:0:0:
340,68,214649,6,0,B|308:64|308:64|320:128,1,88.000002685547,4|0,1:2|0:0,0:0:0:0:
400,124,214949,1,4,1:1:0:0:
460,8,215149,1,0,1:0:0:0:
460,8,215249,2,0,L|456:40,4,22.0000006713867,0|0|0|0|0,1:0|1:0|1:0|1:0|1:0,0:0:0:0:
480,140,215649,2,0,L|488:184,1,44.0000013427735,0|0,1:0|1:0,0:0:0:0:
504,264,215849,5,8,1:3:0:0:
404,352,216049,1,0,1:0:0:0:
380,224,216249,5,4,1:0:0:0:
256,192,216349,12,0,219249,0:0:0:0:
114,226,219449,6,0,L|236:212,1,88.000002685547
