osu file format v14

[General]
AudioFilename: audio.mp3
AudioLeadIn: 0
PreviewTime: 131662
Countdown: 0
SampleSet: Normal
StackLeniency: 0.7
Mode: 1
LetterboxInBreaks: 0
WidescreenStoryboard: 0

[Editor]
DistanceSpacing: 0.5
BeatDivisor: 8
GridSize: 32
TimelineZoom: 2.299998

[Metadata]
Title:LET'S JUMP
TitleUnicode:LET'S JUMP
Artist:Camellia
ArtistUnicode:かめりあ
Creator:Nishizumi
Version:LET'S ONI
Source:
Tags:hitech psytrance electro [diffraction] marathon dubstep
BeatmapID:1458418
BeatmapSetID:688928

[Difficulty]
HPDrainRate:5
CircleSize:5
OverallDifficulty:6
ApproachRate:5
SliderMultiplier:1.4
SliderTickRate:1

[Events]
//Background and Video events
0,0,"ya.jpg",0,0
//Break Periods
2,236868,245531
//Storyboard Layer 0 (Background)
//Storyboard Layer 1 (Fail)
//Storyboard Layer 2 (Pass)
//Storyboard Layer 3 (Foreground)
//Storyboard Sound Samples

[TimingPoints]
156,410.958904109589,4,1,0,40,1,0
156,-125,4,1,0,40,0,0
25584,-125,4,1,0,50,0,0
25686,-121.951219512195,4,1,0,55,0,0
25789,-119.047619047619,4,1,0,60,0,0
25892,-116.279069767442,4,1,0,65,0,0
25995,-113.636363636364,4,1,0,70,0,0
26149,-106.382978723404,4,1,0,75,0,0
26354,-100,4,1,0,75,0,0
46080,-95.2380952380952,4,1,0,80,0,0
46697,-90.9090909090909,4,1,0,80,0,0
48084,-90.0900900900901,4,1,0,80,0,0
48186,-89.2857142857143,4,1,0,80,0,0
48289,-88.4955752212389,4,1,0,80,0,0
48392,-87.719298245614,4,1,0,80,0,0
48495,-86.9565217391304,4,1,0,80,0,0
48597,-86.2068965517241,4,1,0,80,0,0
48700,-85.4700854700855,4,1,0,80,0,0
48803,-84.7457627118644,4,1,0,80,0,0
48905,-84.0336134453781,4,1,0,80,0,0
49008,-83.3333333333333,4,1,0,80,0,0
49111,-82.6446280991736,4,1,0,80,0,0
49214,-81.9672131147541,4,1,0,80,0,0
49368,-76.9230769230769,4,1,0,80,0,0
49573,-76.9230769230769,4,1,0,75,0,0
49933,-78.125,4,1,0,75,0,0
50036,-79.3650793650794,4,1,0,75,0,0
50138,-80.6451612903226,4,1,0,75,0,0
50241,-81.9672131147541,4,1,0,75,0,0
50344,-83.3333333333333,4,1,0,75,0,0
51577,-90.9090909090909,4,1,0,75,0,0
51988,-92.5925925925926,4,1,0,75,0,0
52142,-94.3396226415094,4,1,0,75,0,0
52347,-96.1538461538461,4,1,0,75,0,0
52501,-98.0392156862745,4,1,0,75,0,0
52655,-100,4,1,0,80,0,0
65806,-95.2380952380952,4,1,0,80,0,0
72382,-90.9090909090909,4,1,0,81,0,0
73203,-86.9565217391304,4,1,0,82,0,0
74025,-83.3333333333333,4,1,0,83,0,0
74847,-80,4,1,0,84,0,0
75669,-76.9230769230769,4,1,0,85,0,0
77827,-76.9230769230769,4,1,0,80,0,0
77878,-77.5193798449612,4,1,0,80,0,0
77929,-78.125,4,1,0,80,0,0
77981,-79.3650793650794,4,1,0,80,0,0
78084,-80.6451612903226,4,1,0,80,0,0
78186,-81.9672131147541,4,1,0,80,0,0
78340,-84.7457627118644,4,1,0,80,0,0
78546,-87.719298245614,4,1,0,80,0,0
78957,-100,4,1,0,85,0,0
84864,-98.0392156862745,4,1,0,85,0,0
84967,-96.1538461538461,4,1,0,85,0,0
85070,-90.9090909090909,4,1,0,85,0,0
85275,-100,4,1,0,85,0,0
90721,-97.0873786407767,4,1,0,80,0,0
90823,-94.3396226415094,4,1,0,80,0,0
90977,-90.9090909090909,4,1,0,80,0,0
91234,-87.719298245614,4,1,0,80,0,0
91337,-85.4700854700855,4,1,0,80,0,0
91491,-82.6446280991736,4,1,0,80,0,0
91645,-80.6451612903226,4,1,0,80,0,0
91748,-78.7401574803149,4,1,0,80,0,0
91902,-84.0336134453781,4,1,0,80,0,0
92108,-90.9090909090909,4,1,0,85,0,0
98015,-90.0900900900901,4,1,0,85,0,0
98118,-89.2857142857143,4,1,0,85,0,0
98221,-88.4955752212389,4,1,0,85,0,0
98323,-87.719298245614,4,1,0,85,0,0
98426,-86.9565217391304,4,1,0,85,0,0
98529,-86.2068965517241,4,1,0,85,0,0
98683,-90.9090909090909,4,1,0,85,0,0
102176,-100,4,1,0,75,0,0
102536,-98.0392156862745,4,1,0,76,0,0
102638,-96.1538461538461,4,1,0,77,0,0
102741,-94.3396226415094,4,1,0,78,0,0
102844,-92.5925925925926,4,1,0,79,0,0
102947,-90.9090909090909,4,1,0,80,0,0
103049,-89.2857142857143,4,1,0,81,0,0
103152,-87.719298245614,4,1,0,82,0,0
103255,-86.2068965517241,4,1,0,83,0,0
103358,-84.7457627118644,4,1,0,84,0,0
103460,-83.3333333333333,4,1,0,75,0,0
103666,-80,4,1,0,85,0,0
104984,-81.3008130081301,4,1,0,85,0,0
105053,-82.6446280991736,4,1,0,85,0,0
105121,-84.0336134453781,4,1,0,85,0,0
105310,-90.9090909090909,4,1,0,85,0,0
105429,-90.9090909090909,4,1,0,85,0,0
124676,-90.9090909090909,4,1,0,80,0,0
125087,-90.9090909090909,4,1,0,85,0,0
131303,-90.0900900900901,4,1,0,86,0,0
131406,-89.2857142857143,4,1,0,87,0,0
131508,-88.4955752212389,4,1,0,87,0,0
131662,-87.719298245614,4,1,0,90,0,1
131765,-86.9565217391304,4,1,0,90,0,1
143991,-86.9565217391304,4,1,0,90,0,0
144813,-86.9565217391304,4,1,0,90,0,1
151388,-86.9565217391304,4,1,0,90,0,0
151799,-86.9565217391304,4,1,0,90,0,1
164128,-86.9565217391304,4,1,0,80,0,0
164539,-83.3333333333333,4,1,0,85,0,1
169573,-86.9565217391304,4,1,0,80,0,1
170344,-88.4955752212389,4,1,0,80,0,1
170447,-90.0900900900901,4,1,0,80,0,1
170549,-91.743119266055,4,1,0,80,0,1
170652,-93.4579439252336,4,1,0,80,0,1
170806,-96.1538461538461,4,1,0,80,0,1
171012,-100,4,1,0,80,0,1
171114,-100,4,1,0,85,0,0
184214,-95.2380952380952,4,1,0,90,0,0
190275,-93.4579439252336,4,1,0,90,0,0
190378,-91.743119266055,4,1,0,90,0,0
190481,-90.0900900900901,4,1,0,90,0,0
190584,-88.4955752212389,4,1,0,90,0,0
190686,-86.9565217391304,4,1,0,90,0,0
190789,-85.4700854700855,4,1,0,90,0,0
190892,-95.2380952380952,4,1,0,90,0,0
194128,-76.9230769230769,4,1,0,85,0,0
195823,-78.125,4,1,0,90,0,0
195926,-79.3650793650794,4,1,0,90,0,0
196029,-80.6451612903226,4,1,0,90,0,0
196132,-81.9672131147541,4,1,0,90,0,0
196234,-83.3333333333333,4,1,0,90,0,0
196337,-84.7457627118644,4,1,0,90,0,0
196440,-86.2068965517241,4,1,0,90,0,0
196542,-87.719298245614,4,1,0,90,0,0
196645,-89.2857142857143,4,1,0,90,0,0
196748,-90.9090909090909,4,1,0,90,0,0
196851,-92.5925925925926,4,1,0,90,0,0
196953,-94.3396226415094,4,1,0,90,0,0
197056,-96.1538461538461,4,1,0,90,0,0
197159,-98.0392156862745,4,1,0,90,0,0
197416,-86.9565217391304,4,1,0,95,0,1
208923,-86.9565217391304,4,1,0,95,0,0
210566,-86.9565217391304,4,1,0,95,0,1
223717,-86.9565217391304,4,1,0,80,0,0
223820,-93.4579439252336,4,1,0,75,0,0
225361,-93.4579439252336,4,1,0,70,0,0
225464,-97.0873786407767,4,1,0,70,0,0
227005,-97.0873786407767,4,1,0,65,0,0
227108,-102.040816326531,4,1,0,65,0,0
228649,-109.89010989011,4,1,0,60,0,0
230292,-119.047619047619,4,1,0,55,0,0
231936,-129.87012987013,4,1,0,50,0,0
233580,-129.87012987013,4,1,0,45,0,0
233683,-142.857142857143,4,1,0,45,0,0
275138,-136.986301369863,4,1,0,48,0,0
275241,-131.578947368421,4,1,0,51,0,0
275344,-126.582278481013,4,1,0,54,0,0
275447,-121.951219512195,4,1,0,57,0,0
275549,-117.647058823529,4,1,0,60,0,0
275652,-113.636363636364,4,1,0,63,0,0
275755,-109.89010989011,4,1,0,66,0,0
275858,-106.382978723404,4,1,0,69,0,0
276012,-103.092783505155,4,1,0,71,0,0
276217,-100,4,1,0,74,0,0
287827,-100,4,1,0,75,0,0
288084,-99.009900990099,4,1,0,76,0,0
288186,-98.0392156862745,4,1,0,77,0,0
288340,-95.2380952380952,4,1,0,78,0,0
288700,-94.3396226415094,4,1,0,79,0,0
288803,-93.4579439252336,4,1,0,80,0,0
288957,-90.9090909090909,4,1,0,80,0,0
289162,-93.4579439252336,4,1,0,80,0,0
289368,-95.2380952380952,4,1,0,80,0,0
302210,-93.4579439252336,4,1,0,80,0,0
302570,-90.9090909090909,4,1,0,80,0,0
309094,-86.9565217391304,4,1,0,80,0,0
309916,-83.3333333333333,4,1,0,80,0,0
310738,-80,4,1,0,80,0,0
311560,-76.9230769230769,4,1,0,80,0,0
312382,-74.0740740740741,4,1,0,80,0,0
314179,-83.3333333333333,4,1,0,75,0,0
314565,-84.0336134453781,4,1,0,80,0,0
314616,-84.7457627118644,4,1,0,80,0,0
314693,-85.4700854700855,4,1,0,80,0,0
314796,-86.2068965517241,4,1,0,80,0,0
314899,-86.9565217391304,4,1,0,80,0,0
315053,-88.4955752212389,4,1,0,80,0,0
315258,-90.0900900900901,4,1,0,80,0,0
315772,-80,4,1,0,95,0,1
335549,-78.7401574803149,4,1,0,95,0,1
335652,-77.5193798449612,4,1,0,95,0,1
335755,-76.3358778625954,4,1,0,95,0,1
335858,-75.187969924812,4,1,0,95,0,1
335960,-80,4,1,0,95,0,1
341765,-83.3333333333333,4,1,0,95,0,1
342073,-86.9565217391304,4,1,0,95,0,0
354762,-76.3358778625954,4,1,0,95,0,0
354864,-78.7401574803149,4,1,0,95,0,0
354967,-81.3008130081301,4,1,0,95,0,0
355070,-84.0336134453781,4,1,0,95,0,0
355173,-86.9565217391304,4,1,0,95,0,0
359847,-89.2857142857143,4,1,0,95,0,0
360053,-91.743119266055,4,1,0,95,0,0
360258,-95.2380952380952,4,1,0,95,0,0
360721,-90.9090909090909,4,1,0,95,0,0
361029,-86.9565217391304,4,1,0,95,0,0
361337,-83.3333333333333,4,1,0,95,0,0
361645,-80,4,1,0,95,0,0
362005,-55.5555555555556,4,1,0,95,0,0
362313,-86.9565217391304,4,1,0,95,0,0
366782,-87.719298245614,4,1,0,95,0,0
366885,-88.4955752212389,4,1,0,95,0,0
366988,-89.2857142857143,4,1,0,95,0,0
367090,-90.0900900900901,4,1,0,95,0,0
367193,-90.9090909090909,4,1,0,95,0,0
367296,-91.743119266055,4,1,0,95,0,0
367399,-92.5925925925926,4,1,0,95,0,0
367501,-93.4579439252336,4,1,0,95,0,0
367604,-94.3396226415094,4,1,0,95,0,0
367707,-95.2380952380952,4,1,0,95,0,0
367810,-96.1538461538461,4,1,0,95,0,0
367912,-97.0873786407767,4,1,0,95,0,0
368015,-98.0392156862745,4,1,0,95,0,0
368118,-99.009900990099,4,1,0,95,0,0
368221,-100,4,1,0,95,0,0
368323,-101.010101010101,4,1,0,95,0,0
374179,-98.0392156862745,4,1,0,85,0,0
374282,-96.1538461538461,4,1,0,85,0,0
374385,-90.9090909090909,4,1,0,85,0,0
374590,-100,4,1,0,85,0,0
387330,-99.009900990099,4,1,0,85,0,0
387433,-98.0392156862745,4,1,0,85,0,0
387536,-97.0873786407767,4,1,0,85,0,0
387638,-96.1538461538461,4,1,0,85,0,0
387741,-95.2380952380952,4,1,0,85,0,0
387844,-94.3396226415094,4,1,0,85,0,0
387998,-100,4,1,0,85,0,0
391491,-100,4,1,0,70,0,0
394779,-142.857142857143,4,1,0,50,0,0
401251,-142.857142857143,4,1,0,40,0,0
407827,-142.857142857143,4,1,0,30,0,0
414402,-142.857142857143,4,1,0,20,0,0
419334,-142.857142857143,4,1,0,10,0,0

[HitObjects]
256,192,156,5,0,0:0:0:0:
256,192,1799,1,0,0:0:0:0:
256,192,3443,1,0,0:0:0:0:
256,192,6731,1,8,0:0:0:0:
256,192,8375,1,8,0:0:0:0:
256,192,10019,1,8,0:0:0:0:
256,192,13306,1,0,0:0:0:0:
256,192,14950,1,0,0:0:0:0:
256,192,16594,1,0,0:0:0:0:
256,192,19882,1,0,0:0:0:0:
256,192,20703,1,8,0:0:0:0:
256,192,20909,1,0,0:0:0:0:
256,192,21114,1,0,0:0:0:0:
256,192,21217,1,8,0:0:0:0:
256,192,21525,1,0,0:0:0:0:
256,192,22142,1,0,0:0:0:0:
256,192,22245,1,0,0:0:0:0:
256,192,22347,1,8,0:0:0:0:
256,192,23169,1,0,0:0:0:0:
256,192,23786,1,0,0:0:0:0:
256,192,23991,1,8,0:0:0:0:
256,192,24197,1,0,0:0:0:0:
256,192,24505,1,0,0:0:0:0:
256,192,24813,1,0,0:0:0:0:
256,192,25019,1,8,0:0:0:0:
256,192,25224,1,0,0:0:0:0:
256,192,25429,1,8,0:0:0:0:
256,192,25635,1,0,0:0:0:0:
256,192,25738,1,0,0:0:0:0:
256,192,25840,1,0,0:0:0:0:
256,192,25943,1,0,0:0:0:0:
256,192,26046,1,8,0:0:0:0:
256,192,26251,1,8,0:0:0:0:
256,192,26457,1,4,0:0:0:0:
256,192,27484,1,0,0:0:0:0:
256,192,27587,1,0,0:0:0:0:
256,192,27690,1,8,0:0:0:0:
256,192,27895,1,8,0:0:0:0:
256,192,29334,1,8,0:0:0:0:
256,192,29745,1,0,0:0:0:0:
256,192,30361,1,0,0:0:0:0:
256,192,30429,1,0,0:0:0:0:
256,192,30498,1,0,0:0:0:0:
256,192,30566,1,8,0:0:0:0:
256,192,30772,1,0,0:0:0:0:
256,192,30875,1,0,0:0:0:0:
256,192,30977,1,8,0:0:0:0:
256,192,31388,1,0,0:0:0:0:
256,192,31799,1,8,0:0:0:0:
256,192,32005,1,8,0:0:0:0:
256,192,32210,1,8,0:0:0:0:
256,192,32416,1,0,0:0:0:0:
256,192,32519,1,0,0:0:0:0:
256,192,32621,1,8,0:0:0:0:
256,192,32827,1,0,0:0:0:0:
256,192,33032,1,4,0:0:0:0:
256,192,33854,1,8,0:0:0:0:
256,192,34060,1,0,0:0:0:0:
256,192,34162,1,0,0:0:0:0:
256,192,34265,1,8,0:0:0:0:
256,192,34471,1,8,0:0:0:0:
256,192,35909,1,8,0:0:0:0:
256,192,36320,1,0,0:0:0:0:
256,192,36731,1,0,0:0:0:0:
256,192,36936,1,8,0:0:0:0:
256,192,37142,1,8,0:0:0:0:
256,192,37347,1,0,0:0:0:0:
256,192,37450,1,0,0:0:0:0:
256,192,37553,1,8,0:0:0:0:
256,192,37964,1,4,0:0:0:0:
256,192,38169,1,0,0:0:0:0:
256,192,38272,1,0,0:0:0:0:
256,192,38375,1,8,0:0:0:0:
256,192,38580,1,4,0:0:0:0:
256,192,38786,1,0,0:0:0:0:
256,192,38888,1,0,0:0:0:0:
256,192,38991,1,8,0:0:0:0:
256,192,39197,1,4,0:0:0:0:
256,192,39402,1,8,0:0:0:0:
256,192,39608,1,4,0:0:0:0:
256,192,39813,1,0,0:0:0:0:
256,192,39916,1,8,0:0:0:0:
256,192,40121,1,8,0:0:0:0:
256,192,40224,1,0,0:0:0:0:
256,192,40327,1,0,0:0:0:0:
256,192,40429,1,8,0:0:0:0:
256,192,40635,1,0,0:0:0:0:
256,192,40840,1,8,0:0:0:0:
256,192,40943,1,0,0:0:0:0:
256,192,41149,1,0,0:0:0:0:
256,192,41251,1,8,0:0:0:0:
256,192,41457,1,0,0:0:0:0:
256,192,41560,1,8,0:0:0:0:
256,192,41765,1,8,0:0:0:0:
256,192,41868,1,0,0:0:0:0:
256,192,41971,1,8,0:0:0:0:
256,192,42073,1,8,0:0:0:0:
256,192,42279,1,0,0:0:0:0:
256,192,42484,1,8,0:0:0:0:
256,192,42895,1,8,0:0:0:0:
256,192,43101,1,0,0:0:0:0:
256,192,43203,1,8,0:0:0:0:
256,192,43409,1,8,0:0:0:0:
256,192,43512,1,0,0:0:0:0:
256,192,43614,1,0,0:0:0:0:
256,192,43717,1,8,0:0:0:0:
256,192,43923,1,0,0:0:0:0:
256,192,44128,1,8,0:0:0:0:
256,192,44231,1,0,0:0:0:0:
256,192,44436,1,0,0:0:0:0:
256,192,44539,1,8,0:0:0:0:
256,192,44745,1,0,0:0:0:0:
256,192,44847,1,8,0:0:0:0:
256,192,45053,1,8,0:0:0:0:
256,192,45156,1,0,0:0:0:0:
256,192,45258,1,8,0:0:0:0:
256,192,45361,1,8,0:0:0:0:
256,192,45566,1,0,0:0:0:0:
256,192,45772,1,8,0:0:0:0:
256,192,45977,1,0,0:0:0:0:
256,192,46183,1,4,0:0:0:0:
256,192,46388,1,0,0:0:0:0:
256,192,46491,1,0,0:0:0:0:
256,192,46594,1,8,0:0:0:0:
256,192,46799,1,4,0:0:0:0:
256,192,47005,1,8,0:0:0:0:
256,192,47108,1,8,0:0:0:0:
256,192,47210,1,0,0:0:0:0:
256,192,47416,1,8,0:0:0:0:
256,192,47519,1,0,0:0:0:0:
256,192,47724,1,0,0:0:0:0:
256,192,47827,1,8,0:0:0:0:
256,192,48032,5,0,0:0:0:0:
256,192,48135,1,0,0:0:0:0:
256,192,48238,1,0,0:0:0:0:
256,192,48340,1,8,0:0:0:0:
256,192,48443,1,0,0:0:0:0:
256,192,48546,1,0,0:0:0:0:
256,192,48649,1,8,0:0:0:0:
256,192,48751,1,0,0:0:0:0:
256,192,48854,1,8,0:0:0:0:
256,192,48957,1,0,0:0:0:0:
256,192,49060,1,8,0:0:0:0:
256,192,49162,1,8,0:0:0:0:
256,192,49265,1,0,0:0:0:0:
256,192,49471,1,4,0:0:0:0:
256,192,49882,1,0,0:0:0:0:
256,192,49984,1,0,0:0:0:0:
256,192,50087,1,0,0:0:0:0:
256,192,50190,1,0,0:0:0:0:
256,192,50292,1,8,0:0:0:0:
256,192,50499,1,0,0:0:0:0:
256,192,50601,1,8,0:0:0:0:
256,192,50806,1,0,0:0:0:0:
256,192,50909,1,8,0:0:0:0:
256,192,51114,1,8,0:0:0:0:
256,192,51320,1,0,0:0:0:0:
256,192,51525,1,8,0:0:0:0:
256,192,51936,1,0,0:0:0:0:
256,192,52039,1,0,0:0:0:0:
256,192,52245,1,8,0:0:0:0:
256,192,52450,1,8,0:0:0:0:
256,192,52553,1,0,0:0:0:0:
256,192,52758,1,4,0:0:0:0:
256,192,52964,1,8,0:0:0:0:
256,192,53066,1,8,0:0:0:0:
256,192,53272,1,8,0:0:0:0:
256,192,53477,1,8,0:0:0:0:
256,192,53580,1,0,0:0:0:0:
256,192,53786,1,0,0:0:0:0:
256,192,53888,1,8,0:0:0:0:
256,192,54094,1,0,0:0:0:0:
256,192,54197,1,8,0:0:0:0:
256,192,54402,1,0,0:0:0:0:
256,192,54608,1,8,0:0:0:0:
256,192,54710,1,8,0:0:0:0:
256,192,54813,1,0,0:0:0:0:
256,192,55019,1,8,0:0:0:0:
256,192,55224,1,0,0:0:0:0:
256,192,55327,1,8,0:0:0:0:
256,192,55429,1,8,0:0:0:0:
256,192,55635,1,0,0:0:0:0:
256,192,55738,1,8,0:0:0:0:
256,192,55840,1,8,0:0:0:0:
256,192,55943,1,8,0:0:0:0:
256,192,56046,1,0,0:0:0:0:
256,192,56251,1,0,0:0:0:0:
256,192,56354,1,8,0:0:0:0:
256,192,56560,1,8,0:0:0:0:
256,192,56765,1,8,0:0:0:0:
256,192,56868,1,8,0:0:0:0:
256,192,57073,1,0,0:0:0:0:
256,192,57176,1,8,0:0:0:0:
256,192,57382,1,0,0:0:0:0:
256,192,57484,1,8,0:0:0:0:
256,192,57690,1,0,0:0:0:0:
256,192,57895,1,8,0:0:0:0:
256,192,57998,1,8,0:0:0:0:
256,192,58101,1,0,0:0:0:0:
256,192,58306,1,8,0:0:0:0:
256,192,58512,1,0,0:0:0:0:
256,192,58614,1,8,0:0:0:0:
256,192,58717,1,8,0:0:0:0:
256,192,58923,1,8,0:0:0:0:
256,192,59025,1,0,0:0:0:0:
256,192,59128,1,8,0:0:0:0:
256,192,59231,1,8,0:0:0:0:
256,192,59334,1,0,0:0:0:0:
256,192,59539,1,0,0:0:0:0:
256,192,59642,1,8,0:0:0:0:
256,192,59847,1,8,0:0:0:0:
256,192,60053,1,0,0:0:0:0:
256,192,60155,1,8,0:0:0:0:
256,192,60361,1,8,0:0:0:0:
256,192,60464,1,8,0:0:0:0:
256,192,60669,1,0,0:0:0:0:
256,192,60772,1,8,0:0:0:0:
256,192,60977,1,0,0:0:0:0:
256,192,61183,1,8,0:0:0:0:
256,192,61286,1,8,0:0:0:0:
256,192,61388,1,0,0:0:0:0:
256,192,61594,1,8,0:0:0:0:
256,192,61799,1,0,0:0:0:0:
256,192,61902,1,8,0:0:0:0:
256,192,62005,1,8,0:0:0:0:
256,192,62210,1,8,0:0:0:0:
256,192,62313,1,8,0:0:0:0:
256,192,62416,1,0,0:0:0:0:
256,192,62519,1,0,0:0:0:0:
256,192,62621,1,8,0:0:0:0:
256,192,62827,1,0,0:0:0:0:
256,192,62929,1,8,0:0:0:0:
256,192,63135,1,0,0:0:0:0:
256,192,63340,1,8,0:0:0:0:
256,192,63443,1,8,0:0:0:0:
256,192,63649,1,0,0:0:0:0:
256,192,63751,1,8,0:0:0:0:
256,192,63957,1,0,0:0:0:0:
256,192,64060,1,8,0:0:0:0:
256,192,64162,1,8,0:0:0:0:
256,192,64265,1,0,0:0:0:0:
256,192,64471,1,8,0:0:0:0:
256,192,64573,1,8,0:0:0:0:
256,192,64676,1,0,0:0:0:0:
256,192,64882,1,8,0:0:0:0:
256,192,65087,1,0,0:0:0:0:
256,192,65292,1,8,0:0:0:0:
256,192,65395,1,8,0:0:0:0:
256,192,65498,1,0,0:0:0:0:
256,192,65703,1,8,0:0:0:0:
256,192,65909,1,4,0:0:0:0:
256,192,66114,1,8,0:0:0:0:
256,192,66320,1,8,0:0:0:0:
256,192,66525,1,8,0:0:0:0:
256,192,66731,1,0,0:0:0:0:
256,192,66834,1,8,0:0:0:0:
256,192,66936,1,0,0:0:0:0:
256,192,67039,1,8,0:0:0:0:
256,192,67142,1,0,0:0:0:0:
256,192,67347,1,8,0:0:0:0:
256,192,67553,1,0,0:0:0:0:
256,192,67656,1,8,0:0:0:0:
256,192,67758,1,8,0:0:0:0:
256,192,67861,1,8,0:0:0:0:
256,192,67964,1,0,0:0:0:0:
256,192,68169,1,8,0:0:0:0:
256,192,68375,1,0,0:0:0:0:
256,192,68477,1,8,0:0:0:0:
256,192,68580,1,0,0:0:0:0:
256,192,68683,1,0,0:0:0:0:
256,192,68786,1,8,0:0:0:0:
256,192,68991,1,8,0:0:0:0:
256,192,69197,1,0,0:0:0:0:
256,192,69402,1,8,0:0:0:0:
256,192,69608,1,8,0:0:0:0:
256,192,69813,1,8,0:0:0:0:
256,192,70019,1,0,0:0:0:0:
256,192,70121,1,8,0:0:0:0:
256,192,70224,1,0,0:0:0:0:
256,192,70327,1,8,0:0:0:0:
256,192,70429,1,0,0:0:0:0:
256,192,70635,1,8,0:0:0:0:
256,192,70840,1,0,0:0:0:0:
256,192,70943,1,8,0:0:0:0:
256,192,71046,1,8,0:0:0:0:
256,192,71149,1,8,0:0:0:0:
256,192,71251,1,0,0:0:0:0:
256,192,71457,1,8,0:0:0:0:
256,192,71662,1,0,0:0:0:0:
256,192,71765,1,8,0:0:0:0:
256,192,71868,1,0,0:0:0:0:
256,192,71971,1,0,0:0:0:0:
256,192,72073,1,8,0:0:0:0:
256,192,72279,1,8,0:0:0:0:
256,192,72484,1,4,0:0:0:0:
256,192,72690,1,8,0:0:0:0:
256,192,72792,1,0,0:0:0:0:
256,192,72895,1,0,0:0:0:0:
256,192,72998,1,0,0:0:0:0:
256,192,73101,1,8,0:0:0:0:
256,192,73306,1,4,0:0:0:0:
256,192,73512,1,8,0:0:0:0:
256,192,73614,1,0,0:0:0:0:
256,192,73717,1,0,0:0:0:0:
256,192,73820,1,8,0:0:0:0:
256,192,73923,1,8,0:0:0:0:
256,192,74128,1,4,0:0:0:0:
256,192,74334,1,8,0:0:0:0:
256,192,74436,1,0,0:0:0:0:
256,192,74539,1,8,0:0:0:0:
256,192,74642,1,8,0:0:0:0:
256,192,74745,1,8,0:0:0:0:
256,192,74950,1,4,0:0:0:0:
256,192,75156,1,8,0:0:0:0:
256,192,75258,1,8,0:0:0:0:
256,192,75361,1,8,0:0:0:0:
256,192,75464,1,8,0:0:0:0:
256,192,75566,1,8,0:0:0:0:
256,192,75772,1,0,0:0:0:0:
256,192,75840,1,0,0:0:0:0:
256,192,75909,1,0,0:0:0:0:
256,192,75977,1,8,0:0:0:0:
256,192,76080,1,8,0:0:0:0:
256,192,76183,1,0,0:0:0:0:
256,192,76251,1,0,0:0:0:0:
256,192,76320,1,0,0:0:0:0:
256,192,76388,1,8,0:0:0:0:
256,192,76491,1,8,0:0:0:0:
256,192,76594,1,0,0:0:0:0:
256,192,76662,1,0,0:0:0:0:
256,192,76731,1,0,0:0:0:0:
256,192,76799,1,8,0:0:0:0:
256,192,76902,1,0,0:0:0:0:
256,192,77005,1,8,0:0:0:0:
256,192,77073,1,8,0:0:0:0:
256,192,77142,1,0,0:0:0:0:
256,192,77210,1,8,0:0:0:0:
256,192,77279,1,8,0:0:0:0:
256,192,77347,1,8,0:0:0:0:
256,192,77416,1,0,0:0:0:0:
256,192,77827,1,8,0:0:0:0:
256,192,77878,1,8,0:0:0:0:
256,192,77929,1,8,0:0:0:0:
256,192,78032,1,8,0:0:0:0:
256,192,78135,1,8,0:0:0:0:
256,192,78238,1,8,0:0:0:0:
256,192,78443,1,0,0:0:0:0:
256,192,78649,1,12,0:0:0:0:
256,192,79060,1,4,0:0:0:0:
256,192,79265,1,0,0:0:0:0:
256,192,79471,1,8,0:0:0:0:
256,192,79676,1,0,0:0:0:0:
256,192,79882,1,8,0:0:0:0:
256,192,79984,1,0,0:0:0:0:
256,192,80087,1,0,0:0:0:0:
256,192,80190,1,0,0:0:0:0:
256,192,80292,1,8,0:0:0:0:
256,192,80601,1,8,0:0:0:0:
256,192,80703,1,0,0:0:0:0:
256,192,80909,1,0,0:0:0:0:
256,192,81114,1,8,0:0:0:0:
256,192,81320,1,8,0:0:0:0:
256,192,81525,1,0,0:0:0:0:
256,192,81628,1,0,0:0:0:0:
256,192,81731,1,0,0:0:0:0:
256,192,81834,1,0,0:0:0:0:
256,192,81936,1,8,0:0:0:0:
256,192,82142,1,0,0:0:0:0:
256,192,82347,1,0,0:0:0:0:
256,192,82553,1,0,0:0:0:0:
256,192,82758,1,8,0:0:0:0:
256,192,82964,1,0,0:0:0:0:
256,192,83169,1,8,0:0:0:0:
256,192,83272,1,0,0:0:0:0:
256,192,83375,1,0,0:0:0:0:
256,192,83477,1,0,0:0:0:0:
256,192,83580,1,8,0:0:0:0:
256,192,83888,1,8,0:0:0:0:
256,192,83991,1,0,0:0:0:0:
256,192,84197,1,0,0:0:0:0:
256,192,84402,1,8,0:0:0:0:
256,192,84608,1,0,0:0:0:0:
256,192,84813,1,0,0:0:0:0:
256,192,84916,1,0,0:0:0:0:
256,192,85019,1,8,0:0:0:0:
256,192,85224,1,8,0:0:0:0:
256,192,85635,1,4,0:0:0:0:
256,192,85840,1,0,0:0:0:0:
256,192,86046,1,8,0:0:0:0:
256,192,86251,1,0,0:0:0:0:
256,192,86457,1,8,0:0:0:0:
256,192,86560,1,8,0:0:0:0:
256,192,86662,1,0,0:0:0:0:
256,192,86765,1,0,0:0:0:0:
256,192,86868,1,8,0:0:0:0:
256,192,87176,1,8,0:0:0:0:
256,192,87279,1,0,0:0:0:0:
256,192,87484,1,0,0:0:0:0:
256,192,87690,1,8,0:0:0:0:
256,192,87895,1,8,0:0:0:0:
256,192,88101,1,0,0:0:0:0:
256,192,88203,1,0,0:0:0:0:
256,192,88306,1,8,0:0:0:0:
256,192,88409,1,0,0:0:0:0:
256,192,88512,1,8,0:0:0:0:
256,192,88717,1,8,0:0:0:0:
256,192,88820,1,8,0:0:0:0:
256,192,88923,1,0,0:0:0:0:
256,192,89128,1,0,0:0:0:0:
256,192,89334,1,8,0:0:0:0:
256,192,89539,1,0,0:0:0:0:
256,192,89745,1,8,0:0:0:0:
256,192,89847,1,8,0:0:0:0:
256,192,89950,1,0,0:0:0:0:
256,192,90053,1,0,0:0:0:0:
256,192,90156,1,8,0:0:0:0:
256,192,90464,1,8,0:0:0:0:
256,192,90566,1,0,0:0:0:0:
256,192,90772,5,0,0:0:0:0:
256,192,90875,1,8,0:0:0:0:
256,192,91080,1,8,0:0:0:0:
256,192,91286,1,0,0:0:0:0:
256,192,91388,1,8,0:0:0:0:
256,192,91594,1,0,0:0:0:0:
256,192,91697,1,0,0:0:0:0:
256,192,91799,1,8,0:0:0:0:
256,192,92005,1,8,0:0:0:0:
256,192,92210,1,4,0:0:0:0:
256,192,92416,1,0,0:0:0:0:
256,192,92621,1,8,0:0:0:0:
256,192,92827,1,0,0:0:0:0:
256,192,92895,1,0,0:0:0:0:
256,192,92964,1,0,0:0:0:0:
256,192,93032,1,8,0:0:0:0:
256,192,93238,1,0,0:0:0:0:
256,192,93340,1,8,0:0:0:0:
256,192,93546,1,0,0:0:0:0:
256,192,93649,1,8,0:0:0:0:
256,192,93854,1,0,0:0:0:0:
256,192,94060,1,0,0:0:0:0:
256,192,94265,1,8,0:0:0:0:
256,192,94471,1,0,0:0:0:0:
256,192,94676,1,8,0:0:0:0:
256,192,94779,1,8,0:0:0:0:
256,192,94882,1,0,0:0:0:0:
256,192,94984,1,0,0:0:0:0:
256,192,95087,1,8,0:0:0:0:
256,192,95292,1,0,0:0:0:0:
256,192,95498,1,0,0:0:0:0:
256,192,95703,1,0,0:0:0:0:
256,192,95909,1,8,0:0:0:0:
256,192,96114,1,8,0:0:0:0:
256,192,96183,1,0,0:0:0:0:
256,192,96251,1,0,0:0:0:0:
256,192,96320,1,8,0:0:0:0:
256,192,96525,1,0,0:0:0:0:
256,192,96628,1,8,0:0:0:0:
256,192,96834,1,0,0:0:0:0:
256,192,96936,1,8,0:0:0:0:
256,192,97142,1,0,0:0:0:0:
256,192,97347,1,8,0:0:0:0:
256,192,97450,1,0,0:0:0:0:
256,192,97553,1,8,0:0:0:0:
256,192,97758,1,0,0:0:0:0:
256,192,97861,1,8,0:0:0:0:
256,192,97964,1,0,0:0:0:0:
256,192,98066,1,0,0:0:0:0:
256,192,98169,1,8,0:0:0:0:
256,192,98272,1,0,0:0:0:0:
256,192,98375,1,8,0:0:0:0:
256,192,98477,1,0,0:0:0:0:
256,192,98580,1,8,0:0:0:0:
256,192,98786,1,4,0:0:0:0:
256,192,98991,1,0,0:0:0:0:
256,192,99197,1,8,0:0:0:0:
256,192,99402,1,8,0:0:0:0:
256,192,99471,1,8,0:0:0:0:
256,192,99539,1,8,0:0:0:0:
256,192,99608,1,0,0:0:0:0:
256,192,99813,1,0,0:0:0:0:
256,192,99916,1,8,0:0:0:0:
256,192,100121,1,0,0:0:0:0:
256,192,100224,1,8,0:0:0:0:
256,192,100429,1,0,0:0:0:0:
256,192,100635,1,0,0:0:0:0:
256,192,100840,1,8,0:0:0:0:
256,192,101046,1,0,0:0:0:0:
256,192,101114,1,8,0:0:0:0:
256,192,101183,1,8,0:0:0:0:
256,192,101251,1,0,0:0:0:0:
256,192,101457,1,8,0:0:0:0:
256,192,101560,1,0,0:0:0:0:
256,192,101765,1,8,0:0:0:0:
256,192,101868,1,0,0:0:0:0:
256,192,102073,1,4,0:0:0:0:
256,192,102484,5,8,0:0:0:0:
256,192,102587,1,0,0:0:0:0:
256,192,102690,1,8,0:0:0:0:
256,192,102792,1,8,0:0:0:0:
256,192,102895,1,0,0:0:0:0:
256,192,102998,1,8,0:0:0:0:
256,192,103101,1,8,0:0:0:0:
256,192,103203,1,0,0:0:0:0:
256,192,103306,1,8,0:0:0:0:
256,192,103409,1,8,0:0:0:0:
256,192,103512,1,0,0:0:0:0:
256,192,103717,1,4,0:0:0:0:
256,192,103923,1,0,0:0:0:0:
256,192,104025,1,0,0:0:0:0:
256,192,104128,1,8,0:0:0:0:
256,192,104334,1,0,0:0:0:0:
256,192,104436,1,8,0:0:0:0:
256,192,104539,1,0,0:0:0:0:
256,192,104642,1,8,0:0:0:0:
256,192,104745,1,8,0:0:0:0:
256,192,104950,1,8,0:0:0:0:
256,192,105019,1,8,0:0:0:0:
256,192,105087,1,8,0:0:0:0:
256,192,105156,1,0,0:0:0:0:
256,192,105361,1,4,0:0:0:0:
256,192,105566,1,8,0:0:0:0:
256,192,105669,1,8,0:0:0:0:
256,192,105772,1,0,0:0:0:0:
256,192,105977,1,8,0:0:0:0:
256,192,106183,1,0,0:0:0:0:
256,192,106286,1,8,0:0:0:0:
256,192,106388,1,8,0:0:0:0:
256,192,106491,1,0,0:0:0:0:
256,192,106594,1,8,0:0:0:0:
256,192,106799,1,8,0:0:0:0:
256,192,107005,1,0,0:0:0:0:
256,192,107210,1,8,0:0:0:0:
256,192,107313,1,8,0:0:0:0:
256,192,107416,1,0,0:0:0:0:
256,192,107621,1,8,0:0:0:0:
256,192,107827,1,0,0:0:0:0:
256,192,107929,1,8,0:0:0:0:
256,192,108032,1,8,0:0:0:0:
256,192,108135,1,8,0:0:0:0:
256,192,108238,1,0,0:0:0:0:
256,192,108443,1,8,0:0:0:0:
256,192,108649,1,0,0:0:0:0:
256,192,108854,1,8,0:0:0:0:
256,192,108957,1,0,0:0:0:0:
256,192,109060,1,8,0:0:0:0:
256,192,109265,1,8,0:0:0:0:
256,192,109471,1,0,0:0:0:0:
256,192,109573,1,8,0:0:0:0:
256,192,109676,1,8,0:0:0:0:
256,192,109779,1,0,0:0:0:0:
256,192,109882,1,8,0:0:0:0:
256,192,110087,1,8,0:0:0:0:
256,192,110292,1,0,0:0:0:0:
256,192,110498,1,8,0:0:0:0:
256,192,110601,1,0,0:0:0:0:
256,192,110703,1,8,0:0:0:0:
256,192,110909,1,8,0:0:0:0:
256,192,111114,1,0,0:0:0:0:
256,192,111217,1,0,0:0:0:0:
256,192,111320,1,8,0:0:0:0:
256,192,111423,1,8,0:0:0:0:
256,192,111525,1,8,0:0:0:0:
256,192,111731,1,8,0:0:0:0:
256,192,111936,1,4,0:0:0:0:
256,192,112142,1,0,0:0:0:0:
256,192,112347,1,8,0:0:0:0:
256,192,112553,1,0,0:0:0:0:
256,192,112758,1,8,0:0:0:0:
256,192,112861,1,8,0:0:0:0:
256,192,112964,1,0,0:0:0:0:
256,192,113066,1,0,0:0:0:0:
256,192,113169,1,8,0:0:0:0:
256,192,113375,1,8,0:0:0:0:
256,192,113580,1,0,0:0:0:0:
256,192,113786,1,8,0:0:0:0:
256,192,113888,1,0,0:0:0:0:
256,192,113991,1,8,0:0:0:0:
256,192,114197,1,8,0:0:0:0:
256,192,114402,1,0,0:0:0:0:
256,192,114505,1,8,0:0:0:0:
256,192,114608,1,8,0:0:0:0:
256,192,114710,1,0,0:0:0:0:
256,192,114813,1,8,0:0:0:0:
256,192,115019,1,8,0:0:0:0:
256,192,115224,1,0,0:0:0:0:
256,192,115429,1,0,0:0:0:0:
256,192,115635,1,8,0:0:0:0:
256,192,115840,1,0,0:0:0:0:
256,192,116046,1,0,0:0:0:0:
256,192,116149,1,8,0:0:0:0:
256,192,116251,1,0,0:0:0:0:
256,192,116354,1,0,0:0:0:0:
256,192,116457,1,8,0:0:0:0:
256,192,116662,1,8,0:0:0:0:
256,192,116868,1,0,0:0:0:0:
256,192,117073,1,8,0:0:0:0:
256,192,117176,1,0,0:0:0:0:
256,192,117279,1,8,0:0:0:0:
256,192,117484,1,0,0:0:0:0:
256,192,117690,1,4,0:0:0:0:
256,192,117998,1,4,0:0:0:0:
256,192,118306,1,4,0:0:0:0:
256,192,118512,1,4,0:0:0:0:
256,192,118717,1,0,0:0:0:0:
256,192,118820,1,8,0:0:0:0:
256,192,118923,1,0,0:0:0:0:
256,192,119128,1,8,0:0:0:0:
256,192,119334,1,0,0:0:0:0:
256,192,119436,1,8,0:0:0:0:
256,192,119539,1,8,0:0:0:0:
256,192,119642,1,8,0:0:0:0:
256,192,119745,1,0,0:0:0:0:
256,192,119950,1,8,0:0:0:0:
256,192,120155,1,0,0:0:0:0:
256,192,120361,1,0,0:0:0:0:
256,192,120464,1,8,0:0:0:0:
256,192,120566,1,0,0:0:0:0:
256,192,120772,1,8,0:0:0:0:
256,192,120977,1,0,0:0:0:0:
256,192,121080,1,0,0:0:0:0:
256,192,121183,1,8,0:0:0:0:
256,192,121286,1,0,0:0:0:0:
256,192,121388,1,8,0:0:0:0:
256,192,121594,1,8,0:0:0:0:
256,192,121799,1,0,0:0:0:0:
256,192,122005,1,8,0:0:0:0:
256,192,122108,1,8,0:0:0:0:
256,192,122210,1,0,0:0:0:0:
256,192,122416,1,8,0:0:0:0:
256,192,122621,1,0,0:0:0:0:
256,192,122724,1,0,0:0:0:0:
256,192,122827,1,0,0:0:0:0:
256,192,122929,1,0,0:0:0:0:
256,192,123032,1,8,0:0:0:0:
256,192,123238,1,8,0:0:0:0:
256,192,123443,1,0,0:0:0:0:
256,192,123649,1,8,0:0:0:0:
256,192,123751,1,8,0:0:0:0:
256,192,123854,1,0,0:0:0:0:
256,192,124060,1,8,0:0:0:0:
256,192,124265,1,0,0:0:0:0:
256,192,124368,1,8,0:0:0:0:
256,192,124471,1,8,0:0:0:0:
256,192,124573,1,8,0:0:0:0:
256,192,124676,1,0,0:0:0:0:
256,192,124779,1,0,0:0:0:0:
256,192,124882,1,8,0:0:0:0:
256,192,124984,1,8,0:0:0:0:
256,192,125087,1,4,0:0:0:0:
256,192,125292,1,0,0:0:0:0:
256,192,125395,1,8,0:0:0:0:
256,192,125498,1,0,0:0:0:0:
256,192,125703,1,8,0:0:0:0:
256,192,125909,1,0,0:0:0:0:
256,192,126012,1,8,0:0:0:0:
256,192,126114,1,8,0:0:0:0:
256,192,126217,1,0,0:0:0:0:
256,192,126320,1,8,0:0:0:0:
256,192,126525,1,0,0:0:0:0:
256,192,126731,1,4,0:0:0:0:
256,192,126936,1,0,0:0:0:0:
256,192,127039,1,8,0:0:0:0:
256,192,127142,1,0,0:0:0:0:
256,192,127347,1,8,0:0:0:0:
256,192,127553,1,0,0:0:0:0:
256,192,127655,1,0,0:0:0:0:
256,192,127758,1,8,0:0:0:0:
256,192,127861,1,0,0:0:0:0:
256,192,127964,1,8,0:0:0:0:
256,192,128169,1,8,0:0:0:0:
256,192,128272,1,8,0:0:0:0:
256,192,128375,1,4,0:0:0:0:
256,192,128580,1,0,0:0:0:0:
256,192,128683,1,0,0:0:0:0:
256,192,128786,1,8,0:0:0:0:
256,192,128991,1,4,0:0:0:0:
256,192,129299,1,4,0:0:0:0:
256,192,129608,1,4,0:0:0:0:
256,192,129813,1,4,0:0:0:0:
256,192,130019,1,4,0:0:0:0:
256,192,130840,1,8,0:0:0:0:
256,192,131046,1,0,0:0:0:0:
256,192,131251,1,8,0:0:0:0:
256,192,131354,1,8,0:0:0:0:
256,192,131457,1,8,0:0:0:0:
256,192,131560,1,8,0:0:0:0:
256,192,131662,1,4,0:0:0:0:
256,192,131868,1,8,0:0:0:0:
256,192,132073,1,0,0:0:0:0:
256,192,132279,1,8,0:0:0:0:
256,192,132382,1,8,0:0:0:0:
256,192,132484,1,0,0:0:0:0:
256,192,132587,1,0,0:0:0:0:
256,192,132690,1,8,0:0:0:0:
256,192,132792,1,0,0:0:0:0:
256,192,132895,1,8,0:0:0:0:
256,192,132998,1,0,0:0:0:0:
256,192,133101,1,8,0:0:0:0:
256,192,133203,1,8,0:0:0:0:
256,192,133306,1,0,0:0:0:0:
256,192,133512,1,8,0:0:0:0:
256,192,133717,1,0,0:0:0:0:
256,192,133923,1,8,0:0:0:0:
256,192,134025,1,8,0:0:0:0:
256,192,134128,1,8,0:0:0:0:
256,192,134231,1,0,0:0:0:0:
256,192,134334,1,0,0:0:0:0:
256,192,134436,1,0,0:0:0:0:
256,192,134539,1,8,0:0:0:0:
256,192,134642,1,0,0:0:0:0:
256,192,134745,1,8,0:0:0:0:
256,192,134847,1,8,0:0:0:0:
256,192,134950,1,0,0:0:0:0:
256,192,135156,1,8,0:0:0:0:
256,192,135361,1,0,0:0:0:0:
256,192,135566,1,8,0:0:0:0:
256,192,135669,1,8,0:0:0:0:
256,192,135772,1,0,0:0:0:0:
256,192,135875,1,8,0:0:0:0:
256,192,135977,1,0,0:0:0:0:
256,192,136080,1,0,0:0:0:0:
256,192,136183,1,8,0:0:0:0:
256,192,136286,1,0,0:0:0:0:
256,192,136388,1,8,0:0:0:0:
256,192,136491,1,8,0:0:0:0:
256,192,136594,1,0,0:0:0:0:
256,192,136799,1,8,0:0:0:0:
256,192,137005,1,0,0:0:0:0:
256,192,137210,1,0,0:0:0:0:
256,192,137313,1,8,0:0:0:0:
256,192,137416,1,8,0:0:0:0:
256,192,137519,1,0,0:0:0:0:
256,192,137621,1,0,0:0:0:0:
256,192,137724,1,0,0:0:0:0:
256,192,137827,1,8,0:0:0:0:
256,192,137929,1,0,0:0:0:0:
256,192,138032,1,8,0:0:0:0:
256,192,138135,1,8,0:0:0:0:
256,192,138238,1,0,0:0:0:0:
256,192,138443,1,8,0:0:0:0:
256,192,138649,1,0,0:0:0:0:
256,192,138854,1,8,0:0:0:0:
256,192,138957,1,8,0:0:0:0:
256,192,139060,1,0,0:0:0:0:
256,192,139162,1,0,0:0:0:0:
256,192,139265,1,8,0:0:0:0:
256,192,139368,1,8,0:0:0:0:
256,192,139471,1,0,0:0:0:0:
256,192,139573,1,0,0:0:0:0:
256,192,139676,1,8,0:0:0:0:
256,192,139779,1,8,0:0:0:0:
256,192,139882,1,0,0:0:0:0:
256,192,140087,1,8,0:0:0:0:
256,192,140292,1,0,0:0:0:0:
256,192,140498,1,8,0:0:0:0:
256,192,140601,1,0,0:0:0:0:
256,192,140703,1,0,0:0:0:0:
256,192,140806,1,8,0:0:0:0:
256,192,140909,1,0,0:0:0:0:
256,192,141012,1,0,0:0:0:0:
256,192,141114,1,8,0:0:0:0:
256,192,141217,1,0,0:0:0:0:
256,192,141320,1,8,0:0:0:0:
256,192,141423,1,8,0:0:0:0:
256,192,141525,1,0,0:0:0:0:
256,192,141731,1,8,0:0:0:0:
256,192,141936,1,0,0:0:0:0:
256,192,142142,1,8,0:0:0:0:
256,192,142245,1,8,0:0:0:0:
256,192,142347,1,0,0:0:0:0:
256,192,142450,1,0,0:0:0:0:
256,192,142553,1,8,0:0:0:0:
256,192,142656,1,0,0:0:0:0:
256,192,142758,1,8,0:0:0:0:
256,192,142861,1,0,0:0:0:0:
256,192,142964,1,0,0:0:0:0:
256,192,143169,1,12,0:0:0:0:
256,192,143375,1,0,0:0:0:0:
256,192,143580,1,12,0:0:0:0:
256,192,143786,1,0,0:0:0:0:
256,192,143991,1,12,0:0:0:0:
256,192,144197,1,0,0:0:0:0:
256,192,144402,1,8,0:0:0:0:
256,192,144453,1,8,0:0:0:0:
256,192,144505,1,8,0:0:0:0:
256,192,144608,1,8,0:0:0:0:
256,192,144710,1,8,0:0:0:0:
256,192,144813,1,4,0:0:0:0:
256,192,145019,1,8,0:0:0:0:
256,192,145224,1,0,0:0:0:0:
256,192,145429,1,8,0:0:0:0:
256,192,145532,1,8,0:0:0:0:
256,192,145635,1,0,0:0:0:0:
256,192,145738,1,0,0:0:0:0:
256,192,145840,1,8,0:0:0:0:
256,192,145943,1,8,0:0:0:0:
256,192,146046,1,0,0:0:0:0:
256,192,146149,1,0,0:0:0:0:
256,192,146251,1,8,0:0:0:0:
256,192,146354,1,8,0:0:0:0:
256,192,146457,1,0,0:0:0:0:
256,192,146560,1,0,0:0:0:0:
256,192,146662,1,8,0:0:0:0:
256,192,146868,1,0,0:0:0:0:
256,192,147073,1,8,0:0:0:0:
256,192,147176,1,8,0:0:0:0:
256,192,147279,1,8,0:0:0:0:
256,192,147382,1,0,0:0:0:0:
256,192,147484,1,0,0:0:0:0:
256,192,147587,1,0,0:0:0:0:
256,192,147690,1,8,0:0:0:0:
256,192,147792,1,0,0:0:0:0:
256,192,147895,1,8,0:0:0:0:
256,192,147998,1,8,0:0:0:0:
256,192,148101,1,0,0:0:0:0:
256,192,148203,1,0,0:0:0:0:
256,192,148306,1,8,0:0:0:0:
256,192,148512,1,0,0:0:0:0:
256,192,148717,1,8,0:0:0:0:
256,192,148820,1,8,0:0:0:0:
256,192,148923,1,0,0:0:0:0:
256,192,149025,1,8,0:0:0:0:
256,192,149128,1,0,0:0:0:0:
256,192,149231,1,0,0:0:0:0:
256,192,149334,1,8,0:0:0:0:
256,192,149436,1,0,0:0:0:0:
256,192,149539,1,8,0:0:0:0:
256,192,149642,1,8,0:0:0:0:
256,192,149745,1,0,0:0:0:0:
256,192,149847,1,0,0:0:0:0:
256,192,149950,1,8,0:0:0:0:
256,192,150156,1,0,0:0:0:0:
256,192,150361,1,0,0:0:0:0:
256,192,150464,1,8,0:0:0:0:
256,192,150566,1,8,0:0:0:0:
256,192,150669,1,0,0:0:0:0:
256,192,150772,1,0,0:0:0:0:
256,192,150875,1,0,0:0:0:0:
256,192,150977,1,8,0:0:0:0:
256,192,151080,1,0,0:0:0:0:
256,192,151183,1,8,0:0:0:0:
256,192,151286,1,8,0:0:0:0:
256,192,151388,1,0,0:0:0:0:
256,192,151594,1,8,0:0:0:0:
256,192,151697,1,0,0:0:0:0:
256,192,151799,1,0,0:0:0:0:
256,192,152005,1,8,0:0:0:0:
256,192,152108,1,8,0:0:0:0:
256,192,152210,1,0,0:0:0:0:
256,192,152313,1,8,0:0:0:0:
256,192,152416,1,8,0:0:0:0:
256,192,152519,1,8,0:0:0:0:
256,192,152621,1,0,0:0:0:0:
256,192,152724,1,0,0:0:0:0:
256,192,152827,1,8,0:0:0:0:
256,192,152929,1,8,0:0:0:0:
256,192,153032,1,0,0:0:0:0:
256,192,153135,1,0,0:0:0:0:
256,192,153238,1,8,0:0:0:0:
256,192,153443,1,0,0:0:0:0:
256,192,153649,1,8,0:0:0:0:
256,192,153751,1,8,0:0:0:0:
256,192,153854,1,8,0:0:0:0:
256,192,153957,1,0,0:0:0:0:
256,192,154060,1,0,0:0:0:0:
256,192,154162,1,0,0:0:0:0:
256,192,154265,1,8,0:0:0:0:
256,192,154471,1,8,0:0:0:0:
256,192,154676,1,0,0:0:0:0:
256,192,154882,1,8,0:0:0:0:
256,192,155087,1,0,0:0:0:0:
256,192,155292,1,0,0:0:0:0:
256,192,155395,1,8,0:0:0:0:
256,192,155498,1,0,0:0:0:0:
256,192,155601,1,0,0:0:0:0:
256,192,155703,1,8,0:0:0:0:
256,192,155806,1,8,0:0:0:0:
256,192,155909,1,0,0:0:0:0:
256,192,156114,1,8,0:0:0:0:
256,192,156320,1,0,0:0:0:0:
256,192,156525,1,8,0:0:0:0:
256,192,156731,1,0,0:0:0:0:
256,192,156936,1,0,0:0:0:0:
256,192,157039,1,8,0:0:0:0:
256,192,157142,1,8,0:0:0:0:
256,192,157245,1,0,0:0:0:0:
256,192,157347,1,8,0:0:0:0:
256,192,157450,1,8,0:0:0:0:
256,192,157553,1,8,0:0:0:0:
256,192,157656,1,0,0:0:0:0:
256,192,157758,1,0,0:0:0:0:
256,192,157861,1,0,0:0:0:0:
256,192,157964,1,8,0:0:0:0:
256,192,158169,1,0,0:0:0:0:
256,192,158272,1,0,0:0:0:0:
256,192,158375,1,8,0:0:0:0:
256,192,158580,1,0,0:0:0:0:
256,192,158786,1,8,0:0:0:0:
256,192,158991,1,0,0:0:0:0:
256,192,159094,1,8,0:0:0:0:
256,192,159299,1,0,0:0:0:0:
256,192,159402,1,8,0:0:0:0:
256,192,159608,1,0,0:0:0:0:
256,192,159813,1,8,0:0:0:0:
256,192,159916,1,0,0:0:0:0:
256,192,160019,1,8,0:0:0:0:
256,192,160224,1,0,0:0:0:0:
256,192,160429,1,8,0:0:0:0:
256,192,160635,1,0,0:0:0:0:
256,192,160738,1,8,0:0:0:0:
256,192,160943,1,8,0:0:0:0:
256,192,161046,1,0,0:0:0:0:
256,192,161251,1,8,0:0:0:0:
256,192,161457,1,0,0:0:0:0:
256,192,161560,1,0,0:0:0:0:
256,192,161662,1,8,0:0:0:0:
256,192,161868,1,0,0:0:0:0:
256,192,162073,1,8,0:0:0:0:
256,192,162279,1,0,0:0:0:0:
256,192,162382,1,8,0:0:0:0:
256,192,162587,1,0,0:0:0:0:
256,192,162690,1,8,0:0:0:0:
256,192,162895,1,0,0:0:0:0:
256,192,163101,1,8,0:0:0:0:
256,192,163203,1,0,0:0:0:0:
256,192,163306,1,8,0:0:0:0:
256,192,163512,1,0,0:0:0:0:
256,192,163717,1,8,0:0:0:0:
256,192,163923,1,0,0:0:0:0:
256,192,164025,1,8,0:0:0:0:
256,192,164128,1,0,0:0:0:0:
256,192,164334,1,0,0:0:0:0:
256,192,164539,1,8,0:0:0:0:
256,192,164642,1,0,0:0:0:0:
256,192,164745,1,0,0:0:0:0:
256,192,164847,1,0,0:0:0:0:
256,192,164950,1,8,0:0:0:0:
256,192,165053,1,0,0:0:0:0:
256,192,165156,1,0,0:0:0:0:
256,192,165258,1,0,0:0:0:0:
256,192,165361,1,8,0:0:0:0:
256,192,165464,1,0,0:0:0:0:
256,192,165566,1,0,0:0:0:0:
256,192,165669,1,0,0:0:0:0:
256,192,165772,1,8,0:0:0:0:
256,192,165875,1,0,0:0:0:0:
256,192,165977,1,0,0:0:0:0:
256,192,166080,1,0,0:0:0:0:
256,192,166183,1,8,0:0:0:0:
256,192,166286,1,8,0:0:0:0:
256,192,166388,1,0,0:0:0:0:
256,192,166491,1,0,0:0:0:0:
256,192,166594,1,8,0:0:0:0:
256,192,166697,1,8,0:0:0:0:
256,192,166799,1,0,0:0:0:0:
256,192,166902,1,0,0:0:0:0:
256,192,167005,1,8,0:0:0:0:
256,192,167108,1,8,0:0:0:0:
256,192,167210,1,0,0:0:0:0:
256,192,167313,1,0,0:0:0:0:
256,192,167416,1,8,0:0:0:0:
256,192,167519,1,8,0:0:0:0:
256,192,167621,1,0,0:0:0:0:
256,192,167724,1,0,0:0:0:0:
256,192,167827,1,8,0:0:0:0:
256,192,167895,1,8,0:0:0:0:
256,192,167964,1,8,0:0:0:0:
256,192,168032,1,0,0:0:0:0:
256,192,168340,1,0,0:0:0:0:
256,192,168649,1,8,0:0:0:0:
256,192,168717,1,8,0:0:0:0:
256,192,168786,1,8,0:0:0:0:
256,192,168854,1,0,0:0:0:0:
256,192,168991,1,0,0:0:0:0:
256,192,169060,1,0,0:0:0:0:
256,192,169265,1,0,0:0:0:0:
256,192,169471,1,4,0:0:0:0:
256,192,170292,1,0,0:0:0:0:
256,192,170395,1,8,0:0:0:0:
256,192,170498,1,0,0:0:0:0:
256,192,170601,1,8,0:0:0:0:
256,192,170703,1,8,0:0:0:0:
256,192,170909,1,8,0:0:0:0:
256,192,171114,1,4,0:0:0:0:
256,192,171423,1,0,0:0:0:0:
256,192,171525,1,0,0:0:0:0:
256,192,171731,1,8,0:0:0:0:
256,192,171936,1,0,0:0:0:0:
256,192,172142,1,0,0:0:0:0:
256,192,172245,1,0,0:0:0:0:
256,192,172347,1,0,0:0:0:0:
256,192,172553,1,8,0:0:0:0:
256,192,172758,1,0,0:0:0:0:
256,192,173066,1,0,0:0:0:0:
256,192,173169,1,0,0:0:0:0:
256,192,173375,1,8,0:0:0:0:
256,192,173580,1,0,0:0:0:0:
256,192,173786,1,8,0:0:0:0:
256,192,173888,1,8,0:0:0:0:
256,192,173991,1,0,0:0:0:0:
256,192,174197,1,8,0:0:0:0:
256,192,174402,1,0,0:0:0:0:
256,192,174710,1,0,0:0:0:0:
256,192,174813,1,0,0:0:0:0:
256,192,175019,1,8,0:0:0:0:
256,192,175224,1,0,0:0:0:0:
256,192,175429,1,0,0:0:0:0:
256,192,175532,1,0,0:0:0:0:
256,192,175635,1,0,0:0:0:0:
256,192,175840,1,8,0:0:0:0:
256,192,176046,1,0,0:0:0:0:
256,192,176354,1,0,0:0:0:0:
256,192,176457,1,0,0:0:0:0:
256,192,176662,1,8,0:0:0:0:
256,192,176868,1,0,0:0:0:0:
256,192,177073,1,8,0:0:0:0:
256,192,177176,1,8,0:0:0:0:
256,192,177279,1,0,0:0:0:0:
256,192,177484,1,8,0:0:0:0:
256,192,177690,1,4,0:0:0:0:
256,192,177998,1,8,0:0:0:0:
256,192,178101,1,0,0:0:0:0:
256,192,178306,1,8,0:0:0:0:
256,192,178512,1,0,0:0:0:0:
256,192,178717,1,0,0:0:0:0:
256,192,178820,1,0,0:0:0:0:
256,192,178923,1,0,0:0:0:0:
256,192,179128,1,8,0:0:0:0:
256,192,179334,1,0,0:0:0:0:
256,192,179642,1,8,0:0:0:0:
256,192,179745,1,0,0:0:0:0:
256,192,179950,1,8,0:0:0:0:
256,192,180156,1,0,0:0:0:0:
256,192,180361,1,8,0:0:0:0:
256,192,180464,1,8,0:0:0:0:
256,192,180566,1,0,0:0:0:0:
256,192,180772,1,8,0:0:0:0:
256,192,180977,1,0,0:0:0:0:
256,192,181183,1,8,0:0:0:0:
256,192,181286,1,8,0:0:0:0:
256,192,181388,1,0,0:0:0:0:
256,192,181594,1,8,0:0:0:0:
256,192,181799,1,0,0:0:0:0:
256,192,182108,1,8,0:0:0:0:
256,192,182210,1,0,0:0:0:0:
256,192,182416,1,8,0:0:0:0:
256,192,182621,1,0,0:0:0:0:
256,192,182827,1,0,0:0:0:0:
256,192,182929,1,8,0:0:0:0:
256,192,183032,1,0,0:0:0:0:
256,192,183238,1,8,0:0:0:0:
256,192,183443,1,0,0:0:0:0:
256,192,183649,1,0,0:0:0:0:
256,192,183854,1,12,0:0:0:0:
256,192,184265,1,4,0:0:0:0:
256,192,184471,1,8,0:0:0:0:
256,192,184573,1,8,0:0:0:0:
256,192,184676,1,0,0:0:0:0:
256,192,184882,1,0,0:0:0:0:
256,192,185087,1,8,0:0:0:0:
256,192,185395,1,0,0:0:0:0:
256,192,185498,1,8,0:0:0:0:
256,192,185703,1,8,0:0:0:0:
256,192,185909,1,0,0:0:0:0:
256,192,186114,1,8,0:0:0:0:
256,192,186217,1,8,0:0:0:0:
256,192,186320,1,0,0:0:0:0:
256,192,186525,1,0,0:0:0:0:
256,192,186731,1,8,0:0:0:0:
256,192,186936,1,0,0:0:0:0:
256,192,187039,1,8,0:0:0:0:
256,192,187142,1,0,0:0:0:0:
256,192,187245,1,0,0:0:0:0:
256,192,187347,1,8,0:0:0:0:
256,192,187553,1,0,0:0:0:0:
256,192,187758,1,8,0:0:0:0:
256,192,187861,1,8,0:0:0:0:
256,192,187964,1,0,0:0:0:0:
256,192,188169,1,0,0:0:0:0:
256,192,188375,1,8,0:0:0:0:
256,192,188683,1,0,0:0:0:0:
256,192,188786,1,8,0:0:0:0:
256,192,188991,1,8,0:0:0:0:
256,192,189197,1,0,0:0:0:0:
256,192,189402,1,8,0:0:0:0:
256,192,189505,1,8,0:0:0:0:
256,192,189608,1,0,0:0:0:0:
256,192,189813,1,0,0:0:0:0:
256,192,190019,1,8,0:0:0:0:
256,192,190224,1,0,0:0:0:0:
256,192,190327,1,0,0:0:0:0:
256,192,190429,1,8,0:0:0:0:
256,192,190532,1,0,0:0:0:0:
256,192,190635,1,8,0:0:0:0:
256,192,190738,1,0,0:0:0:0:
256,192,190840,1,8,0:0:0:0:
256,192,191251,1,4,0:0:0:0:
256,192,191457,1,0,0:0:0:0:
256,192,191662,1,8,0:0:0:0:
256,192,191868,1,0,0:0:0:0:
256,192,191971,1,0,0:0:0:0:
256,192,192073,1,8,0:0:0:0:
256,192,192279,1,8,0:0:0:0:
256,192,192484,1,0,0:0:0:0:
256,192,192690,1,8,0:0:0:0:
256,192,192792,1,8,0:0:0:0:
256,192,192895,1,0,0:0:0:0:
256,192,193101,1,0,0:0:0:0:
256,192,193306,1,8,0:0:0:0:
256,192,193512,1,0,0:0:0:0:
256,192,193614,1,0,0:0:0:0:
256,192,193717,1,8,0:0:0:0:
256,192,193820,1,8,0:0:0:0:
256,192,193923,1,0,0:0:0:0:
256,192,194128,1,4,0:0:0:0:
256,192,194334,12,0,195566,0:0:0:0:
256,192,195772,5,0,0:0:0:0:
256,192,195875,1,0,0:0:0:0:
256,192,195977,1,8,0:0:0:0:
256,192,196080,1,0,0:0:0:0:
256,192,196183,1,0,0:0:0:0:
256,192,196286,1,8,0:0:0:0:
256,192,196388,1,0,0:0:0:0:
256,192,196491,1,0,0:0:0:0:
256,192,196594,1,8,0:0:0:0:
256,192,196697,1,0,0:0:0:0:
256,192,196799,1,8,0:0:0:0:
256,192,196902,1,8,0:0:0:0:
256,192,197005,1,0,0:0:0:0:
256,192,197108,1,8,0:0:0:0:
256,192,197210,1,8,0:0:0:0:
256,192,197416,1,4,0:0:0:0:
256,192,197621,1,8,0:0:0:0:
256,192,197724,1,0,0:0:0:0:
256,192,197827,1,0,0:0:0:0:
256,192,197929,1,8,0:0:0:0:
256,192,198032,1,0,0:0:0:0:
256,192,198135,1,0,0:0:0:0:
256,192,198238,1,8,0:0:0:0:
256,192,198443,1,0,0:0:0:0:
256,192,198546,1,0,0:0:0:0:
256,192,198649,1,8,0:0:0:0:
256,192,198751,1,0,0:0:0:0:
256,192,198854,1,0,0:0:0:0:
256,192,198957,1,8,0:0:0:0:
256,192,199060,1,0,0:0:0:0:
256,192,199265,1,8,0:0:0:0:
256,192,199368,1,8,0:0:0:0:
256,192,199471,1,0,0:0:0:0:
256,192,199573,1,8,0:0:0:0:
256,192,199676,1,0,0:0:0:0:
256,192,199779,1,0,0:0:0:0:
256,192,199882,1,8,0:0:0:0:
256,192,200087,1,0,0:0:0:0:
256,192,200190,1,0,0:0:0:0:
256,192,200292,1,8,0:0:0:0:
256,192,200498,1,8,0:0:0:0:
256,192,200703,1,0,0:0:0:0:
256,192,200909,1,8,0:0:0:0:
256,192,201012,1,8,0:0:0:0:
256,192,201114,1,0,0:0:0:0:
256,192,201217,1,8,0:0:0:0:
256,192,201320,1,0,0:0:0:0:
256,192,201423,1,0,0:0:0:0:
256,192,201525,1,8,0:0:0:0:
256,192,201731,1,0,0:0:0:0:
256,192,201834,1,8,0:0:0:0:
256,192,201936,1,8,0:0:0:0:
256,192,202039,1,0,0:0:0:0:
256,192,202142,1,8,0:0:0:0:
256,192,202245,1,8,0:0:0:0:
256,192,202347,1,0,0:0:0:0:
256,192,202553,1,8,0:0:0:0:
256,192,202656,1,8,0:0:0:0:
256,192,202758,1,0,0:0:0:0:
256,192,202861,1,8,0:0:0:0:
256,192,202964,1,8,0:0:0:0:
256,192,203066,1,0,0:0:0:0:
256,192,203169,1,8,0:0:0:0:
256,192,203375,1,0,0:0:0:0:
256,192,203477,1,0,0:0:0:0:
256,192,203580,1,8,0:0:0:0:
256,192,203786,1,8,0:0:0:0:
256,192,203991,1,4,0:0:0:0:
256,192,204197,1,8,0:0:0:0:
256,192,204300,1,0,0:0:0:0:
256,192,204403,1,0,0:0:0:0:
256,192,204505,1,8,0:0:0:0:
256,192,204608,1,0,0:0:0:0:
256,192,204711,1,0,0:0:0:0:
256,192,204814,1,8,0:0:0:0:
256,192,205019,1,0,0:0:0:0:
256,192,205122,1,0,0:0:0:0:
256,192,205225,1,8,0:0:0:0:
256,192,205327,1,0,0:0:0:0:
256,192,205430,1,0,0:0:0:0:
256,192,205533,1,8,0:0:0:0:
256,192,205636,1,0,0:0:0:0:
256,192,205841,1,8,0:0:0:0:
256,192,205944,1,8,0:0:0:0:
256,192,206047,1,0,0:0:0:0:
256,192,206149,1,8,0:0:0:0:
256,192,206252,1,0,0:0:0:0:
256,192,206355,1,0,0:0:0:0:
256,192,206458,1,8,0:0:0:0:
256,192,206663,1,0,0:0:0:0:
256,192,206766,1,0,0:0:0:0:
256,192,206868,1,8,0:0:0:0:
256,192,207074,1,8,0:0:0:0:
256,192,207279,1,0,0:0:0:0:
256,192,207485,1,8,0:0:0:0:
256,192,207588,1,8,0:0:0:0:
256,192,207690,1,0,0:0:0:0:
256,192,207793,1,8,0:0:0:0:
256,192,207896,1,0,0:0:0:0:
256,192,207999,1,0,0:0:0:0:
256,192,208101,1,8,0:0:0:0:
256,192,208307,1,0,0:0:0:0:
256,192,208410,1,8,0:0:0:0:
256,192,208512,1,8,0:0:0:0:
256,192,208615,1,0,0:0:0:0:
256,192,208718,1,8,0:0:0:0:
256,192,208821,1,8,0:0:0:0:
256,192,208923,1,0,0:0:0:0:
256,192,209128,1,8,0:0:0:0:
256,192,209231,1,0,0:0:0:0:
256,192,209436,1,8,0:0:0:0:
256,192,209539,1,0,0:0:0:0:
256,192,209745,1,8,0:0:0:0:
256,192,209847,1,0,0:0:0:0:
256,192,210053,1,8,0:0:0:0:
256,192,210156,1,0,0:0:0:0:
256,192,210566,1,4,0:0:0:0:
256,192,210772,1,8,0:0:0:0:
256,192,210875,1,0,0:0:0:0:
256,192,210978,1,0,0:0:0:0:
256,192,211080,1,8,0:0:0:0:
256,192,211183,1,0,0:0:0:0:
256,192,211286,1,0,0:0:0:0:
256,192,211389,1,8,0:0:0:0:
256,192,211491,1,0,0:0:0:0:
256,192,211594,1,0,0:0:0:0:
256,192,211697,1,0,0:0:0:0:
256,192,211800,1,8,0:0:0:0:
256,192,211902,1,0,0:0:0:0:
256,192,212005,1,0,0:0:0:0:
256,192,212108,1,8,0:0:0:0:
256,192,212211,1,0,0:0:0:0:
256,192,212416,1,8,0:0:0:0:
256,192,212519,1,8,0:0:0:0:
256,192,212622,1,0,0:0:0:0:
256,192,212724,1,8,0:0:0:0:
256,192,212827,1,0,0:0:0:0:
256,192,212930,1,0,0:0:0:0:
256,192,213033,1,8,0:0:0:0:
256,192,213135,1,0,0:0:0:0:
256,192,213238,1,0,0:0:0:0:
256,192,213341,1,0,0:0:0:0:
256,192,213443,1,8,0:0:0:0:
256,192,213546,1,0,0:0:0:0:
256,192,213649,1,8,0:0:0:0:
256,192,213854,1,0,0:0:0:0:
256,192,214060,1,8,0:0:0:0:
256,192,214163,1,8,0:0:0:0:
256,192,214265,1,0,0:0:0:0:
256,192,214368,1,8,0:0:0:0:
256,192,214471,1,0,0:0:0:0:
256,192,214574,1,0,0:0:0:0:
256,192,214676,1,8,0:0:0:0:
256,192,214779,1,0,0:0:0:0:
256,192,214882,1,0,0:0:0:0:
256,192,214985,1,8,0:0:0:0:
256,192,215087,1,8,0:0:0:0:
256,192,215190,1,0,0:0:0:0:
256,192,215293,1,8,0:0:0:0:
256,192,215396,1,8,0:0:0:0:
256,192,215498,1,0,0:0:0:0:
256,192,215704,1,8,0:0:0:0:
256,192,215807,1,8,0:0:0:0:
256,192,215909,1,0,0:0:0:0:
256,192,216012,1,8,0:0:0:0:
256,192,216115,1,8,0:0:0:0:
256,192,216217,1,0,0:0:0:0:
256,192,216320,1,8,0:0:0:0:
256,192,216423,1,0,0:0:0:0:
256,192,216526,1,0,0:0:0:0:
256,192,216628,1,0,0:0:0:0:
256,192,216731,1,8,0:0:0:0:
256,192,216834,1,0,0:0:0:0:
256,192,216937,1,8,0:0:0:0:
256,192,217142,1,4,0:0:0:0:
256,192,217348,1,8,0:0:0:0:
256,192,217451,1,0,0:0:0:0:
256,192,217554,1,0,0:0:0:0:
256,192,217656,1,8,0:0:0:0:
256,192,217759,1,0,0:0:0:0:
256,192,217862,1,0,0:0:0:0:
256,192,217965,1,8,0:0:0:0:
256,192,218066,1,0,0:0:0:0:
256,192,218170,1,0,0:0:0:0:
256,192,218273,1,0,0:0:0:0:
256,192,218376,1,8,0:0:0:0:
256,192,218478,1,0,0:0:0:0:
256,192,218581,1,0,0:0:0:0:
256,192,218684,1,8,0:0:0:0:
256,192,218787,1,0,0:0:0:0:
256,192,218992,1,8,0:0:0:0:
256,192,219095,1,8,0:0:0:0:
256,192,219198,1,0,0:0:0:0:
256,192,219300,1,8,0:0:0:0:
256,192,219403,1,0,0:0:0:0:
256,192,219506,1,0,0:0:0:0:
256,192,219609,1,8,0:0:0:0:
256,192,219710,1,0,0:0:0:0:
256,192,219814,1,0,0:0:0:0:
256,192,219917,1,0,0:0:0:0:
256,192,220019,1,8,0:0:0:0:
256,192,220121,1,0,0:0:0:0:
256,192,220225,1,8,0:0:0:0:
256,192,220430,1,0,0:0:0:0:
256,192,220636,1,8,0:0:0:0:
256,192,220739,1,8,0:0:0:0:
256,192,220841,1,0,0:0:0:0:
256,192,220944,1,8,0:0:0:0:
256,192,221047,1,0,0:0:0:0:
256,192,221150,1,0,0:0:0:0:
256,192,221252,1,8,0:0:0:0:
256,192,221354,1,0,0:0:0:0:
256,192,221458,1,0,0:0:0:0:
256,192,221561,1,8,0:0:0:0:
256,192,221663,1,8,0:0:0:0:
256,192,221766,1,0,0:0:0:0:
256,192,221869,1,8,0:0:0:0:
256,192,221972,1,8,0:0:0:0:
256,192,222074,1,0,0:0:0:0:
256,192,222279,1,0,0:0:0:0:
256,192,222382,1,8,0:0:0:0:
256,192,222484,1,0,0:0:0:0:
256,192,222690,1,8,0:0:0:0:
256,192,222792,1,0,0:0:0:0:
256,192,222895,1,0,0:0:0:0:
256,192,223101,1,0,0:0:0:0:
256,192,223306,1,12,0:0:0:0:
256,192,223512,1,12,0:0:0:0:
256,192,223717,1,4,0:0:0:0:
256,192,224025,1,8,0:0:0:0:
256,192,224128,1,0,0:0:0:0:
256,192,224334,1,0,0:0:0:0:
256,192,224539,1,8,0:0:0:0:
256,192,224745,1,0,0:0:0:0:
256,192,224847,1,0,0:0:0:0:
256,192,224950,1,8,0:0:0:0:
256,192,225156,1,8,0:0:0:0:
256,192,225361,1,0,0:0:0:0:
256,192,225669,1,8,0:0:0:0:
256,192,225772,1,0,0:0:0:0:
256,192,225977,1,0,0:0:0:0:
256,192,226183,1,8,0:0:0:0:
256,192,226388,1,8,0:0:0:0:
256,192,226491,1,0,0:0:0:0:
256,192,226594,1,8,0:0:0:0:
256,192,226799,1,8,0:0:0:0:
256,192,227005,1,0,0:0:0:0:
256,192,227313,1,8,0:0:0:0:
256,192,227416,1,0,0:0:0:0:
256,192,227621,1,0,0:0:0:0:
256,192,227827,1,8,0:0:0:0:
256,192,228032,1,0,0:0:0:0:
256,192,228135,1,0,0:0:0:0:
256,192,228238,1,8,0:0:0:0:
256,192,228649,1,0,0:0:0:0:
256,192,228957,1,8,0:0:0:0:
256,192,229060,1,0,0:0:0:0:
256,192,229265,1,0,0:0:0:0:
256,192,229471,1,8,0:0:0:0:
256,192,229676,1,8,0:0:0:0:
256,192,229779,1,0,0:0:0:0:
256,192,229882,1,8,0:0:0:0:
256,192,230292,1,0,0:0:0:0:
256,192,230601,1,8,0:0:0:0:
256,192,230703,1,0,0:0:0:0:
256,192,230909,1,0,0:0:0:0:
256,192,231114,1,8,0:0:0:0:
256,192,231320,1,0,0:0:0:0:
256,192,231525,1,8,0:0:0:0:
256,192,231936,1,0,0:0:0:0:
256,192,232245,1,8,0:0:0:0:
256,192,232347,1,0,0:0:0:0:
256,192,232553,1,0,0:0:0:0:
256,192,232758,1,8,0:0:0:0:
256,192,232964,1,8,0:0:0:0:
256,192,233169,1,0,0:0:0:0:
256,192,233580,1,8,0:0:0:0:
256,192,246731,5,0,0:0:0:0:
256,192,247347,1,0,0:0:0:0:
256,192,247553,1,8,0:0:0:0:
256,192,247758,1,0,0:0:0:0:
256,192,248066,1,0,0:0:0:0:
256,192,248375,1,0,0:0:0:0:
256,192,248991,1,0,0:0:0:0:
256,192,249094,1,0,0:0:0:0:
256,192,249197,1,8,0:0:0:0:
256,192,250019,1,0,0:0:0:0:
256,192,250635,1,0,0:0:0:0:
256,192,250840,1,8,0:0:0:0:
256,192,251046,1,0,0:0:0:0:
256,192,251354,1,0,0:0:0:0:
256,192,251662,1,0,0:0:0:0:
256,192,252279,1,0,0:0:0:0:
256,192,252382,1,0,0:0:0:0:
256,192,252484,1,8,0:0:0:0:
256,192,252895,1,8,0:0:0:0:
256,192,253306,1,0,0:0:0:0:
256,192,253923,1,0,0:0:0:0:
256,192,254128,1,8,0:0:0:0:
256,192,254334,1,0,0:0:0:0:
256,192,254642,1,0,0:0:0:0:
256,192,254950,1,0,0:0:0:0:
256,192,255566,1,0,0:0:0:0:
256,192,255669,1,0,0:0:0:0:
256,192,255772,1,8,0:0:0:0:
256,192,256594,1,0,0:0:0:0:
256,192,257210,1,0,0:0:0:0:
256,192,257416,1,8,0:0:0:0:
256,192,257621,1,0,0:0:0:0:
256,192,257929,1,0,0:0:0:0:
256,192,258238,1,0,0:0:0:0:
256,192,258854,1,0,0:0:0:0:
256,192,258957,1,0,0:0:0:0:
256,192,259060,1,8,0:0:0:0:
256,192,259471,1,8,0:0:0:0:
256,192,259882,1,0,0:0:0:0:
256,192,260498,1,0,0:0:0:0:
256,192,260703,1,8,0:0:0:0:
256,192,260909,1,0,0:0:0:0:
256,192,261217,1,0,0:0:0:0:
256,192,261525,1,0,0:0:0:0:
256,192,262142,1,0,0:0:0:0:
256,192,262245,1,0,0:0:0:0:
256,192,262347,1,8,0:0:0:0:
256,192,263169,5,0,0:0:0:0:
256,192,263580,1,0,0:0:0:0:
256,192,263785,1,0,0:0:0:0:
256,192,263991,1,8,0:0:0:0:
256,192,264196,1,0,0:0:0:0:
256,192,264504,1,0,0:0:0:0:
256,192,264813,1,0,0:0:0:0:
256,192,265224,1,0,0:0:0:0:
256,192,265429,1,0,0:0:0:0:
256,192,265532,1,0,0:0:0:0:
256,192,265635,1,8,0:0:0:0:
256,192,265840,1,0,0:0:0:0:
256,192,266046,1,8,0:0:0:0:
256,192,266457,1,0,0:0:0:0:
256,192,266868,1,0,0:0:0:0:
256,192,267073,1,0,0:0:0:0:
256,192,267278,1,8,0:0:0:0:
256,192,267484,1,0,0:0:0:0:
256,192,267792,1,0,0:0:0:0:
256,192,268100,1,0,0:0:0:0:
256,192,268512,1,0,0:0:0:0:
256,192,268717,1,0,0:0:0:0:
256,192,268820,1,0,0:0:0:0:
256,192,268922,1,8,0:0:0:0:
256,192,269128,1,0,0:0:0:0:
256,192,269333,1,8,0:0:0:0:
256,192,269539,1,8,0:0:0:0:
256,192,269745,5,0,0:0:0:0:
256,192,270155,1,0,0:0:0:0:
256,192,270361,1,0,0:0:0:0:
256,192,270567,1,8,0:0:0:0:
256,192,270772,1,0,0:0:0:0:
256,192,271080,1,0,0:0:0:0:
256,192,271389,1,0,0:0:0:0:
256,192,271799,1,0,0:0:0:0:
256,192,272005,1,0,0:0:0:0:
256,192,272108,1,0,0:0:0:0:
256,192,272211,1,8,0:0:0:0:
256,192,272416,1,0,0:0:0:0:
256,192,272621,1,8,0:0:0:0:
256,192,273033,1,0,0:0:0:0:
256,192,273443,1,0,0:0:0:0:
256,192,273649,1,0,0:0:0:0:
256,192,273854,1,8,0:0:0:0:
256,192,274060,1,0,0:0:0:0:
256,192,274368,1,0,0:0:0:0:
256,192,274676,1,0,0:0:0:0:
256,192,275087,5,0,0:0:0:0:
256,192,275190,1,0,0:0:0:0:
256,192,275293,1,0,0:0:0:0:
256,192,275396,1,0,0:0:0:0:
256,192,275498,1,8,0:0:0:0:
256,192,275601,1,8,0:0:0:0:
256,192,275704,1,0,0:0:0:0:
256,192,275806,1,0,0:0:0:0:
256,192,275909,1,8,0:0:0:0:
256,192,276114,1,8,0:0:0:0:
256,192,276320,1,4,0:0:0:0:
256,192,277347,1,0,0:0:0:0:
256,192,277450,1,0,0:0:0:0:
256,192,277553,1,8,0:0:0:0:
256,192,277758,1,8,0:0:0:0:
256,192,279197,1,8,0:0:0:0:
256,192,279608,1,0,0:0:0:0:
256,192,280224,1,0,0:0:0:0:
256,192,280292,1,0,0:0:0:0:
256,192,280361,1,0,0:0:0:0:
256,192,280429,1,8,0:0:0:0:
256,192,280635,1,0,0:0:0:0:
256,192,280738,1,0,0:0:0:0:
256,192,280840,1,8,0:0:0:0:
256,192,281251,1,0,0:0:0:0:
256,192,281662,1,8,0:0:0:0:
256,192,281868,1,8,0:0:0:0:
256,192,282073,1,8,0:0:0:0:
256,192,282279,1,0,0:0:0:0:
256,192,282382,1,0,0:0:0:0:
256,192,282484,1,8,0:0:0:0:
256,192,282690,1,0,0:0:0:0:
256,192,282895,1,4,0:0:0:0:
256,192,283717,1,8,0:0:0:0:
256,192,283923,1,0,0:0:0:0:
256,192,284025,1,0,0:0:0:0:
256,192,284128,1,8,0:0:0:0:
256,192,284334,1,8,0:0:0:0:
256,192,285772,1,8,0:0:0:0:
256,192,286183,1,0,0:0:0:0:
256,192,286594,1,0,0:0:0:0:
256,192,286799,1,8,0:0:0:0:
256,192,287005,1,8,0:0:0:0:
256,192,287210,1,0,0:0:0:0:
256,192,287313,1,0,0:0:0:0:
256,192,287416,1,8,0:0:0:0:
256,192,287827,1,4,0:0:0:0:
256,192,288032,1,0,0:0:0:0:
256,192,288135,1,0,0:0:0:0:
256,192,288238,1,8,0:0:0:0:
256,192,288443,1,4,0:0:0:0:
256,192,288649,1,0,0:0:0:0:
256,192,288751,1,0,0:0:0:0:
256,192,288854,1,8,0:0:0:0:
256,192,289060,1,4,0:0:0:0:
256,192,289265,1,8,0:0:0:0:
256,192,289471,1,4,0:0:0:0:
256,192,289676,1,8,0:0:0:0:
256,192,289778,1,8,0:0:0:0:
256,192,289984,1,8,0:0:0:0:
256,192,290189,1,8,0:0:0:0:
256,192,290292,1,0,0:0:0:0:
256,192,290498,1,0,0:0:0:0:
256,192,290600,1,8,0:0:0:0:
256,192,290806,1,0,0:0:0:0:
256,192,290909,1,8,0:0:0:0:
256,192,291114,1,0,0:0:0:0:
256,192,291320,1,8,0:0:0:0:
256,192,291422,1,8,0:0:0:0:
256,192,291525,1,0,0:0:0:0:
256,192,291731,1,8,0:0:0:0:
256,192,291936,1,0,0:0:0:0:
256,192,292039,1,8,0:0:0:0:
256,192,292141,1,8,0:0:0:0:
256,192,292347,1,0,0:0:0:0:
256,192,292450,1,8,0:0:0:0:
256,192,292552,1,8,0:0:0:0:
256,192,292655,1,8,0:0:0:0:
256,192,292758,1,0,0:0:0:0:
256,192,292963,1,0,0:0:0:0:
256,192,293066,1,8,0:0:0:0:
256,192,293272,1,8,0:0:0:0:
256,192,293477,1,8,0:0:0:0:
256,192,293580,1,8,0:0:0:0:
256,192,293785,1,0,0:0:0:0:
256,192,293888,1,8,0:0:0:0:
256,192,294094,1,0,0:0:0:0:
256,192,294196,1,8,0:0:0:0:
256,192,294402,1,0,0:0:0:0:
256,192,294607,1,8,0:0:0:0:
256,192,294710,1,8,0:0:0:0:
256,192,294813,1,0,0:0:0:0:
256,192,295018,1,8,0:0:0:0:
256,192,295224,1,0,0:0:0:0:
256,192,295326,1,8,0:0:0:0:
256,192,295429,1,8,0:0:0:0:
256,192,295635,1,8,0:0:0:0:
256,192,295737,1,0,0:0:0:0:
256,192,295840,1,8,0:0:0:0:
256,192,295943,1,8,0:0:0:0:
256,192,296046,1,0,0:0:0:0:
256,192,296251,1,0,0:0:0:0:
256,192,296354,1,8,0:0:0:0:
256,192,296559,1,8,0:0:0:0:
256,192,296765,1,0,0:0:0:0:
256,192,296867,1,8,0:0:0:0:
256,192,297073,1,8,0:0:0:0:
256,192,297176,1,8,0:0:0:0:
256,192,297381,1,0,0:0:0:0:
256,192,297484,1,8,0:0:0:0:
256,192,297689,1,0,0:0:0:0:
256,192,297895,1,8,0:0:0:0:
256,192,297998,1,8,0:0:0:0:
256,192,298100,1,0,0:0:0:0:
256,192,298306,1,8,0:0:0:0:
256,192,298511,1,0,0:0:0:0:
256,192,298614,1,8,0:0:0:0:
256,192,298717,1,8,0:0:0:0:
256,192,298922,1,8,0:0:0:0:
256,192,299025,1,8,0:0:0:0:
256,192,299128,1,0,0:0:0:0:
256,192,299231,1,0,0:0:0:0:
256,192,299333,1,8,0:0:0:0:
256,192,299539,1,0,0:0:0:0:
256,192,299641,1,8,0:0:0:0:
256,192,299847,1,0,0:0:0:0:
256,192,300052,1,8,0:0:0:0:
256,192,300155,1,8,0:0:0:0:
256,192,300361,1,0,0:0:0:0:
256,192,300463,1,8,0:0:0:0:
256,192,300669,1,0,0:0:0:0:
256,192,300772,1,8,0:0:0:0:
256,192,300874,1,8,0:0:0:0:
256,192,300977,1,0,0:0:0:0:
256,192,301183,1,8,0:0:0:0:
256,192,301285,1,8,0:0:0:0:
256,192,301388,1,0,0:0:0:0:
256,192,301594,1,8,0:0:0:0:
256,192,301799,1,0,0:0:0:0:
256,192,302004,1,12,0:0:0:0:
256,192,302313,1,12,0:0:0:0:
256,192,302621,1,4,0:0:0:0:
256,192,302827,1,8,0:0:0:0:
256,192,303033,1,8,0:0:0:0:
256,192,303238,1,8,0:0:0:0:
256,192,303444,1,0,0:0:0:0:
256,192,303547,1,8,0:0:0:0:
256,192,303649,1,0,0:0:0:0:
256,192,303752,1,0,0:0:0:0:
256,192,303855,1,8,0:0:0:0:
256,192,304060,1,8,0:0:0:0:
256,192,304266,1,0,0:0:0:0:
256,192,304369,1,8,0:0:0:0:
256,192,304471,1,8,0:0:0:0:
256,192,304574,1,0,0:0:0:0:
256,192,304677,1,8,0:0:0:0:
256,192,304882,1,8,0:0:0:0:
256,192,305088,1,0,0:0:0:0:
256,192,305190,1,8,0:0:0:0:
256,192,305293,1,0,0:0:0:0:
256,192,305396,1,8,0:0:0:0:
256,192,305499,1,8,0:0:0:0:
256,192,305704,1,8,0:0:0:0:
256,192,305910,1,0,0:0:0:0:
256,192,306115,1,8,0:0:0:0:
256,192,306321,1,8,0:0:0:0:
256,192,306526,1,8,0:0:0:0:
256,192,306732,1,0,0:0:0:0:
256,192,306834,1,8,0:0:0:0:
256,192,306937,1,0,0:0:0:0:
256,192,307040,1,0,0:0:0:0:
256,192,307142,1,8,0:0:0:0:
256,192,307348,1,8,0:0:0:0:
256,192,307553,1,0,0:0:0:0:
256,192,307656,1,8,0:0:0:0:
256,192,307759,1,8,0:0:0:0:
256,192,307862,1,0,0:0:0:0:
256,192,307964,1,8,0:0:0:0:
256,192,308170,1,8,0:0:0:0:
256,192,308375,1,0,0:0:0:0:
256,192,308478,1,8,0:0:0:0:
256,192,308581,1,0,0:0:0:0:
256,192,308684,1,8,0:0:0:0:
256,192,308786,1,8,0:0:0:0:
256,192,308992,1,0,0:0:0:0:
256,192,309197,1,12,0:0:0:0:
256,192,309403,1,0,0:0:0:0:
256,192,309505,1,0,0:0:0:0:
256,192,309608,1,8,0:0:0:0:
256,192,309711,1,0,0:0:0:0:
256,192,309814,1,0,0:0:0:0:
256,192,310019,1,12,0:0:0:0:
256,192,310225,1,0,0:0:0:0:
256,192,310327,1,0,0:0:0:0:
256,192,310430,1,8,0:0:0:0:
256,192,310533,1,8,0:0:0:0:
256,192,310635,1,0,0:0:0:0:
256,192,310841,1,12,0:0:0:0:
256,192,311047,1,0,0:0:0:0:
256,192,311149,1,8,0:0:0:0:
256,192,311252,1,8,0:0:0:0:
256,192,311355,1,8,0:0:0:0:
256,192,311458,1,0,0:0:0:0:
256,192,311663,1,12,0:0:0:0:
256,192,311868,1,0,0:0:0:0:
256,192,311971,1,8,0:0:0:0:
256,192,312074,1,8,0:0:0:0:
256,192,312177,1,8,0:0:0:0:
256,192,312279,1,8,0:0:0:0:
256,192,312485,1,0,0:0:0:0:
256,192,312553,1,0,0:0:0:0:
256,192,312622,1,0,0:0:0:0:
256,192,312690,1,8,0:0:0:0:
256,192,312793,1,8,0:0:0:0:
256,192,312896,1,0,0:0:0:0:
256,192,312964,1,0,0:0:0:0:
256,192,313033,1,0,0:0:0:0:
256,192,313101,1,8,0:0:0:0:
256,192,313204,1,8,0:0:0:0:
256,192,313307,1,0,0:0:0:0:
256,192,313375,1,0,0:0:0:0:
256,192,313444,1,0,0:0:0:0:
256,192,313512,1,8,0:0:0:0:
256,192,313615,1,0,0:0:0:0:
256,192,313718,1,8,0:0:0:0:
256,192,313786,1,8,0:0:0:0:
256,192,313855,1,0,0:0:0:0:
256,192,313923,1,8,0:0:0:0:
256,192,313992,1,8,0:0:0:0:
256,192,314060,1,8,0:0:0:0:
256,192,314129,1,0,0:0:0:0:
256,192,314539,1,8,0:0:0:0:
256,192,314590,1,8,0:0:0:0:
256,192,314642,1,8,0:0:0:0:
256,192,314745,1,8,0:0:0:0:
256,192,314847,1,8,0:0:0:0:
256,192,314950,1,8,0:0:0:0:
256,192,315155,1,0,0:0:0:0:
256,192,315361,1,12,0:0:0:0:
256,192,315772,1,0,0:0:0:0:
256,192,315875,1,8,0:0:0:0:
256,192,315977,1,8,0:0:0:0:
256,192,316080,1,0,0:0:0:0:
256,192,316183,1,8,0:0:0:0:
256,192,316286,1,8,0:0:0:0:
256,192,316388,1,0,0:0:0:0:
256,192,316491,1,0,0:0:0:0:
256,192,316594,1,8,0:0:0:0:
256,192,316799,1,0,0:0:0:0:
256,192,316902,1,8,0:0:0:0:
256,192,317108,1,0,0:0:0:0:
256,192,317210,1,8,0:0:0:0:
256,192,317416,1,0,0:0:0:0:
256,192,317519,1,8,0:0:0:0:
256,192,317621,1,8,0:0:0:0:
256,192,317724,1,8,0:0:0:0:
256,192,317827,1,0,0:0:0:0:
256,192,317929,1,8,0:0:0:0:
256,192,318032,1,0,0:0:0:0:
256,192,318135,1,0,0:0:0:0:
256,192,318238,1,8,0:0:0:0:
256,192,318443,1,0,0:0:0:0:
256,192,318546,1,8,0:0:0:0:
256,192,318751,1,0,0:0:0:0:
256,192,318854,1,8,0:0:0:0:
256,192,319060,1,0,0:0:0:0:
256,192,319162,1,0,0:0:0:0:
256,192,319265,1,8,0:0:0:0:
256,192,319368,1,0,0:0:0:0:
256,192,319471,1,8,0:0:0:0:
256,192,319573,1,8,0:0:0:0:
256,192,319676,1,0,0:0:0:0:
256,192,319882,1,0,0:0:0:0:
256,192,319984,1,8,0:0:0:0:
256,192,320087,1,8,0:0:0:0:
256,192,320190,1,0,0:0:0:0:
256,192,320292,1,8,0:0:0:0:
256,192,320395,1,8,0:0:0:0:
256,192,320498,1,0,0:0:0:0:
256,192,320703,1,0,0:0:0:0:
256,192,320806,1,0,0:0:0:0:
256,192,320909,1,8,0:0:0:0:
256,192,321012,1,0,0:0:0:0:
256,192,321114,1,8,0:0:0:0:
256,192,321217,1,8,0:0:0:0:
256,192,321320,1,0,0:0:0:0:
256,192,321423,1,0,0:0:0:0:
256,192,321525,1,8,0:0:0:0:
256,192,321628,1,0,0:0:0:0:
256,192,321731,1,0,0:0:0:0:
256,192,321834,1,8,0:0:0:0:
256,192,321936,1,0,0:0:0:0:
256,192,322039,1,0,0:0:0:0:
256,192,322142,1,8,0:0:0:0:
256,192,322347,1,0,0:0:0:0:
256,192,322450,1,8,0:0:0:0:
256,192,322553,1,8,0:0:0:0:
256,192,322655,1,0,0:0:0:0:
256,192,322758,1,8,0:0:0:0:
256,192,322861,1,0,0:0:0:0:
256,192,322964,1,0,0:0:0:0:
256,192,323066,1,0,0:0:0:0:
256,192,323169,1,8,0:0:0:0:
256,192,323375,1,0,0:0:0:0:
256,192,323477,1,8,0:0:0:0:
256,192,323683,1,0,0:0:0:0:
256,192,323786,1,8,0:0:0:0:
256,192,323991,1,0,0:0:0:0:
256,192,324094,1,8,0:0:0:0:
256,192,324197,1,8,0:0:0:0:
256,192,324299,1,0,0:0:0:0:
256,192,324402,1,8,0:0:0:0:
256,192,324505,1,0,0:0:0:0:
256,192,324608,1,0,0:0:0:0:
256,192,324710,1,8,0:0:0:0:
256,192,324813,1,8,0:0:0:0:
256,192,325019,1,0,0:0:0:0:
256,192,325121,1,8,0:0:0:0:
256,192,325327,1,0,0:0:0:0:
256,192,325429,1,8,0:0:0:0:
256,192,325635,1,0,0:0:0:0:
256,192,325738,1,8,0:0:0:0:
256,192,325840,1,8,0:0:0:0:
256,192,325943,1,0,0:0:0:0:
256,192,326046,1,0,0:0:0:0:
256,192,326149,1,0,0:0:0:0:
256,192,326251,1,8,0:0:0:0:
256,192,326457,1,0,0:0:0:0:
256,192,326560,1,8,0:0:0:0:
256,192,326662,1,8,0:0:0:0:
256,192,326765,1,8,0:0:0:0:
256,192,326868,1,0,0:0:0:0:
256,192,326971,1,0,0:0:0:0:
256,192,327073,1,8,0:0:0:0:
160,128,327279,2,0,L|256:128,1,87.5
256,192,327690,1,8,0:0:0:0:
256,192,327792,1,0,0:0:0:0:
256,192,327895,1,8,0:0:0:0:
256,192,328101,1,0,0:0:0:0:
256,192,328203,1,8,0:0:0:0:
256,192,328306,1,8,0:0:0:0:
256,192,328409,1,0,0:0:0:0:
256,192,328512,1,8,0:0:0:0:
256,192,328614,1,0,0:0:0:0:
256,192,328717,1,8,0:0:0:0:
256,192,328923,1,0,0:0:0:0:
256,192,329025,1,8,0:0:0:0:
256,192,329128,1,8,0:0:0:0:
256,192,329231,1,0,0:0:0:0:
256,192,329334,1,8,0:0:0:0:
256,192,329436,1,8,0:0:0:0:
256,192,329539,1,0,0:0:0:0:
256,192,329642,1,0,0:0:0:0:
256,192,329745,1,8,0:0:0:0:
256,192,329847,1,0,0:0:0:0:
256,192,329950,1,0,0:0:0:0:
256,192,330053,1,8,0:0:0:0:
256,192,330155,1,0,0:0:0:0:
256,192,330258,1,0,0:0:0:0:
256,192,330361,1,8,0:0:0:0:
256,192,330566,1,0,0:0:0:0:
256,192,330669,1,8,0:0:0:0:
256,192,330772,1,8,0:0:0:0:
256,192,330875,1,8,0:0:0:0:
256,192,330977,1,0,0:0:0:0:
256,192,331080,1,0,0:0:0:0:
256,192,331183,1,8,0:0:0:0:
256,192,331286,1,0,0:0:0:0:
256,192,331388,1,8,0:0:0:0:
256,192,331491,1,8,0:0:0:0:
256,192,331594,1,0,0:0:0:0:
256,192,331697,1,8,0:0:0:0:
256,192,331799,1,8,0:0:0:0:
256,192,331902,1,0,0:0:0:0:
256,192,332005,1,8,0:0:0:0:
256,192,332210,1,0,0:0:0:0:
256,192,332312,1,0,0:0:0:0:
256,192,332415,1,8,0:0:0:0:
256,192,332518,1,0,0:0:0:0:
256,192,332621,1,8,0:0:0:0:
256,192,332723,1,8,0:0:0:0:
256,192,332826,1,0,0:0:0:0:
256,192,332929,1,8,0:0:0:0:
256,192,333032,1,0,0:0:0:0:
256,192,333134,1,8,0:0:0:0:
256,192,333237,1,8,0:0:0:0:
256,192,333340,1,0,0:0:0:0:
256,192,333442,1,8,0:0:0:0:
256,192,333545,1,0,0:0:0:0:
256,192,333649,1,8,0:0:0:0:
256,192,333751,1,8,0:0:0:0:
256,192,333853,1,0,0:0:0:0:
256,192,333956,1,0,0:0:0:0:
256,192,334059,1,8,0:0:0:0:
256,192,334162,1,0,0:0:0:0:
256,192,334264,1,8,0:0:0:0:
256,192,334367,1,8,0:0:0:0:
256,192,334470,1,0,0:0:0:0:
256,192,334573,1,0,0:0:0:0:
256,192,334675,1,8,0:0:0:0:
256,192,334778,1,0,0:0:0:0:
256,192,334881,1,0,0:0:0:0:
256,192,334984,1,8,0:0:0:0:
256,192,335086,1,0,0:0:0:0:
256,192,335189,1,0,0:0:0:0:
256,192,335292,1,8,0:0:0:0:
256,192,335497,1,0,0:0:0:0:
256,192,335600,1,0,0:0:0:0:
256,192,335703,1,0,0:0:0:0:
256,192,335805,1,0,0:0:0:0:
256,192,335908,1,12,0:0:0:0:
256,192,336114,1,0,0:0:0:0:
256,192,336216,1,0,0:0:0:0:
256,192,336319,1,8,0:0:0:0:
256,192,336423,1,0,0:0:0:0:
256,192,336525,1,0,0:0:0:0:
256,192,336627,1,8,0:0:0:0:
256,192,336731,1,0,0:0:0:0:
256,192,336833,1,0,0:0:0:0:
256,192,336936,1,8,0:0:0:0:
256,192,337141,1,0,0:0:0:0:
256,192,337244,1,8,0:0:0:0:
256,192,337347,1,8,0:0:0:0:
256,192,337449,1,0,0:0:0:0:
256,192,337552,1,8,0:0:0:0:
256,192,337655,1,0,0:0:0:0:
256,192,337758,1,0,0:0:0:0:
256,192,337860,1,8,0:0:0:0:
256,192,337963,1,8,0:0:0:0:
256,192,338169,1,4,0:0:0:0:
256,192,338375,1,4,0:0:0:0:
256,192,338579,1,8,0:0:0:0:
256,192,338785,1,8,0:0:0:0:
256,192,338837,1,8,0:0:0:0:
256,192,338990,1,8,0:0:0:0:
256,192,339042,1,8,0:0:0:0:
256,192,339196,1,4,0:0:0:0:
256,192,339401,1,8,0:0:0:0:
256,192,339607,1,0,0:0:0:0:
256,192,339812,1,8,0:0:0:0:
256,192,339915,1,0,0:0:0:0:
256,192,340018,1,0,0:0:0:0:
256,192,340121,1,8,0:0:0:0:
256,192,340223,1,0,0:0:0:0:
256,192,340327,1,0,0:0:0:0:
256,192,340429,1,8,0:0:0:0:
256,192,340635,1,8,0:0:0:0:
256,192,340943,1,8,0:0:0:0:
256,192,341149,1,0,0:0:0:0:
256,192,341251,1,8,0:0:0:0:
256,192,341457,1,0,0:0:0:0:
256,192,341560,1,0,0:0:0:0:
256,192,341662,1,8,0:0:0:0:
256,192,341868,1,8,0:0:0:0:
256,192,342073,1,4,0:0:0:0:
256,192,342382,1,8,0:0:0:0:
256,192,342484,1,0,0:0:0:0:
256,192,342690,1,8,0:0:0:0:
256,192,342895,1,0,0:0:0:0:
256,192,342998,1,0,0:0:0:0:
256,192,343101,1,8,0:0:0:0:
256,192,343203,1,8,0:0:0:0:
256,192,343306,1,0,0:0:0:0:
256,192,343512,1,0,0:0:0:0:
256,192,343717,1,8,0:0:0:0:
256,192,344025,1,0,0:0:0:0:
256,192,344128,1,8,0:0:0:0:
256,192,344334,1,8,0:0:0:0:
256,192,344539,1,0,0:0:0:0:
256,192,344642,1,8,0:0:0:0:
256,192,344745,1,0,0:0:0:0:
256,192,344847,1,0,0:0:0:0:
256,192,344950,1,8,0:0:0:0:
256,192,345155,1,8,0:0:0:0:
256,192,345361,1,0,0:0:0:0:
256,192,345669,1,8,0:0:0:0:
256,192,345772,1,0,0:0:0:0:
256,192,345977,1,8,0:0:0:0:
256,192,346183,1,0,0:0:0:0:
256,192,346286,1,8,0:0:0:0:
256,192,346388,1,8,0:0:0:0:
256,192,346491,1,8,0:0:0:0:
256,192,346594,1,0,0:0:0:0:
256,192,346799,1,8,0:0:0:0:
256,192,347005,1,0,0:0:0:0:
256,192,347313,1,8,0:0:0:0:
256,192,347416,1,0,0:0:0:0:
256,192,347621,1,8,0:0:0:0:
256,192,347827,1,0,0:0:0:0:
256,192,347929,1,8,0:0:0:0:
256,192,348032,1,8,0:0:0:0:
256,192,348135,1,0,0:0:0:0:
256,192,348238,1,8,0:0:0:0:
256,192,348443,1,8,0:0:0:0:
256,192,348649,1,4,0:0:0:0:
256,192,348958,1,8,0:0:0:0:
256,192,349060,1,0,0:0:0:0:
256,192,349266,1,8,0:0:0:0:
256,192,349471,1,0,0:0:0:0:
256,192,349574,1,0,0:0:0:0:
256,192,349677,1,8,0:0:0:0:
256,192,349779,1,8,0:0:0:0:
256,192,349882,1,0,0:0:0:0:
256,192,350088,1,0,0:0:0:0:
256,192,350293,1,8,0:0:0:0:
256,192,350601,1,0,0:0:0:0:
256,192,350704,1,8,0:0:0:0:
256,192,350910,1,8,0:0:0:0:
256,192,351115,1,0,0:0:0:0:
256,192,351218,1,8,0:0:0:0:
256,192,351321,1,0,0:0:0:0:
256,192,351423,1,0,0:0:0:0:
256,192,351526,1,8,0:0:0:0:
256,192,351731,1,8,0:0:0:0:
256,192,351937,1,0,0:0:0:0:
256,192,352245,1,8,0:0:0:0:
256,192,352348,1,0,0:0:0:0:
256,192,352553,1,8,0:0:0:0:
256,192,352759,1,0,0:0:0:0:
256,192,352862,1,8,0:0:0:0:
256,192,352964,1,8,0:0:0:0:
256,192,353067,1,8,0:0:0:0:
256,192,353170,1,0,0:0:0:0:
256,192,353375,1,8,0:0:0:0:
256,192,353581,1,0,0:0:0:0:
256,192,353889,1,8,0:0:0:0:
256,192,353992,1,0,0:0:0:0:
256,192,354197,1,8,0:0:0:0:
256,192,354403,1,0,0:0:0:0:
256,192,354814,1,8,0:0:0:0:
256,192,354916,1,8,0:0:0:0:
256,192,355019,1,8,0:0:0:0:
256,192,355121,1,8,0:0:0:0:
256,192,355224,1,4,0:0:0:0:
256,192,355533,1,8,0:0:0:0:
256,192,355635,1,0,0:0:0:0:
256,192,355841,1,8,0:0:0:0:
256,192,356046,1,0,0:0:0:0:
256,192,356149,1,8,0:0:0:0:
256,192,356252,1,0,0:0:0:0:
256,192,356354,1,0,0:0:0:0:
256,192,356457,1,8,0:0:0:0:
256,192,356663,1,0,0:0:0:0:
256,192,356868,1,8,0:0:0:0:
256,192,357176,1,0,0:0:0:0:
256,192,357279,1,8,0:0:0:0:
256,192,357485,1,8,0:0:0:0:
256,192,357690,1,0,0:0:0:0:
256,192,357793,1,0,0:0:0:0:
256,192,357896,1,8,0:0:0:0:
256,192,357998,1,8,0:0:0:0:
256,192,358101,1,0,0:0:0:0:
256,192,358306,1,8,0:0:0:0:
256,192,358512,1,0,0:0:0:0:
256,192,358820,1,8,0:0:0:0:
256,192,358923,1,0,0:0:0:0:
256,192,359128,1,8,0:0:0:0:
256,192,359334,1,0,0:0:0:0:
256,192,359437,1,8,0:0:0:0:
256,192,359539,1,8,0:0:0:0:
256,192,359642,1,0,0:0:0:0:
256,192,359745,1,8,0:0:0:0:
256,192,359950,1,8,0:0:0:0:
256,192,360156,1,0,0:0:0:0:
256,192,360567,1,4,0:0:0:0:
256,192,360875,1,12,0:0:0:0:
256,192,361183,1,12,0:0:0:0:
256,192,361491,1,12,0:0:0:0:
256,192,361799,1,0,0:0:0:0:
256,192,362210,1,12,0:0:0:0:
256,192,362621,1,0,0:0:0:0:
256,192,362724,1,8,0:0:0:0:
256,192,362827,1,0,0:0:0:0:
256,192,362929,1,0,0:0:0:0:
256,192,363032,1,8,0:0:0:0:
256,192,363238,1,0,0:0:0:0:
256,192,363443,1,8,0:0:0:0:
256,192,363751,1,0,0:0:0:0:
256,192,363854,1,8,0:0:0:0:
256,192,364060,1,8,0:0:0:0:
256,192,364265,1,0,0:0:0:0:
256,192,364368,1,0,0:0:0:0:
256,192,364471,1,8,0:0:0:0:
256,192,364573,1,8,0:0:0:0:
256,192,364676,1,0,0:0:0:0:
256,192,364881,1,8,0:0:0:0:
256,192,365087,1,0,0:0:0:0:
256,192,365395,1,8,0:0:0:0:
256,192,365498,1,0,0:0:0:0:
256,192,365703,1,8,0:0:0:0:
256,192,365909,1,0,0:0:0:0:
256,192,366012,1,8,0:0:0:0:
256,192,366114,1,8,0:0:0:0:
256,192,366217,1,0,0:0:0:0:
256,192,366320,1,8,0:0:0:0:
256,192,366525,1,8,0:0:0:0:
256,192,366731,5,0,0:0:0:0:
256,192,366834,1,0,0:0:0:0:
256,192,366936,1,8,0:0:0:0:
256,192,367039,1,0,0:0:0:0:
256,192,367142,1,0,0:0:0:0:
256,192,367245,1,0,0:0:0:0:
256,192,367347,1,8,0:0:0:0:
256,192,367450,1,8,0:0:0:0:
256,192,367553,1,0,0:0:0:0:
256,192,367655,1,0,0:0:0:0:
256,192,367758,1,8,0:0:0:0:
256,192,367861,1,0,0:0:0:0:
256,192,367964,1,8,0:0:0:0:
256,192,368066,1,8,0:0:0:0:
256,192,368169,1,8,0:0:0:0:
256,192,368272,1,8,0:0:0:0:
256,192,368375,1,4,0:0:0:0:
256,192,368580,1,0,0:0:0:0:
256,192,368786,1,8,0:0:0:0:
256,192,368991,1,0,0:0:0:0:
256,192,369197,1,8,0:0:0:0:
256,192,369299,1,0,0:0:0:0:
256,192,369402,1,0,0:0:0:0:
256,192,369505,1,0,0:0:0:0:
256,192,369607,1,8,0:0:0:0:
256,192,369916,1,8,0:0:0:0:
256,192,370018,1,0,0:0:0:0:
256,192,370224,1,0,0:0:0:0:
256,192,370327,1,0,0:0:0:0:
256,192,370429,1,8,0:0:0:0:
256,192,370635,1,8,0:0:0:0:
256,192,370840,1,0,0:0:0:0:
256,192,370943,1,0,0:0:0:0:
256,192,371046,1,0,0:0:0:0:
256,192,371149,1,0,0:0:0:0:
256,192,371251,1,8,0:0:0:0:
256,192,371457,1,0,0:0:0:0:
256,192,371662,1,0,0:0:0:0:
256,192,371868,1,0,0:0:0:0:
256,192,371971,1,0,0:0:0:0:
256,192,372073,1,8,0:0:0:0:
256,192,372279,1,0,0:0:0:0:
256,192,372484,1,8,0:0:0:0:
256,192,372587,1,0,0:0:0:0:
256,192,372690,1,0,0:0:0:0:
256,192,372792,1,0,0:0:0:0:
256,192,372895,1,8,0:0:0:0:
256,192,373203,1,8,0:0:0:0:
256,192,373306,1,0,0:0:0:0:
256,192,373512,1,0,0:0:0:0:
256,192,373614,1,0,0:0:0:0:
256,192,373717,1,8,0:0:0:0:
256,192,373923,1,0,0:0:0:0:
256,192,374128,1,0,0:0:0:0:
256,192,374231,1,0,0:0:0:0:
256,192,374334,1,8,0:0:0:0:
256,192,374539,1,8,0:0:0:0:
256,192,374950,1,4,0:0:0:0:
256,192,375155,1,0,0:0:0:0:
256,192,375361,1,8,0:0:0:0:
256,192,375566,1,0,0:0:0:0:
256,192,375772,1,8,0:0:0:0:
256,192,375875,1,8,0:0:0:0:
256,192,375977,1,0,0:0:0:0:
256,192,376080,1,0,0:0:0:0:
256,192,376183,1,8,0:0:0:0:
256,192,376491,1,8,0:0:0:0:
256,192,376594,1,0,0:0:0:0:
256,192,376799,1,0,0:0:0:0:
256,192,376902,1,0,0:0:0:0:
256,192,377005,1,8,0:0:0:0:
256,192,377210,1,8,0:0:0:0:
256,192,377416,1,0,0:0:0:0:
256,192,377518,1,0,0:0:0:0:
256,192,377621,1,8,0:0:0:0:
256,192,377724,1,0,0:0:0:0:
256,192,377827,1,8,0:0:0:0:
256,192,378032,1,8,0:0:0:0:
256,192,378135,1,8,0:0:0:0:
256,192,378238,1,0,0:0:0:0:
256,192,378443,1,0,0:0:0:0:
256,192,378649,1,8,0:0:0:0:
256,192,378854,1,0,0:0:0:0:
256,192,379060,1,8,0:0:0:0:
256,192,379162,1,8,0:0:0:0:
256,192,379265,1,0,0:0:0:0:
256,192,379368,1,0,0:0:0:0:
256,192,379471,1,8,0:0:0:0:
256,192,379779,1,8,0:0:0:0:
256,192,379882,1,0,0:0:0:0:
256,192,380087,1,0,0:0:0:0:
256,192,380190,1,8,0:0:0:0:
256,192,380395,1,0,0:0:0:0:
256,192,380498,1,8,0:0:0:0:
256,192,380703,1,0,0:0:0:0:
256,192,380806,1,0,0:0:0:0:
256,192,380909,1,0,0:0:0:0:
256,192,381012,1,0,0:0:0:0:
256,192,381114,1,8,0:0:0:0:
256,192,381525,1,4,0:0:0:0:
256,192,381731,1,0,0:0:0:0:
256,192,381937,1,8,0:0:0:0:
256,192,382142,1,0,0:0:0:0:
256,192,382348,1,8,0:0:0:0:
256,192,382450,1,0,0:0:0:0:
256,192,382553,1,0,0:0:0:0:
256,192,382656,1,0,0:0:0:0:
256,192,382758,1,8,0:0:0:0:
256,192,383067,1,8,0:0:0:0:
256,192,383169,1,0,0:0:0:0:
256,192,383375,1,0,0:0:0:0:
256,192,383580,1,8,0:0:0:0:
256,192,383786,1,8,0:0:0:0:
256,192,383991,1,0,0:0:0:0:
256,192,384094,1,0,0:0:0:0:
256,192,384197,1,0,0:0:0:0:
256,192,384300,1,0,0:0:0:0:
256,192,384402,1,8,0:0:0:0:
256,192,384608,1,0,0:0:0:0:
256,192,384813,1,0,0:0:0:0:
256,192,385019,1,0,0:0:0:0:
256,192,385224,1,8,0:0:0:0:
256,192,385430,1,0,0:0:0:0:
256,192,385635,1,8,0:0:0:0:
256,192,385738,1,0,0:0:0:0:
256,192,385841,1,0,0:0:0:0:
256,192,385943,1,0,0:0:0:0:
256,192,386046,1,8,0:0:0:0:
256,192,386354,1,8,0:0:0:0:
256,192,386457,1,0,0:0:0:0:
256,192,386663,1,0,0:0:0:0:
256,192,386868,1,8,0:0:0:0:
256,192,387074,1,8,0:0:0:0:
256,192,387279,1,0,0:0:0:0:
256,192,387382,1,0,0:0:0:0:
256,192,387485,1,8,0:0:0:0:
256,192,387587,1,0,0:0:0:0:
256,192,387690,1,8,0:0:0:0:
256,192,387792,1,0,0:0:0:0:
256,192,387895,1,8,0:0:0:0:
256,192,388101,1,4,0:0:0:0:
256,192,388306,1,0,0:0:0:0:
256,192,388512,1,8,0:0:0:0:
256,192,388717,1,0,0:0:0:0:
256,192,388923,1,8,0:0:0:0:
256,192,389026,1,8,0:0:0:0:
256,192,389128,1,0,0:0:0:0:
256,192,389231,1,0,0:0:0:0:
256,192,389334,1,8,0:0:0:0:
256,192,389642,1,8,0:0:0:0:
256,192,389745,1,0,0:0:0:0:
256,192,389950,1,0,0:0:0:0:
256,192,390156,1,8,0:0:0:0:
256,192,390361,1,8,0:0:0:0:
256,192,390566,1,4,0:0:0:0:
256,192,390875,1,4,0:0:0:0:
256,192,391183,1,4,0:0:0:0:
256,192,391389,1,4,0:0:0:0:
256,192,392211,1,8,0:0:0:0:
256,192,392416,1,0,0:0:0:0:
256,192,392519,1,0,0:0:0:0:
256,192,392622,1,8,0:0:0:0:
256,192,392827,1,8,0:0:0:0:
256,192,392929,1,0,0:0:0:0:
256,192,394265,1,8,0:0:0:0:
256,192,394334,1,8,0:0:0:0:
256,192,394402,1,8,0:0:0:0:
256,192,394471,1,8,0:0:0:0:
256,192,394676,1,4,0:0:0:0:
256,192,396320,1,0,0:0:0:0:
256,192,397964,5,0,0:0:0:0:
256,192,401251,5,8,0:0:0:0:
256,192,402895,1,8,0:0:0:0:
256,192,404539,1,8,0:0:0:0:
256,192,407827,1,0,0:0:0:0:
256,192,409471,1,0,0:0:0:0:
256,192,411114,1,0,0:0:0:0:
256,192,414402,1,8,0:0:0:0:
256,192,416046,1,8,0:0:0:0:
256,192,417690,1,8,0:0:0:0:
256,192,419334,12,0,420977,0:0:0:0:
