osu file format v14

[General]
AudioFilename: audio-1.mp3
AudioLeadIn: 0
PreviewTime: -1
Countdown: 0
SampleSet: None
StackLeniency: 0.2
Mode: 0
LetterboxInBreaks: 0
WidescreenStoryboard: 0

[Editor]
DistanceSpacing: 1
BeatDivisor: 8
GridSize: 8
TimelineZoom: 1.5

[Metadata]
Title:LET'S JUMP (Camellia's 'diffractive' Hardcore Remix)
TitleUnicode:LET'S JUMP (かめりあ's 'diffractive' Hardcore Remix)
Artist:Camellia
ArtistUnicode:かめりあ
Creator:John5678
Version:Wave-particle duality
Source:Camellia "Remixes" Summary & VIPs 02 (2018)
Tags:
BeatmapID:1793020
BeatmapSetID:857915

[Difficulty]
HPDrainRate:5
CircleSize:3.8
OverallDifficulty:7.2
ApproachRate:9.4
SliderMultiplier:2.2
SliderTickRate:1

[Events]
//Background and Video events
0,0,"jump.jpg",0,0
//Break Periods
2,47703,54836
//Storyboard Layer 0 (Background)
//Storyboard Layer 1 (Fail)
//Storyboard Layer 2 (Pass)
//Storyboard Layer 3 (Foreground)
//Storyboard Sound Samples

[TimingPoints]
838,333.333333333333,4,2,0,10,1,0
4837,-200,4,2,0,10,0,0
20837,-200,4,2,0,25,0,0
26171,-1200,4,2,0,10,0,0
26504,-66.6666666666667,4,2,0,45,0,0
26837,333.333333333333,4,2,0,45,1,0
26837,-100,4,2,0,45,0,0
27171,-200,4,2,0,45,0,0
27504,-100,4,2,0,45,0,0
28171,-66.6666666666667,4,2,0,45,0,0
28504,-800,4,2,0,45,0,0
29004,-200,4,2,0,45,0,0
29171,-100,4,2,0,45,0,0
29503,-66.6666666666667,4,2,0,45,0,0
29836,-100,4,2,0,45,0,0
31003,-266.66666666666,4,2,0,45,0,0
31503,-1200,4,2,0,45,0,0
31836,-66.6666666666667,4,2,0,45,0,0
32170,-100,4,2,0,45,0,0
32503,-400,4,2,0,45,0,0
32836,-100,4,2,0,45,0,0
33503,-66.6666666666667,4,2,0,45,0,0
33836,-800,4,2,0,45,0,0
34336,-200,4,2,0,45,0,0
34503,-100,4,2,0,45,0,0
34836,-66.6666666666667,4,2,0,45,0,0
35170,-100,4,2,0,45,0,0
36170,-200,4,2,0,45,0,0
36836,-1200,4,2,0,45,0,0
37170,-66.6666666666667,4,2,0,45,0,0
37503,-100,4,2,0,45,0,0
37836,-200,4,2,0,45,0,0
38170,-100,4,2,0,45,0,0
38836,-66.6666666666667,4,2,0,45,0,0
39170,-800,4,2,0,45,0,0
39670,-200,4,2,0,45,0,0
39836,-100,4,2,0,45,0,0
40170,-66.6666666666667,4,2,0,45,0,0
40503,-100,4,2,0,45,0,0
41670,-266.66666666666,4,2,0,45,0,0
42170,-1200,4,2,0,45,0,0
42503,-66.6666666666667,4,2,0,45,0,0
42836,-100,4,2,0,45,0,0
43170,-400,4,2,0,45,0,0
43503,-1200,4,2,0,45,0,0
43836,-66.6666666666667,4,2,0,45,0,0
44170,-100,4,2,0,45,0,0
44503,-400,4,2,0,45,0,0
44836,-1000,4,2,0,45,0,0
45170,-90.9090909090909,4,2,0,45,0,0
45670,-71.4285714285714,4,2,0,45,0,0
46170,-58.8235294117647,4,2,0,45,0,0
46670,-50,4,2,0,45,0,0
47170,-200,4,2,0,45,0,0
47503,333.333333333333,4,2,0,45,1,0
55836,-100,4,2,0,10,0,0
56169,-100,4,2,0,15,0,0
56502,-100,4,2,0,25,0,0
56836,-83.3333333333333,4,2,0,45,0,0
57002,-2000,4,2,0,45,0,0
58169,-66.6666666666667,4,2,0,45,0,0
58502,-100,4,3,0,45,0,0
60836,-66.6666666666667,4,2,0,45,0,0
61169,-100,4,3,0,45,0,0
63502,-66.6666666666667,4,2,0,45,0,0
63836,-100,4,3,0,45,0,0
66169,-66.6666666666667,4,2,0,45,0,0
66502,-100,4,3,0,45,0,0
66836,-66.6666666666667,4,2,0,45,0,0
67169,-100,4,3,0,45,0,0
68836,-66.6666666666667,4,2,0,45,0,0
69169,-100,4,3,0,45,0,0
70169,-66.6666666666667,4,2,0,45,0,0
70502,-100,4,3,0,45,0,0
71002,-66.6666666666667,4,2,0,45,0,0
71836,-100,4,3,0,45,0,0
72836,-66.6666666666667,4,2,0,45,0,0
73169,-100,4,3,0,45,0,0
73669,-66.6666666666667,4,2,0,45,0,0
74502,-100,4,3,0,45,0,0
74836,-66.6666666666667,4,2,0,45,0,0
75169,-100,4,3,0,45,0,0
75502,-66.6666666666667,4,2,0,45,0,0
75836,-100,4,3,0,45,0,0
76169,-66.6666666666667,4,2,0,45,0,0
76836,-100,4,3,0,45,0,0
77502,-66.6666666666667,4,2,0,45,0,0
77752,-57.1428571428571,4,2,0,45,0,0
78002,-50,4,2,0,45,0,0
78169,-50,4,2,0,5,0,0
78252,-100,4,2,0,30,0,0
79502,-80,4,3,0,55,0,1
79836,-100,4,3,0,55,0,0
80836,-90.9090909090909,4,3,0,55,0,0
81169,-100,4,3,0,55,0,0
82169,-80,4,3,0,55,0,1
82502,-100,4,3,0,55,0,0
83502,-100,4,3,0,40,0,0
83836,-100,4,3,0,55,0,0
84336,-83.3333333333333,4,3,0,55,0,0
84502,-66.6666666666667,4,3,0,55,0,0
84836,-80,4,3,0,55,0,1
85169,-100,4,3,0,55,0,0
86169,-90.9090909090909,4,3,0,55,0,0
86502,-100,4,3,0,55,0,0
87502,-80,4,3,0,55,0,1
87836,-100,4,3,0,55,0,0
88836,-133.333333333333,4,3,0,55,0,0
90169,-74.0740740740741,4,3,0,55,0,1
90502,-90.9090909090909,4,3,0,55,0,0
91502,-83.3333333333333,4,3,0,55,0,0
91836,-90.9090909090909,4,3,0,55,0,0
92836,-74.0740740740741,4,3,0,55,0,1
93169,-90.9090909090909,4,3,0,55,0,0
94169,-90.9090909090909,4,3,0,55,0,0
95502,-66.6666666666667,4,3,0,55,0,0
95836,-76.9230769230769,4,3,0,55,0,0
95919,-76.9230769230769,4,3,0,55,0,1
96169,-90.9090909090909,4,3,0,55,0,0
96836,-83.3333333333333,4,3,0,55,0,0
97169,-90.9090909090909,4,3,0,55,0,0
97836,-90.9090909090909,4,3,0,40,0,0
98169,-71.4285714285714,4,3,0,55,0,1
98502,-71.4285714285714,4,3,0,55,0,0
98836,-71.4285714285714,4,3,0,55,0,1
99169,-71.4285714285714,4,3,0,55,0,0
100502,-800,4,3,0,55,0,0
100836,-50,4,3,0,45,0,1
103169,-66.6666666666667,4,2,0,45,0,0
103502,-50,4,3,0,45,0,1
108502,-66.6666666666667,4,2,0,45,0,0
108836,-66.6666666666667,4,2,0,45,0,1
110169,-76.9230769230769,4,2,0,45,0,0
111502,-66.6666666666667,4,2,0,45,0,1
113836,-66.6666666666667,4,2,0,45,0,0
114169,-66.6666666666667,4,2,0,45,0,1
116836,-71.4285714285714,4,2,0,45,0,1
122169,-100,4,2,0,45,0,0

[Colours]
Combo1 : 23,112,219
Combo2 : 155,155,155
Combo3 : 133,169,150
Combo4 : 35,196,169
Combo5 : 70,70,255
Combo6 : 0,136,119
SliderBorder : 148,188,207
SliderTrackOverride : 0,18,31

[HitObjects]
61,146,4837,6,0,B|49:100|49:100|12:129|12:129|57:280|57:280|137:236|195:304|195:304|251:355|318:321|318:321|263:206|263:206|313:181|313:181|251:74|251:74|201:66|201:66|191:58|191:58|185:64|185:64|127:57|127:57|212:150|212:150|263:127|263:127|281:131|281:131|330:106|330:106|339:93|339:93|352:85|352:85|346:45|364:21|364:21|451:78|439:173|377:226|377:226|413:301|413:301|448:302|448:302|450:282,1,1705
462,218,10171,6,0,B|469:163|469:163|483:145|483:145|392:204|302:194|240:153|195:93|187:66|187:66|274:111|358:79|416:45|425:18|425:18|368:9|368:9|307:116|385:256|322:358|245:358|194:326|194:326|119:282|42:313|42:313|119:266|165:349|265:273|260:153|131:116|86:182|85:202,1,1705
92,316,15504,70,0,B|172:366|217:338|239:280|345:351|345:351|377:296|442:284|442:284|431:223|461:186|461:186|443:145|465:121|465:121|512:47|425:-40|321:25|326:132|326:132|329:200|252:276|168:250|148:220|139:189|139:189|190:244|271:221|296:129|250:68|171:75|171:75|35:91|35:91|59:74|72:46|72:46|97:57|97:57|167:49,1,1705
275,35,20837,5,0,0:0:0:0:
186,144,21004,1,0,0:0:0:0:
195,65,21171,1,0,0:0:0:0:
121,94,21337,69,0,0:0:0:0:
179,263,21504,1,0,0:0:0:0:
107,204,21671,1,0,0:0:0:0:
191,173,21837,5,0,0:0:0:0:
319,338,22004,1,0,0:0:0:0:
370,225,22171,69,0,0:0:0:0:
291,221,22337,1,0,0:0:0:0:
423,141,22504,1,0,0:0:0:0:
454,252,22671,5,0,0:0:0:0:
325,289,22837,1,0,0:0:0:0:
350,108,23004,1,0,0:0:0:0:
195,177,23171,69,0,0:0:0:0:
325,289,23337,1,0,0:0:0:0:
434,218,23504,38,0,L|448:177,2,36.6666666666667
339,143,23837,2,0,L|352:102,2,36.6666666666667
203,225,24171,5,0,0:0:0:0:
274,187,24282,1,0,0:0:0:0:
205,144,24393,1,0,0:0:0:0:
283,288,24504,5,0,0:0:0:0:
350,243,24615,1,0,0:0:0:0:
428,249,24726,1,0,0:0:0:0:
363,342,24837,53,0,0:0:0:0:
271,365,24949,1,0,0:0:0:0:
190,323,25060,1,0,0:0:0:0:
100,331,25171,5,0,0:0:0:0:
100,331,25282,1,0,0:0:0:0:
100,331,25393,1,0,0:0:0:0:
100,331,25504,5,0,0:0:0:0:
354,193,26171,54,0,L|335:191,1,16.5
252,180,26504,2,0,P|240:235|399:299,1,247.500009441376
443,217,26837,6,0,P|450:182|450:155,1,55
443,217,27004,2,0,P|444:181|440:154,1,55
443,217,27171,2,0,P|427:148|403:126,1,82.5
320,137,27504,6,0,P|296:191|367:291,1,165
457,156,27837,2,0,P|450:121|436:87,1,55
457,156,28004,2,0,P|442:123|421:93,1,55
320,137,28171,54,0,B|212:79|178:219|59:112,1,247.500009441376
48,108,28504,6,0,L|48:120,1,6.875
78,225,28671,2,0,L|79:251,1,20.625
81,294,29004,6,0,L|128:290,1,27.5
214,284,29171,2,0,L|277:280,1,55
359,273,29337,2,0,L|418:268,1,55
354,160,29503,54,0,L|257:166,1,82.5000031471254
359,273,29670,2,0,L|446:266,1,82.5000031471254
479,188,29836,6,0,L|416:192,1,55
482,177,30003,2,0,L|421:180,1,55
295,207,30170,6,0,L|234:210,1,55
122,240,30336,2,0,L|61:243,1,55
207,309,30503,54,0,L|267:304,1,55
381,264,30669,2,0,L|441:259,1,55
357,169,30836,6,0,L|351:98,1,55
343,35,31003,6,0,B|286:40|286:40|262:49|262:49|228:51,1,103.125003933907
174,54,31503,54,0,L|157:55,1,16.5
62,76,31836,2,0,P|160:162|269:133,1,247.500009441376
341,50,32170,6,0,L|343:110,1,55
341,50,32336,2,0,L|343:118,1,55
260,216,32503,6,0,P|293:203|303:192,1,41.25
381,160,32836,54,0,P|434:199|381:288,1,165
298,328,33170,6,0,L|221:333,1,55
137,336,33336,2,0,L|73:338,1,55
243,331,33503,2,0,P|341:266|331:141,1,247.500009441376
261,108,33836,6,0,L|250:110,1,6.875
181,156,34003,2,0,L|160:152,1,20.625
80,113,34336,54,0,L|83:151,1,27.5
85,215,34503,2,0,L|88:276,1,55
90,316,34670,2,0,L|93:377,1,55
192,275,34836,6,0,L|287:273,1,82.5000031471254
365,331,35003,2,0,L|362:218,1,82.5000031471254
297,142,35170,6,0,L|206:143,1,55
369,93,35336,2,0,L|450:93,1,55
262,220,35503,54,0,L|194:221,1,55
257,230,35670,2,0,L|189:231,1,55
68,278,35836,6,0,L|156:275,1,55
223,314,36003,6,0,L|258:313,1,27.5
223,314,36086,2,0,L|259:314,1,27.5
223,314,36170,54,0,L|308:312,2,82.5
301,233,36836,6,0,L|319:232,1,16.5
420,268,37170,2,0,B|417:179|417:179|400:137|400:137|394:6,1,247.500009441376
301,82,37503,6,0,L|303:148,1,55
301,82,37670,2,0,L|284:142,1,55
301,82,37836,2,0,L|252:151,1,82.5
413,258,38170,54,0,L|409:103,1,137.5
286,86,38503,2,0,L|247:145,1,55
286,86,38670,2,0,L|239:132,1,55
102,172,38836,6,0,B|163:177|163:177|199:209|199:209|345:219,1,247.500009441376
392,272,39170,6,0,L|392:282,1,6.875
346,344,39336,2,0,L|346:367,1,20.625
231,331,39670,54,0,L|266:332,1,27.5
268,255,39836,2,0,L|334:256,1,55
298,177,40003,2,0,L|364:178,1,55
201,156,40170,6,0,L|80:157,1,82.5000031471254
268,255,40336,2,0,L|378:255,1,82.5000031471254
424,118,40503,6,0,L|353:130,1,55
415,127,40670,2,0,L|348:138,1,55
271,149,40836,54,0,L|187:163,1,55
132,185,41003,2,0,L|48:199,1,55
165,284,41170,6,0,L|235:293,1,55
319,267,41336,2,0,L|405:278,1,55
461,221,41503,6,0,L|471:140,1,55
385,65,41670,2,0,B|366:63|366:63|322:119|322:119|298:117,1,103.125003933907
205,108,42170,54,0,L|207:126,1,16.5
107,177,42503,2,0,B|134:215|194:213|194:213|259:211|259:211|265:216|265:216|271:211|271:211|356:209,1,247.500009441376
414,208,42836,6,0,L|363:237,1,55
269,286,43003,2,0,L|341:317,1,55
424,348,43170,6,0,L|418:300,1,41.25
305,207,43503,54,0,L|286:209,1,16.5
200,274,43836,2,0,P|328:326|424:227,1,247.500009441376
393,153,44170,6,0,L|336:158,1,55
393,153,44336,2,0,L|329:157,1,55
244,165,44503,6,0,L|200:167,1,41.25
117,224,44836,38,0,L|118:244,1,16.5
166,307,45170,6,0,P|221:297|268:251,1,121.000003692627
166,152,45420,2,0,P|208:174|257:103,1,121.000003692627
358,39,45670,70,0,B|384:31|384:31|363:195,1,153.999995300293
346,244,45920,2,0,P|365:315|485:306,1,153.999995300293
493,177,46170,38,0,B|441:173|441:173|437:167|437:167|432:171|432:171|406:168|406:168|387:169|387:169|294:158,1,187.000003566742
188,151,46420,2,0,B|161:197|161:197|162:240|162:240|158:242|158:242|162:245|162:245|163:288|163:288|225:286,1,187.000003566742
320,282,46670,38,0,B|394:279|394:279|400:274|400:274|443:271|443:271|377:188,1,220
256,11,46920,2,0,B|285:24|283:66|283:66|276:167|276:167|276:204|298:221,1,220
229,278,47170,54,0,P|200:276|230:277,1,110
72,240,55836,5,0,0:0:0:0:
106,217,55919,1,0,0:0:0:0:
141,217,56002,1,0,0:0:0:0:
170,237,56086,1,0,0:0:0:0:
199,262,56169,5,0,0:0:0:0:
237,273,56252,1,0,0:0:0:0:
278,266,56336,1,0,0:0:0:0:
312,242,56419,1,0,0:0:0:0:
336,207,56502,5,0,0:0:0:0:
376,177,56586,1,0,0:0:0:0:
423,165,56669,1,0,0:0:0:0:
472,171,56752,1,0,0:0:0:0:
512,199,56836,6,0,L|496:270,1,65.9999979858399
427,291,57002,54,0,P|415:316|432:307,1,66
470,185,58169,6,0,B|354:144|345:237|219:185,1,247.500009441376
145,167,58502,6,0,L|151:238,1,55
145,167,58669,2,0,L|150:241,1,55
159,326,58836,5,0,0:0:0:0:
172,329,58919,1,0,0:0:0:0:
186,332,59002,1,0,0:0:0:0:
268,344,59169,2,0,P|311:343|371:309,1,110
411,205,59502,37,0,0:0:0:0:
391,205,59586,1,0,0:0:0:0:
370,205,59669,1,0,0:0:0:0:
285,235,59836,2,0,B|255:234|255:234|224:213|224:213|170:211,1,110
78,246,60169,5,0,0:0:0:0:
79,256,60252,1,0,0:0:0:0:
80,266,60336,1,0,0:0:0:0:
155,334,60502,6,0,L|158:260,1,55
216,164,60669,2,0,L|218:90,1,55
110,76,60836,6,0,P|160:221|250:250,1,247.500009441376
345,252,61169,38,0,L|416:247,1,55
345,252,61336,2,0,L|419:248,1,55
261,302,61503,5,0,0:0:0:0:
274,305,61586,1,0,0:0:0:0:
288,308,61669,1,0,0:0:0:0:
227,214,61836,2,0,B|166:217|166:217|117:237,1,110
411,205,62169,5,0,0:0:0:0:
391,205,62253,1,0,0:0:0:0:
370,205,62336,1,0,0:0:0:0:
285,235,62503,2,0,B|254:215|254:215|168:216,1,110
224,308,62836,5,0,0:0:0:0:
225,318,62919,1,0,0:0:0:0:
226,328,63002,38,0,L|147:344,1,55
95,305,63169,2,0,L|178:291,1,55
201,251,63336,2,0,L|274:238,1,55
286,178,63502,6,0,B|332:197|332:197|326:96|326:96|316:74|316:74|322:59|322:59|316:-19,1,247.500009441376
144,63,63836,70,0,L|215:58,1,55
188,133,64003,2,0,L|263:128,1,55
411,124,64170,5,0,0:0:0:0:
412,140,64253,1,0,0:0:0:0:
413,156,64336,1,0,0:0:0:0:
188,133,64503,2,0,B|103:138|103:138|170:168,1,110
203,258,64836,5,0,0:0:0:0:
206,247,64920,1,0,0:0:0:0:
209,234,65003,1,0,0:0:0:0:
300,69,65170,2,0,B|269:49|269:49|183:50,1,110
86,220,65503,5,0,0:0:0:0:
95,220,65586,1,0,0:0:0:0:
104,220,65669,1,0,0:0:0:0:
82,311,65836,38,0,L|165:297,1,55
60,137,66003,2,0,L|133:124,1,55
231,291,66169,6,0,B|276:330|276:330|468:322,1,247.500009441376
489,276,66502,2,0,L|414:279,1,55
359,159,66669,5,0,0:0:0:0:
341,179,66752,1,0,0:0:0:0:
325,197,66836,6,0,B|300:214|276:224|276:224|274:219|274:219|272:225|272:225|243:237|209:240|209:240|208:245|208:245|205:240|205:240|168:238|141:225|141:225|143:220|143:220|138:224|138:224|112:214|75:190,1,247.500009441376
51,172,67169,2,0,L|56:254,1,55
137,102,67336,37,0,0:0:0:0:
156,105,67419,1,0,0:0:0:0:
176,109,67502,5,0,0:0:0:0:
255,180,67669,2,0,L|317:175,1,55
319,42,67836,2,0,L|396:39,2,55
388,140,68169,5,0,0:0:0:0:
312,283,68336,2,0,L|225:287,1,55
255,180,68502,2,0,L|168:184,2,55
155,288,68836,6,0,B|94:298|94:298|104:205|104:205|112:186|112:186|123:77,1,247.500009441376
215,92,69169,2,0,L|280:72,1,55
326,131,69336,2,0,L|390:106,1,55
386,204,69502,37,0,0:0:0:0:
388,222,69586,1,0,0:0:0:0:
390,242,69669,1,0,0:0:0:0:
290,338,69836,2,0,L|302:269,1,55
472,158,70002,2,0,L|478:244,1,55
310,259,70169,6,0,B|247:289|247:289|275:193|275:193|279:189|279:189|247:115,1,247.500009441376
121,211,70502,2,0,L|194:221,1,55
323,340,70669,2,0,L|395:346,1,55
447,266,70836,5,0,0:0:0:0:
447,266,70919,1,0,0:0:0:0:
447,266,71002,6,0,P|418:169|331:200,1,165.000006294251
495,213,71252,2,0,P|447:149|315:146,1,165.000006294251
237,180,71502,2,0,B|255:91|255:91|270:30|332:31|332:31|301:89,1,247.500009441376
365,155,71836,38,0,L|351:230,1,55
316,284,72002,2,0,L|299:371,1,55
151,298,72169,5,0,0:0:0:0:
160,299,72252,1,0,0:0:0:0:
170,301,72336,1,0,0:0:0:0:
316,284,72502,2,0,L|387:278,1,55
226,174,72669,2,0,L|142:182,1,55
316,284,72836,6,0,B|368:320|368:320|477:308|477:308|466:273|466:273|486:231,1,247.500009441376
386,173,73169,2,0,L|380:96,1,55
277,184,73336,2,0,L|274:99,1,55
170,198,73502,5,0,0:0:0:0:
172,230,73586,1,0,0:0:0:0:
174,263,73669,38,0,B|186:306|186:306|17:297,1,165.000006294251
324,228,73919,2,0,B|336:271|336:271|167:262,1,165.000006294251
324,228,74169,2,0,B|501:235|501:235|474:184|474:184|434:183,1,247.500009441376
386,111,74502,6,0,L|303:107,1,55
202,133,74669,1,0,0:0:0:0:
185,132,74752,1,0,0:0:0:0:
168,130,74836,2,0,P|66:120|93:248,1,247.500009441376
174,297,75169,6,0,L|272:289,1,55
372,281,75336,1,0,0:0:0:0:
372,281,75419,1,0,0:0:0:0:
372,281,75502,2,0,P|326:220|459:198,1,247.500009441376
455,348,75836,6,0,L|373:354,1,55
258,347,76002,1,0,0:0:0:0:
245,330,76086,1,0,0:0:0:0:
232,310,76169,38,0,P|206:242|226:96,1,165.000006294251
273,37,76419,2,0,B|243:57|232:86|232:86|408:86,1,165.000006294251
445,130,76669,1,0,0:0:0:0:
445,130,76752,1,0,0:0:0:0:
413,176,76836,6,0,L|372:174,1,27.5
406,194,76919,2,0,L|365:192,1,27.5
401,211,77002,2,0,L|360:209,1,27.5
394,229,77085,2,0,L|353:227,1,27.5
310,288,77169,6,0,L|351:286,1,27.5
317,306,77252,2,0,L|358:304,1,27.5
322,323,77335,2,0,L|363:321,1,27.5
329,341,77418,2,0,L|370:339,1,27.5
448,349,77502,6,0,P|486:263|486:182,1,165.000006294251
298,202,77752,2,0,B|365:215|365:215|530:185,1,192.500001835823
405,82,78002,2,0,B|348:46|297:53|297:53|292:50|292:50|288:55|288:55|241:65|184:128,1,220
256,192,78252,12,0,79336,0:0:0:0:
157,287,79502,6,0,B|259:258|273:316|384:276,1,206.25
439,241,79836,6,0,L|429:180,1,55
365,116,80002,2,0,L|351:45,1,55
278,117,80169,2,0,B|266:173|266:173|279:246,1,110
212,331,80419,1,0,0:0:0:0:
212,331,80502,2,0,L|188:204,1,110
285,68,80836,6,0,B|277:86|301:93|301:93|296:109|283:122|283:122|312:144|302:222|275:254,1,181.500005538941
299,301,81169,54,0,L|301:364,1,55
161,224,81336,2,0,L|166:150,1,55
375,64,81502,2,0,L|382:206,1,110
401,300,81836,6,0,L|406:256,1,27.5
380,297,81919,6,0,L|385:253,1,27.5
361,293,82002,6,0,L|366:249,1,27.5
340,290,82085,6,0,L|345:246,1,27.5
321,288,82169,6,0,P|259:228|274:111,1,206.25
392,85,82502,6,0,P|371:114|350:127,1,55
423,203,82669,2,0,P|389:208|351:202,1,55
364,330,82836,2,0,P|283:329|237:315,1,110
219,158,83086,1,0,0:0:0:0:
219,158,83169,2,0,P|221:226|201:289,1,110
24,307,83502,6,0,L|-2:333,1,27.5
51,316,83586,2,0,L|42:351,1,27.5
80,310,83669,2,0,L|90:345,1,27.5
102,295,83752,2,0,L|128:321,1,27.5
118,272,83836,6,0,P|119:217|112:200,1,55
213,157,84002,1,0,0:0:0:0:
226,216,84086,1,0,0:0:0:0:
236,274,84169,2,0,L|298:266,1,55
458,281,84336,6,0,L|378:292,1,65.9999979858399
279,347,84502,2,0,B|327:341|327:341|319:222|319:222|323:210|323:210|318:209|318:209|314:136,1,247.500009441376
372,59,84836,38,0,B|364:81|364:81|312:56|312:56|310:47|310:47|306:53|306:53|246:24|246:24|173:25,1,206.25
200,122,85169,2,0,L|242:160,1,55
99,153,85336,2,0,L|150:203,1,55
254,280,85502,6,0,B|297:316|297:316|375:304,1,110
382,198,85752,1,0,0:0:0:0:
382,198,85836,2,0,B|339:162|339:162|261:174,1,110
372,294,86169,6,0,B|317:253|317:253|201:277,1,181.500005538941
99,303,86502,54,0,L|106:231,1,55
182,131,86669,2,0,L|175:207,1,55
165,338,86836,2,0,B|210:342|210:342|290:325,1,110
323,218,87169,6,0,L|325:181,1,27.5
339,205,87252,6,0,L|341:168,1,27.5
355,193,87336,6,0,L|357:156,1,27.5
369,182,87419,6,0,L|371:145,1,27.5
384,173,87502,6,0,B|394:74|394:74|364:48|364:48|287:46,1,206.25
210,117,87836,6,0,L|269:117,1,55
261,207,88002,2,0,L|194:207,1,55
95,275,88169,5,0,0:0:0:0:
126,284,88252,1,0,0:0:0:0:
157,292,88336,1,0,0:0:0:0:
188,302,88419,1,0,0:0:0:0:
230,311,88502,5,0,0:0:0:0:
279,318,88586,1,0,0:0:0:0:
327,323,88669,1,0,0:0:0:0:
375,329,88752,1,0,0:0:0:0:
413,332,88836,6,0,L|412:285,1,41.2500015735627
448,197,89002,2,0,L|446:138,1,41.2500015735627
365,119,89169,2,0,L|369:205,1,82.5000031471254
318,260,89419,1,0,0:0:0:0:
283,294,89502,5,0,0:0:0:0:
256,296,89586,1,0,0:0:0:0:
228,297,89669,2,0,L|183:299,1,41.2500015735627
114,319,89836,6,0,L|106:181,1,123.750004720688
102,114,90169,38,0,B|170:109|170:109|219:133|270:103|270:103|337:97,1,222.750000849724
345,183,90502,6,0,L|269:190,1,60.5000018463135
101,251,90669,2,0,L|172:246,1,60.5000018463135
215,31,90836,2,0,L|90:38,1,121.000003692627
57,147,91086,5,0,0:0:0:0:
57,147,91169,2,0,P|116:146|186:162,1,121.000003692627
235,292,91502,6,0,B|190:247|190:247|191:238|191:238|184:322|134:358,1,197.99999395752
290,346,91836,6,0,L|352:344,1,60.5000018463135
455,282,92002,2,0,L|387:282,1,60.5000018463135
261,279,92169,2,0,P|227:209|262:154,1,121.000003692627
381,82,92502,6,0,L|413:85,1,30.2500009231568
340,88,92586,2,0,L|380:92,1,30.2500009231568
301,95,92669,2,0,L|333:98,1,30.2500009231568
260,101,92753,2,0,L|300:105,1,30.2500009231568
224,106,92836,6,0,B|163:106|138:49|138:49|103:116|122:175,1,222.750000849724
103,249,93169,6,0,L|112:317,1,60.5000018463135
188,239,93336,2,0,L|197:307,1,60.5000018463135
274,254,93502,2,0,B|316:249|316:249|360:255|360:255|406:250,1,121.000003692627
487,238,93752,5,0,0:0:0:0:
490,266,93836,2,0,B|497:348|497:348|451:337,1,121.000003692627
393,184,94169,6,0,L|389:134,6,30.2500009231568
294,229,94502,5,0,0:0:0:0:
233,239,94586,1,0,0:0:0:0:
198,291,94669,1,0,0:0:0:0:
140,300,94752,1,0,0:0:0:0:
99,304,94836,6,0,L|27:311,1,60.5000018463135
84,119,95002,2,0,P|114:152|118:190,1,60.5000018463135
295,141,95169,2,0,P|255:161|237:195,1,60.5000018463135
266,263,95336,2,0,P|263:307|283:340,1,60.5000018463135
374,306,95502,6,0,B|392:321|420:326|420:326|434:236|434:236|442:228|442:228|436:224|436:224|449:135,1,247.500009441376
364,55,95836,5,0,0:0:0:0:
364,55,95919,2,0,L|341:200,1,142.99999345398
250,233,96169,6,0,B|161:231|161:231|113:251,1,121.000003692627
191,350,96419,1,0,0:0:0:0:
214,360,96502,2,0,B|307:359|307:359|353:337,1,121.000003692627
445,338,96836,6,0,B|394:228|394:228|444:157,1,197.99999395752
493,89,97169,6,0,L|410:80,1,60.5000018463135
295,124,97336,2,0,L|215:117,1,60.5000018463135
129,213,97502,6,0,B|186:216|186:216|220:238|220:238|252:241,1,121.000003692627
309,242,97836,6,0,L|355:246,1,30.2500009231568
312,258,97919,2,0,L|359:264,1,30.2500009231568
314,275,98002,2,0,L|360:279,1,30.2500009231568
316,291,98085,2,0,L|363:297,1,30.2500009231568
318,307,98169,6,0,B|417:319|417:319|447:324|457:353|457:353|448:298|465:246,1,230.99999295044
466,149,98502,6,0,L|424:154,2,38.4999988250733
350,104,98669,1,0,0:0:0:0:
350,104,98752,1,0,0:0:0:0:
350,104,98836,2,0,B|270:111|270:111|225:94|225:94|156:97|156:97|150:119|150:119|150:149,1,230.99999295044
150,239,99169,6,0,L|193:238,1,38.4999988250733
169,286,99252,2,0,L|221:287,1,38.4999988250733
188,334,99336,2,0,L|231:333,1,38.4999988250733
207,381,99419,2,0,L|259:382,1,38.4999988250733
256,192,99502,12,0,100419,0:0:0:0:
256,192,100502,6,0,L|259:213,1,20.625
266,269,100836,38,0,P|180:288|145:244,1,110
85,98,101002,2,0,L|94:209,1,110
248,124,101169,2,0,L|240:13,1,110
166,146,101336,1,0,0:0:0:0:
245,200,101502,5,0,0:0:0:0:
326,219,101586,1,0,0:0:0:0:
401,180,101669,1,0,0:0:0:0:
479,206,101752,1,0,0:0:0:0:
461,303,101836,6,0,P|419:322|347:300,1,110
147,99,102002,1,0,0:0:0:0:
147,99,102086,1,0,0:0:0:0:
151,103,102169,54,0,B|271:108,1,110
229,316,102336,1,0,0:0:0:0:
222,323,102419,2,0,P|156:310|165:236,1,110
341,173,102586,1,0,0:0:0:0:
341,183,102669,2,0,P|284:229|311:285,1,110
449,279,102836,5,0,0:0:0:0:
466,200,102919,1,0,0:0:0:0:
430,130,103002,1,0,0:0:0:0:
361,94,103086,1,0,0:0:0:0:
285,101,103169,6,0,B|164:129|164:129|192:66,1,165.000006294251
327,199,103502,54,0,B|297:276|297:276|312:339,1,110
217,333,103669,2,0,B|197:262|197:262|207:210,1,110
313,92,103836,2,0,B|333:163|333:163|323:215,1,110
146,148,104002,1,0,0:0:0:0:
213,260,104169,5,0,0:0:0:0:
300,284,104252,1,0,0:0:0:0:
392,277,104336,1,0,0:0:0:0:
476,233,104419,1,0,0:0:0:0:
490,139,104502,5,0,0:0:0:0:
417,88,104586,1,0,0:0:0:0:
331,90,104669,1,0,0:0:0:0:
267,143,104752,1,0,0:0:0:0:
