osu file format v14

[General]
AudioFilename: audio.mp3
AudioLeadIn: 0
PreviewTime: 135704
Countdown: 0
SampleSet: Normal
StackLeniency: 0.7
Mode: 1
LetterboxInBreaks: 0
WidescreenStoryboard: 0

[Editor]
Bookmarks: 38,2704,13371,24037,34704,45371,56037,66704,77371,88037,98704,109371,120037,130704,136037,178704,189371,200037,210704,218710,221870
DistanceSpacing: 2.1
BeatDivisor: 4
GridSize: 32
TimelineZoom: 2.4

[Metadata]
Title:Kono Hoshi de....
TitleUnicode:この星で・・・。
Artist:Camellia
ArtistUnicode:かめりあ
Creator:eiri-
Version:Oni
Source:ゆめにっき
Tags:Ayyri Yume Nikki 夢日記 窓付き Dream Diary Madotsuki 窓付き Windowed MegaMix Mega Mix かめるかめりあ Cametek KamelCamellia Electronic Instrumental Video Game
BeatmapID:1985616
BeatmapSetID:950793

[Difficulty]
HPDrainRate:5
CircleSize:2
OverallDifficulty:5.5
ApproachRate:10
SliderMultiplier:1.4
SliderTickRate:1

[Events]
//Background and Video events
0,0,"Madotsuki 364.jpg",0,-60
//Break Periods
//Storyboard Layer 0 (Background)
//Storyboard Layer 1 (Fail)
//Storyboard Layer 2 (Pass)
//Storyboard Layer 3 (Foreground)
//Storyboard Layer 4 (Overlay)
//Storyboard Sound Samples

[TimingPoints]
38,333.333333333333,4,1,0,75,1,0
136037,-100,4,1,0,75,0,1
178704,-100,4,1,0,75,0,0
216871,-103.092783505155,4,1,0,75,0,0
217037,-105.263157894737,4,1,0,75,0,0
217204,-107.52688172043,4,1,0,75,0,0
217371,446.428571428571,3,1,0,75,1,0
217371,-81.9672131147541,3,1,0,75,0,0
218710,494.641384995878,3,1,0,75,1,0
218710,-80,3,1,0,75,0,0
219204,368.098159509202,3,1,0,75,1,8
219204,-125,3,1,0,75,0,0
219572,471.698113207547,3,1,0,75,1,8
219572,-105.263157894737,3,1,0,75,0,8
220043,500,3,1,0,75,1,0
220043,-102.040816326531,3,1,0,75,0,0
220543,413.793103448276,3,1,0,75,1,8
220543,-133.333333333333,3,1,0,75,0,8
221370,500,3,1,0,75,1,0
221370,-114.942528735632,3,1,0,75,0,8
221870,-105.263157894737,3,1,0,75,0,8

[HitObjects]
256,192,2704,5,0,0:0:0:0:
256,192,2871,1,0,0:0:0:0:
256,192,3204,1,0,0:0:0:0:
256,192,3371,1,0,0:0:0:0:
256,192,3621,1,0,0:0:0:0:
256,192,3871,1,0,0:0:0:0:
256,192,4037,1,8,0:0:0:0:
256,192,5037,1,0,0:0:0:0:
256,192,5371,1,0,0:0:0:0:
256,192,5537,1,0,0:0:0:0:
256,192,5871,1,0,0:0:0:0:
256,192,6037,1,0,0:0:0:0:
256,192,6287,1,0,0:0:0:0:
256,192,6537,1,0,0:0:0:0:
256,192,6704,1,8,0:0:0:0:
256,192,7537,1,0,0:0:0:0:
256,192,7704,1,0,0:0:0:0:
256,192,8037,1,0,0:0:0:0:
256,192,8204,1,0,0:0:0:0:
256,192,8537,1,0,0:0:0:0:
256,192,8621,1,0,0:0:0:0:
256,192,8704,1,0,0:0:0:0:
256,192,8954,1,0,0:0:0:0:
256,192,9204,1,0,0:0:0:0:
256,192,9371,1,8,0:0:0:0:
256,192,10537,1,0,0:0:0:0:
256,192,10621,1,0,0:0:0:0:
256,192,10704,1,8,0:0:0:0:
256,192,11037,1,0,0:0:0:0:
256,192,11204,1,8,0:0:0:0:
256,192,11287,1,8,0:0:0:0:
256,192,11371,1,0,0:0:0:0:
256,192,11621,1,0,0:0:0:0:
256,192,11871,1,0,0:0:0:0:
256,192,12037,1,8,0:0:0:0:
256,192,12704,1,0,0:0:0:0:
256,192,12787,1,0,0:0:0:0:
256,192,12871,1,0,0:0:0:0:
256,192,13037,1,8,0:0:0:0:
256,192,13121,1,8,0:0:0:0:
256,192,13204,1,8,0:0:0:0:
256,192,13371,1,0,0:0:0:0:
256,192,13537,1,0,0:0:0:0:
256,192,13704,1,8,0:0:0:0:
256,192,13871,1,0,0:0:0:0:
256,192,14037,1,0,0:0:0:0:
256,192,14287,1,0,0:0:0:0:
256,192,14537,1,0,0:0:0:0:
256,192,14704,1,8,0:0:0:0:
256,192,15037,1,8,0:0:0:0:
256,192,15704,1,0,0:0:0:0:
256,192,15871,1,8,0:0:0:0:
256,192,16037,1,0,0:0:0:0:
256,192,16204,1,0,0:0:0:0:
256,192,16537,1,0,0:0:0:0:
256,192,16704,1,0,0:0:0:0:
256,192,16954,1,0,0:0:0:0:
256,192,17204,1,0,0:0:0:0:
256,192,17371,1,8,0:0:0:0:
256,192,17704,1,8,0:0:0:0:
256,192,18204,1,0,0:0:0:0:
256,192,18371,1,0,0:0:0:0:
256,192,18537,1,8,0:0:0:0:
256,192,18704,1,0,0:0:0:0:
256,192,18871,1,0,0:0:0:0:
256,192,19037,1,8,0:0:0:0:
256,192,19204,1,0,0:0:0:0:
256,192,19287,1,0,0:0:0:0:
256,192,19371,1,0,0:0:0:0:
256,192,19621,1,0,0:0:0:0:
256,192,19871,1,0,0:0:0:0:
256,192,20037,1,8,0:0:0:0:
256,192,20371,1,8,0:0:0:0:
256,192,21204,1,0,0:0:0:0:
256,192,21287,1,0,0:0:0:0:
256,192,21371,1,8,0:0:0:0:
256,192,21537,1,0,0:0:0:0:
256,192,21704,1,8,0:0:0:0:
256,192,21871,1,8,0:0:0:0:
256,192,21954,1,8,0:0:0:0:
256,192,22037,1,0,0:0:0:0:
256,192,22287,1,0,0:0:0:0:
256,192,22537,1,0,0:0:0:0:
256,192,22621,1,0,0:0:0:0:
256,192,22704,1,8,0:0:0:0:
256,192,23037,1,8,0:0:0:0:
256,192,23204,1,0,0:0:0:0:
256,192,23371,1,8,0:0:0:0:
256,192,23454,1,0,0:0:0:0:
256,192,23621,1,8,0:0:0:0:
256,192,23704,1,0,0:0:0:0:
256,192,23871,1,8,0:0:0:0:
256,192,24037,1,12,0:0:0:0:
256,192,24204,1,0,0:0:0:0:
256,192,24371,1,8,0:0:0:0:
256,192,24704,1,0,0:0:0:0:
256,192,24954,1,0,0:0:0:0:
256,192,25204,1,0,0:0:0:0:
256,192,25371,1,8,0:0:0:0:
256,192,25454,1,8,0:0:0:0:
256,192,25537,1,8,0:0:0:0:
256,192,25704,1,8,0:0:0:0:
256,192,25954,1,0,0:0:0:0:
256,192,26037,1,8,0:0:0:0:
256,192,26204,1,8,0:0:0:0:
256,192,26371,1,0,0:0:0:0:
256,192,26621,1,8,0:0:0:0:
256,192,26704,1,0,0:0:0:0:
256,192,26871,1,0,0:0:0:0:
256,192,27037,1,8,0:0:0:0:
256,192,27371,1,0,0:0:0:0:
256,192,27621,1,0,0:0:0:0:
256,192,27871,1,0,0:0:0:0:
256,192,28037,1,8,0:0:0:0:
256,192,28121,1,8,0:0:0:0:
256,192,28204,1,8,0:0:0:0:
256,192,28371,1,8,0:0:0:0:
256,192,28621,1,0,0:0:0:0:
256,192,28704,1,8,0:0:0:0:
256,192,28871,1,8,0:0:0:0:
256,192,29037,1,0,0:0:0:0:
256,192,29287,1,8,0:0:0:0:
256,192,29371,1,0,0:0:0:0:
256,192,29537,1,0,0:0:0:0:
256,192,29704,1,8,0:0:0:0:
256,192,29871,1,0,0:0:0:0:
256,192,29954,1,0,0:0:0:0:
256,192,30037,1,0,0:0:0:0:
256,192,30287,1,0,0:0:0:0:
256,192,30537,1,0,0:0:0:0:
256,192,30704,1,8,0:0:0:0:
256,192,30787,1,8,0:0:0:0:
256,192,30871,1,8,0:0:0:0:
256,192,31037,1,8,0:0:0:0:
256,192,31371,1,8,0:0:0:0:
256,192,31537,1,0,0:0:0:0:
256,192,31704,1,8,0:0:0:0:
256,192,31871,1,0,0:0:0:0:
256,192,31954,1,8,0:0:0:0:
256,192,32037,1,0,0:0:0:0:
256,192,32204,1,0,0:0:0:0:
256,192,32371,1,8,0:0:0:0:
256,192,32537,1,0,0:0:0:0:
256,192,32621,1,0,0:0:0:0:
256,192,32704,1,8,0:0:0:0:
256,192,32871,1,0,0:0:0:0:
256,192,33037,1,8,0:0:0:0:
256,192,33371,1,8,0:0:0:0:
256,192,33454,1,8,0:0:0:0:
256,192,33537,1,8,0:0:0:0:
256,192,33704,1,8,0:0:0:0:
256,192,33871,1,0,0:0:0:0:
256,192,34037,1,8,0:0:0:0:
256,192,34121,1,8,0:0:0:0:
256,192,34204,1,0,0:0:0:0:
256,192,34371,1,8,0:0:0:0:
256,192,34537,1,0,0:0:0:0:
256,192,34704,1,12,0:0:0:0:
256,192,35037,1,8,0:0:0:0:
256,192,35204,1,0,0:0:0:0:
256,192,35371,1,8,0:0:0:0:
256,192,35621,1,8,0:0:0:0:
256,192,35871,1,8,0:0:0:0:
256,192,36037,1,8,0:0:0:0:
256,192,36121,1,8,0:0:0:0:
256,192,36204,1,8,0:0:0:0:
256,192,36371,1,8,0:0:0:0:
256,192,36621,1,0,0:0:0:0:
256,192,36704,1,8,0:0:0:0:
256,192,36871,1,8,0:0:0:0:
256,192,37037,1,0,0:0:0:0:
256,192,37287,1,8,0:0:0:0:
256,192,37371,1,0,0:0:0:0:
256,192,37537,1,0,0:0:0:0:
256,192,37704,1,8,0:0:0:0:
256,192,38037,1,0,0:0:0:0:
256,192,38287,1,0,0:0:0:0:
256,192,38537,1,0,0:0:0:0:
256,192,38704,1,8,0:0:0:0:
256,192,38787,1,8,0:0:0:0:
256,192,38871,1,8,0:0:0:0:
256,192,39037,1,8,0:0:0:0:
256,192,39287,1,0,0:0:0:0:
256,192,39371,1,8,0:0:0:0:
256,192,39537,1,8,0:0:0:0:
256,192,39704,1,0,0:0:0:0:
256,192,39954,1,8,0:0:0:0:
256,192,40037,1,0,0:0:0:0:
256,192,40204,1,0,0:0:0:0:
256,192,40371,1,8,0:0:0:0:
256,192,40537,1,0,0:0:0:0:
256,192,40621,1,0,0:0:0:0:
256,192,40704,1,0,0:0:0:0:
256,192,40954,1,0,0:0:0:0:
256,192,41204,1,0,0:0:0:0:
256,192,41371,1,8,0:0:0:0:
256,192,41454,1,8,0:0:0:0:
256,192,41537,1,8,0:0:0:0:
256,192,41704,1,8,0:0:0:0:
256,192,42037,1,8,0:0:0:0:
256,192,42204,1,0,0:0:0:0:
256,192,42371,1,8,0:0:0:0:
256,192,42537,1,0,0:0:0:0:
256,192,42621,1,8,0:0:0:0:
256,192,42704,1,0,0:0:0:0:
256,192,42871,1,0,0:0:0:0:
256,192,43037,1,8,0:0:0:0:
256,192,43204,1,0,0:0:0:0:
256,192,43287,1,0,0:0:0:0:
256,192,43371,1,8,0:0:0:0:
256,192,43537,1,0,0:0:0:0:
256,192,43704,1,8,0:0:0:0:
256,192,44037,1,8,0:0:0:0:
256,192,44121,1,8,0:0:0:0:
256,192,44204,1,0,0:0:0:0:
256,192,44371,1,8,0:0:0:0:
256,192,44621,1,0,0:0:0:0:
256,192,44704,1,8,0:0:0:0:
256,192,44871,1,0,0:0:0:0:
256,192,45037,1,8,0:0:0:0:
256,192,45121,1,8,0:0:0:0:
256,192,45204,1,8,0:0:0:0:
256,192,45371,1,12,0:0:0:0:
256,192,45704,1,0,0:0:0:0:
256,192,45871,1,0,0:0:0:0:
256,192,46037,1,8,0:0:0:0:
256,192,46287,1,8,0:0:0:0:
256,192,46371,1,0,0:0:0:0:
256,192,46537,1,8,0:0:0:0:
256,192,46704,1,8,0:0:0:0:
256,192,46787,1,8,0:0:0:0:
256,192,46871,1,8,0:0:0:0:
256,192,47037,1,8,0:0:0:0:
256,192,47204,1,0,0:0:0:0:
256,192,47287,1,8,0:0:0:0:
256,192,47537,1,8,0:0:0:0:
256,192,47704,1,0,0:0:0:0:
256,192,47954,1,8,0:0:0:0:
256,192,48037,1,0,0:0:0:0:
256,192,48204,1,0,0:0:0:0:
256,192,48371,1,8,0:0:0:0:
256,192,48704,1,0,0:0:0:0:
256,192,48954,1,0,0:0:0:0:
256,192,49204,1,0,0:0:0:0:
256,192,49371,1,8,0:0:0:0:
256,192,49454,1,8,0:0:0:0:
256,192,49537,1,8,0:0:0:0:
256,192,49704,1,8,0:0:0:0:
256,192,49871,1,0,0:0:0:0:
256,192,49954,1,8,0:0:0:0:
256,192,50121,1,8,0:0:0:0:
256,192,50204,1,0,0:0:0:0:
256,192,50371,1,8,0:0:0:0:
256,192,50621,1,8,0:0:0:0:
256,192,50704,1,0,0:0:0:0:
256,192,50871,1,0,0:0:0:0:
256,192,51037,1,8,0:0:0:0:
256,192,51204,1,0,0:0:0:0:
256,192,51287,1,0,0:0:0:0:
256,192,51371,1,0,0:0:0:0:
256,192,51704,1,8,0:0:0:0:
256,192,51871,1,0,0:0:0:0:
256,192,52037,1,8,0:0:0:0:
256,192,52121,1,8,0:0:0:0:
256,192,52204,1,8,0:0:0:0:
256,192,52371,1,8,0:0:0:0:
256,192,52704,1,8,0:0:0:0:
256,192,52871,1,0,0:0:0:0:
256,192,53037,1,8,0:0:0:0:
256,192,53204,1,0,0:0:0:0:
256,192,53287,1,8,0:0:0:0:
256,192,53371,1,0,0:0:0:0:
256,192,53537,1,0,0:0:0:0:
256,192,53704,1,8,0:0:0:0:
256,192,53871,1,0,0:0:0:0:
256,192,53954,1,0,0:0:0:0:
256,192,54037,1,8,0:0:0:0:
256,192,54204,1,0,0:0:0:0:
256,192,54371,1,8,0:0:0:0:
256,192,54537,1,0,0:0:0:0:
256,192,54704,1,8,0:0:0:0:
256,192,54871,1,8,0:0:0:0:
256,192,54954,1,8,0:0:0:0:
256,192,55037,1,8,0:0:0:0:
256,192,55371,1,0,0:0:0:0:
256,192,55454,1,0,0:0:0:0:
256,192,55537,1,0,0:0:0:0:
256,192,55704,1,8,0:0:0:0:
256,192,55871,1,0,0:0:0:0:
256,192,56037,1,12,0:0:0:0:
256,192,56371,1,0,0:0:0:0:
256,192,56537,1,0,0:0:0:0:
256,192,56704,1,8,0:0:0:0:
256,192,57037,1,8,0:0:0:0:
256,192,57204,1,0,0:0:0:0:
256,192,57371,1,8,0:0:0:0:
256,192,57454,1,8,0:0:0:0:
256,192,57537,1,8,0:0:0:0:
256,192,57704,1,8,0:0:0:0:
256,192,57871,1,0,0:0:0:0:
256,192,57954,1,8,0:0:0:0:
256,192,58204,1,8,0:0:0:0:
256,192,58371,1,0,0:0:0:0:
256,192,58621,1,8,0:0:0:0:
256,192,58704,1,0,0:0:0:0:
256,192,58871,1,0,0:0:0:0:
256,192,59037,1,8,0:0:0:0:
256,192,59371,1,0,0:0:0:0:
256,192,59621,1,0,0:0:0:0:
256,192,59871,1,0,0:0:0:0:
256,192,60037,1,8,0:0:0:0:
256,192,60121,1,8,0:0:0:0:
256,192,60204,1,8,0:0:0:0:
256,192,60371,1,8,0:0:0:0:
256,192,60537,1,0,0:0:0:0:
256,192,60621,1,8,0:0:0:0:
256,192,60787,1,8,0:0:0:0:
256,192,60871,1,0,0:0:0:0:
256,192,61037,1,8,0:0:0:0:
256,192,61287,1,8,0:0:0:0:
256,192,61371,1,0,0:0:0:0:
256,192,61537,1,0,0:0:0:0:
256,192,61704,1,8,0:0:0:0:
256,192,61871,1,0,0:0:0:0:
256,192,61954,1,0,0:0:0:0:
256,192,62037,1,0,0:0:0:0:
256,192,62371,1,8,0:0:0:0:
256,192,62537,1,0,0:0:0:0:
256,192,62704,1,8,0:0:0:0:
256,192,62787,1,8,0:0:0:0:
256,192,62871,1,8,0:0:0:0:
256,192,63037,1,8,0:0:0:0:
256,192,63371,1,8,0:0:0:0:
256,192,63537,1,0,0:0:0:0:
256,192,63704,1,8,0:0:0:0:
256,192,63871,1,0,0:0:0:0:
256,192,63954,1,8,0:0:0:0:
256,192,64037,1,0,0:0:0:0:
256,192,64204,1,0,0:0:0:0:
256,192,64371,1,8,0:0:0:0:
256,192,64537,1,0,0:0:0:0:
256,192,64621,1,0,0:0:0:0:
256,192,64704,1,8,0:0:0:0:
256,192,64871,1,0,0:0:0:0:
256,192,65037,1,8,0:0:0:0:
256,192,65204,1,0,0:0:0:0:
256,192,65371,1,8,0:0:0:0:
256,192,65537,1,0,0:0:0:0:
256,192,65621,1,0,0:0:0:0:
256,192,65704,1,8,0:0:0:0:
256,192,65871,1,0,0:0:0:0:
256,192,65954,1,0,0:0:0:0:
256,192,66037,1,0,0:0:0:0:
256,192,66204,1,8,0:0:0:0:
256,192,66371,1,0,0:0:0:0:
256,192,66704,1,12,0:0:0:0:
256,192,67037,1,8,0:0:0:0:
256,192,67371,1,8,0:0:0:0:
256,192,67537,1,0,0:0:0:0:
256,192,67704,1,8,0:0:0:0:
256,192,68037,1,0,0:0:0:0:
256,192,68371,1,8,0:0:0:0:
256,192,68704,1,8,0:0:0:0:
256,192,68871,1,0,0:0:0:0:
256,192,69037,1,8,0:0:0:0:
256,192,69287,1,8,0:0:0:0:
256,192,69371,1,0,0:0:0:0:
256,192,69537,1,0,0:0:0:0:
256,192,69704,1,8,0:0:0:0:
256,192,70037,1,8,0:0:0:0:
256,192,70204,1,0,0:0:0:0:
256,192,70371,1,8,0:0:0:0:
256,192,70704,1,0,0:0:0:0:
256,192,71037,1,8,0:0:0:0:
256,192,71371,1,8,0:0:0:0:
256,192,71454,1,8,0:0:0:0:
256,192,71537,1,0,0:0:0:0:
256,192,71704,1,8,0:0:0:0:
256,192,71871,1,0,0:0:0:0:
256,192,71954,1,8,0:0:0:0:
256,192,72037,1,0,0:0:0:0:
256,192,72371,1,8,0:0:0:0:
256,192,72704,1,8,0:0:0:0:
256,192,72871,1,0,0:0:0:0:
256,192,73037,1,8,0:0:0:0:
256,192,73371,1,0,0:0:0:0:
256,192,73704,1,8,0:0:0:0:
256,192,74037,1,8,0:0:0:0:
256,192,74204,1,0,0:0:0:0:
256,192,74371,1,8,0:0:0:0:
256,192,74537,1,0,0:0:0:0:
256,192,74621,1,8,0:0:0:0:
256,192,74704,1,0,0:0:0:0:
256,192,75037,1,8,0:0:0:0:
256,192,75287,1,8,0:0:0:0:
256,192,75371,1,0,0:0:0:0:
256,192,75537,1,0,0:0:0:0:
256,192,75704,1,8,0:0:0:0:
256,192,76037,1,0,0:0:0:0:
256,192,76371,1,8,0:0:0:0:
256,192,76704,1,8,0:0:0:0:
256,192,76871,1,0,0:0:0:0:
256,192,77037,1,8,0:0:0:0:
256,192,77121,1,8,0:0:0:0:
256,192,77204,1,0,0:0:0:0:
256,192,77371,1,12,0:0:0:0:
256,192,77704,1,8,0:0:0:0:
256,192,78037,1,8,0:0:0:0:
256,192,78204,1,0,0:0:0:0:
256,192,78371,1,8,0:0:0:0:
256,192,78704,1,0,0:0:0:0:
256,192,79037,1,8,0:0:0:0:
256,192,79371,1,8,0:0:0:0:
256,192,79537,1,0,0:0:0:0:
256,192,79704,1,8,0:0:0:0:
256,192,79954,1,8,0:0:0:0:
256,192,80037,1,0,0:0:0:0:
256,192,80204,1,0,0:0:0:0:
256,192,80371,1,8,0:0:0:0:
256,192,80704,1,8,0:0:0:0:
256,192,80871,1,0,0:0:0:0:
256,192,81037,1,8,0:0:0:0:
256,192,81371,1,0,0:0:0:0:
256,192,81454,1,8,0:0:0:0:
256,192,81537,1,8,0:0:0:0:
256,192,81704,1,8,0:0:0:0:
256,192,81954,1,8,0:0:0:0:
256,192,82037,1,0,0:0:0:0:
256,192,82204,1,0,0:0:0:0:
256,192,82371,1,8,0:0:0:0:
256,192,82537,1,0,0:0:0:0:
256,192,82621,1,8,0:0:0:0:
256,192,82704,1,0,0:0:0:0:
256,192,83037,1,8,0:0:0:0:
256,192,83371,1,8,0:0:0:0:
256,192,83537,1,0,0:0:0:0:
256,192,83704,1,8,0:0:0:0:
256,192,84037,1,0,0:0:0:0:
256,192,84371,1,8,0:0:0:0:
256,192,84704,1,8,0:0:0:0:
256,192,84871,1,0,0:0:0:0:
256,192,85037,1,0,0:0:0:0:
256,192,85204,1,8,0:0:0:0:
256,192,85287,1,8,0:0:0:0:
256,192,85371,1,0,0:0:0:0:
256,192,85704,1,8,0:0:0:0:
256,192,85871,1,0,0:0:0:0:
256,192,86037,1,0,0:0:0:0:
256,192,86204,1,0,0:0:0:0:
256,192,86371,1,8,0:0:0:0:
256,192,86537,1,0,0:0:0:0:
256,192,86704,1,12,0:0:0:0:
256,192,87371,1,8,0:0:0:0:
256,192,87704,1,0,0:0:0:0:
256,192,87871,1,8,0:0:0:0:
256,192,88037,1,12,0:0:0:0:
256,192,88371,1,8,0:0:0:0:
256,192,88454,1,8,0:0:0:0:
256,192,88537,1,8,0:0:0:0:
256,192,88704,1,0,0:0:0:0:
256,192,88871,1,0,0:0:0:0:
256,192,89037,1,8,0:0:0:0:
256,192,89204,1,0,0:0:0:0:
256,192,89371,1,8,0:0:0:0:
256,192,89454,1,0,0:0:0:0:
256,192,89704,1,8,0:0:0:0:
256,192,90037,1,8,0:0:0:0:
256,192,90204,1,0,0:0:0:0:
256,192,90371,1,8,0:0:0:0:
256,192,90537,1,0,0:0:0:0:
256,192,90621,1,8,0:0:0:0:
256,192,90704,1,0,0:0:0:0:
256,192,90871,1,0,0:0:0:0:
256,192,91037,1,8,0:0:0:0:
256,192,91371,1,8,0:0:0:0:
256,192,91454,1,8,0:0:0:0:
256,192,91537,1,0,0:0:0:0:
256,192,91704,1,8,0:0:0:0:
256,192,92037,1,0,0:0:0:0:
256,192,92204,1,0,0:0:0:0:
256,192,92371,1,8,0:0:0:0:
256,192,92454,1,8,0:0:0:0:
256,192,92537,1,8,0:0:0:0:
256,192,92704,1,8,0:0:0:0:
256,192,92871,1,0,0:0:0:0:
256,192,93037,1,8,0:0:0:0:
256,192,93204,1,0,0:0:0:0:
256,192,93287,1,8,0:0:0:0:
256,192,93371,1,0,0:0:0:0:
256,192,93537,1,0,0:0:0:0:
256,192,93704,1,8,0:0:0:0:
256,192,94037,1,8,0:0:0:0:
256,192,94121,1,8,0:0:0:0:
256,192,94204,1,0,0:0:0:0:
256,192,94371,1,8,0:0:0:0:
256,192,94537,1,0,0:0:0:0:
256,192,94704,1,8,0:0:0:0:
256,192,95037,1,8,0:0:0:0:
256,192,95121,1,8,0:0:0:0:
256,192,95204,1,8,0:0:0:0:
256,192,95371,1,0,0:0:0:0:
256,192,95537,1,0,0:0:0:0:
256,192,95704,1,8,0:0:0:0:
256,192,95871,1,0,0:0:0:0:
256,192,95954,1,0,0:0:0:0:
256,192,96037,1,8,0:0:0:0:
256,192,96204,1,0,0:0:0:0:
256,192,96371,1,8,0:0:0:0:
256,192,96704,1,0,0:0:0:0:
256,192,96871,1,0,0:0:0:0:
256,192,97037,1,8,0:0:0:0:
256,192,97121,1,8,0:0:0:0:
256,192,97204,1,8,0:0:0:0:
256,192,97371,1,0,0:0:0:0:
256,192,97704,1,8,0:0:0:0:
256,192,97871,1,0,0:0:0:0:
256,192,98037,1,8,0:0:0:0:
256,192,98121,1,0,0:0:0:0:
256,192,98287,1,0,0:0:0:0:
256,192,98371,1,8,0:0:0:0:
256,192,98704,1,12,0:0:0:0:
256,192,99038,1,8,0:0:0:0:
256,192,99121,1,8,0:0:0:0:
256,192,99204,1,8,0:0:0:0:
256,192,99371,1,0,0:0:0:0:
256,192,99538,1,0,0:0:0:0:
256,192,99704,1,8,0:0:0:0:
256,192,99871,1,0,0:0:0:0:
256,192,100038,1,8,0:0:0:0:
256,192,100121,1,0,0:0:0:0:
256,192,100371,1,8,0:0:0:0:
256,192,100704,1,8,0:0:0:0:
256,192,100871,1,0,0:0:0:0:
256,192,101038,1,8,0:0:0:0:
256,192,101204,1,0,0:0:0:0:
256,192,101288,1,8,0:0:0:0:
256,192,101371,1,0,0:0:0:0:
256,192,101538,1,0,0:0:0:0:
256,192,101704,1,8,0:0:0:0:
256,192,102038,1,8,0:0:0:0:
256,192,102121,1,8,0:0:0:0:
256,192,102204,1,0,0:0:0:0:
256,192,102371,1,8,0:0:0:0:
256,192,102704,1,0,0:0:0:0:
256,192,102871,1,0,0:0:0:0:
256,192,103038,1,8,0:0:0:0:
256,192,103121,1,8,0:0:0:0:
256,192,103204,1,8,0:0:0:0:
256,192,103371,1,8,0:0:0:0:
256,192,103538,1,0,0:0:0:0:
256,192,103704,1,8,0:0:0:0:
256,192,103871,1,0,0:0:0:0:
256,192,103954,1,8,0:0:0:0:
256,192,104038,1,0,0:0:0:0:
256,192,104204,1,0,0:0:0:0:
256,192,104371,1,8,0:0:0:0:
256,192,104704,1,8,0:0:0:0:
256,192,104788,1,8,0:0:0:0:
256,192,104871,1,0,0:0:0:0:
256,192,105038,1,8,0:0:0:0:
256,192,105204,1,0,0:0:0:0:
256,192,105371,1,8,0:0:0:0:
256,192,105704,1,8,0:0:0:0:
256,192,105788,1,8,0:0:0:0:
256,192,105871,1,8,0:0:0:0:
256,192,106038,1,0,0:0:0:0:
256,192,106204,1,0,0:0:0:0:
256,192,106371,1,8,0:0:0:0:
256,192,106538,1,0,0:0:0:0:
256,192,106621,1,0,0:0:0:0:
256,192,106704,1,8,0:0:0:0:
256,192,106871,1,0,0:0:0:0:
256,192,107038,1,8,0:0:0:0:
256,192,107371,1,0,0:0:0:0:
256,192,107538,1,0,0:0:0:0:
256,192,107704,1,8,0:0:0:0:
256,192,107788,1,8,0:0:0:0:
256,192,107871,1,8,0:0:0:0:
256,192,108038,1,0,0:0:0:0:
256,192,108371,1,8,0:0:0:0:
256,192,108538,1,0,0:0:0:0:
256,192,108704,1,8,0:0:0:0:
256,192,108788,1,0,0:0:0:0:
256,192,108954,1,0,0:0:0:0:
256,192,109038,1,8,0:0:0:0:
256,192,109204,1,0,0:0:0:0:
256,192,109371,1,12,0:0:0:0:
256,192,109704,1,0,0:0:0:0:
256,192,110037,1,8,0:0:0:0:
256,192,110204,1,0,0:0:0:0:
256,192,110371,1,8,0:0:0:0:
256,192,110704,1,0,0:0:0:0:
256,192,110787,1,0,0:0:0:0:
256,192,110871,1,0,0:0:0:0:
256,192,111037,1,8,0:0:0:0:
256,192,111204,1,0,0:0:0:0:
256,192,111371,1,8,0:0:0:0:
256,192,111704,1,0,0:0:0:0:
256,192,111871,1,0,0:0:0:0:
256,192,112037,1,8,0:0:0:0:
256,192,112204,1,0,0:0:0:0:
256,192,112371,1,8,0:0:0:0:
256,192,112704,1,0,0:0:0:0:
256,192,112871,1,8,0:0:0:0:
256,192,113037,1,0,0:0:0:0:
256,192,113371,1,0,0:0:0:0:
256,192,113454,1,0,0:0:0:0:
256,192,113537,1,0,0:0:0:0:
256,192,113704,1,8,0:0:0:0:
256,192,113871,1,8,0:0:0:0:
256,192,114037,1,0,0:0:0:0:
256,192,114204,1,0,0:0:0:0:
256,192,114371,1,8,0:0:0:0:
256,192,114537,1,0,0:0:0:0:
256,192,114704,1,8,0:0:0:0:
256,192,115037,1,0,0:0:0:0:
256,192,115371,1,8,0:0:0:0:
256,192,115537,1,0,0:0:0:0:
256,192,115704,1,8,0:0:0:0:
256,192,116037,1,0,0:0:0:0:
256,192,116121,1,0,0:0:0:0:
256,192,116204,1,0,0:0:0:0:
256,192,116371,1,8,0:0:0:0:
256,192,116537,1,0,0:0:0:0:
256,192,116704,1,8,0:0:0:0:
256,192,116871,1,8,0:0:0:0:
256,192,117037,1,0,0:0:0:0:
256,192,117204,1,0,0:0:0:0:
256,192,117371,1,8,0:0:0:0:
256,192,117704,1,0,0:0:0:0:
256,192,117871,1,0,0:0:0:0:
256,192,118037,1,8,0:0:0:0:
256,192,118204,1,0,0:0:0:0:
256,192,118371,1,8,0:0:0:0:
256,192,118704,1,8,0:0:0:0:
256,192,118787,1,8,0:0:0:0:
256,192,118871,1,0,0:0:0:0:
256,192,119037,1,8,0:0:0:0:
256,192,119204,1,8,0:0:0:0:
256,192,119287,1,8,0:0:0:0:
256,192,119371,1,0,0:0:0:0:
256,192,119537,1,8,0:0:0:0:
256,192,119704,1,8,0:0:0:0:
256,192,119787,1,8,0:0:0:0:
256,192,119871,1,0,0:0:0:0:
256,192,120037,1,12,0:0:0:0:
256,192,120371,1,0,0:0:0:0:
256,192,120704,1,8,0:0:0:0:
256,192,121037,1,8,0:0:0:0:
256,192,121371,1,0,0:0:0:0:
256,192,121704,1,8,0:0:0:0:
256,192,122037,1,0,0:0:0:0:
256,192,122371,1,0,0:0:0:0:
256,192,122704,1,8,0:0:0:0:
256,192,123037,1,0,0:0:0:0:
256,192,123371,1,8,0:0:0:0:
256,192,123704,1,8,0:0:0:0:
256,192,124037,1,0,0:0:0:0:
256,192,124371,1,8,0:0:0:0:
256,192,124704,1,0,0:0:0:0:
256,192,125037,1,12,0:0:0:0:
256,192,125371,1,8,0:0:0:0:
256,192,125704,1,0,0:0:0:0:
256,192,126037,1,8,0:0:0:0:
256,192,126371,1,8,0:0:0:0:
256,192,126704,1,0,0:0:0:0:
256,192,127037,1,8,0:0:0:0:
256,192,127371,1,0,0:0:0:0:
256,192,127704,1,0,0:0:0:0:
256,192,128037,1,8,0:0:0:0:
256,192,128371,1,0,0:0:0:0:
256,192,128704,1,8,0:0:0:0:
256,192,129037,1,0,0:0:0:0:
256,192,129371,1,0,0:0:0:0:
256,192,129454,1,0,0:0:0:0:
256,192,129537,1,0,0:0:0:0:
256,192,129704,1,8,0:0:0:0:
256,192,129787,1,8,0:0:0:0:
256,192,129871,1,8,0:0:0:0:
256,192,130037,1,0,0:0:0:0:
256,192,130204,1,8,0:0:0:0:
256,192,130287,1,8,0:0:0:0:
256,192,130371,1,0,0:0:0:0:
256,192,130537,1,8,0:0:0:0:
256,192,130704,1,0,0:0:0:0:
256,192,130871,1,0,0:0:0:0:
256,192,131204,1,0,0:0:0:0:
256,192,131371,1,0,0:0:0:0:
256,192,131621,1,0,0:0:0:0:
256,192,131871,1,0,0:0:0:0:
256,192,132037,2,0,L|320:192,10,35
256,192,133037,1,0,0:0:0:0:
256,192,133371,1,0,0:0:0:0:
256,192,133537,1,0,0:0:0:0:
256,192,133871,1,0,0:0:0:0:
256,192,134037,1,0,0:0:0:0:
256,192,134287,1,0,0:0:0:0:
256,192,134537,1,0,0:0:0:0:
256,192,134704,1,8,0:0:0:0:
256,192,135704,1,8,0:0:0:0:
256,192,135787,1,8,0:0:0:0:
256,192,135871,1,8,0:0:0:0:
256,192,136037,1,12,0:0:0:0:
256,192,136204,1,0,0:0:0:0:
256,192,136371,1,8,0:0:0:0:
256,192,136537,1,0,0:0:0:0:
256,192,136621,1,0,0:0:0:0:
256,192,136704,1,8,0:0:0:0:
256,192,136871,1,8,0:0:0:0:
256,192,136954,1,0,0:0:0:0:
256,192,137037,1,8,0:0:0:0:
256,192,137204,1,0,0:0:0:0:
256,192,137371,1,8,0:0:0:0:
256,192,137537,1,0,0:0:0:0:
256,192,137621,1,0,0:0:0:0:
256,192,137704,1,8,0:0:0:0:
256,192,137871,1,0,0:0:0:0:
256,192,138037,1,8,0:0:0:0:
256,192,138204,1,0,0:0:0:0:
256,192,138287,1,0,0:0:0:0:
256,192,138371,1,8,0:0:0:0:
256,192,138537,1,0,0:0:0:0:
256,192,138704,1,8,0:0:0:0:
256,192,139037,1,8,0:0:0:0:
256,192,139204,1,0,0:0:0:0:
256,192,139371,1,8,0:0:0:0:
256,192,139537,1,8,0:0:0:0:
256,192,139704,1,0,0:0:0:0:
256,192,139871,1,0,0:0:0:0:
256,192,140037,1,8,0:0:0:0:
256,192,140204,1,0,0:0:0:0:
256,192,140371,1,8,0:0:0:0:
256,192,140537,1,8,0:0:0:0:
256,192,140704,1,0,0:0:0:0:
256,192,140871,1,0,0:0:0:0:
256,192,141037,1,8,0:0:0:0:
256,192,141371,1,8,0:0:0:0:
256,192,141454,1,8,0:0:0:0:
256,192,141537,1,0,0:0:0:0:
256,192,141704,1,8,0:0:0:0:
256,192,141871,1,0,0:0:0:0:
256,192,141954,1,0,0:0:0:0:
256,192,142037,1,8,0:0:0:0:
256,192,142204,1,0,0:0:0:0:
256,192,142371,1,8,0:0:0:0:
256,192,142454,1,8,0:0:0:0:
256,192,142537,1,0,0:0:0:0:
256,192,142704,1,8,0:0:0:0:
256,192,143037,1,8,0:0:0:0:
256,192,143204,1,8,0:0:0:0:
256,192,143371,1,0,0:0:0:0:
256,192,143537,1,0,0:0:0:0:
256,192,143704,1,8,0:0:0:0:
256,192,143871,1,0,0:0:0:0:
256,192,144037,1,8,0:0:0:0:
256,192,144121,1,8,0:0:0:0:
256,192,144204,1,8,0:0:0:0:
256,192,144371,1,0,0:0:0:0:
256,192,144454,1,0,0:0:0:0:
256,192,144537,1,0,0:0:0:0:
256,192,144704,1,8,0:0:0:0:
256,192,144787,1,8,0:0:0:0:
256,192,144871,1,8,0:0:0:0:
256,192,145037,1,0,0:0:0:0:
256,192,145371,1,8,0:0:0:0:
256,192,145454,1,8,0:0:0:0:
256,192,145537,1,8,0:0:0:0:
256,192,145704,1,8,0:0:0:0:
256,192,145871,1,0,0:0:0:0:
256,192,146037,1,8,0:0:0:0:
256,192,146121,1,8,0:0:0:0:
256,192,146204,1,0,0:0:0:0:
256,192,146371,1,8,0:0:0:0:
256,192,146454,1,0,0:0:0:0:
256,192,146537,1,8,0:0:0:0:
256,192,146704,1,12,0:0:0:0:
256,192,146871,1,0,0:0:0:0:
256,192,147037,1,8,0:0:0:0:
256,192,147204,1,0,0:0:0:0:
256,192,147287,1,0,0:0:0:0:
256,192,147371,1,8,0:0:0:0:
256,192,147537,1,8,0:0:0:0:
256,192,147621,1,0,0:0:0:0:
256,192,147704,1,8,0:0:0:0:
256,192,147871,1,0,0:0:0:0:
256,192,148037,1,8,0:0:0:0:
256,192,148204,1,0,0:0:0:0:
256,192,148287,1,0,0:0:0:0:
256,192,148371,1,8,0:0:0:0:
256,192,148537,1,0,0:0:0:0:
256,192,148704,1,8,0:0:0:0:
256,192,148871,1,0,0:0:0:0:
256,192,148954,1,0,0:0:0:0:
256,192,149037,1,8,0:0:0:0:
256,192,149204,1,0,0:0:0:0:
256,192,149371,1,8,0:0:0:0:
256,192,149704,1,8,0:0:0:0:
256,192,149871,1,0,0:0:0:0:
256,192,150037,1,8,0:0:0:0:
256,192,150204,1,8,0:0:0:0:
256,192,150371,1,0,0:0:0:0:
256,192,150537,1,0,0:0:0:0:
256,192,150704,1,8,0:0:0:0:
256,192,150871,1,0,0:0:0:0:
256,192,151037,1,8,0:0:0:0:
256,192,151204,1,8,0:0:0:0:
256,192,151371,1,0,0:0:0:0:
256,192,151537,1,0,0:0:0:0:
256,192,151704,1,8,0:0:0:0:
256,192,152037,1,8,0:0:0:0:
256,192,152121,1,8,0:0:0:0:
256,192,152204,1,0,0:0:0:0:
256,192,152371,1,8,0:0:0:0:
256,192,152537,1,0,0:0:0:0:
256,192,152621,1,0,0:0:0:0:
256,192,152704,1,8,0:0:0:0:
256,192,152871,1,0,0:0:0:0:
256,192,153037,1,8,0:0:0:0:
256,192,153204,1,0,0:0:0:0:
256,192,153371,1,8,0:0:0:0:
256,192,153537,1,0,0:0:0:0:
256,192,153621,1,0,0:0:0:0:
256,192,153704,1,0,0:0:0:0:
256,192,153871,1,8,0:0:0:0:
256,192,154037,1,8,0:0:0:0:
256,192,154121,1,8,0:0:0:0:
256,192,154204,1,0,0:0:0:0:
256,192,154371,1,8,0:0:0:0:
256,192,154537,1,0,0:0:0:0:
256,192,154704,1,8,0:0:0:0:
256,192,154871,1,0,0:0:0:0:
256,192,154954,1,0,0:0:0:0:
256,192,155037,1,8,0:0:0:0:
256,192,155204,1,0,0:0:0:0:
256,192,155371,1,8,0:0:0:0:
256,192,155454,1,8,0:0:0:0:
256,192,155537,1,0,0:0:0:0:
256,192,155704,1,8,0:0:0:0:
256,192,155871,1,0,0:0:0:0:
256,192,155954,1,0,0:0:0:0:
256,192,156037,1,8,0:0:0:0:
256,192,156204,1,0,0:0:0:0:
256,192,156371,1,8,0:0:0:0:
256,192,156704,1,0,0:0:0:0:
256,192,156787,1,0,0:0:0:0:
256,192,156871,1,8,0:0:0:0:
256,192,157037,1,8,0:0:0:0:
256,192,157121,1,8,0:0:0:0:
256,192,157204,1,0,0:0:0:0:
256,192,157371,1,12,0:0:0:0:
256,192,157537,1,0,0:0:0:0:
256,192,157704,1,8,0:0:0:0:
256,192,157871,1,0,0:0:0:0:
256,192,157954,1,0,0:0:0:0:
256,192,158037,1,8,0:0:0:0:
256,192,158204,1,8,0:0:0:0:
256,192,158287,1,0,0:0:0:0:
256,192,158371,1,8,0:0:0:0:
256,192,158537,1,0,0:0:0:0:
256,192,158704,1,8,0:0:0:0:
256,192,158871,1,0,0:0:0:0:
256,192,158954,1,0,0:0:0:0:
256,192,159037,1,8,0:0:0:0:
256,192,159204,1,0,0:0:0:0:
256,192,159371,1,8,0:0:0:0:
256,192,159537,1,0,0:0:0:0:
256,192,159621,1,0,0:0:0:0:
256,192,159704,1,8,0:0:0:0:
256,192,159871,1,0,0:0:0:0:
256,192,160037,1,8,0:0:0:0:
256,192,160371,1,8,0:0:0:0:
256,192,160537,1,0,0:0:0:0:
256,192,160704,1,8,0:0:0:0:
256,192,160871,1,8,0:0:0:0:
256,192,161037,1,0,0:0:0:0:
256,192,161204,1,0,0:0:0:0:
256,192,161371,1,8,0:0:0:0:
256,192,161537,1,0,0:0:0:0:
256,192,161704,1,8,0:0:0:0:
256,192,161871,1,8,0:0:0:0:
256,192,162037,1,0,0:0:0:0:
256,192,162204,1,0,0:0:0:0:
256,192,162371,1,8,0:0:0:0:
256,192,162704,1,8,0:0:0:0:
256,192,162787,1,8,0:0:0:0:
256,192,162871,1,0,0:0:0:0:
256,192,163037,1,8,0:0:0:0:
256,192,163204,1,0,0:0:0:0:
256,192,163287,1,0,0:0:0:0:
256,192,163371,1,8,0:0:0:0:
256,192,163537,1,0,0:0:0:0:
256,192,163704,1,8,0:0:0:0:
256,192,163787,1,8,0:0:0:0:
256,192,163871,1,0,0:0:0:0:
256,192,164037,1,8,0:0:0:0:
256,192,164371,1,8,0:0:0:0:
256,192,164537,1,8,0:0:0:0:
256,192,164704,1,0,0:0:0:0:
256,192,164871,1,0,0:0:0:0:
256,192,165037,1,8,0:0:0:0:
256,192,165204,1,0,0:0:0:0:
256,192,165371,1,8,0:0:0:0:
256,192,165454,1,8,0:0:0:0:
256,192,165537,1,8,0:0:0:0:
256,192,165704,1,0,0:0:0:0:
256,192,165787,1,0,0:0:0:0:
256,192,165871,1,0,0:0:0:0:
256,192,166037,1,8,0:0:0:0:
256,192,166121,1,8,0:0:0:0:
256,192,166204,1,8,0:0:0:0:
256,192,166371,1,0,0:0:0:0:
256,192,166704,1,8,0:0:0:0:
256,192,166787,1,8,0:0:0:0:
256,192,166871,1,8,0:0:0:0:
256,192,167037,1,8,0:0:0:0:
256,192,167204,1,0,0:0:0:0:
256,192,167371,1,8,0:0:0:0:
256,192,167454,1,8,0:0:0:0:
256,192,167537,1,0,0:0:0:0:
256,192,167704,1,8,0:0:0:0:
256,192,167787,1,0,0:0:0:0:
256,192,167871,1,8,0:0:0:0:
256,192,168037,1,12,0:0:0:0:
256,192,168204,1,0,0:0:0:0:
256,192,168371,1,8,0:0:0:0:
256,192,168537,1,0,0:0:0:0:
256,192,168621,1,0,0:0:0:0:
256,192,168704,1,8,0:0:0:0:
256,192,168871,1,8,0:0:0:0:
256,192,168954,1,0,0:0:0:0:
256,192,169037,1,8,0:0:0:0:
256,192,169204,1,0,0:0:0:0:
256,192,169371,1,8,0:0:0:0:
256,192,169537,1,0,0:0:0:0:
256,192,169621,1,0,0:0:0:0:
256,192,169704,1,8,0:0:0:0:
256,192,169871,1,0,0:0:0:0:
256,192,170037,1,8,0:0:0:0:
256,192,170204,1,0,0:0:0:0:
256,192,170287,1,0,0:0:0:0:
256,192,170371,1,8,0:0:0:0:
256,192,170537,1,0,0:0:0:0:
256,192,170704,1,8,0:0:0:0:
256,192,171037,1,8,0:0:0:0:
256,192,171204,1,0,0:0:0:0:
256,192,171371,1,8,0:0:0:0:
256,192,171537,1,8,0:0:0:0:
256,192,171704,1,0,0:0:0:0:
256,192,171871,1,0,0:0:0:0:
256,192,172037,1,8,0:0:0:0:
256,192,172204,1,0,0:0:0:0:
256,192,172371,1,8,0:0:0:0:
256,192,172537,1,8,0:0:0:0:
256,192,172704,1,0,0:0:0:0:
256,192,172871,1,0,0:0:0:0:
256,192,173037,1,8,0:0:0:0:
256,192,173371,1,8,0:0:0:0:
256,192,173454,1,8,0:0:0:0:
256,192,173537,1,0,0:0:0:0:
256,192,173704,1,8,0:0:0:0:
256,192,173871,1,0,0:0:0:0:
256,192,173954,1,0,0:0:0:0:
256,192,174037,1,8,0:0:0:0:
256,192,174204,1,0,0:0:0:0:
256,192,174371,1,8,0:0:0:0:
256,192,174537,1,0,0:0:0:0:
256,192,174704,1,8,0:0:0:0:
256,192,174871,1,0,0:0:0:0:
256,192,174954,1,0,0:0:0:0:
256,192,175037,1,0,0:0:0:0:
256,192,175204,1,8,0:0:0:0:
256,192,175371,1,8,0:0:0:0:
256,192,175454,1,8,0:0:0:0:
256,192,175537,1,0,0:0:0:0:
256,192,175704,1,8,0:0:0:0:
256,192,175871,1,0,0:0:0:0:
256,192,176037,1,8,0:0:0:0:
256,192,176204,1,0,0:0:0:0:
256,192,176287,1,0,0:0:0:0:
256,192,176371,1,8,0:0:0:0:
256,192,176537,1,0,0:0:0:0:
256,192,176704,1,8,0:0:0:0:
256,192,176787,1,8,0:0:0:0:
256,192,176871,1,0,0:0:0:0:
256,192,177037,1,12,0:0:0:0:
256,192,177204,1,0,0:0:0:0:
256,192,177287,1,0,0:0:0:0:
256,192,177371,1,8,0:0:0:0:
256,192,177537,1,0,0:0:0:0:
256,192,177704,1,12,0:0:0:0:
256,192,178037,1,0,0:0:0:0:
256,192,178121,1,0,0:0:0:0:
256,192,178204,1,8,0:0:0:0:
256,192,178371,1,8,0:0:0:0:
256,192,178454,1,8,0:0:0:0:
256,192,178537,1,0,0:0:0:0:
256,192,178704,1,12,0:0:0:0:
256,192,179037,1,8,0:0:0:0:
256,192,179371,1,8,0:0:0:0:
256,192,179537,1,0,0:0:0:0:
256,192,179704,1,8,0:0:0:0:
256,192,180037,1,0,0:0:0:0:
256,192,180371,1,8,0:0:0:0:
256,192,180704,1,8,0:0:0:0:
256,192,180871,1,0,0:0:0:0:
256,192,181037,1,8,0:0:0:0:
256,192,181287,1,8,0:0:0:0:
256,192,181371,1,0,0:0:0:0:
256,192,181537,1,0,0:0:0:0:
256,192,181704,1,8,0:0:0:0:
256,192,182037,1,8,0:0:0:0:
256,192,182204,1,0,0:0:0:0:
256,192,182371,1,8,0:0:0:0:
256,192,182704,1,0,0:0:0:0:
256,192,183037,1,8,0:0:0:0:
256,192,183371,1,8,0:0:0:0:
256,192,183454,1,8,0:0:0:0:
256,192,183537,1,0,0:0:0:0:
256,192,183704,1,8,0:0:0:0:
256,192,183871,1,0,0:0:0:0:
256,192,183954,1,8,0:0:0:0:
256,192,184037,1,0,0:0:0:0:
256,192,184371,1,8,0:0:0:0:
256,192,184704,1,8,0:0:0:0:
256,192,184871,1,0,0:0:0:0:
256,192,185037,1,8,0:0:0:0:
256,192,185371,1,0,0:0:0:0:
256,192,185704,1,8,0:0:0:0:
256,192,186037,1,8,0:0:0:0:
256,192,186204,1,0,0:0:0:0:
256,192,186371,1,8,0:0:0:0:
256,192,186537,1,0,0:0:0:0:
256,192,186621,1,8,0:0:0:0:
256,192,186704,1,0,0:0:0:0:
256,192,187037,1,8,0:0:0:0:
256,192,187287,1,8,0:0:0:0:
256,192,187371,1,0,0:0:0:0:
256,192,187537,1,0,0:0:0:0:
256,192,187704,1,8,0:0:0:0:
256,192,188037,1,0,0:0:0:0:
256,192,188371,1,12,0:0:0:0:
256,192,188704,1,12,0:0:0:0:
256,192,188871,1,0,0:0:0:0:
256,192,189037,1,8,0:0:0:0:
256,192,189204,1,0,0:0:0:0:
256,192,189371,1,12,0:0:0:0:
256,192,189704,1,8,0:0:0:0:
256,192,190037,1,0,0:0:0:0:
256,192,190204,1,0,0:0:0:0:
256,192,190371,1,8,0:0:0:0:
256,192,190537,1,0,0:0:0:0:
256,192,190704,1,8,0:0:0:0:
256,192,191037,1,8,0:0:0:0:
256,192,191371,1,8,0:0:0:0:
256,192,191537,1,0,0:0:0:0:
256,192,191704,1,8,0:0:0:0:
256,192,191871,1,0,0:0:0:0:
256,192,191954,1,8,0:0:0:0:
256,192,192037,1,0,0:0:0:0:
256,192,192204,1,0,0:0:0:0:
256,192,192371,1,8,0:0:0:0:
256,192,192704,1,8,0:0:0:0:
256,192,192787,1,8,0:0:0:0:
256,192,192871,1,0,0:0:0:0:
256,192,193037,1,8,0:0:0:0:
256,192,193371,1,0,0:0:0:0:
256,192,193704,1,8,0:0:0:0:
256,192,194037,1,8,0:0:0:0:
256,192,194204,1,0,0:0:0:0:
256,192,194371,1,8,0:0:0:0:
256,192,194537,1,0,0:0:0:0:
256,192,194621,1,8,0:0:0:0:
256,192,194704,1,0,0:0:0:0:
256,192,194871,1,0,0:0:0:0:
256,192,195037,1,8,0:0:0:0:
256,192,195371,1,8,0:0:0:0:
256,192,195454,1,8,0:0:0:0:
256,192,195537,1,0,0:0:0:0:
256,192,195704,1,8,0:0:0:0:
256,192,195871,1,0,0:0:0:0:
256,192,196037,1,8,0:0:0:0:
256,192,196371,1,8,0:0:0:0:
256,192,196704,1,0,0:0:0:0:
256,192,196871,1,0,0:0:0:0:
256,192,197037,1,8,0:0:0:0:
256,192,197204,1,0,0:0:0:0:
256,192,197287,1,0,0:0:0:0:
256,192,197371,1,8,0:0:0:0:
256,192,197537,1,0,0:0:0:0:
256,192,197704,1,8,0:0:0:0:
256,192,198037,1,0,0:0:0:0:
256,192,198204,1,0,0:0:0:0:
256,192,198371,1,8,0:0:0:0:
256,192,198704,1,0,0:0:0:0:
256,192,199037,1,8,0:0:0:0:
256,192,199204,1,0,0:0:0:0:
256,192,199371,1,8,0:0:0:0:
256,192,199454,1,0,0:0:0:0:
256,192,199621,1,0,0:0:0:0:
256,192,199704,1,8,0:0:0:0:
256,192,199871,1,0,0:0:0:0:
256,192,200037,1,12,0:0:0:0:
256,192,200371,1,8,0:0:0:0:
256,192,200537,1,0,0:0:0:0:
256,192,200621,1,0,0:0:0:0:
256,192,200704,1,8,0:0:0:0:
256,192,200871,1,8,0:0:0:0:
256,192,201037,1,0,0:0:0:0:
256,192,201204,1,0,0:0:0:0:
256,192,201371,1,8,0:0:0:0:
256,192,201704,1,8,0:0:0:0:
256,192,202204,1,0,0:0:0:0:
256,192,202371,1,8,0:0:0:0:
256,192,202704,1,0,0:0:0:0:
256,192,202871,1,0,0:0:0:0:
256,192,203204,1,0,0:0:0:0:
256,192,203287,1,0,0:0:0:0:
256,192,203371,1,8,0:0:0:0:
256,192,203537,1,8,0:0:0:0:
256,192,203704,1,0,0:0:0:0:
256,192,203871,1,0,0:0:0:0:
256,192,204037,1,8,0:0:0:0:
256,192,204371,1,8,0:0:0:0:
256,192,204537,1,0,0:0:0:0:
256,192,204704,1,0,0:0:0:0:
256,192,204787,1,8,0:0:0:0:
256,192,204871,1,0,0:0:0:0:
256,192,205037,1,12,0:0:0:0:
256,192,205204,1,0,0:0:0:0:
256,192,205371,1,8,0:0:0:0:
256,192,205537,1,0,0:0:0:0:
256,192,205871,1,0,0:0:0:0:
256,192,205954,1,0,0:0:0:0:
256,192,206037,1,8,0:0:0:0:
256,192,206204,1,8,0:0:0:0:
256,192,206371,1,0,0:0:0:0:
256,192,206537,1,0,0:0:0:0:
256,192,206704,1,8,0:0:0:0:
256,192,207037,1,12,0:0:0:0:
256,192,207537,1,0,0:0:0:0:
256,192,207704,1,8,0:0:0:0:
256,192,207871,1,0,0:0:0:0:
256,192,208037,1,8,0:0:0:0:
256,192,208121,1,8,0:0:0:0:
256,192,208204,1,0,0:0:0:0:
256,192,208371,1,8,0:0:0:0:
256,192,208537,1,8,0:0:0:0:
256,192,208621,1,8,0:0:0:0:
256,192,208704,1,0,0:0:0:0:
256,192,208871,1,8,0:0:0:0:
256,192,209037,1,8,0:0:0:0:
256,192,209121,1,8,0:0:0:0:
256,192,209204,1,0,0:0:0:0:
256,192,209371,1,8,0:0:0:0:
256,192,209537,1,0,0:0:0:0:
256,192,209704,1,12,0:0:0:0:
256,192,209871,1,0,0:0:0:0:
256,192,210037,1,12,0:0:0:0:
256,192,210371,1,8,0:0:0:0:
256,192,210454,1,0,0:0:0:0:
256,192,210537,1,8,0:0:0:0:
256,192,210704,1,12,0:0:0:0:
256,192,210871,1,0,0:0:0:0:
256,192,211204,1,0,0:0:0:0:
256,192,211537,1,8,0:0:0:0:
256,192,211704,1,0,0:0:0:0:
256,192,211871,1,0,0:0:0:0:
256,192,212037,1,8,0:0:0:0:
256,192,213371,1,0,0:0:0:0:
256,192,213537,1,8,0:0:0:0:
256,192,213871,1,0,0:0:0:0:
256,192,214037,1,8,0:0:0:0:
256,192,214204,1,8,0:0:0:0:
256,192,214371,1,0,0:0:0:0:
256,192,214537,1,0,0:0:0:0:
256,192,214704,1,8,0:0:0:0:
256,192,215204,1,0,0:0:0:0:
256,192,215371,1,8,0:0:0:0:
256,192,215537,1,0,0:0:0:0:
256,192,215704,1,0,0:0:0:0:
256,192,215787,1,0,0:0:0:0:
256,192,215871,1,0,0:0:0:0:
256,192,216037,1,8,0:0:0:0:
256,192,216204,1,0,0:0:0:0:
256,192,216537,1,0,0:0:0:0:
256,192,216871,1,8,0:0:0:0:
256,192,217037,1,0,0:0:0:0:
256,192,217204,1,0,0:0:0:0:
256,192,217371,1,8,0:0:0:0:
256,192,218710,1,12,0:0:0:0:
256,192,219204,1,0,0:0:0:0:
256,192,219572,1,0,0:0:0:0:
256,192,220043,1,8,0:0:0:0:
256,192,220543,1,0,0:0:0:0:
256,192,221370,1,0,0:0:0:0:
256,192,221870,1,8,0:0:0:0:
