osu file format v14

[General]
AudioFilename: Yume Nikki mega mix (SD).mp3
AudioLeadIn: 0
PreviewTime: 136204
Countdown: 0
SampleSet: Normal
StackLeniency: 0.7
Mode: 0
LetterboxInBreaks: 0
WidescreenStoryboard: 0

[Editor]
Bookmarks: 24233,45566,88232,109566,136232,218871
DistanceSpacing: 1.4
BeatDivisor: 4
GridSize: 4
TimelineZoom: 1

[Metadata]
Title:Kono Hoshi de....
TitleUnicode:この星で・・・。
Artist:Camellia
ArtistUnicode:かめりあ
Creator:Snow Note
Version:Another
Source:ゆめにっき
Tags:Yume Nikki 夢日記 窓付き
BeatmapID:280034
BeatmapSetID:106693

[Difficulty]
HPDrainRate:6
CircleSize:4
OverallDifficulty:8
ApproachRate:9
SliderMultiplier:2.2
SliderTickRate:2

[Events]
//Background and Video events
0,0,"Matotsuki.jpg",0,0
//Break Periods
2,120404,128938
//Storyboard Layer 0 (Background)
//Storyboard Layer 1 (Fail)
//Storyboard Layer 2 (Pass)
//Storyboard Layer 3 (Foreground)
//Storyboard Sound Samples

[TimingPoints]
205,333.333333333333,4,1,1,40,1,0
24204,-80,4,1,1,50,0,0
25454,-80,4,2,1,70,0,0
26871,-80,4,1,1,50,0,0
28121,-80,4,2,1,70,0,0
29538,-80,4,1,1,50,0,0
30871,-80,4,2,1,70,0,0
32204,-80,4,1,1,50,0,0
33538,-80,4,2,1,70,0,0
34871,-80,4,1,1,50,0,0
36204,-80,4,2,1,70,0,0
37538,-80,4,1,1,50,0,0
38871,-80,4,2,1,70,0,0
40204,-80,4,1,1,50,0,0
41538,-80,4,2,1,70,0,0
42871,-80,4,1,1,50,0,0
44204,-80,4,1,1,10,0,0
45204,-80,4,1,1,30,0,0
45538,-80,4,1,1,50,0,0
46871,-80,4,2,1,70,0,0
48204,-80,4,1,1,50,0,0
49538,-80,4,2,1,70,0,0
50871,-80,4,1,1,50,0,0
52204,-80,4,2,1,70,0,0
53538,-80,4,1,1,50,0,0
54871,-80,4,2,1,70,0,0
56204,-80,4,1,1,50,0,0
57538,-80,4,2,1,70,0,0
58871,-80,4,1,1,50,0,0
60204,-80,4,2,1,70,0,0
61538,-80,4,1,1,50,0,0
62871,-80,4,2,1,70,0,0
64204,-80,4,1,1,50,0,0
65538,-80,4,1,1,35,0,0
65871,-80,4,1,1,45,0,0
66204,-80,4,1,1,55,0,0
66871,-100,4,1,1,45,0,0
135871,-100,4,1,1,15,0,0
136204,-80,4,1,1,58,0,1
157204,-80,4,1,1,58,0,0
157538,-80,4,1,1,58,0,1
178871,-100,4,1,1,45,0,0
217454,-100,4,2,1,30,0,0

[Colours]
Combo1 : 0,255,255
Combo2 : 255,0,255
Combo3 : 255,83,0

[HitObjects]
336,120,2871,6,0,L|448:96,1,110
260,216,3371,1,0,0:0:0:0:
260,216,3538,2,0,P|228:188|224:72,2,165
332,132,4205,5,0,2:0:0:0:
332,132,4288,1,0,2:0:0:0:
124,192,4538,1,0,2:0:0:0:
124,192,4621,1,0,2:0:0:0:
332,252,4871,1,0,2:0:0:0:
332,252,4954,1,0,2:0:0:0:
436,64,5205,2,0,L|328:28,1,110,0|0,0:0|0:0,0:0:0:0:
232,100,5538,6,0,P|224:136|264:208,1,110
460,276,6038,1,0,0:0:0:0:
460,276,6205,2,0,P|480:208|420:140,2,165
356,304,6871,5,0,2:0:0:0:
340,308,6955,1,0,2:0:0:0:
324,312,7038,1,0,2:0:0:0:
308,316,7121,1,0,2:0:0:0:
292,320,7205,1,0,2:0:0:0:
276,324,7288,1,0,2:0:0:0:
260,328,7371,1,0,2:0:0:0:
244,332,7455,1,0,2:0:0:0:
228,336,7538,1,0,2:0:0:0:
120,328,7705,1,0,0:0:0:0:
60,236,7871,1,0,0:0:0:0:
92,132,8038,1,0,0:0:0:0:
192,88,8204,6,0,P|212:88|296:40,1,110
495,124,8704,1,0,0:0:0:0:
455,101,8788,1,0,0:0:0:0:
412,104,8871,2,0,P|372:120|335:231,2,165
484,204,9538,5,0,2:0:0:0:
488,224,9621,1,0,2:0:0:0:
356,348,9871,1,0,2:0:0:0:
352,328,9954,1,0,2:0:0:0:
256,176,10204,1,0,2:0:0:0:
260,196,10287,1,0,2:0:0:0:
144,336,10538,1,0,2:0:0:0:
140,316,10621,1,0,2:0:0:0:
136,296,10704,1,0,0:0:0:0:
132,276,10788,1,0,0:0:0:0:
128,256,10871,6,0,L|16:288,1,110
212,96,11204,2,0,B|248:84|248:84|320:108,1,110,0|0,0:0|0:0,0:0:0:0:
336,144,11454,1,0,0:0:0:0:
352,184,11538,2,0,B|420:206|420:206|512:176,2,165
240,206,12204,5,0,2:0:0:0:
220,201,12288,1,0,2:0:0:0:
201,196,12371,1,0,2:0:0:0:
182,191,12454,1,0,2:0:0:0:
163,186,12538,1,0,2:0:0:0:
143,191,12621,1,0,2:0:0:0:
124,196,12704,1,0,2:0:0:0:
105,201,12788,1,0,2:0:0:0:
88,208,12871,6,0,B|68:256|68:256|92:308,1,110
152,352,13121,1,0,0:0:0:0:
152,352,13204,2,0,L|212:336,1,55
276,324,13371,2,0,L|336:340,1,55,0|0,0:0|0:0,0:0:0:0:
400,360,13538,6,0,L|436:248,1,110,4|0,0:0|0:0,0:0:0:0:
372,36,14038,1,0,0:0:0:0:
372,36,14204,2,0,P|356:112|420:172,2,165
480,60,14871,5,0,2:0:0:0:
480,60,14954,1,0,2:0:0:0:
344,248,15204,1,0,2:0:0:0:
344,248,15288,1,0,2:0:0:0:
256,36,15538,1,0,2:0:0:0:
256,36,15621,1,0,2:0:0:0:
168,248,15871,2,0,P|196:296|264:320,1,110
192,160,16204,6,0,L|76:160,1,110
408,336,16704,1,0,0:0:0:0:
476,252,16870,2,0,B|492:144|492:144|468:92,2,165
408,336,17538,5,0,2:0:0:0:
388,316,17621,1,0,2:0:0:0:
367,299,17704,1,0,2:0:0:0:
343,285,17787,1,0,2:0:0:0:
317,275,17871,1,0,2:0:0:0:
291,268,17954,1,0,2:0:0:0:
263,265,18037,1,0,2:0:0:0:
236,266,18121,1,0,2:0:0:0:
209,270,18204,1,0,2:0:0:0:
80,236,18371,5,0,0:0:0:0:
144,352,18538,1,0,0:0:0:0:
192,164,18704,1,0,0:0:0:0:
348,192,18871,6,0,P|404:200|472:176,1,110
196,68,19371,1,0,0:0:0:0:
168,52,19454,1,0,0:0:0:0:
140,36,19538,2,0,P|108:28|4:108,2,165
108,136,20204,5,0,2:0:0:0:
108,136,20288,1,0,2:0:0:0:
200,340,20538,1,0,2:0:0:0:
200,340,20622,1,0,2:0:0:0:
404,248,20871,1,0,2:0:0:0:
404,248,20955,1,0,2:0:0:0:
312,44,21205,1,0,2:0:0:0:
312,44,21289,1,0,2:0:0:0:
312,44,21371,1,0,0:0:0:0:
312,44,21454,1,0,0:0:0:0:
312,44,21538,6,0,P|296:96|320:148,1,110
484,348,21871,2,0,P|500:296|476:244,1,110,0|0,0:0|0:0,0:0:0:0:
440,236,22121,1,0,0:0:0:0:
404,248,22204,2,0,P|368:272|252:260,2,165
256,108,22871,5,0,2:0:0:0:
256,108,23204,1,0,2:0:0:0:
160,52,23371,1,0,0:0:0:0:
116,60,23454,1,0,0:0:0:0:
88,96,23538,2,0,L|72:160,1,55
176,216,23704,2,0,L|162:162,1,55,0|0,0:0|0:0,0:0:0:0:
88,264,23871,1,0,0:0:0:0:
124,304,23954,1,0,0:0:0:0:
176,316,24038,1,0,0:0:0:0:
228,304,24121,1,0,0:0:0:0:
268,264,24204,6,0,P|308:248|404:276,1,137.5,4|0,0:0|0:0,0:0:0:0:
496,136,24538,1,0,0:0:0:0:
356,172,24704,1,0,0:0:0:0:
356,172,24871,2,0,P|280:160|228:44,2,206.25
480,236,25538,5,2,2:2:0:0:
460,288,25621,1,0,2:2:0:0:
440,340,25704,2,0,L|300:364,1,137.5,2|0,2:0|2:0,2:2:0:0:
256,340,25954,2,0,P|220:312|212:224,1,137.5,2|0,2:0|2:0,2:2:0:0:
256,192,26204,1,2,2:2:0:0:
392,212,26371,1,0,2:2:0:0:
436,180,26454,1,0,2:2:0:0:
456,130,26537,1,2,2:2:0:0:
447,77,26620,1,0,2:2:0:0:
410,37,26704,1,2,2:2:0:0:
220,112,26871,6,0,L|68:88,1,137.5
12,208,27204,1,0,0:0:0:0:
148,192,27371,1,0,0:0:0:0:
208,316,27538,2,0,P|224:348|388:372,2,206.25
256,188,28204,5,2,2:0:0:0:
294,149,28287,1,0,2:0:0:0:
346,131,28370,1,0,2:0:0:0:
400,136,28453,1,0,2:0:0:0:
447,163,28537,1,2,2:0:0:0:
478,208,28620,1,0,2:0:0:0:
487,262,28703,1,0,2:0:0:0:
473,314,28787,1,0,2:0:0:0:
428,344,28871,6,0,B|400:360|400:360|356:356,3,68.75,2|0|0|0,0:0|0:0|0:0|0:0,2:0:0:0:
300,316,29204,2,0,L|224:304,1,68.75,2|0,0:0|0:0,2:0:0:0:
152,328,29371,2,0,L|76:316,1,68.75,0|0,0:0|0:0,2:0:0:0:
24,264,29538,6,0,B|44:176|44:176|88:152,1,137.5
256,192,29871,1,0,0:0:0:0:
426,230,30038,1,0,0:0:0:0:
426,230,30121,1,0,0:0:0:0:
426,230,30204,2,0,B|468:208|468:208|488:120,1,137.5
440,72,30454,2,0,L|304:48,1,137.5
236,60,30704,1,0,0:0:0:0:
100,32,30871,5,2,0:0:0:0:
72,72,30954,1,0,0:0:0:0:
44,112,31038,1,0,0:0:0:0:
124,180,31204,1,2,0:0:0:0:
152,140,31288,1,0,0:0:0:0:
180,100,31371,1,0,0:0:0:0:
260,172,31538,1,2,0:0:0:0:
232,212,31621,1,0,0:0:0:0:
204,252,31705,1,0,0:0:0:0:
188,297,31787,1,0,0:0:0:0:
198,343,31871,1,2,0:0:0:0:
229,379,31953,1,0,0:0:0:0:
274,395,32037,1,0,0:0:0:0:
320,386,32120,1,0,0:0:0:0:
360,360,32204,6,0,B|420:348|420:348|496:376,1,137.5
452,136,32538,2,0,P|404:108|328:124,1,137.5
308,200,32788,1,0,0:0:0:0:
348,264,32871,2,0,P|392:280|512:192,2,206.25
216,304,33538,6,0,L|204:336,2,34.375
172,252,33704,1,0,0:0:0:0:
172,252,33788,1,0,0:0:0:0:
172,252,33871,2,0,L|145:273,2,34.375
156,184,34038,1,0,0:0:0:0:
156,184,34122,1,0,0:0:0:0:
156,184,34205,2,0,L|121:186,2,34.375
172,116,34371,1,0,0:0:0:0:
152,116,34454,1,0,0:0:0:0:
132,116,34538,1,0,0:0:0:0:
112,116,34621,1,0,0:0:0:0:
92,116,34704,1,0,0:0:0:0:
72,116,34788,1,0,0:0:0:0:
52,116,34871,6,0,B|24:152|24:152|24:248,1,137.5,4|8,0:0|0:0,0:0:0:0:
256,192,35204,1,0,0:0:0:0:
460,268,35371,1,0,0:0:0:0:
256,360,35538,5,8,0:0:0:0:
72,52,35788,1,8,0:0:0:0:
440,52,36038,1,8,0:0:0:0:
256,192,36204,5,0,0:0:0:0:
212,208,36288,1,0,0:0:0:0:
168,224,36371,1,2,0:0:0:0:
164,272,36454,1,0,0:0:0:0:
256,360,36621,1,2,0:0:0:0:
348,272,36788,1,0,0:0:0:0:
348,224,36871,1,2,0:0:0:0:
256,292,37038,2,0,L|256:360,1,68.75,0|2,0:0|0:0,0:0:0:0:
436,236,37288,2,0,L|436:168,2,68.75,0|2|2,0:0|0:0|0:0,0:0:0:0:
460,300,37538,6,0,P|432:348|348:364,1,137.5
256,192,37871,1,0,0:0:0:0:
356,17,38038,1,0,0:0:0:0:
456,192,38204,2,0,L|396:328,1,137.5
332,352,38454,2,0,L|196:316,1,137.5
132,356,38704,1,0,0:0:0:0:
28,268,38871,5,2,0:0:0:0:
51,226,38954,1,0,0:0:0:0:
90,199,39037,1,0,0:0:0:0:
137,191,39121,1,0,0:0:0:0:
183,179,39204,1,2,0:0:0:0:
219,147,39287,1,0,0:0:0:0:
248,40,39454,1,0,0:0:0:0:
248,40,39538,2,0,P|312:64|384:52,1,137.5,2|0,0:0|0:0,0:0:0:0:
444,32,39788,1,2,0:0:0:0:
492,160,39954,1,0,0:0:0:0:
444,164,40038,1,2,0:0:0:0:
408,192,40121,1,0,0:0:0:0:
396,240,40204,6,0,L|416:376,1,137.5
256,336,40538,1,0,0:0:0:0:
304,120,40704,1,0,0:0:0:0:
304,120,40788,1,0,0:0:0:0:
304,118,40871,2,0,P|235:97|172:127,1,137.5
168,196,41121,2,0,P|190:254|166:322,1,137.5
100,360,41371,1,0,0:0:0:0:
256,304,41538,5,2,0:0:0:0:
272,260,41621,1,0,0:0:0:0:
288,216,41704,1,0,0:0:0:0:
356,336,41871,1,2,0:0:0:0:
372,292,41954,1,0,0:0:0:0:
388,248,42037,1,0,0:0:0:0:
452,368,42204,1,2,0:0:0:0:
468,324,42287,1,0,0:0:0:0:
484,280,42370,1,0,0:0:0:0:
500,236,42454,1,0,0:0:0:0:
488,204,42538,5,2,0:0:0:0:
476,172,42621,1,0,0:0:0:0:
460,140,42704,1,0,0:0:0:0:
448,108,42788,1,0,0:0:0:0:
436,76,42871,6,0,P|384:60|312:96,1,137.5
132,339,43204,2,0,P|184:355|256:320,1,137.5
276,248,43454,1,0,0:0:0:0:
228,188,43538,2,0,P|176:172|104:207,1,137.5
60,268,43788,2,0,L|24:124,1,137.5
72,76,44038,1,0,0:0:0:0:
208,56,44204,6,0,L|256:68,7,34.375
288,72,44538,2,0,L|336:60,7,34.375
368,60,44871,2,0,L|416:72,7,34.375
444,76,45204,1,8,0:0:0:0:
488,120,45288,1,8,0:0:0:0:
504,180,45371,1,8,0:0:0:0:
496,240,45454,1,8,0:0:0:0:
452,284,45538,6,0,P|408:312|312:212,1,206.25,4|0,0:0|0:0,0:0:0:0:
309,225,45871,2,0,L|160:280,1,137.5
120,24,46204,2,0,L|249:70,1,137.5
64,216,46538,2,0,B|24:180|24:180|24:92,1,137.5
256,156,46871,5,0,0:0:0:0:
256,156,46954,1,0,0:0:0:0:
256,156,47038,2,0,P|284:176|392:188,1,137.5,2|0,0:0|0:0,0:0:0:0:
412,260,47288,2,0,L|288:340,1,137.5,2|0,0:0|0:0,0:0:0:0:
215,334,47538,2,0,L|100:260,1,137.5,2|0,0:0|0:0,0:0:0:0:
128,190,47788,2,0,P|228:176|256:156,1,137.5,2|0,0:0|0:0,0:0:0:0:
272,108,48038,1,2,0:0:0:0:
260,60,48121,1,0,0:0:0:0:
224,28,48204,6,0,P|124:42|96:62,1,137.5
288,356,48538,2,0,P|388:342|416:322,1,137.5
328,132,48871,2,0,P|304:188|340:260,1,137.5
333,254,49121,2,0,L|191:279,1,137.5
136,308,49371,1,0,0:0:0:0:
28,220,49538,5,2,0:0:0:0:
68,212,49621,1,0,0:0:0:0:
100,187,49704,1,0,0:0:0:0:
117,150,49788,1,0,0:0:0:0:
112,108,49871,1,2,0:0:0:0:
150,121,49954,1,0,0:0:0:0:
191,116,50037,1,0,0:0:0:0:
224,92,50121,1,0,0:0:0:0:
236,52,50204,6,0,L|304:40,1,68.75,2|0,0:0|0:0,0:0:0:0:
368,68,50371,2,0,L|436:56,1,68.75
480,144,50538,2,0,L|412:132,1,68.75,2|0,0:0|0:0,0:0:0:0:
348,160,50705,2,0,L|280:148,1,68.75
220,180,50871,6,0,P|212:212|276:288,1,137.5
392,224,51204,1,0,0:0:0:0:
144,84,51371,1,0,0:0:0:0:
96,80,51454,1,0,0:0:0:0:
56,108,51538,2,0,B|24:160|24:160|40:240,1,137.5
20,308,51788,2,0,P|44:328|144:308,1,137.5
172,244,52038,1,0,0:0:0:0:
268,344,52204,5,2,0:0:0:0:
312,364,52288,1,0,0:0:0:0:
356,384,52371,1,0,0:0:0:0:
472,344,52538,1,2,0:0:0:0:
492,300,52622,1,0,0:0:0:0:
512,256,52705,1,0,0:0:0:0:
376,260,52871,1,2,0:0:0:0:
340,228,52954,1,0,0:0:0:0:
320,184,53037,1,0,0:0:0:0:
321,136,53121,1,0,0:0:0:0:
341,93,53204,1,2,0:0:0:0:
377,62,53287,1,0,0:0:0:0:
423,49,53371,1,0,0:0:0:0:
470,55,53454,1,0,0:0:0:0:
508,84,53538,6,0,P|516:144|456:196,1,137.5
320,136,53871,2,0,B|256:96|256:96|192:108,1,137.5
164,144,54121,1,0,0:0:0:0:
164,144,54204,2,0,L|24:120,1,137.5
76,200,54454,2,0,L|216:176,1,137.5
156,256,54704,1,0,0:0:0:0:
256,352,54871,6,0,L|296:352,2,34.375,2|0|0,0:0|0:0|0:0,0:0:0:0:
280,288,55038,1,0,0:0:0:0:
280,288,55121,1,0,0:0:0:0:
280,288,55204,2,0,L|320:288,2,34.375,2|0|0,0:0|0:0|0:0,0:0:0:0:
256,224,55371,1,0,0:0:0:0:
256,224,55454,1,0,0:0:0:0:
256,224,55537,2,0,L|296:224,2,34.375,2|0|0,0:0|0:0|0:0,0:0:0:0:
188,204,55704,1,0,0:0:0:0:
184,216,55788,1,0,0:0:0:0:
180,228,55871,2,0,P|152:252|108:256,1,68.75,2|0,0:0|0:0,0:0:0:0:
44,216,56037,2,0,P|37:179|55:139,1,68.75,2|0,0:0|0:0,0:0:0:0:
120,100,56204,5,4,0:0:0:0:
392,284,56371,1,0,0:0:0:0:
228,68,56538,1,0,0:0:0:0:
284,316,56704,1,0,0:0:0:0:
336,112,56871,1,0,0:0:0:0:
176,272,57038,1,0,0:0:0:0:
352,224,57204,1,0,0:0:0:0:
160,160,57371,1,0,0:0:0:0:
284,316,57538,5,0,0:0:0:0:
268,336,57621,1,0,0:0:0:0:
252,356,57704,2,0,P|196:372|132:328,1,137.5,2|0,0:0|0:0,0:0:0:0:
176,272,57954,2,0,P|148:224|68:208,1,137.5,2|0,0:0|0:0,0:0:0:0:
4,244,58204,2,0,L|20:96,1,137.5,2|0,0:0|0:0,0:0:0:0:
64,44,58454,1,2,0:0:0:0:
188,132,58621,1,0,0:0:0:0:
244,140,58704,1,2,0:0:0:0:
296,116,58788,1,0,0:0:0:0:
324,68,58871,6,0,L|464:44,1,137.5
364,192,59204,1,0,0:0:0:0:
188,132,59371,1,0,0:0:0:0:
96,232,59538,2,0,P|88:312|120:356,1,137.5
192,336,59788,2,0,L|332:336,1,137.5
404,316,60038,1,0,0:0:0:0:
468,196,60204,5,2,0:0:0:0:
486,152,60287,1,0,0:0:0:0:
483,104,60370,1,0,0:0:0:0:
460,62,60454,1,0,0:0:0:0:
420,36,60537,1,2,0:0:0:0:
373,29,60620,1,0,0:0:0:0:
328,44,60704,1,0,0:0:0:0:
294,78,60787,1,0,0:0:0:0:
280,124,60871,6,0,L|312:184,1,68.75,2|0,0:0|0:0,0:0:0:0:
284,204,61038,2,0,L|344:234,1,68.75
332,268,61204,2,0,L|399:258,1,68.75,2|0,0:0|0:0,0:0:0:0:
408,291,61371,2,0,L|457:244,1,68.75
484,264,61538,6,0,P|512:200|480:144,1,137.5
200,228,61871,2,0,P|172:292|204:348,1,137.5
376,100,62204,1,0,0:0:0:0:
136,100,62371,1,0,0:0:0:0:
256,288,62538,1,0,0:0:0:0:
316,44,62704,1,0,0:0:0:0:
116,176,62871,5,2,0:0:0:0:
104,200,62954,1,0,0:0:0:0:
92,224,63038,1,0,0:0:0:0:
88,348,63204,1,2,0:0:0:0:
114,346,63287,1,0,0:0:0:0:
141,344,63371,1,0,0:0:0:0:
256,288,63538,1,2,0:0:0:0:
241,265,63621,1,0,0:0:0:0:
226,243,63705,1,0,0:0:0:0:
212,220,63788,1,0,0:0:0:0:
200,196,63871,5,2,0:0:0:0:
212,156,63954,1,0,0:0:0:0:
224,116,64038,1,0,0:0:0:0:
232,76,64121,1,0,0:0:0:0:
240,36,64204,6,0,P|280:12|368:36,1,137.5
372,252,64538,2,0,P|331:229|307:141,1,137.5
372,104,64788,1,0,0:0:0:0:
444,132,64871,2,0,P|484:192|484:256,1,137.5
452,324,65121,2,0,B|376:324|376:324|332:368,1,137.5
256,336,65371,1,0,0:0:0:0:
54,239,65538,5,0,0:0:0:0:
70,203,65621,1,0,0:0:0:0:
100,177,65704,1,0,0:0:0:0:
139,167,65787,1,0,0:0:0:0:
179,169,65871,1,0,0:0:0:0:
218,179,65954,1,0,0:0:0:0:
256,191,66037,1,0,0:0:0:0:
294,204,66121,1,0,0:0:0:0:
333,214,66204,1,0,0:0:0:0:
373,215,66287,1,0,0:0:0:0:
411,204,66371,1,0,0:0:0:0:
441,178,66454,1,0,0:0:0:0:
456,141,66537,1,0,0:0:0:0:
456,141,66871,6,0,P|440:92|288:80,1,220,4|8,0:0|0:0,0:0:0:0:
256,191,67371,1,0,0:0:0:0:
328,276,67538,2,0,P|392:280|428:256,1,110
256,191,67871,2,0,P|220:248|224:292,1,110,8|0,0:0|0:0,0:0:0:0:
368,128,68204,6,0,P|368:68|236:4,2,220,0|8|0,0:0|0:0|0:0,0:0:0:0:
256,192,69038,1,0,0:0:0:0:
156,56,69204,1,8,0:0:0:0:
96,228,69371,1,0,0:0:0:0:
88,252,69454,1,8,0:0:0:0:
80,276,69538,6,0,P|100:328|236:300,1,220,0|8,0:0|0:0,0:0:0:0:
256,192,70038,1,0,0:0:0:0:
156,56,70204,2,0,P|140:104|156:164,1,110
356,328,70538,2,0,P|372:280|356:220,1,110,8|0,0:0|0:0,0:0:0:0:
128,216,70871,6,0,P|136:256|296:260,1,220,0|8,0:0|0:0,0:0:0:0:
256,168,71371,1,0,0:0:0:0:
156,124,71538,1,0,0:0:0:0:
156,124,71621,2,0,P|90:117|51:141,1,110,8|0,0:0|0:0,0:0:0:0:
36,176,71871,2,8,L|48:288,1,110,8|0,0:0|0:0,0:0:0:0:
120,324,72121,1,0,0:0:0:0:
120,324,72204,6,0,L|232:296,1,110,0|0,0:0|0:0,0:0:0:0:
360,84,72538,2,0,P|440:68|492:176,1,220,8|0,0:0|0:0,0:0:0:0:
384,196,73038,1,0,0:0:0:0:
216,140,73204,1,8,0:0:0:0:
360,84,73371,1,0,0:0:0:0:
244,256,73538,6,0,L|124:240,1,110
384,196,73871,2,0,P|426:273|342:373,1,220,8|0,0:0|0:0,0:0:0:0:
244,256,74371,1,0,0:0:0:0:
106,125,74538,2,0,L|216:140,1,110,8|0,0:0|0:0,0:0:0:0:
260,172,74788,1,8,0:0:0:0:
260,172,74871,6,0,P|312:164|316:24,1,220,0|8,0:0|0:0,0:0:0:0:
212,52,75371,1,0,0:0:0:0:
156,232,75538,1,0,0:0:0:0:
260,172,75704,1,0,0:0:0:0:
64,112,75871,2,0,P|36:156|44:212,1,110,8|0,0:0|0:0,0:0:0:0:
200,332,76204,6,0,L|436:292,1,220,0|8,0:0|0:0,0:0:0:0:
448,188,76704,1,0,0:0:0:0:
320,196,76871,1,0,0:0:0:0:
320,196,76954,2,0,P|304:148|320:88,1,110,8|0,0:0|0:0,0:0:0:0:
368,56,77204,2,0,L|256:28,1,110,8|0,0:0|0:0,0:0:0:0:
156,128,77538,6,0,L|180:244,1,110,4|0,0:0|0:0,0:0:0:0:
340,368,77871,2,0,P|372:372|456:232,1,220,8|0,0:0|0:0,0:0:0:0:
380,160,78371,1,0,0:0:0:0:
352,268,78538,1,8,0:0:0:0:
484,92,78704,1,0,0:0:0:0:
352,268,78871,6,0,P|296:288|216:168,1,220,0|8,0:0|0:0,0:0:0:0:
256,76,79371,1,0,0:0:0:0:
420,208,79538,2,0,P|440:260|420:320,1,110
85,310,79871,2,0,P|72:260|92:208,1,110,8|0,0:0|0:0,0:0:0:0:
140,208,80121,1,8,0:0:0:0:
140,208,80204,6,0,P|160:144|40:76,1,220,0|8,0:0|0:0,0:0:0:0:
44,240,80704,1,0,0:0:0:0:
205,325,80871,2,0,P|255:342|306:325,1,110
306,59,81204,2,0,P|255:41|205:59,1,110,8|0,0:0|0:0,0:0:0:0:
256,192,81538,5,0,0:0:0:0:
256,192,81621,1,8,0:0:0:0:
368,244,81788,1,0,0:0:0:0:
368,244,81871,1,8,0:0:0:0:
144,272,82038,1,0,0:0:0:0:
144,272,82121,1,8,0:0:0:0:
256,336,82288,1,8,0:0:0:0:
256,336,82371,2,0,P|308:360|364:340,1,110,0|8,0:0|0:0,0:0:0:0:
256,48,82704,1,0,0:0:0:0:
256,48,82788,1,8,0:0:0:0:
256,48,82871,6,0,P|204:24|116:132,1,220,0|8,0:0|0:0,0:0:0:0:
204,232,83371,1,0,0:0:0:0:
336,208,83538,2,0,L|316:84,1,110
204,232,83871,2,0,L|184:356,1,110,8|0,0:0|0:0,0:0:0:0:
440,384,84204,6,0,P|480:332|420:200,2,220,0|8|0,0:0|0:0|0:0,0:0:0:0:
332,364,85038,1,0,0:0:0:0:
276,272,85204,1,0,0:0:0:0:
328,176,85371,1,8,0:0:0:0:
328,176,85454,1,8,0:0:0:0:
328,176,85538,6,0,L|448:192,1,110
192,300,85871,1,8,0:0:0:0:
84,312,86038,2,0,L|32:280,1,55
16,252,86204,5,0,0:0:0:0:
8,214,86287,1,0,0:0:0:0:
14,176,86370,1,0,0:0:0:0:
32,142,86453,1,0,0:0:0:0:
60,116,86537,1,8,0:0:0:0:
94,100,86620,1,0,0:0:0:0:
133,96,86703,1,0,0:0:0:0:
170,105,86787,1,0,0:0:0:0:
202,126,86870,1,4,0:0:0:0:
200,120,87871,5,0,0:0:0:0:
132,236,88038,1,8,0:0:0:0:
324,104,88204,6,0,P|360:104|384:252,1,220,4|8,0:0|0:0,0:0:0:0:
256,304,88704,1,0,0:0:0:0:
132,236,88871,2,0,L|112:120,1,110
280,32,89204,2,0,P|340:20|400:56,1,110,8|0,0:0|0:0,0:0:0:0:
428,176,89538,5,0,0:0:0:0:
256,212,89704,1,0,0:0:0:0:
324,104,89871,1,8,0:0:0:0:
356,304,90038,1,0,0:0:0:0:
156,304,90204,1,0,0:0:0:0:
188,104,90371,2,0,P|196:68|268:32,1,110,0|8,0:0|0:0,0:0:0:0:
164,192,90704,1,0,0:0:0:0:
164,192,90788,1,8,0:0:0:0:
164,192,90871,6,0,B|108:192|108:192|68:148,1,110
324,104,91204,2,0,L|344:224,1,110,8|0,0:0|0:0,0:0:0:0:
256,300,91538,1,0,0:0:0:0:
256,180,91704,1,0,0:0:0:0:
380,376,91871,1,8,0:0:0:0:
132,376,92038,1,0,0:0:0:0:
336,196,92204,6,0,P|372:248|280:344,1,220,0|8,0:0|0:0,0:0:0:0:
176,196,92704,1,0,0:0:0:0:
304,108,92871,1,0,0:0:0:0:
304,108,92954,1,8,0:0:0:0:
256,268,93121,1,0,0:0:0:0:
256,268,93204,1,8,0:0:0:0:
208,108,93371,1,0,0:0:0:0:
334,285,93538,6,0,P|297:336|175:282,1,220,0|8,0:0|0:0,0:0:0:0:
256,192,94038,1,0,0:0:0:0:
428,200,94204,2,0,L|416:316,1,110
256,192,94538,2,0,L|268:76,1,110,8|0,0:0|0:0,0:0:0:0:
128,24,94871,6,0,P|52:48|32:200,2,220,0|8|0,0:0|0:0|0:0,0:0:0:0:
216,92,95704,1,0,0:0:0:0:
256,192,95871,1,8,0:0:0:0:
216,292,96038,1,0,0:0:0:0:
176,339,96121,1,8,0:0:0:0:
127,360,96204,6,0,P|74:332|52:280,1,110
72,168,96538,1,8,0:0:0:0:
216,292,96704,1,0,0:0:0:0:
216,292,96788,1,0,0:0:0:0:
216,292,96871,2,0,P|244:312|340:312,1,110
331,118,97204,2,0,P|299:132|256:192,1,110,8|0,0:0|0:0,0:0:0:0:
416,308,97538,6,0,P|419:273|389:206,1,110
389,206,97788,2,0,L|428:92,1,110,8|0,0:0|0:0,0:0:0:0:
460,60,98038,1,0,0:0:0:0:
296,48,98204,1,0,0:0:0:0:
260,80,98287,1,8,0:0:0:0:
252,128,98370,1,0,0:0:0:0:
288,232,98538,1,8,0:0:0:0:
144,272,98704,1,8,0:0:0:0:
32,176,98871,6,0,P|24:120|160:68,1,220,4|8,0:0|0:0,0:0:0:0:
220,160,99371,1,0,0:0:0:0:
184,276,99538,1,0,0:0:0:0:
184,276,99621,1,0,0:0:0:0:
280,352,99788,1,0,0:0:0:0:
280,352,99871,1,8,0:0:0:0:
392,304,100038,1,0,0:0:0:0:
384,184,100204,6,0,P|368:128|200:88,2,220,0|8|0,0:0|0:0|0:0,0:0:0:0:
296,248,101038,1,0,0:0:0:0:
488,360,101204,1,8,0:0:0:0:
480,144,101371,1,0,0:0:0:0:
480,144,101454,1,8,0:0:0:0:
480,144,101538,6,0,P|448:192|460:244,1,110
316,352,101871,2,0,L|208:328,1,110,8|0,0:0|0:0,0:0:0:0:
100,348,102204,1,0,0:0:0:0:
100,348,102288,1,0,0:0:0:0:
140,212,102454,1,0,0:0:0:0:
140,212,102538,1,8,0:0:0:0:
40,112,102704,1,0,0:0:0:0:
196,40,102871,6,0,P|276:36|344:144,2,220,0|8|0,0:0|0:0|0:0,0:0:0:0:
156,64,103621,1,8,0:0:0:0:
136,104,103704,1,0,0:0:0:0:
256,240,103871,1,8,0:0:0:0:
120,348,104038,1,0,0:0:0:0:
84,328,104121,1,8,0:0:0:0:
64,288,104204,6,0,L|48:168,1,110
256,240,104538,2,0,L|240:360,1,110,8|0,0:0|0:0,0:0:0:0:
152,240,104871,1,0,0:0:0:0:
152,240,104954,1,0,0:0:0:0:
352,320,105121,1,0,0:0:0:0:
352,320,105204,1,8,0:0:0:0:
256,112,105371,1,0,0:0:0:0:
160,320,105538,6,0,P|96:332|36:196,2,220,0|8|0,0:0|0:0|0:0,0:0:0:0:
256,264,106371,1,0,0:0:0:0:
192,172,106538,1,8,0:0:0:0:
320,172,106704,2,0,L|392:176,1,55,0|8,0:0|0:0,0:0:0:0:
408,200,106871,6,0,P|464:192|496:144,1,110
344,64,107204,1,8,0:0:0:0:
392,280,107371,1,0,0:0:0:0:
396,296,107454,1,8,0:0:0:0:
400,312,107538,2,0,B|384:360|384:360|324:384,1,110
256,264,107871,2,0,L|256:144,1,110,8|0,0:0|0:0,0:0:0:0:
344,64,108204,5,0,0:0:0:0:
164,144,108371,1,0,0:0:0:0:
328,252,108538,1,8,0:0:0:0:
252,68,108704,2,0,L|200:92,1,55,0|8,0:0|0:0,0:0:0:0:
164,144,108871,5,0,0:0:0:0:
156,187,108954,1,0,0:0:0:0:
160,230,109037,1,0,0:0:0:0:
176,271,109120,1,0,0:0:0:0:
204,305,109204,1,8,0:0:0:0:
239,331,109287,1,0,0:0:0:0:
281,345,109370,1,0,0:0:0:0:
325,347,109454,1,0,0:0:0:0:
368,336,109538,6,0,P|408:292|252:160,1,330,4|0,0:0|0:0,0:0:0:0:
336,264,110204,2,0,L|504:264,2,165,2|0|2,0:0|0:0|0:0,0:0:0:0:
228,296,110871,5,0,2:0:0:0:
200,296,110954,1,0,2:0:0:0:
172,296,111038,1,2,2:0:0:0:
68,332,111204,1,0,2:0:0:0:
68,332,111288,1,2,2:0:0:0:
100,228,111454,1,0,2:0:0:0:
100,228,111538,1,2,2:0:0:0:
20,152,111704,1,0,2:0:0:0:
20,152,111788,1,2,2:0:0:0:
60,52,111954,1,2,2:0:0:0:
88,52,112038,1,0,2:0:0:0:
116,52,112121,1,2,2:0:0:0:
144,52,112204,6,0,P|176:52|220:280,1,330,4|0,0:0|0:0,0:0:0:0:
300,360,112871,2,0,L|472:360,2,165,2|0|2,0:0|0:0|0:0,0:0:0:0:
256,260,113538,5,2,2:0:0:0:
236,152,113704,1,2,2:0:0:0:
284,164,113788,1,2,2:0:0:0:
328,188,113871,1,0,2:0:0:0:
352,232,113954,1,2,2:0:0:0:
416,308,114121,1,0,2:0:0:0:
416,308,114204,1,2,2:0:0:0:
448,212,114371,1,0,2:0:0:0:
448,212,114454,1,2,2:0:0:0:
404,124,114621,1,0,2:0:0:0:
404,124,114704,1,2,2:0:0:0:
320,72,114871,6,0,P|292:64|88:128,1,220,4|0,0:0|0:0,0:0:0:0:
44,192,115371,1,0,0:0:0:0:
116,276,115538,2,0,P|144:296|272:320,2,165,2|0|2,0:0|0:0|0:0,0:0:0:0:
188,192,116204,5,2,2:0:0:0:
196,168,116288,1,0,2:0:0:0:
204,144,116371,1,0,2:0:0:0:
304,96,116538,1,2,2:0:0:0:
312,120,116622,1,0,2:0:0:0:
320,144,116705,1,0,2:0:0:0:
440,152,116871,1,2,2:0:0:0:
432,176,116955,1,0,2:0:0:0:
424,200,117038,1,0,2:0:0:0:
412,224,117121,1,0,2:0:0:0:
400,248,117204,1,2,2:0:0:0:
388,272,117288,1,0,2:0:0:0:
376,296,117371,1,0,2:0:0:0:
364,320,117454,1,0,2:0:0:0:
348,344,117538,6,0,B|236:344|236:344|164:264,1,220,4|0,0:0|0:0,0:0:0:0:
256,164,118038,1,0,0:0:0:0:
288,268,118204,1,2,0:0:0:0:
124,156,118371,1,0,0:0:0:0:
124,156,118454,2,0,B|152:76|152:76|232:76,1,165,0|2,0:0|0:0,0:0:0:0:
256,192,118871,12,4,120204,0:0:0:0:
24,104,129538,5,0,0:0:0:0:
62,125,129621,1,0,0:0:0:0:
105,121,129704,1,0,0:0:0:0:
143,100,129787,1,0,0:0:0:0:
182,81,129871,1,0,0:0:0:0:
226,81,129954,1,0,0:0:0:0:
266,98,130037,1,0,0:0:0:0:
284,140,130121,1,0,0:0:0:0:
272,184,130204,1,0,0:0:0:0:
168,244,130371,2,0,L|120:248,2,36.6666666666667
216,240,130538,1,0,0:0:0:0:
252,272,130621,1,0,0:0:0:0:
240,316,130704,1,0,0:0:0:0:
196,328,130788,1,0,0:0:0:0:
156,312,130871,6,0,L|40:328,1,110
396,136,131371,1,0,0:0:0:0:
396,136,131538,2,0,L|440:304,2,165
200,204,133204,1,0,0:0:0:0:
248,304,133371,1,0,0:0:0:0:
356,312,133538,6,0,L|472:328,1,110
116,136,134038,1,0,0:0:0:0:
116,136,134205,2,0,L|72:304,2,165
360,116,135871,2,0,L|376:140,7,27.5
392,168,136204,6,0,P|412:188|408:292,1,137.5,4|0,0:0|0:0,0:0:0:0:
332,296,136454,1,0,0:0:0:0:
288,356,136538,2,0,L|144:368,1,137.5,8|0,0:0|0:0,0:0:0:0:
0,232,136871,2,0,L|136:260,1,137.5
188,188,137121,2,0,L|52:160,1,137.5,8|0,0:0|0:0,0:0:0:0:
12,88,137371,1,8,0:0:0:0:
360,40,137538,6,0,B|430:29|430:29|500:60,2,137.5,0|0|8,0:0|0:0|0:0,0:0:0:0:
428,176,138038,1,0,0:0:0:0:
280,148,138204,1,0,0:0:0:0:
224,160,138288,1,0,0:0:0:0:
192,204,138371,1,0,0:0:0:0:
188,260,138454,1,0,0:0:0:0:
212,308,138538,2,0,L|80:344,1,137.5,8|0,0:0|0:0,0:0:0:0:
32,316,138788,1,8,0:0:0:0:
20,264,138871,1,0,0:0:0:0:
60,116,139038,5,0,0:0:0:0:
120,96,139121,1,0,0:0:0:0:
180,80,139204,2,0,L|364:104,1,137.5,8|0,0:0|0:0,0:0:0:0:
388,72,139454,1,0,0:0:0:0:
432,132,139538,2,0,P|424:200|468:256,1,137.5
476,328,139788,1,0,0:0:0:0:
408,360,139871,2,0,B|352:328|272:360,1,137.5,8|0,0:0|0:0,0:0:0:0:
56,196,140204,5,4,0:0:0:0:
66,130,140288,1,0,0:0:0:0:
116,90,140371,1,0,0:0:0:0:
178,86,140454,1,0,0:0:0:0:
228,124,140538,2,0,B|256:160|256:160|256:260,1,137.5,8|0,0:0|0:0,0:0:0:0:
112,268,140871,5,0,0:0:0:0:
112,268,140954,1,8,0:0:0:0:
256,48,141121,1,0,0:0:0:0:
256,48,141204,1,8,0:0:0:0:
400,268,141371,1,0,0:0:0:0:
400,268,141454,1,8,0:0:0:0:
400,268,141538,6,0,B|452:208|412:136,1,137.5,4|0,0:0|0:0,0:0:0:0:
256,196,141871,1,8,0:0:0:0:
344,300,142038,1,0,0:0:0:0:
344,84,142204,1,0,0:0:0:0:
344,84,142288,1,0,0:0:0:0:
128,192,142454,1,0,0:0:0:0:
128,192,142538,1,8,0:0:0:0:
384,192,142704,1,0,0:0:0:0:
164,78,142871,6,0,P|132:105|128:196,1,137.5
88,328,143204,2,0,P|127:341|207:300,1,137.5,8|0,0:0|0:0,0:0:0:0:
336,356,143538,1,0,0:0:0:0:
356,300,143621,1,0,0:0:0:0:
336,240,143704,1,0,0:0:0:0:
280,212,143788,1,0,0:0:0:0:
220,224,143871,1,8,0:0:0:0:
96,284,144038,1,0,0:0:0:0:
48,244,144121,1,8,0:0:0:0:
44,184,144204,6,0,L|56:44,1,137.5
468,200,144538,2,0,L|456:340,1,137.5,8|0,0:0|0:0,0:0:0:0:
424,368,144788,1,8,0:0:0:0:
424,368,144871,2,0,P|336:372|304:340,1,137.5
192,68,145204,2,0,P|223:36|311:40,1,137.5,8|0,0:0|0:0,0:0:0:0:
412,136,145538,5,0,0:0:0:0:
100,248,145704,1,0,0:0:0:0:
308,40,145871,1,8,0:0:0:0:
204,344,146038,1,0,0:0:0:0:
164,56,146204,1,8,0:0:0:0:
164,56,146288,1,8,0:0:0:0:
164,56,146371,1,8,0:0:0:0:
348,328,146538,1,0,0:0:0:0:
88,168,146704,1,8,0:0:0:0:
88,168,146788,1,8,0:0:0:0:
88,168,146871,6,0,P|84:200|144:296,1,137.5,4|0,0:0|0:0,0:0:0:0:
208,292,147121,1,0,0:0:0:0:
268,340,147204,2,0,L|408:308,1,137.5,8|0,0:0|0:0,0:0:0:0:
496,192,147538,1,0,0:0:0:0:
496,192,147621,1,0,0:0:0:0:
448,372,147788,1,0,0:0:0:0:
448,372,147871,1,8,0:0:0:0:
328,220,148038,1,0,0:0:0:0:
508,288,148204,1,0,0:0:0:0:
328,352,148371,5,0,0:0:0:0:
277,347,148454,1,0,0:0:0:0:
232,324,148537,1,8,0:0:0:0:
199,286,148621,1,0,0:0:0:0:
156,260,148704,1,0,0:0:0:0:
104,260,148787,1,0,0:0:0:0:
64,292,148871,2,0,B|20:268|20:268|12:164,1,137.5
52,64,149204,1,8,0:0:0:0:
156,132,149371,1,0,0:0:0:0:
208,132,149454,1,8,0:0:0:0:
248,100,149538,6,0,P|264:88|376:76,1,137.5
420,112,149788,1,0,0:0:0:0:
444,160,149871,1,8,0:0:0:0:
432,212,149954,1,0,0:0:0:0:
392,251,150038,1,0,0:0:0:0:
336,248,150120,1,0,0:0:0:0:
292,212,150204,1,0,0:0:0:0:
236,196,150288,1,0,0:0:0:0:
184,212,150371,1,0,0:0:0:0:
172,264,150454,1,0,0:0:0:0:
196,312,150538,1,8,0:0:0:0:
188,364,150621,1,0,0:0:0:0:
136,380,150704,1,0,0:0:0:0:
92,344,150788,1,8,0:0:0:0:
92,288,150871,6,0,P|88:228|32:164,1,137.5
32,28,151204,2,0,P|76:88|136:92,1,137.5,8|0,0:0|0:0,0:0:0:0:
200,52,151454,1,0,0:0:0:0:
256,104,151538,2,0,L|336:88,1,68.75,0|8,0:0|0:0,0:0:0:0:
456,148,151704,2,0,L|376:132,1,68.75,0|0,0:0|0:0,0:0:0:0:
248,192,151871,2,0,L|328:176,1,68.75,8|0,0:0|0:0,0:0:0:0:
448,236,152037,2,0,L|368:220,1,68.75,0|8,0:0|0:0,0:0:0:0:
240,280,152204,6,0,L|92:316,1,137.5,4|0,0:0|0:0,0:0:0:0:
12,192,152538,1,8,0:0:0:0:
106,71,152704,1,0,0:0:0:0:
160,88,152788,1,0,0:0:0:0:
180,140,152871,2,0,L|328:176,1,137.5,0|0,0:0|0:0,0:0:0:0:
384,148,153121,2,0,P|368:208|392:284,1,137.5,8|0,0:0|0:0,0:0:0:0:
448,324,153371,1,8,0:0:0:0:
500,180,153538,6,0,P|516:120|492:44,1,137.5
424,24,153788,2,0,L|280:24,1,137.5,8|0,0:0|0:0,0:0:0:0:
220,64,154038,1,0,0:0:0:0:
320,280,154204,1,0,0:0:0:0:
320,280,154288,1,8,0:0:0:0:
384,148,154454,1,0,0:0:0:0:
384,148,154538,2,0,P|316:128|248:148,1,137.5,8|0,0:0|0:0,0:0:0:0:
184,180,154788,1,8,0:0:0:0:
108,168,154871,5,0,0:0:0:0:
40,196,154954,2,0,B|16:248|16:248|32:328,1,137.5
100,360,155204,1,8,0:0:0:0:
208,256,155371,1,0,0:0:0:0:
268,248,155454,1,8,0:0:0:0:
320,280,155538,1,0,0:0:0:0:
328,340,155621,2,0,P|356:348|472:324,1,137.5,8|0,0:0|0:0,0:0:0:0:
492,276,155871,2,0,P|474:171|482:143,1,137.5,8|0,0:0|0:0,0:0:0:0:
484,68,156121,1,8,0:0:0:0:
424,20,156204,5,0,0:0:0:0:
352,48,156288,2,0,L|188:64,1,137.5,8|0,0:0|0:0,0:0:0:0:
140,48,156538,2,0,P|104:56|40:136,1,137.5,8|0,0:0|0:0,0:0:0:0:
44,204,156788,1,8,0:0:0:0:
96,260,156871,6,0,L|172:276,1,68.75
296,224,157038,2,0,L|220:208,1,68.75,0|0,0:0|0:0,0:0:0:0:
164,352,157204,2,0,L|240:368,1,68.75,8|8,0:0|0:0,0:0:0:0:
232,124,157371,2,0,L|156:108,1,68.75,8|8,0:0|0:0,0:0:0:0:
316,328,157538,6,0,L|468:300,1,137.5,4|0,0:0|0:0,0:0:0:0:
488,236,157788,1,0,0:0:0:0:
440,180,157871,2,0,P|420:144|444:48,1,137.5,8|0,0:0|0:0,0:0:0:0:
292,16,158204,1,0,0:0:0:0:
292,16,158288,1,0,0:0:0:0:
168,104,158454,1,0,0:0:0:0:
168,104,158538,1,8,0:0:0:0:
16,92,158704,1,0,0:0:0:0:
16,92,158788,1,0,0:0:0:0:
16,92,158871,6,0,L|48:248,1,137.5,0|0,0:0|0:0,0:0:0:0:
12,296,159121,2,0,P|80:276|128:316,1,137.5,8|0,0:0|0:0,0:0:0:0:
192,352,159371,2,0,L|268:360,1,68.75,8|0,0:0|0:0,0:0:0:0:
336,352,159538,5,0,0:0:0:0:
397,346,159621,1,0,0:0:0:0:
448,313,159704,1,0,0:0:0:0:
477,259,159788,1,0,0:0:0:0:
477,197,159871,1,8,0:0:0:0:
448,144,159954,1,0,0:0:0:0:
397,110,160038,1,0,0:0:0:0:
336,104,160121,1,8,0:0:0:0:
280,128,160204,5,0,0:0:0:0:
261,191,160288,1,0,0:0:0:0:
283,251,160371,1,0,0:0:0:0:
263,314,160454,1,0,0:0:0:0:
215,358,160537,1,8,0:0:0:0:
150,371,160621,1,0,0:0:0:0:
85,360,160704,1,0,0:0:0:0:
43,309,160787,1,0,0:0:0:0:
48,244,160871,6,0,L|62:174,1,68.75
8,144,161038,2,0,L|70:110,1,68.75,0|0,0:0|0:0,0:0:0:0:
40,56,161204,2,0,L|105:82,1,68.75,8|0,0:0|0:0,0:0:0:0:
145,33,161371,2,0,L|167:100,1,68.75,0|0,0:0|0:0,0:0:0:0:
140,168,161538,5,4,0:0:0:0:
141,229,161621,1,0,0:0:0:0:
163,286,161704,1,0,0:0:0:0:
203,333,161788,1,0,0:0:0:0:
257,364,161871,1,8,0:0:0:0:
317,375,161954,1,0,0:0:0:0:
378,364,162038,1,0,0:0:0:0:
432,335,162121,1,0,0:0:0:0:
473,288,162204,5,0,0:0:0:0:
473,288,162288,2,0,B|492:224|492:224|472:148,1,137.5,8|0,0:0|0:0,0:0:0:0:
452,84,162538,2,0,L|292:64,1,137.5,8|0,0:0|0:0,0:0:0:0:
256,20,162788,1,8,0:0:0:0:
184,36,162871,6,0,L|47:53,1,137.5,4|0,0:0|0:0,0:0:0:0:
108,120,163121,2,0,L|244:137,1,137.5,8|0,0:0|0:0,0:0:0:0:
188,208,163371,1,8,0:0:0:0:
188,208,163454,1,0,0:0:0:0:
188,208,163538,2,0,P|181:285|215:333,1,137.5
298,332,163788,2,0,P|330:285|324:208,1,137.5,8|0,0:0|0:0,0:0:0:0:
256,156,164038,1,8,0:0:0:0:
8,296,164204,6,0,L|144:344,1,137.5
188,284,164454,1,0,0:0:0:0:
188,208,164538,1,8,0:0:0:0:
48,104,164704,2,0,P|24:180|116:244,1,206.25,0|8,0:0|0:0,0:0:0:0:
188,208,165038,2,0,L|328:200,1,137.5,0|8,0:0|0:0,0:0:0:0:
448,116,165371,1,0,0:0:0:0:
448,116,165454,1,8,0:0:0:0:
448,116,165538,5,0,0:0:0:0:
488,157,165621,1,0,0:0:0:0:
508,212,165704,1,0,0:0:0:0:
504,269,165788,1,0,0:0:0:0:
476,320,165871,1,8,0:0:0:0:
428,352,165954,1,0,0:0:0:0:
369,354,166037,1,0,0:0:0:0:
314,336,166120,1,0,0:0:0:0:
264,306,166204,1,0,0:0:0:0:
210,283,166287,1,0,0:0:0:0:
152,280,166370,1,0,0:0:0:0:
95,294,166454,1,0,0:0:0:0:
46,326,166538,2,0,L|7:182,1,137.5,8|0,0:0|0:0,0:0:0:0:
62,36,166871,5,0,0:0:0:0:
62,36,166954,1,0,0:0:0:0:
180,172,167121,1,0,0:0:0:0:
180,172,167204,1,8,0:0:0:0:
316,52,167371,1,0,0:0:0:0:
316,52,167454,1,0,0:0:0:0:
464,144,167621,1,8,0:0:0:0:
484,204,167704,1,0,0:0:0:0:
476,264,167788,1,0,0:0:0:0:
432,308,167871,2,0,L|348:296,1,68.75,8|0,0:0|0:0,0:0:0:0:
284,212,168038,2,0,L|368:200,1,68.75,0|8,0:0|0:0,0:0:0:0:
276,336,168204,6,0,L|139:355,1,137.5,4|0,0:0|0:0,0:0:0:0:
64,320,168454,1,8,0:0:0:0:
8,164,168621,1,0,0:0:0:0:
8,164,168704,1,8,0:0:0:0:
168,204,168871,1,0,0:0:0:0:
0,256,169038,1,0,0:0:0:0:
0,256,169121,1,8,0:0:0:0:
100,128,169288,1,0,0:0:0:0:
100,128,169371,1,8,0:0:0:0:
140,288,169538,5,0,0:0:0:0:
296,352,169704,1,0,0:0:0:0:
354,367,169787,1,0,0:0:0:0:
411,345,169870,1,8,0:0:0:0:
442,293,169954,1,0,0:0:0:0:
437,233,170037,1,0,0:0:0:0:
396,188,170120,1,0,0:0:0:0:
336,176,170204,5,0,0:0:0:0:
280,200,170288,2,0,L|144:184,1,137.5
76,136,170538,1,8,0:0:0:0:
280,40,170704,2,0,P|312:28|360:28,1,68.75,0|8,0:0|0:0,0:0:0:0:
404,52,170871,5,0,0:0:0:0:
441,100,170954,1,0,0:0:0:0:
436,160,171037,1,0,0:0:0:0:
433,220,171121,1,0,0:0:0:0:
472,267,171204,1,8,0:0:0:0:
487,322,171287,1,0,0:0:0:0:
439,356,171371,1,0,0:0:0:0:
380,341,171454,1,0,0:0:0:0:
334,301,171537,1,0,0:0:0:0:
277,279,171621,1,0,0:0:0:0:
217,291,171704,1,0,0:0:0:0:
176,340,171788,1,0,0:0:0:0:
120,364,171871,2,0,L|52:344,3,68.75,8|0|0|0,0:0|0:0|0:0|0:0,0:0:0:0:
24,288,172204,6,0,P|4:232|24:152,1,137.5,4|0,0:0|0:0,0:0:0:0:
136,36,172538,1,8,0:0:0:0:
136,36,172621,1,0,0:0:0:0:
256,152,172788,1,0,0:0:0:0:
256,152,172871,2,0,L|252:224,1,68.75,0|8,0:0|0:0,0:0:0:0:
152,264,173038,2,0,L|156:192,1,68.75
336,232,173204,2,0,L|332:300,1,68.75,8|0,0:0|0:0,0:0:0:0:
228,368,173371,2,0,L|232:296,1,68.75,0|8,0:0|0:0,0:0:0:0:
348,144,173538,6,0,P|396:136|476:176,1,137.5
368,316,173871,1,8,0:0:0:0:
164,144,174038,1,0,0:0:0:0:
108,120,174121,1,0,0:0:0:0:
48,128,174204,2,0,P|16:152|12:244,1,137.5
256,192,174538,2,0,P|268:156|212:52,1,137.5,8|0,0:0|0:0,0:0:0:0:
128,216,174871,5,0,0:0:0:0:
128,216,174954,2,0,L|160:356,1,137.5
236,376,175204,1,8,0:0:0:0:
384,168,175371,2,0,L|352:28,1,137.5
276,8,175621,1,8,0:0:0:0:
200,36,175704,1,0,0:0:0:0:
116,36,175788,1,0,0:0:0:0:
40,64,175871,2,0,L|4:128,1,68.75,8|0,0:0|0:0,0:0:0:0:
4,208,176038,2,0,L|37:267,1,68.75,0|8,0:0|0:0,0:0:0:0:
104,316,176204,5,0,0:0:0:0:
184,332,176288,1,8,0:0:0:0:
252,288,176371,2,0,P|272:280|404:308,1,137.5,0|8,0:0|0:0,0:0:0:0:
512,200,176704,1,0,0:0:0:0:
408,68,176871,1,0,0:0:0:0:
328,52,176955,1,8,0:0:0:0:
260,96,177038,2,0,P|240:104|108:76,1,137.5,0|8,0:0|0:0,0:0:0:0:
0,184,177371,1,0,0:0:0:0:
104,316,177538,5,0,0:0:0:0:
152,363,177621,1,0,0:0:0:0:
220,373,177704,1,0,0:0:0:0:
288,370,177788,1,0,0:0:0:0:
343,328,177871,1,8,0:0:0:0:
376,267,177954,1,0,0:0:0:0:
387,199,178038,1,0,0:0:0:0:
358,137,178121,1,0,0:0:0:0:
296,108,178204,6,0,L|232:80,1,68.75,0|8,0:0|0:0,0:0:0:0:
216,276,178371,2,0,L|280:304,1,68.75
392,144,178538,2,0,L|384:74,1,68.75,8|0,0:0|0:0,0:0:0:0:
120,240,178704,2,0,L|127:309,1,68.75,0|8,0:0|0:0,0:0:0:0:
400,240,178871,6,0,P|456:220|464:76,2,220,4|8|0,0:0|0:0|0:0,0:0:0:0:
268,192,179704,1,0,0:0:0:0:
392,144,179871,1,8,0:0:0:0:
256,296,180038,1,0,0:0:0:0:
176,104,180204,6,0,P|180:80|344:48,2,220,0|8|0,0:0|0:0|0:0,0:0:0:0:
200,224,181038,1,0,0:0:0:0:
272,108,181204,1,8,0:0:0:0:
108,48,181371,1,0,0:0:0:0:
92,44,181454,1,8,0:0:0:0:
76,40,181538,6,0,P|40:64|16:128,1,110
52,240,181871,2,0,P|80:232|192:356,1,220,8|0,0:0|0:0,0:0:0:0:
72,336,182371,1,0,0:0:0:0:
108,152,182538,1,8,0:0:0:0:
260,256,182704,1,0,0:0:0:0:
72,336,182871,6,0,P|28:296|56:152,1,220,0|8,0:0|0:0,0:0:0:0:
184,132,183371,1,0,0:0:0:0:
280,216,183538,1,0,0:0:0:0:
280,216,183621,2,0,L|388:196,1,110,8|0,0:0|0:0,0:0:0:0:
444,220,183871,1,8,0:0:0:0:
484,76,184038,1,0,0:0:0:0:
484,76,184121,1,8,0:0:0:0:
484,76,184204,6,0,P|463:53|290:65,1,220,0|8,0:0|0:0,0:0:0:0:
280,216,184704,1,0,0:0:0:0:
372,136,184871,1,0,0:0:0:0:
140,136,185038,1,0,0:0:0:0:
336,284,185204,1,8,0:0:0:0:
256,68,185371,1,0,0:0:0:0:
176,284,185538,6,0,P|180:320|332:340,1,220,0|8,0:0|0:0,0:0:0:0:
256,184,186038,2,0,L|256:300,1,110
372,136,186371,2,0,L|372:20,1,110,0|8,0:0|0:0,0:0:0:0:
140,26,186704,1,0,0:0:0:0:
140,26,186788,1,0,0:0:0:0:
140,26,186871,6,0,L|140:256,1,220,0|8,0:0|0:0,0:0:0:0:
48,324,187371,1,0,0:0:0:0:
48,324,187454,1,0,0:0:0:0:
48,324,187538,2,0,B|20:292|20:292|20:224,1,110
186,153,187871,2,0,B|186:197|186:197|140:245,1,110,8|0,0:0|0:0,0:0:0:0:
56,132,188204,1,0,0:0:0:0:
352,128,188538,5,8,0:0:0:0:
142,169,188704,1,0,0:0:0:0:
320,288,188871,1,0,0:0:0:0:
256,72,189038,1,0,0:0:0:0:
252,56,189121,1,0,0:0:0:0:
248,40,189204,1,8,0:0:0:0:
192,288,189371,1,0,0:0:0:0:
404,360,189538,6,0,P|484:336|496:264,1,165,4|0,0:0|0:0,0:0:0:0:
468,208,189871,2,0,L|468:96,1,110,8|0,0:0|0:0,0:0:0:0:
364,36,190204,5,0,0:0:0:0:
364,36,190288,1,0,0:0:0:0:
200,48,190454,1,0,0:0:0:0:
200,48,190538,1,8,0:0:0:0:
100,180,190704,1,0,0:0:0:0:
140,336,190871,6,0,P|160:360|288:352,1,165
300,332,191204,2,0,P|340:316|408:336,1,110,8|0,0:0|0:0,0:0:0:0:
508,268,191538,1,0,0:0:0:0:
416,188,191704,1,0,0:0:0:0:
300,224,191871,1,8,0:0:0:0:
324,104,192038,1,0,0:0:0:0:
324,104,192121,1,8,0:0:0:0:
324,104,192204,6,0,P|384:88|448:100,1,110
204,220,192538,2,0,P|144:236|80:224,1,110,8|0,0:0|0:0,0:0:0:0:
48,120,192871,1,0,0:0:0:0:
48,120,192954,1,0,0:0:0:0:
204,220,193121,1,0,0:0:0:0:
204,220,193204,1,8,0:0:0:0:
88,320,193371,1,0,0:0:0:0:
268,368,193538,6,0,L|384:352,1,110
484,220,193871,2,0,P|473:185|319:182,1,220,8|0,0:0|0:0,0:0:0:0:
304,220,194288,1,8,0:0:0:0:
308,264,194371,1,0,0:0:0:0:
176,244,194538,1,8,0:0:0:0:
56,292,194704,1,0,0:0:0:0:
56,292,194788,1,8,0:0:0:0:
56,292,194871,6,0,L|32:176,1,110
124,104,195204,2,0,L|236:136,1,110,8|0,0:0|0:0,0:0:0:0:
276,116,195454,1,0,0:0:0:0:
324,104,195538,2,0,L|436:136,1,110
480,136,195788,2,8,P|504:188|488:248,1,110,8|0,0:0|0:0,0:0:0:0:
464,276,196038,1,8,0:0:0:0:
336,244,196204,6,0,P|292:232|204:356,1,220,0|8,0:0|0:0,0:0:0:0:
388,356,196704,1,0,0:0:0:0:
448,171,196871,1,0,0:0:0:0:
388,356,197038,1,0,0:0:0:0:
204,168,197204,1,8,0:0:0:0:
312,88,197371,1,0,0:0:0:0:
340,92,197454,1,0,0:0:0:0:
368,100,197538,6,0,P|396:112|448:172,1,110
368,276,197871,1,8,0:0:0:0:
204,168,198038,1,0,0:0:0:0:
180,160,198121,1,0,0:0:0:0:
156,152,198204,2,0,L|28:164,1,110
104,324,198538,2,0,L|232:336,1,110,8|0,0:0|0:0,0:0:0:0:
477,265,198871,6,0,L|368:276,1,110
332,264,199121,1,0,0:0:0:0:
332,264,199204,1,8,0:0:0:0:
428,112,199371,1,0,0:0:0:0:
428,112,199454,1,8,0:0:0:0:
428,112,199538,5,0,0:0:0:0:
394,83,199621,1,0,0:0:0:0:
356,61,199704,1,0,0:0:0:0:
315,46,199788,1,0,0:0:0:0:
272,52,199871,1,8,0:0:0:0:
236,76,199954,1,0,0:0:0:0:
192,88,200038,1,0,0:0:0:0:
148,80,200121,1,0,0:0:0:0:
116,48,200204,6,0,L|-4:64,2,110,4|0|8,0:0|0:0|0:0,0:0:0:0:
296,136,200704,1,0,0:0:0:0:
200,276,200871,2,0,P|156:264|112:200,1,110
288,232,201204,2,0,P|299:276|266:346,1,110,8|0,0:0|0:0,0:0:0:0:
144,348,201538,5,0,0:0:0:0:
116,352,201621,1,0,0:0:0:0:
88,356,201704,1,0,0:0:0:0:
12,248,201871,1,0,0:0:0:0:
12,248,201954,1,0,0:0:0:0:
92,140,202121,1,0,0:0:0:0:
92,140,202204,1,0,0:0:0:0:
48,16,202371,1,0,0:0:0:0:
48,16,202454,1,0,0:0:0:0:
176,44,202621,1,0,0:0:0:0:
208,48,202704,1,0,0:0:0:0:
240,52,202788,1,0,0:0:0:0:
272,56,202871,6,0,L|388:48,2,110,0|0|8,0:0|0:0|0:0,0:0:0:0:
256,276,203371,1,0,0:0:0:0:
148,352,203538,2,0,P|128:340|104:252,1,110
40,144,203871,2,0,P|60:132|148:155,1,110,8|0,0:0|0:0,0:0:0:0:
357,280,204204,6,0,P|336:291|256:276,1,110
228,236,204454,1,0,0:0:0:0:
220,188,204538,1,8,0:0:0:0:
232,140,204621,1,0,0:0:0:0:
272,112,204704,1,0,0:0:0:0:
320,108,204788,1,0,0:0:0:0:
360,80,204871,5,0,0:0:0:0:
372,32,204954,1,8,0:0:0:0:
452,108,205121,2,0,L|476:224,1,110
508,260,205371,1,0,0:0:0:0:
314,374,205538,6,0,P|318:326|356:280,1,110,4|0,0:0|0:0,0:0:0:0:
256,196,205871,1,8,0:0:0:0:
156,280,206038,2,0,P|193:326|197:374,1,110
52,312,206371,1,0,0:0:0:0:
12,164,206538,1,8,0:0:0:0:
52,312,206704,1,0,0:0:0:0:
12,164,206871,5,0,0:0:0:0:
16,132,206954,1,0,0:0:0:0:
20,100,207038,1,0,0:0:0:0:
141,130,207204,1,8,0:0:0:0:
126,159,207288,1,0,0:0:0:0:
112,188,207371,1,0,0:0:0:0:
200,252,207538,1,0,0:0:0:0:
223,229,207621,1,0,0:0:0:0:
247,207,207705,1,0,0:0:0:0:
268,184,207788,1,0,0:0:0:0:
291,161,207871,2,0,P|320:152|348:152,3,55,8|0|0|8,0:0|0:0|0:0|0:0,0:0:0:0:
392,156,208204,5,4,0:0:0:0:
436,180,208288,1,0,0:0:0:0:
484,164,208371,1,0,0:0:0:0:
492,116,208454,1,0,0:0:0:0:
468,72,208538,1,0,0:0:0:0:
424,48,208621,1,0,0:0:0:0:
376,56,208704,1,0,0:0:0:0:
340,88,208788,1,0,0:0:0:0:
292,104,208871,1,0,0:0:0:0:
248,84,208954,1,0,0:0:0:0:
220,44,209038,1,0,0:0:0:0:
172,40,209121,1,0,0:0:0:0:
128,60,209204,2,0,L|76:80,3,55
40,148,209538,6,0,L|32:184,2,27.5,4|0|0,0:0|0:0|0:0,0:0:0:0:
84,188,209704,1,0,0:0:0:0:
84,188,209788,1,0,0:0:0:0:
84,188,209871,2,0,L|85:224,2,27.5,8|0|0,0:0|0:0|0:0,0:0:0:0:
140,216,210038,1,0,0:0:0:0:
140,216,210121,1,0,0:0:0:0:
140,216,210204,5,8,0:0:0:0:
145,270,210287,1,0,0:0:0:0:
169,319,210370,1,0,0:0:0:0:
207,358,210454,1,0,0:0:0:0:
257,382,210537,1,8,0:0:0:0:
311,389,210620,1,0,0:0:0:0:
364,377,210704,1,0,0:0:0:0:
411,349,210787,1,0,0:0:0:0:
432,300,210871,6,0,L|440:188,1,110,4|0,0:0|0:0,0:0:0:0:
100,56,211371,1,0,0:0:0:0:
28,140,211538,2,0,L|36:252,1,110
232,128,211871,2,0,L|224:16,1,110
80,300,213538,6,0,L|72:188,1,110
412,56,214038,1,0,0:0:0:0:
484,140,214205,2,0,L|476:252,1,110
280,128,214538,2,0,L|288:16,1,110
360,256,214871,6,0,L|240:256,1,110
20,124,215371,1,0,0:0:0:0:
44,156,215454,1,0,0:0:0:0:
68,188,215538,2,0,L|192:188,2,110
256,16,216204,6,0,L|256:136,1,110
256,320,216704,1,0,0:0:0:0:
364,264,216871,1,0,0:0:0:0:
150,365,217038,1,0,0:0:0:0:
361,365,217204,1,0,0:0:0:0:
148,264,217371,1,0,0:0:0:0:
256,192,217538,12,4,218871,0:0:0:0:
