osu file format v14

[General]
AudioFilename: audio.mp3
AudioLeadIn: 0
PreviewTime: 136037
Countdown: 0
SampleSet: Normal
StackLeniency: 0.7
Mode: 1
LetterboxInBreaks: 0
WidescreenStoryboard: 0

[Editor]
Bookmarks: 24199,45533,66866,88199
DistanceSpacing: 1.1
BeatDivisor: 4
GridSize: 32
TimelineZoom: 2.3

[Metadata]
Title:Kono Hoshi de....
TitleUnicode:この星で・・・。
Artist:Camellia
ArtistUnicode:かめりあ
Creator:Raytoly
Version:Blacken's Inner Oni
Source:ゆめにっき
Tags:Rhytoly Blackener Flute Player (Working... please wait...) Yume Nikki 夢日記 -DREAM DIARY- Madotsuki 窓付き かめるかめりあ Cametek Kamelcamellia drum bass d'n'b Saving Theme megamix remix remake rpg maker game Electronic Instrumental
BeatmapID:2067467
BeatmapSetID:968455

[Difficulty]
HPDrainRate:5
CircleSize:5
OverallDifficulty:6.5
ApproachRate:10
SliderMultiplier:1.4
SliderTickRate:1

[Events]
//Background and Video events
0,0,"yume-nikki-hd-wallpapers-33938-6203962.jpg",0,25
//Break Periods
//Storyboard Layer 0 (Background)
//Storyboard Layer 1 (Fail)
//Storyboard Layer 2 (Pass)
//Storyboard Layer 3 (Foreground)
//Storyboard Layer 4 (Overlay)
//Storyboard Sound Samples

[TimingPoints]
38,333.333333333333,4,1,0,70,1,0
2704,-100,4,1,0,70,0,0
24037,-95.2380952380952,4,1,0,70,0,0
45037,-94.3396226415094,4,1,0,70,0,0
45121,-93.4579439252336,4,1,0,70,0,0
45204,-92.5925925925926,4,1,0,70,0,0
45287,-91.743119266055,4,1,0,70,0,0
45371,-90.9090909090909,4,1,0,70,0,0
66704,-100,4,1,0,70,0,0
87371,-99.009900990099,4,1,0,70,0,0
87704,-97.0873786407767,4,1,0,70,0,0
87871,-96.1538461538461,4,1,0,70,0,0
88037,-95.2380952380952,4,1,0,75,0,0
109371,-93.0232558139535,4,1,0,80,0,1
119454,-93.4579439252336,4,1,0,80,0,1
119537,-94.3396226415094,4,1,0,80,0,1
119621,-95.2380952380952,4,1,0,80,0,1
119704,-96.1538461538461,4,1,0,80,0,1
119787,-97.0873786407767,4,1,0,80,0,1
119871,-98.0392156862745,4,1,0,80,0,1
119954,-99.009900990099,4,1,0,80,0,1
120037,-100,4,1,0,80,0,0
120371,-101.262541365748,4,1,0,70,0,0
120537,-101.905739229328,4,1,0,70,0,0
120704,-102.557265413075,4,1,0,70,0,0
121037,-103.550326494179,4,1,0,70,0,0
121371,-105.248755433467,4,1,0,70,0,0
121704,-106.648237851166,4,1,0,70,0,0
122037,-108.085322553624,4,1,0,70,0,0
122371,-109.561785725633,4,1,0,70,0,0
122704,-111.079021615978,4,1,0,70,0,0
129371,-100.890207715134,4,1,0,70,0,0
129454,-101.796407185629,4,1,0,70,0,0
129537,-102.719033232628,4,1,0,70,0,0
129620,-103.658536585366,4,1,0,70,0,0
129704,-104.615384615385,4,1,0,70,0,0
129787,-105.590062111801,4,1,0,70,0,0
129870,-106.583072100313,4,1,0,70,0,0
129954,-107.594936708861,4,1,0,70,0,0
130037,-108.626198083067,4,1,0,70,0,0
130120,-109.677419354839,4,1,0,70,0,0
130204,-110.749185667752,4,1,0,70,0,0
130287,-111.842105263158,4,1,0,70,0,0
130370,-112.956810631229,4,1,0,70,0,0
130454,-114.093959731544,4,1,0,70,0,0
130537,-115.254237288136,4,1,0,70,0,0
130620,-116.438356164384,4,1,0,70,0,0
130704,-117.647058823529,4,1,0,70,0,0
136037,-86.9565217391304,4,1,0,85,0,1
177954,-87.719298245614,4,1,0,85,0,0
178037,-88.4955752212389,4,1,0,85,0,0
178120,-89.2857142857143,4,1,0,85,0,0
178203,-90.0900900900901,4,1,0,85,0,0
178287,-90.9090909090909,4,1,0,85,0,0
178370,-91.743119266055,4,1,0,85,0,0
178453,-92.5925925925926,4,1,0,85,0,0
178537,-93.4579439252337,4,1,0,85,0,0
178620,-94.3396226415094,4,1,0,85,0,0
178703,-95.2380952380952,4,1,0,85,0,0
179037,-97.5609756097561,4,1,0,75,0,0
179371,-100,4,1,0,75,0,0
188537,-99.0990990990991,4,1,0,70,0,0
188620,-98.2142857142857,4,1,0,70,0,0
188703,-97.3451327433628,4,1,0,70,0,0
188786,-96.4912280701754,4,1,0,70,0,0
188870,-95.6521739130435,4,1,0,70,0,0
188953,-94.8275862068965,4,1,0,70,0,0
189036,-94.017094017094,4,1,0,70,0,0
189120,-93.2203389830508,4,1,0,70,0,0
189203,-92.436974789916,4,1,0,70,0,0
189286,-91.6666666666667,4,1,0,70,0,0
189370,-90.9090909090909,4,1,0,75,0,0
199371,-90.4522613065326,4,1,0,75,0,0
199454,-90,4,1,0,75,0,0
199537,-89.5522388059701,4,1,0,75,0,0
199620,-89.1089108910891,4,1,0,75,0,0
199704,-88.6699507389163,4,1,0,75,0,0
199787,-88.2352941176471,4,1,0,75,0,0
199870,-87.8048780487805,4,1,0,75,0,0
199954,-87.378640776699,4,1,0,75,0,0
200037,-86.9565217391304,4,1,0,80,0,1
209704,-87.5420875420875,4,1,0,80,0,1
209787,-88.135593220339,4,1,0,80,0,1
209870,-88.7372013651877,4,1,0,80,0,1
209953,-89.3470790378007,4,1,0,80,0,1
210037,-89.9653979238754,4,1,0,80,0,1
210120,-90.5923344947735,4,1,0,80,0,1
210203,-91.2280701754386,4,1,0,80,0,1
210287,-91.8727915194346,4,1,0,80,0,1
210370,-92.5266903914591,4,1,0,80,0,1
210453,-93.1899641577061,4,1,0,80,0,1
210537,-93.8628158844765,4,1,0,80,0,1
210620,-94.5454545454545,4,1,0,80,0,1
210703,-95.2380952380952,4,1,0,80,0,1
210871,-97.0873786407767,4,1,0,65,0,0
211204,-101.010101010101,4,1,0,65,0,0
211537,-105.263157894737,4,1,0,65,0,0
211704,-107.52688172043,4,1,0,65,0,0
211871,-109.89010989011,4,1,0,65,0,0
212037,-112.359550561798,4,1,0,65,0,0
213371,-113.231963765772,4,1,0,65,0,0
213537,-115.018074268814,4,1,0,65,0,0
213870,-118.764845605701,4,1,0,65,0,0
214204,-122.763942476324,4,1,0,65,0,0
214370,-124.866214769889,4,1,0,65,0,0
214537,-127.041742286751,4,1,0,65,0,0
214704,-129.294421869228,4,1,0,65,0,0
214870,-131.628431741256,4,1,0,65,0,0
215204,-136.558720249707,4,1,0,65,0,0
215370,-139.165009940358,4,1,0,65,0,0
215537,-141.872719902716,4,1,0,65,0,0
215620,-143.266475644699,4,1,0,65,0,0
215704,-144.687887556842,4,1,0,65,0,0
215870,-147.617039223956,4,1,0,65,0,0
216037,-150.667240637107,4,1,0,65,0,0
216204,-153.846153846154,4,1,0,65,0,0
222037,-153.846153846154,4,1,0,60,0,0
222371,-153.846153846154,4,1,0,55,0,0
222704,-153.846153846154,4,1,0,50,0,0
223037,-153.846153846154,4,1,0,45,0,0
223371,-153.846153846154,4,1,0,40,0,0
223704,-153.846153846154,4,1,0,35,0,0
224037,-153.846153846154,4,1,0,30,0,0
224371,-153.846153846154,4,1,0,25,0,0
224704,-153.846153846154,4,1,0,20,0,0
225037,-153.846153846154,4,1,0,15,0,0
225371,-153.846153846154,4,1,0,10,0,0

[HitObjects]
256,192,2704,5,0,0:0:0:0:
256,192,2871,1,8,0:0:0:0:
256,192,3204,1,8,0:0:0:0:
256,192,3371,1,0,0:0:0:0:
256,192,3621,1,0,0:0:0:0:
256,192,3871,1,0,0:0:0:0:
256,192,4037,1,8,0:0:0:0:
256,192,4371,1,8,0:0:0:0:
256,192,4704,1,8,0:0:0:0:
256,192,5037,1,8,0:0:0:0:
256,192,5204,1,0,0:0:0:0:
256,192,5371,1,0,0:0:0:0:
256,192,5537,1,8,0:0:0:0:
256,192,5871,1,8,0:0:0:0:
256,192,6037,1,0,0:0:0:0:
256,192,6287,1,0,0:0:0:0:
256,192,6537,1,0,0:0:0:0:
256,192,6704,1,8,0:0:0:0:
256,192,7537,1,0,0:0:0:0:
256,192,7704,1,8,0:0:0:0:
256,192,7870,1,0,0:0:0:0:
256,192,8037,1,0,0:0:0:0:
256,192,8204,1,8,0:0:0:0:
256,192,8537,1,8,0:0:0:0:
256,192,8621,1,8,0:0:0:0:
256,192,8704,1,0,0:0:0:0:
256,192,8954,1,0,0:0:0:0:
256,192,9204,1,0,0:0:0:0:
256,192,9371,1,8,0:0:0:0:
256,192,9704,1,8,0:0:0:0:
256,192,10037,1,8,0:0:0:0:
256,192,10537,1,0,0:0:0:0:
256,192,10621,1,8,0:0:0:0:
256,192,10704,1,0,0:0:0:0:
256,192,10871,1,8,0:0:0:0:
256,192,11037,1,0,0:0:0:0:
256,192,11204,1,8,0:0:0:0:
256,192,11287,1,8,0:0:0:0:
256,192,11371,1,0,0:0:0:0:
256,192,11621,1,0,0:0:0:0:
256,192,11871,1,0,0:0:0:0:
256,192,12037,1,8,0:0:0:0:
256,192,12704,1,0,0:0:0:0:
256,192,12787,1,8,0:0:0:0:
256,192,12871,1,0,0:0:0:0:
256,192,12954,1,0,0:0:0:0:
256,192,13037,1,8,0:0:0:0:
256,192,13204,1,8,0:0:0:0:
256,192,13287,1,8,0:0:0:0:
256,192,13371,1,0,0:0:0:0:
256,192,13537,1,8,0:0:0:0:
256,192,13704,1,0,0:0:0:0:
256,192,13871,1,0,0:0:0:0:
256,192,13954,1,8,0:0:0:0:
256,192,14037,1,0,0:0:0:0:
224,192,14287,1,0,0:0:0:0:
256,192,14371,1,8,0:0:0:0:
256,192,14537,1,0,0:0:0:0:
256,192,14704,1,8,0:0:0:0:
256,192,15037,1,8,0:0:0:0:
256,192,15371,1,8,0:0:0:0:
256,192,15704,1,8,0:0:0:0:
256,192,15871,1,0,0:0:0:0:
256,192,16037,1,0,0:0:0:0:
256,192,16204,1,8,0:0:0:0:
256,192,16371,1,0,0:0:0:0:
256,192,16537,1,8,0:0:0:0:
256,192,16621,1,8,0:0:0:0:
256,192,16704,1,0,0:0:0:0:
256,192,16954,1,8,0:0:0:0:
256,192,17037,1,0,0:0:0:0:
256,192,17204,1,0,0:0:0:0:
256,192,17371,1,8,0:0:0:0:
256,192,18204,1,0,0:0:0:0:
256,192,18371,1,8,0:0:0:0:
256,192,18537,1,8,0:0:0:0:
256,192,18704,1,0,0:0:0:0:
256,192,18871,1,8,0:0:0:0:
256,192,19037,1,0,0:0:0:0:
256,192,19204,1,0,0:0:0:0:
256,192,19287,1,8,0:0:0:0:
256,192,19371,1,0,0:0:0:0:
256,192,19621,1,0,0:0:0:0:
256,192,19704,1,8,0:0:0:0:
256,192,19871,1,0,0:0:0:0:
256,192,20037,1,8,0:0:0:0:
256,192,20371,1,8,0:0:0:0:
256,192,20704,1,8,0:0:0:0:
256,192,21037,1,8,0:0:0:0:
256,192,21204,1,0,0:0:0:0:
256,192,21287,1,0,0:0:0:0:
256,192,21371,1,0,0:0:0:0:
256,192,21537,1,8,0:0:0:0:
256,192,21704,1,0,0:0:0:0:
256,192,21871,1,8,0:0:0:0:
256,192,21954,1,8,0:0:0:0:
256,192,22037,1,0,0:0:0:0:
256,192,22287,1,8,0:0:0:0:
256,192,22371,1,0,0:0:0:0:
256,192,22537,1,0,0:0:0:0:
256,192,22704,1,8,0:0:0:0:
256,192,23037,1,8,0:0:0:0:
256,192,23204,1,0,0:0:0:0:
256,192,23371,1,8,0:0:0:0:
256,192,23454,1,8,0:0:0:0:
256,192,23537,1,0,0:0:0:0:
256,192,23621,1,8,0:0:0:0:
256,192,23704,1,0,0:0:0:0:
256,192,23787,1,0,0:0:0:0:
256,192,23871,1,8,0:0:0:0:
256,192,24037,1,4,0:0:0:0:
256,224,24371,1,8,0:0:0:0:
256,224,24537,1,0,0:0:0:0:
256,192,24704,1,8,0:0:0:0:
256,192,24787,1,8,0:0:0:0:
256,192,24954,1,8,0:0:0:0:
256,192,25037,1,0,0:0:0:0:
256,192,25204,1,8,0:0:0:0:
256,192,25371,1,8,0:0:0:0:
256,192,25454,1,0,0:0:0:0:
256,192,25537,1,8,0:0:0:0:
256,192,25704,1,8,0:0:0:0:
256,192,25787,1,0,0:0:0:0:
256,192,25954,1,8,0:0:0:0:
256,192,26037,1,8,0:0:0:0:
256,192,26204,1,0,0:0:0:0:
256,192,26371,1,8,0:0:0:0:
256,192,26454,1,0,0:0:0:0:
256,192,26537,1,8,0:0:0:0:
256,192,26621,1,8,0:0:0:0:
256,192,26704,1,0,0:0:0:0:
288,192,27037,1,8,0:0:0:0:
256,192,27204,1,0,0:0:0:0:
256,192,27371,1,0,0:0:0:0:
288,192,27454,1,8,0:0:0:0:
256,192,27621,1,8,0:0:0:0:
256,192,27704,1,0,0:0:0:0:
256,192,27871,1,8,0:0:0:0:
256,192,28037,1,0,0:0:0:0:
256,192,28121,1,8,0:0:0:0:
256,192,28204,1,0,0:0:0:0:
256,224,28287,1,0,0:0:0:0:
256,192,28371,1,8,0:0:0:0:
256,192,28537,1,0,0:0:0:0:
256,192,28621,1,8,0:0:0:0:
256,192,28787,1,8,0:0:0:0:
256,192,28871,1,0,0:0:0:0:
256,192,29037,1,8,0:0:0:0:
256,192,29121,1,0,0:0:0:0:
256,192,29204,1,8,0:0:0:0:
256,192,29287,1,8,0:0:0:0:
256,192,29371,1,0,0:0:0:0:
256,192,29704,1,8,0:0:0:0:
256,192,29871,1,8,0:0:0:0:
256,192,30037,1,0,0:0:0:0:
256,192,30121,1,0,0:0:0:0:
256,192,30287,1,8,0:0:0:0:
256,192,30371,1,0,0:0:0:0:
256,192,30537,1,8,0:0:0:0:
256,192,30704,1,0,0:0:0:0:
256,192,30815,1,8,0:0:0:0:
256,192,30926,1,8,0:0:0:0:
256,192,31037,1,0,0:0:0:0:
256,192,31204,1,8,0:0:0:0:
256,192,31371,1,0,0:0:0:0:
256,192,31454,1,8,0:0:0:0:
256,192,31537,1,8,0:0:0:0:
256,192,31621,1,0,0:0:0:0:
256,192,31704,1,8,0:0:0:0:
256,192,31871,1,8,0:0:0:0:
256,192,31954,1,8,0:0:0:0:
256,192,32037,1,0,0:0:0:0:
256,192,32371,1,8,0:0:0:0:
256,192,32537,1,0,0:0:0:0:
256,192,32621,1,0,0:0:0:0:
256,192,32704,1,8,0:0:0:0:
256,192,32760,1,8,0:0:0:0:
256,192,32815,1,8,0:0:0:0:
256,192,32871,1,0,0:0:0:0:
256,192,32954,1,0,0:0:0:0:
256,192,33037,1,8,0:0:0:0:
256,192,33204,1,0,0:0:0:0:
256,192,33371,1,0,0:0:0:0:
256,192,33454,1,8,0:0:0:0:
256,192,33537,1,8,0:0:0:0:
256,192,33620,1,0,0:0:0:0:
256,192,33704,1,8,0:0:0:0:
256,192,33871,1,0,0:0:0:0:
256,192,33954,1,8,0:0:0:0:
256,192,34121,1,8,0:0:0:0:
256,192,34204,1,0,0:0:0:0:
256,192,34287,1,0,0:0:0:0:
256,192,34371,1,8,0:0:0:0:
256,192,34454,1,0,0:0:0:0:
256,192,34537,1,8,0:0:0:0:
256,192,34704,1,4,0:0:0:0:
256,192,34871,1,0,0:0:0:0:
256,192,34954,1,0,0:0:0:0:
256,192,35037,1,8,0:0:0:0:
256,192,35121,1,8,0:0:0:0:
256,192,35204,1,0,0:0:0:0:
256,192,35371,1,8,0:0:0:0:
256,224,35454,1,0,0:0:0:0:
256,192,35621,1,8,0:0:0:0:
256,192,35704,1,0,0:0:0:0:
256,224,35871,1,8,0:0:0:0:
256,192,36037,1,8,0:0:0:0:
256,192,36121,1,0,0:0:0:0:
256,192,36204,1,8,0:0:0:0:
256,192,36371,1,8,0:0:0:0:
256,192,36454,1,8,0:0:0:0:
256,192,36537,1,0,0:0:0:0:
256,192,36621,1,8,0:0:0:0:
256,224,36704,1,8,0:0:0:0:
256,192,36871,1,0,0:0:0:0:
256,192,36954,1,0,0:0:0:0:
256,192,37037,1,8,0:0:0:0:
256,192,37121,1,0,0:0:0:0:
256,192,37204,1,8,0:0:0:0:
256,192,37287,1,8,0:0:0:0:
256,192,37371,1,0,0:0:0:0:
256,192,37704,1,8,0:0:0:0:
256,192,37871,1,0,0:0:0:0:
256,192,38037,1,8,0:0:0:0:
256,192,38121,1,8,0:0:0:0:
256,192,38204,1,0,0:0:0:0:
256,192,38287,1,8,0:0:0:0:
256,192,38371,1,0,0:0:0:0:
256,192,38537,1,8,0:0:0:0:
256,192,38704,1,0,0:0:0:0:
256,192,38787,1,8,0:0:0:0:
256,192,38871,1,8,0:0:0:0:
256,224,38954,1,0,0:0:0:0:
256,192,39038,1,8,0:0:0:0:
256,192,39121,1,0,0:0:0:0:
256,192,39204,1,0,0:0:0:0:
256,192,39288,1,8,0:0:0:0:
256,192,39454,1,8,0:0:0:0:
256,192,39538,1,0,0:0:0:0:
256,192,39621,1,0,0:0:0:0:
256,192,39704,1,8,0:0:0:0:
256,192,39871,1,8,0:0:0:0:
256,192,39954,1,8,0:0:0:0:
256,192,40038,1,0,0:0:0:0:
256,192,40371,1,8,0:0:0:0:
256,192,40537,1,0,0:0:0:0:
256,192,40704,1,8,0:0:0:0:
256,192,40787,1,0,0:0:0:0:
288,192,40871,1,0,0:0:0:0:
256,192,40954,1,8,0:0:0:0:
256,192,41037,1,0,0:0:0:0:
256,192,41204,1,8,0:0:0:0:
256,192,41371,1,0,0:0:0:0:
256,192,41482,1,8,0:0:0:0:
256,192,41593,1,8,0:0:0:0:
256,192,41704,1,0,0:0:0:0:
256,192,41871,1,8,0:0:0:0:
256,192,42037,1,0,0:0:0:0:
256,192,42121,1,0,0:0:0:0:
256,192,42204,1,8,0:0:0:0:
256,192,42287,1,0,0:0:0:0:
256,192,42371,1,8,0:0:0:0:
256,192,42537,1,0,0:0:0:0:
256,192,42621,1,8,0:0:0:0:
256,192,42704,1,0,0:0:0:0:
256,224,42871,1,0,0:0:0:0:
256,192,42954,1,0,0:0:0:0:
256,192,43037,1,8,0:0:0:0:
256,192,43204,1,0,0:0:0:0:
256,192,43287,1,0,0:0:0:0:
256,192,43371,1,8,0:0:0:0:
256,192,43426,1,8,0:0:0:0:
256,192,43482,1,8,0:0:0:0:
256,192,43537,1,0,0:0:0:0:
256,192,43621,1,0,0:0:0:0:
256,192,43704,1,8,0:0:0:0:
256,192,43871,1,8,0:0:0:0:
256,192,44037,12,0,44871,0:0:0:0:
256,192,45037,5,8,0:0:0:0:
256,192,45121,1,0,0:0:0:0:
256,192,45204,1,8,0:0:0:0:
256,192,45287,1,8,0:0:0:0:
256,192,45371,1,4,0:0:0:0:
256,192,45704,1,8,0:0:0:0:
256,192,45871,1,0,0:0:0:0:
256,192,46037,1,8,0:0:0:0:
256,192,46121,1,8,0:0:0:0:
256,192,46204,1,0,0:0:0:0:
256,192,46287,1,0,0:0:0:0:
256,192,46371,1,8,0:0:0:0:
256,192,46537,1,0,0:0:0:0:
256,192,46704,1,8,0:0:0:0:
256,192,46787,1,0,0:0:0:0:
256,192,46871,1,8,0:0:0:0:
256,192,47037,1,8,0:0:0:0:
256,192,47121,1,0,0:0:0:0:
256,192,47204,1,0,0:0:0:0:
256,192,47287,1,8,0:0:0:0:
256,192,47371,1,8,0:0:0:0:
256,192,47537,1,0,0:0:0:0:
256,192,47621,1,0,0:0:0:0:
256,192,47704,1,8,0:0:0:0:
256,192,47787,1,0,0:0:0:0:
256,192,47871,1,8,0:0:0:0:
256,192,47954,1,8,0:0:0:0:
256,192,48037,1,0,0:0:0:0:
256,192,48371,1,8,0:0:0:0:
256,192,48537,1,0,0:0:0:0:
256,192,48704,1,8,0:0:0:0:
256,192,48787,1,0,0:0:0:0:
256,192,48871,1,0,0:0:0:0:
256,192,48954,1,8,0:0:0:0:
256,192,49037,1,0,0:0:0:0:
256,192,49204,1,8,0:0:0:0:
256,224,49371,1,0,0:0:0:0:
256,224,49454,1,0,0:0:0:0:
256,224,49537,1,8,0:0:0:0:
256,192,49621,1,0,0:0:0:0:
256,224,49704,1,8,0:0:0:0:
256,192,49787,1,0,0:0:0:0:
256,192,49871,1,0,0:0:0:0:
256,192,49954,1,8,0:0:0:0:
288,224,50121,1,8,0:0:0:0:
256,224,50204,1,0,0:0:0:0:
288,224,50287,1,0,0:0:0:0:
256,192,50371,1,8,0:0:0:0:
256,192,50537,1,8,0:0:0:0:
256,224,50621,1,8,0:0:0:0:
256,192,50704,1,0,0:0:0:0:
256,192,51037,1,8,0:0:0:0:
256,192,51204,1,0,0:0:0:0:
256,192,51371,1,8,0:0:0:0:
256,192,51454,1,0,0:0:0:0:
256,192,51537,1,8,0:0:0:0:
256,192,51621,1,8,0:0:0:0:
256,192,51704,1,0,0:0:0:0:
256,192,51871,1,0,0:0:0:0:
256,192,52037,1,8,0:0:0:0:
256,192,52149,1,0,0:0:0:0:
256,192,52260,1,0,0:0:0:0:
224,192,52371,1,8,0:0:0:0:
256,192,52537,1,0,0:0:0:0:
256,192,52704,1,8,0:0:0:0:
256,192,52787,1,0,0:0:0:0:
256,192,52871,1,0,0:0:0:0:
256,192,52954,1,0,0:0:0:0:
256,192,53037,1,8,0:0:0:0:
256,192,53204,1,0,0:0:0:0:
256,192,53287,1,8,0:0:0:0:
256,192,53371,1,0,0:0:0:0:
256,192,53704,1,8,0:0:0:0:
256,192,53871,1,0,0:0:0:0:
256,192,53954,1,0,0:0:0:0:
256,192,54037,1,8,0:0:0:0:
256,192,54093,1,8,0:0:0:0:
256,192,54149,1,8,0:0:0:0:
256,192,54204,1,0,0:0:0:0:
256,192,54287,1,0,0:0:0:0:
256,192,54371,1,8,0:0:0:0:
256,192,54537,1,0,0:0:0:0:
256,192,54704,1,0,0:0:0:0:
256,192,54787,1,0,0:0:0:0:
256,192,54870,1,8,0:0:0:0:
256,192,54953,1,0,0:0:0:0:
256,192,55037,1,8,0:0:0:0:
256,192,55204,1,0,0:0:0:0:
256,192,55287,1,0,0:0:0:0:
256,192,55370,1,8,0:0:0:0:
256,192,55454,1,8,0:0:0:0:
256,192,55537,1,0,0:0:0:0:
256,192,55621,1,0,0:0:0:0:
256,192,55704,1,8,0:0:0:0:
256,192,55787,1,8,0:0:0:0:
256,192,55870,1,8,0:0:0:0:
256,192,56037,1,4,0:0:0:0:
256,192,56370,1,8,0:0:0:0:
256,192,56454,1,8,0:0:0:0:
256,192,56537,1,0,0:0:0:0:
256,192,56704,1,8,0:0:0:0:
260,217,56871,1,0,0:0:0:0:
256,192,56954,1,0,0:0:0:0:
256,224,57037,1,8,0:0:0:0:
256,224,57204,1,8,0:0:0:0:
256,192,57371,1,0,0:0:0:0:
256,192,57454,1,8,0:0:0:0:
288,192,57537,1,8,0:0:0:0:
256,192,57704,1,8,0:0:0:0:
256,192,57787,1,0,0:0:0:0:
256,192,57870,1,0,0:0:0:0:
256,192,57954,1,8,0:0:0:0:
256,224,58037,1,8,0:0:0:0:
256,192,58204,1,0,0:0:0:0:
256,192,58370,1,8,0:0:0:0:
256,192,58454,1,0,0:0:0:0:
256,192,58537,1,8,0:0:0:0:
256,192,58620,1,8,0:0:0:0:
256,192,58704,1,0,0:0:0:0:
256,192,59037,1,8,0:0:0:0:
256,192,59204,1,0,0:0:0:0:
256,192,59370,1,8,0:0:0:0:
256,192,59454,1,8,0:0:0:0:
256,192,59537,1,0,0:0:0:0:
256,192,59620,1,8,0:0:0:0:
256,192,59704,1,0,0:0:0:0:
256,192,59870,1,8,0:0:0:0:
256,192,60037,1,0,0:0:0:0:
256,192,60120,1,8,0:0:0:0:
256,192,60204,1,0,0:0:0:0:
256,224,60287,1,0,0:0:0:0:
256,192,60371,1,8,0:0:0:0:
256,192,60454,1,8,0:0:0:0:
256,192,60537,1,0,0:0:0:0:
256,192,60621,1,8,0:0:0:0:
256,192,60787,1,8,0:0:0:0:
256,192,60871,1,8,0:0:0:0:
256,192,60954,1,0,0:0:0:0:
256,192,61037,1,8,0:0:0:0:
256,192,61204,1,0,0:0:0:0:
256,192,61287,1,8,0:0:0:0:
256,192,61371,1,0,0:0:0:0:
256,192,61704,1,8,0:0:0:0:
256,192,61870,1,0,0:0:0:0:
256,192,62037,1,8,0:0:0:0:
288,192,62121,1,0,0:0:0:0:
256,192,62203,1,8,0:0:0:0:
256,192,62287,1,8,0:0:0:0:
256,192,62370,1,0,0:0:0:0:
256,192,62537,1,0,0:0:0:0:
256,192,62704,1,8,0:0:0:0:
256,192,62815,1,0,0:0:0:0:
256,192,62926,1,0,0:0:0:0:
256,192,63037,1,8,0:0:0:0:
256,192,63204,1,0,0:0:0:0:
256,192,63370,1,8,0:0:0:0:
256,192,63454,1,8,0:0:0:0:
256,192,63537,1,0,0:0:0:0:
256,192,63620,1,0,0:0:0:0:
256,192,63704,1,8,0:0:0:0:
256,192,63787,1,0,0:0:0:0:
256,192,63870,1,8,0:0:0:0:
256,192,63954,1,8,0:0:0:0:
256,192,64037,1,0,0:0:0:0:
256,224,64204,1,0,0:0:0:0:
256,192,64287,1,0,0:0:0:0:
256,192,64370,1,8,0:0:0:0:
256,192,64537,1,0,0:0:0:0:
256,192,64620,1,0,0:0:0:0:
256,192,64704,1,8,0:0:0:0:
256,192,64759,1,8,0:0:0:0:
256,192,64815,1,8,0:0:0:0:
256,192,64870,1,0,0:0:0:0:
256,192,64954,1,0,0:0:0:0:
256,192,65037,1,8,0:0:0:0:
256,192,65204,1,8,0:0:0:0:
256,192,65287,1,8,0:0:0:0:
256,192,65371,1,0,0:0:0:0:
256,192,65537,5,0,0:0:0:0:
256,192,65621,1,0,0:0:0:0:
256,192,65704,1,8,0:0:0:0:
256,192,65787,1,8,0:0:0:0:
256,192,65871,1,0,0:0:0:0:
256,192,65954,1,0,0:0:0:0:
256,192,66037,1,8,0:0:0:0:
256,192,66121,1,0,0:0:0:0:
256,192,66204,1,8,0:0:0:0:
256,192,66287,1,8,0:0:0:0:
256,192,66371,1,0,0:0:0:0:
256,192,66704,1,4,0:0:0:0:
256,192,67037,1,8,0:0:0:0:
256,192,67371,1,0,0:0:0:0:
256,192,67537,1,0,0:0:0:0:
256,192,67704,1,8,0:0:0:0:
256,192,67871,1,8,0:0:0:0:
256,192,68037,1,0,0:0:0:0:
256,192,68371,1,8,0:0:0:0:
256,192,68704,1,0,0:0:0:0:
256,192,68871,1,0,0:0:0:0:
256,192,69037,1,8,0:0:0:0:
256,192,69287,1,8,0:0:0:0:
256,192,69371,1,0,0:0:0:0:
256,192,69537,1,0,0:0:0:0:
256,192,69704,1,8,0:0:0:0:
256,192,70037,1,8,0:0:0:0:
256,192,70204,1,0,0:0:0:0:
256,192,70371,1,8,0:0:0:0:
256,192,70537,1,8,0:0:0:0:
256,192,70704,1,0,0:0:0:0:
224,192,71037,1,8,0:0:0:0:
224,192,71371,1,0,0:0:0:0:
224,192,71454,1,8,0:0:0:0:
256,192,71537,1,0,0:0:0:0:
256,192,71704,1,8,0:0:0:0:
256,192,71871,1,8,0:0:0:0:
256,192,71954,1,8,0:0:0:0:
256,192,72037,1,0,0:0:0:0:
256,192,72371,1,8,0:0:0:0:
256,192,72704,1,0,0:0:0:0:
256,192,72871,1,0,0:0:0:0:
256,192,73037,1,8,0:0:0:0:
256,192,73204,1,0,0:0:0:0:
256,192,73371,1,0,0:0:0:0:
256,192,73704,1,8,0:0:0:0:
256,192,74037,1,0,0:0:0:0:
256,192,74204,1,0,0:0:0:0:
256,192,74371,1,8,0:0:0:0:
256,192,74537,1,8,0:0:0:0:
256,192,74621,1,8,0:0:0:0:
256,192,74704,1,0,0:0:0:0:
256,192,75037,1,8,0:0:0:0:
256,192,75287,1,8,0:0:0:0:
256,192,75371,1,0,0:0:0:0:
256,192,75537,1,8,0:0:0:0:
256,192,75704,1,0,0:0:0:0:
256,192,75871,1,0,0:0:0:0:
256,192,76037,1,8,0:0:0:0:
256,192,76371,1,0,0:0:0:0:
256,192,76704,1,0,0:0:0:0:
256,192,76787,1,8,0:0:0:0:
256,192,76871,1,0,0:0:0:0:
256,192,77037,1,8,0:0:0:0:
256,192,77121,1,0,0:0:0:0:
256,192,77204,1,8,0:0:0:0:
256,192,77287,1,8,0:0:0:0:
256,192,77371,1,0,0:0:0:0:
256,192,77537,1,0,0:0:0:0:
256,192,77704,1,8,0:0:0:0:
256,192,77954,1,0,0:0:0:0:
256,192,78038,1,8,0:0:0:0:
256,192,78204,1,8,0:0:0:0:
256,192,78371,1,0,0:0:0:0:
256,192,78704,1,0,0:0:0:0:
256,192,78871,1,0,0:0:0:0:
256,192,79038,1,8,0:0:0:0:
256,224,79204,1,0,0:0:0:0:
256,224,79287,1,0,0:0:0:0:
256,192,79370,1,8,0:0:0:0:
256,192,79537,1,8,0:0:0:0:
256,192,79704,1,0,0:0:0:0:
256,192,80037,1,0,0:0:0:0:
256,192,80204,1,0,0:0:0:0:
256,192,80371,1,8,0:0:0:0:
256,192,80621,1,0,0:0:0:0:
256,192,80704,1,8,0:0:0:0:
256,192,80871,1,8,0:0:0:0:
256,192,81038,1,0,0:0:0:0:
256,192,81371,1,8,0:0:0:0:
256,192,81454,1,8,0:0:0:0:
256,192,81537,1,0,0:0:0:0:
224,192,81704,1,8,0:0:0:0:
256,192,81871,1,0,0:0:0:0:
256,192,81954,1,8,0:0:0:0:
224,192,82121,1,8,0:0:0:0:
256,192,82204,1,0,0:0:0:0:
256,192,82371,1,8,0:0:0:0:
256,192,82537,1,0,0:0:0:0:
256,192,82621,1,0,0:0:0:0:
256,192,82704,1,8,0:0:0:0:
256,192,82871,1,8,0:0:0:0:
256,192,83038,1,0,0:0:0:0:
256,192,83287,1,0,0:0:0:0:
256,192,83371,1,8,0:0:0:0:
256,192,83538,1,8,0:0:0:0:
256,192,83704,1,0,0:0:0:0:
256,192,83870,1,0,0:0:0:0:
256,192,83954,1,8,0:0:0:0:
256,192,84037,1,8,0:0:0:0:
256,192,84204,1,8,0:0:0:0:
256,192,84371,1,0,0:0:0:0:
256,192,84621,1,0,0:0:0:0:
256,192,84704,1,8,0:0:0:0:
256,192,84871,1,0,0:0:0:0:
256,192,85037,1,0,0:0:0:0:
256,192,85204,1,8,0:0:0:0:
256,192,85288,1,8,0:0:0:0:
256,192,85371,1,0,0:0:0:0:
256,192,85704,1,8,0:0:0:0:
256,192,85871,1,0,0:0:0:0:
256,192,85954,1,8,0:0:0:0:
256,192,86038,1,0,0:0:0:0:
256,192,86204,1,8,0:0:0:0:
256,192,86371,1,0,0:0:0:0:
256,192,86454,1,8,0:0:0:0:
256,192,86538,1,0,0:0:0:0:
256,192,86621,1,0,0:0:0:0:
256,192,86704,1,12,0:0:0:0:
256,192,87371,1,0,0:0:0:0:
256,192,87704,1,0,0:0:0:0:
256,192,87871,1,8,0:0:0:0:
256,192,88037,1,4,0:0:0:0:
256,192,88204,1,0,0:0:0:0:
256,192,88287,1,0,0:0:0:0:
288,224,88371,1,8,0:0:0:0:
256,192,88537,1,0,0:0:0:0:
256,192,88704,1,8,0:0:0:0:
256,192,88787,1,0,0:0:0:0:
256,192,88871,1,8,0:0:0:0:
256,192,88954,1,8,0:0:0:0:
256,192,89037,1,0,0:0:0:0:
256,192,89204,1,0,0:0:0:0:
256,192,89371,1,8,0:0:0:0:
256,192,89704,1,8,0:0:0:0:
256,192,89871,1,0,0:0:0:0:
256,192,90037,1,8,0:0:0:0:
288,192,90121,1,8,0:0:0:0:
256,192,90204,1,0,0:0:0:0:
256,192,90287,1,0,0:0:0:0:
256,192,90371,1,8,0:0:0:0:
256,192,90537,1,8,0:0:0:0:
256,192,90704,1,0,0:0:0:0:
256,192,90871,1,0,0:0:0:0:
256,192,90954,1,0,0:0:0:0:
288,160,91037,1,8,0:0:0:0:
256,192,91204,1,0,0:0:0:0:
256,192,91371,1,8,0:0:0:0:
256,192,91454,1,8,0:0:0:0:
256,192,91537,1,0,0:0:0:0:
256,192,91621,1,8,0:0:0:0:
256,192,91704,1,0,0:0:0:0:
256,192,91871,1,0,0:0:0:0:
256,192,92037,1,8,0:0:0:0:
256,192,92371,1,8,0:0:0:0:
256,192,92537,1,0,0:0:0:0:
288,224,92621,1,0,0:0:0:0:
256,192,92704,1,8,0:0:0:0:
256,192,92787,1,0,0:0:0:0:
256,192,92954,1,0,0:0:0:0:
256,192,93037,1,8,0:0:0:0:
256,192,93204,1,8,0:0:0:0:
256,192,93287,1,8,0:0:0:0:
256,192,93371,1,0,0:0:0:0:
256,192,93537,1,0,0:0:0:0:
256,192,93620,1,0,0:0:0:0:
288,224,93704,1,8,0:0:0:0:
256,192,93870,1,0,0:0:0:0:
256,192,94037,1,8,0:0:0:0:
256,192,94120,1,0,0:0:0:0:
256,192,94204,1,0,0:0:0:0:
256,192,94287,1,8,0:0:0:0:
256,192,94370,1,0,0:0:0:0:
256,192,94537,1,0,0:0:0:0:
256,192,94704,1,8,0:0:0:0:
256,192,95037,1,8,0:0:0:0:
256,192,95204,1,0,0:0:0:0:
256,192,95370,1,8,0:0:0:0:
288,192,95454,1,0,0:0:0:0:
256,192,95537,1,0,0:0:0:0:
256,192,95620,1,0,0:0:0:0:
256,192,95704,1,8,0:0:0:0:
256,192,95870,1,8,0:0:0:0:
256,192,96037,1,0,0:0:0:0:
256,192,96204,1,0,0:0:0:0:
256,192,96287,1,0,0:0:0:0:
288,160,96370,1,8,0:0:0:0:
256,192,96537,1,0,0:0:0:0:
256,192,96704,1,8,0:0:0:0:
256,192,96787,1,8,0:0:0:0:
256,192,96870,1,0,0:0:0:0:
256,192,96954,1,8,0:0:0:0:
256,192,97037,1,0,0:0:0:0:
256,192,97204,1,0,0:0:0:0:
256,192,97370,1,8,0:0:0:0:
256,192,97537,1,0,0:0:0:0:
256,192,97620,1,0,0:0:0:0:
256,192,97704,1,8,0:0:0:0:
256,192,97871,1,8,0:0:0:0:
288,224,97954,1,0,0:0:0:0:
256,192,98038,1,0,0:0:0:0:
256,192,98121,1,8,0:0:0:0:
256,192,98287,1,0,0:0:0:0:
256,192,98370,1,8,0:0:0:0:
256,192,98537,1,8,0:0:0:0:
256,192,98704,1,4,0:0:0:0:
256,192,98871,1,0,0:0:0:0:
256,192,98954,1,0,0:0:0:0:
288,224,99038,1,8,0:0:0:0:
256,192,99204,1,0,0:0:0:0:
256,192,99287,1,0,0:0:0:0:
256,192,99371,1,8,0:0:0:0:
256,192,99454,1,0,0:0:0:0:
256,192,99537,1,8,0:0:0:0:
256,192,99621,1,8,0:0:0:0:
256,192,99704,1,0,0:0:0:0:
256,192,99871,1,0,0:0:0:0:
256,192,100038,1,8,0:0:0:0:
256,192,100371,1,8,0:0:0:0:
256,192,100538,1,0,0:0:0:0:
256,192,100704,1,8,0:0:0:0:
288,192,100788,1,8,0:0:0:0:
256,192,100871,1,0,0:0:0:0:
256,192,100954,1,0,0:0:0:0:
256,192,101038,1,8,0:0:0:0:
256,192,101121,1,0,0:0:0:0:
256,192,101204,1,8,0:0:0:0:
288,192,101287,1,8,0:0:0:0:
256,192,101371,1,0,0:0:0:0:
256,192,101538,1,0,0:0:0:0:
256,192,101621,1,0,0:0:0:0:
288,160,101704,1,8,0:0:0:0:
256,192,101871,1,0,0:0:0:0:
256,192,101954,1,0,0:0:0:0:
256,192,102038,1,8,0:0:0:0:
256,192,102121,1,8,0:0:0:0:
256,192,102204,1,0,0:0:0:0:
256,192,102288,1,8,0:0:0:0:
256,192,102371,1,0,0:0:0:0:
256,192,102538,1,0,0:0:0:0:
256,192,102704,1,8,0:0:0:0:
256,192,103038,1,8,0:0:0:0:
256,192,103204,1,0,0:0:0:0:
288,224,103288,1,0,0:0:0:0:
256,192,103371,1,8,0:0:0:0:
256,192,103454,1,0,0:0:0:0:
256,192,103621,1,0,0:0:0:0:
256,192,103704,1,8,0:0:0:0:
256,192,103871,1,8,0:0:0:0:
256,192,103954,1,8,0:0:0:0:
256,192,104038,1,0,0:0:0:0:
256,192,104204,1,0,0:0:0:0:
256,192,104287,1,0,0:0:0:0:
288,224,104371,1,8,0:0:0:0:
256,192,104537,1,0,0:0:0:0:
256,192,104621,1,0,0:0:0:0:
256,192,104704,1,8,0:0:0:0:
256,192,104787,1,8,0:0:0:0:
256,192,104871,1,0,0:0:0:0:
256,192,104954,1,8,0:0:0:0:
256,192,105037,1,8,0:0:0:0:
256,192,105204,1,0,0:0:0:0:
256,192,105371,1,8,0:0:0:0:
256,192,105704,1,8,0:0:0:0:
256,192,105871,1,0,0:0:0:0:
256,192,106037,1,8,0:0:0:0:
256,192,106121,1,0,0:0:0:0:
288,192,106204,1,0,0:0:0:0:
256,192,106287,1,0,0:0:0:0:
256,192,106371,1,8,0:0:0:0:
256,192,106454,1,0,0:0:0:0:
256,192,106537,1,8,0:0:0:0:
256,192,106621,1,8,0:0:0:0:
256,192,106704,1,0,0:0:0:0:
256,192,106871,1,0,0:0:0:0:
256,192,106954,1,0,0:0:0:0:
288,160,107037,1,8,0:0:0:0:
256,192,107204,1,0,0:0:0:0:
256,192,107287,1,0,0:0:0:0:
256,192,107371,1,8,0:0:0:0:
256,192,107454,1,0,0:0:0:0:
256,192,107537,1,8,0:0:0:0:
256,192,107621,1,8,0:0:0:0:
256,192,107704,1,0,0:0:0:0:
256,192,107871,1,0,0:0:0:0:
256,192,108037,1,8,0:0:0:0:
256,192,108204,1,0,0:0:0:0:
256,192,108287,1,0,0:0:0:0:
256,192,108371,1,8,0:0:0:0:
256,192,108538,1,8,0:0:0:0:
288,224,108621,1,8,0:0:0:0:
256,192,108705,1,0,0:0:0:0:
256,192,108788,1,8,0:0:0:0:
256,192,108871,1,0,0:0:0:0:
256,192,108954,1,0,0:0:0:0:
256,192,109037,1,8,0:0:0:0:
256,192,109204,1,8,0:0:0:0:
256,192,109371,1,4,0:0:0:0:
256,224,109538,1,0,0:0:0:0:
256,192,109621,1,0,0:0:0:0:
256,192,109705,1,8,0:0:0:0:
256,224,109871,1,0,0:0:0:0:
256,192,110038,1,8,0:0:0:0:
256,192,110121,1,0,0:0:0:0:
256,192,110288,1,0,0:0:0:0:
256,192,110371,1,8,0:0:0:0:
256,192,110538,1,8,0:0:0:0:
256,192,110704,1,0,0:0:0:0:
256,192,110871,1,0,0:0:0:0:
256,192,110954,1,0,0:0:0:0:
256,192,111038,1,8,0:0:0:0:
256,192,111204,1,0,0:0:0:0:
256,192,111371,1,8,0:0:0:0:
256,192,111454,1,8,0:0:0:0:
256,192,111537,1,0,0:0:0:0:
256,192,111621,1,0,0:0:0:0:
256,192,111705,1,8,0:0:0:0:
256,192,111871,1,8,0:0:0:0:
256,192,111955,1,8,0:0:0:0:
256,192,112038,1,0,0:0:0:0:
288,192,112371,1,8,0:0:0:0:
256,192,112537,1,0,0:0:0:0:
256,192,112705,1,8,0:0:0:0:
288,192,112787,1,8,0:0:0:0:
256,192,112954,1,8,0:0:0:0:
256,192,113037,1,0,0:0:0:0:
256,192,113205,1,8,0:0:0:0:
256,192,113371,1,0,0:0:0:0:
256,192,113455,1,8,0:0:0:0:
256,192,113538,1,0,0:0:0:0:
256,224,113621,1,0,0:0:0:0:
256,192,113705,1,8,0:0:0:0:
256,192,113871,1,0,0:0:0:0:
256,192,113955,1,8,0:0:0:0:
256,192,114121,1,8,0:0:0:0:
256,192,114205,1,0,0:0:0:0:
256,192,114371,1,8,0:0:0:0:
256,192,114538,1,8,0:0:0:0:
256,192,114621,1,8,0:0:0:0:
256,192,114705,1,0,0:0:0:0:
256,192,115038,1,8,0:0:0:0:
256,192,115204,1,0,0:0:0:0:
256,192,115371,1,8,0:0:0:0:
256,192,115455,1,8,0:0:0:0:
256,192,115621,1,8,0:0:0:0:
256,192,115705,1,0,0:0:0:0:
256,192,115871,1,8,0:0:0:0:
256,192,116038,1,0,0:0:0:0:
256,192,116149,1,8,0:0:0:0:
256,192,116260,1,8,0:0:0:0:
256,192,116371,1,0,0:0:0:0:
256,192,116538,1,8,0:0:0:0:
256,192,116705,1,0,0:0:0:0:
256,192,116788,1,8,0:0:0:0:
256,192,116870,1,0,0:0:0:0:
256,192,116955,1,0,0:0:0:0:
256,192,117038,1,8,0:0:0:0:
256,192,117121,1,0,0:0:0:0:
256,192,117205,1,8,0:0:0:0:
256,192,117288,1,8,0:0:0:0:
256,192,117371,1,0,0:0:0:0:
256,192,117705,1,8,0:0:0:0:
256,192,117871,1,0,0:0:0:0:
256,192,118037,1,8,0:0:0:0:
256,192,118121,1,0,0:0:0:0:
256,192,118287,1,8,0:0:0:0:
256,192,118371,1,8,0:0:0:0:
256,192,118537,1,0,0:0:0:0:
256,192,118705,1,8,0:0:0:0:
256,192,118788,1,8,0:0:0:0:
256,192,118871,1,0,0:0:0:0:
256,192,118954,1,0,0:0:0:0:
256,192,119038,1,8,0:0:0:0:
256,192,119121,1,0,0:0:0:0:
256,192,119205,1,8,0:0:0:0:
256,192,119288,1,8,0:0:0:0:
256,192,119371,1,0,0:0:0:0:
256,192,119455,1,8,0:0:0:0:
256,192,119538,1,0,0:0:0:0:
256,192,119621,1,0,0:0:0:0:
256,192,119705,1,8,0:0:0:0:
256,192,119788,1,0,0:0:0:0:
256,192,119871,1,8,0:0:0:0:
224,192,119955,1,8,0:0:0:0:
256,192,120038,1,4,0:0:0:0:
256,192,120371,1,8,0:0:0:0:
256,192,120537,1,8,0:0:0:0:
256,192,120704,1,0,0:0:0:0:
256,192,121037,1,0,0:0:0:0:
256,192,121371,1,8,0:0:0:0:
256,192,121704,1,8,0:0:0:0:
256,192,122037,1,0,0:0:0:0:
256,192,122371,1,0,0:0:0:0:
256,192,122704,1,8,0:0:0:0:
256,192,123037,1,0,0:0:0:0:
256,192,123371,1,0,0:0:0:0:
256,192,123704,1,0,0:0:0:0:
256,192,124037,1,8,0:0:0:0:
256,192,124371,1,8,0:0:0:0:
256,192,124704,1,0,0:0:0:0:
256,192,125037,1,12,0:0:0:0:
256,192,125371,1,8,0:0:0:0:
256,192,125704,1,0,0:0:0:0:
256,192,126037,1,0,0:0:0:0:
256,192,126371,1,0,0:0:0:0:
256,192,126704,1,8,0:0:0:0:
256,192,127037,1,8,0:0:0:0:
256,192,127371,1,0,0:0:0:0:
256,192,127704,1,0,0:0:0:0:
256,192,128037,1,8,0:0:0:0:
256,192,128371,1,0,0:0:0:0:
256,192,128704,1,0,0:0:0:0:
288,192,129037,1,0,0:0:0:0:
256,192,129371,5,8,0:0:0:0:
256,192,129454,1,0,0:0:0:0:
256,192,129537,1,0,0:0:0:0:
256,192,129621,1,0,0:0:0:0:
256,192,129704,1,8,0:0:0:0:
256,192,129787,1,0,0:0:0:0:
256,192,129871,1,8,0:0:0:0:
288,192,129954,1,8,0:0:0:0:
256,192,130037,1,0,0:0:0:0:
256,192,130121,1,0,0:0:0:0:
256,192,130204,1,8,0:0:0:0:
256,192,130287,1,8,0:0:0:0:
256,192,130371,1,8,0:0:0:0:
256,192,130454,1,0,0:0:0:0:
256,192,130537,1,8,0:0:0:0:
256,192,130621,1,8,0:0:0:0:
256,192,130704,1,0,0:0:0:0:
256,192,130871,1,8,0:0:0:0:
256,192,131204,1,8,0:0:0:0:
256,192,131371,1,0,0:0:0:0:
256,192,131621,1,0,0:0:0:0:
256,192,131871,1,0,0:0:0:0:
256,192,133037,1,0,0:0:0:0:
256,192,133204,1,8,0:0:0:0:
256,192,133371,1,0,0:0:0:0:
256,192,133537,1,8,0:0:0:0:
256,192,133871,1,8,0:0:0:0:
256,192,134037,1,0,0:0:0:0:
256,192,134287,1,0,0:0:0:0:
256,192,134537,1,0,0:0:0:0:
256,192,134704,1,8,0:0:0:0:
256,192,135704,1,8,0:0:0:0:
256,192,136037,1,4,0:0:0:0:
256,192,136204,1,0,0:0:0:0:
256,192,136287,1,0,0:0:0:0:
256,192,136371,1,8,0:0:0:0:
256,192,136537,1,0,0:0:0:0:
256,192,136704,1,8,0:0:0:0:
256,192,136787,1,8,0:0:0:0:
256,192,136871,1,0,0:0:0:0:
256,192,136954,1,0,0:0:0:0:
256,192,137037,1,8,0:0:0:0:
256,192,137204,1,8,0:0:0:0:
256,192,137371,1,0,0:0:0:0:
256,192,137537,1,0,0:0:0:0:
256,192,137621,1,0,0:0:0:0:
256,192,137704,1,8,0:0:0:0:
256,192,137787,1,0,0:0:0:0:
256,192,137871,1,8,0:0:0:0:
256,192,137954,1,8,0:0:0:0:
256,192,138037,1,0,0:0:0:0:
256,192,138204,1,0,0:0:0:0:
256,192,138371,1,8,0:0:0:0:
256,192,138454,1,8,0:0:0:0:
256,192,138537,1,0,0:0:0:0:
256,192,138704,1,8,0:0:0:0:
256,192,139037,1,8,0:0:0:0:
256,192,139204,1,0,0:0:0:0:
256,192,139287,1,0,0:0:0:0:
256,192,139371,1,8,0:0:0:0:
256,192,139454,1,8,0:0:0:0:
256,192,139537,1,0,0:0:0:0:
256,192,139704,1,8,0:0:0:0:
256,192,139871,1,0,0:0:0:0:
256,192,139954,1,8,0:0:0:0:
256,224,140037,1,0,0:0:0:0:
256,192,140204,1,0,0:0:0:0:
288,192,140371,1,8,0:0:0:0:
256,192,140537,1,0,0:0:0:0:
288,192,140621,1,8,0:0:0:0:
288,192,140704,1,0,0:0:0:0:
256,192,140787,1,8,0:0:0:0:
288,192,140871,1,0,0:0:0:0:
256,192,140954,1,0,0:0:0:0:
256,192,141037,1,8,0:0:0:0:
288,192,141204,1,8,0:0:0:0:
256,192,141287,1,8,0:0:0:0:
288,192,141371,1,0,0:0:0:0:
256,192,141704,1,8,0:0:0:0:
256,192,141870,1,0,0:0:0:0:
256,192,141954,1,0,0:0:0:0:
256,192,142037,1,8,0:0:0:0:
256,192,142204,1,0,0:0:0:0:
256,192,142370,1,8,0:0:0:0:
256,192,142454,1,0,0:0:0:0:
256,192,142537,1,8,0:0:0:0:
256,192,142621,1,8,0:0:0:0:
256,192,142704,1,0,0:0:0:0:
256,192,142870,1,0,0:0:0:0:
256,192,142954,1,0,0:0:0:0:
256,192,143037,1,8,0:0:0:0:
256,192,143204,1,0,0:0:0:0:
256,192,143371,1,8,0:0:0:0:
256,192,143454,1,8,0:0:0:0:
256,192,143537,1,0,0:0:0:0:
256,192,143621,1,8,0:0:0:0:
256,192,143704,1,0,0:0:0:0:
256,192,143870,1,8,0:0:0:0:
256,192,144037,1,0,0:0:0:0:
256,192,144371,1,8,0:0:0:0:
256,192,144537,1,8,0:0:0:0:
256,192,144621,1,8,0:0:0:0:
256,192,144704,1,0,0:0:0:0:
256,192,144871,1,0,0:0:0:0:
224,192,144954,1,0,0:0:0:0:
256,192,145037,1,8,0:0:0:0:
256,192,145204,1,0,0:0:0:0:
256,192,145371,1,8,0:0:0:0:
256,192,145454,1,0,0:0:0:0:
256,192,145537,1,0,0:0:0:0:
256,192,145621,1,0,0:0:0:0:
256,192,145704,5,8,0:0:0:0:
256,192,145871,1,0,0:0:0:0:
256,192,145954,1,8,0:0:0:0:
256,192,146037,1,0,0:0:0:0:
256,224,146121,1,8,0:0:0:0:
256,192,146204,1,8,0:0:0:0:
256,192,146287,1,0,0:0:0:0:
256,192,146371,1,8,0:0:0:0:
288,192,146537,1,8,0:0:0:0:
256,192,146704,1,4,0:0:0:0:
256,192,147038,1,8,0:0:0:0:
256,192,147204,1,0,0:0:0:0:
256,192,147287,1,0,0:0:0:0:
256,192,147371,1,8,0:0:0:0:
256,192,147454,1,8,0:0:0:0:
256,192,147621,1,8,0:0:0:0:
256,192,147704,1,0,0:0:0:0:
256,192,147871,1,8,0:0:0:0:
256,192,148038,1,0,0:0:0:0:
256,192,148204,5,0,0:0:0:0:
256,192,148287,1,0,0:0:0:0:
256,192,148371,1,8,0:0:0:0:
256,192,148454,1,0,0:0:0:0:
256,224,148537,1,8,0:0:0:0:
256,192,148621,1,8,0:0:0:0:
256,192,148704,1,0,0:0:0:0:
256,192,148871,1,0,0:0:0:0:
256,192,149038,1,8,0:0:0:0:
256,192,149121,1,8,0:0:0:0:
256,192,149204,1,0,0:0:0:0:
256,192,149371,1,8,0:0:0:0:
256,192,149704,1,8,0:0:0:0:
256,192,149871,1,0,0:0:0:0:
256,192,149954,1,0,0:0:0:0:
256,192,150038,1,8,0:0:0:0:
256,192,150204,1,0,0:0:0:0:
256,192,150371,1,8,0:0:0:0:
256,192,150454,1,0,0:0:0:0:
256,192,150538,1,8,0:0:0:0:
256,192,150621,1,8,0:0:0:0:
256,224,150704,1,0,0:0:0:0:
256,192,150871,1,0,0:0:0:0:
256,192,150953,1,0,0:0:0:0:
288,192,151037,1,8,0:0:0:0:
256,160,151121,1,0,0:0:0:0:
288,192,151204,1,0,0:0:0:0:
256,192,151287,1,8,0:0:0:0:
256,192,151454,1,8,0:0:0:0:
288,192,151537,1,8,0:0:0:0:
256,192,151621,1,0,0:0:0:0:
256,192,151704,1,8,0:0:0:0:
288,192,151871,1,8,0:0:0:0:
256,192,151954,1,8,0:0:0:0:
288,192,152038,1,0,0:0:0:0:
256,192,152371,1,8,0:0:0:0:
256,192,152537,1,0,0:0:0:0:
256,192,152704,1,8,0:0:0:0:
256,192,152787,1,8,0:0:0:0:
256,192,152871,1,0,0:0:0:0:
256,192,152954,1,0,0:0:0:0:
256,192,153037,1,8,0:0:0:0:
256,192,153204,1,8,0:0:0:0:
256,192,153287,1,8,0:0:0:0:
256,192,153371,1,0,0:0:0:0:
256,192,153537,1,0,0:0:0:0:
256,192,153621,1,0,0:0:0:0:
256,192,153704,1,8,0:0:0:0:
256,192,153871,1,0,0:0:0:0:
256,192,154038,1,8,0:0:0:0:
256,192,154121,1,8,0:0:0:0:
256,192,154204,1,0,0:0:0:0:
256,192,154288,1,8,0:0:0:0:
256,192,154371,1,0,0:0:0:0:
256,192,154537,1,8,0:0:0:0:
256,192,154704,1,0,0:0:0:0:
256,192,154871,1,0,0:0:0:0:
256,192,154954,1,0,0:0:0:0:
256,192,155038,1,8,0:0:0:0:
256,192,155204,1,8,0:0:0:0:
256,192,155288,1,8,0:0:0:0:
256,192,155371,1,0,0:0:0:0:
256,192,155538,1,0,0:0:0:0:
224,192,155621,1,0,0:0:0:0:
256,192,155704,1,8,0:0:0:0:
256,192,155788,1,8,0:0:0:0:
256,192,155871,1,0,0:0:0:0:
256,192,155954,1,0,0:0:0:0:
256,192,156038,1,8,0:0:0:0:
256,192,156204,1,0,0:0:0:0:
256,192,156288,1,0,0:0:0:0:
256,192,156371,5,8,0:0:0:0:
256,192,156538,1,0,0:0:0:0:
256,192,156621,1,0,0:0:0:0:
256,192,156704,1,8,0:0:0:0:
256,224,156788,1,8,0:0:0:0:
256,192,156871,1,8,0:0:0:0:
256,192,156954,1,0,0:0:0:0:
256,192,157038,1,8,0:0:0:0:
256,192,157121,1,0,0:0:0:0:
288,192,157204,1,8,0:0:0:0:
256,224,157287,1,8,0:0:0:0:
256,192,157371,1,4,0:0:0:0:
256,192,157705,1,8,0:0:0:0:
256,192,157871,1,0,0:0:0:0:
256,192,158038,1,8,0:0:0:0:
256,192,158121,1,8,0:0:0:0:
256,192,158205,1,0,0:0:0:0:
256,192,158288,1,8,0:0:0:0:
256,192,158371,1,0,0:0:0:0:
256,192,158538,1,0,0:0:0:0:
256,192,158705,1,8,0:0:0:0:
256,192,158871,1,0,0:0:0:0:
256,192,158955,1,0,0:0:0:0:
256,192,159038,1,8,0:0:0:0:
256,192,159121,1,0,0:0:0:0:
256,192,159205,1,8,0:0:0:0:
256,192,159288,1,8,0:0:0:0:
256,192,159371,1,0,0:0:0:0:
256,192,159537,1,0,0:0:0:0:
256,192,159705,1,8,0:0:0:0:
256,192,159788,1,0,0:0:0:0:
256,192,159871,1,0,0:0:0:0:
256,192,159954,1,0,0:0:0:0:
256,192,160037,1,8,0:0:0:0:
256,192,160121,1,8,0:0:0:0:
256,192,160204,1,0,0:0:0:0:
256,192,160371,1,8,0:0:0:0:
256,192,160455,1,8,0:0:0:0:
256,192,160538,1,0,0:0:0:0:
256,192,160705,1,8,0:0:0:0:
256,192,160788,1,0,0:0:0:0:
256,192,160871,1,0,0:0:0:0:
256,192,161038,1,8,0:0:0:0:
256,192,161121,1,0,0:0:0:0:
256,192,161205,1,0,0:0:0:0:
256,224,161371,1,0,0:0:0:0:
256,192,161454,1,8,0:0:0:0:
256,192,161538,1,8,0:0:0:0:
256,192,161621,1,0,0:0:0:0:
288,192,161704,1,8,0:0:0:0:
256,192,161788,1,0,0:0:0:0:
256,192,161871,1,0,0:0:0:0:
288,192,161955,1,8,0:0:0:0:
256,192,162121,1,8,0:0:0:0:
288,192,162205,1,0,0:0:0:0:
256,192,162288,1,0,0:0:0:0:
256,192,162371,1,8,0:0:0:0:
288,192,162538,1,8,0:0:0:0:
256,192,162621,1,8,0:0:0:0:
288,192,162705,1,0,0:0:0:0:
256,192,163038,1,8,0:0:0:0:
256,192,163204,1,0,0:0:0:0:
256,192,163287,1,0,0:0:0:0:
256,192,163371,1,8,0:0:0:0:
256,192,163537,1,0,0:0:0:0:
256,192,163704,1,8,0:0:0:0:
224,192,163787,1,0,0:0:0:0:
256,192,163871,1,8,0:0:0:0:
256,192,163954,1,8,0:0:0:0:
256,192,164037,1,0,0:0:0:0:
256,192,164204,1,0,0:0:0:0:
256,192,164288,1,8,0:0:0:0:
256,192,164371,1,8,0:0:0:0:
256,192,164538,1,0,0:0:0:0:
256,192,164705,1,8,0:0:0:0:
256,192,164788,1,8,0:0:0:0:
256,192,164871,1,0,0:0:0:0:
256,192,164954,1,8,0:0:0:0:
256,192,165037,1,0,0:0:0:0:
256,192,165204,1,8,0:0:0:0:
256,192,165371,1,0,0:0:0:0:
256,192,165705,1,8,0:0:0:0:
256,192,165871,1,0,0:0:0:0:
256,192,165955,1,0,0:0:0:0:
256,192,166038,1,8,0:0:0:0:
256,192,166204,1,0,0:0:0:0:
256,192,166371,1,8,0:0:0:0:
256,192,166454,1,0,0:0:0:0:
256,192,166537,1,0,0:0:0:0:
256,192,166621,1,0,0:0:0:0:
256,192,166705,1,8,0:0:0:0:
256,192,166787,1,8,0:0:0:0:
256,192,166871,1,0,0:0:0:0:
256,192,166955,1,0,0:0:0:0:
256,192,167038,5,8,0:0:0:0:
256,192,167204,1,0,0:0:0:0:
256,192,167371,1,8,0:0:0:0:
256,224,167455,1,8,0:0:0:0:
256,192,167537,1,0,0:0:0:0:
256,192,167621,1,8,0:0:0:0:
256,192,167704,1,8,0:0:0:0:
288,192,167871,1,8,0:0:0:0:
256,192,168038,1,4,0:0:0:0:
256,192,168372,1,8,0:0:0:0:
256,192,168538,1,0,0:0:0:0:
256,192,168621,1,0,0:0:0:0:
256,192,168705,1,8,0:0:0:0:
256,192,168788,1,8,0:0:0:0:
256,192,168871,1,0,0:0:0:0:
256,192,168955,1,8,0:0:0:0:
256,192,169038,1,0,0:0:0:0:
256,192,169205,1,8,0:0:0:0:
256,192,169371,1,0,0:0:0:0:
256,192,169538,5,8,0:0:0:0:
256,192,169621,1,8,0:0:0:0:
256,192,169704,1,0,0:0:0:0:
256,192,169871,1,0,0:0:0:0:
256,192,170037,1,8,0:0:0:0:
256,192,170121,1,0,0:0:0:0:
256,192,170204,1,8,0:0:0:0:
256,192,170287,1,8,0:0:0:0:
256,192,170371,1,0,0:0:0:0:
256,192,170538,1,8,0:0:0:0:
256,192,170705,1,0,0:0:0:0:
256,192,170787,1,8,0:0:0:0:
256,192,170872,1,8,0:0:0:0:
256,192,171038,1,0,0:0:0:0:
256,192,171121,1,8,0:0:0:0:
256,192,171205,1,8,0:0:0:0:
256,192,171371,1,0,0:0:0:0:
256,192,171455,1,0,0:0:0:0:
256,192,171538,1,8,0:0:0:0:
256,192,171704,1,0,0:0:0:0:
256,192,171788,1,0,0:0:0:0:
256,192,171872,1,8,0:0:0:0:
256,224,172038,1,0,0:0:0:0:
256,192,172121,1,8,0:0:0:0:
256,192,172205,1,0,0:0:0:0:
256,192,172287,1,0,0:0:0:0:
288,192,172371,1,8,0:0:0:0:
256,192,172455,1,8,0:0:0:0:
288,192,172538,1,0,0:0:0:0:
256,192,172621,1,8,0:0:0:0:
256,192,172788,1,8,0:0:0:0:
288,192,172872,1,8,0:0:0:0:
256,192,172955,1,0,0:0:0:0:
256,192,173038,1,8,0:0:0:0:
288,192,173205,1,8,0:0:0:0:
256,192,173288,1,8,0:0:0:0:
288,192,173372,1,0,0:0:0:0:
256,192,173705,1,8,0:0:0:0:
256,192,173871,1,0,0:0:0:0:
256,192,174038,1,8,0:0:0:0:
256,192,174121,1,8,0:0:0:0:
256,192,174205,1,0,0:0:0:0:
256,192,174288,1,0,0:0:0:0:
256,192,174371,1,8,0:0:0:0:
256,192,174538,1,8,0:0:0:0:
256,192,174621,1,8,0:0:0:0:
256,192,174705,1,0,0:0:0:0:
256,192,174871,1,0,0:0:0:0:
256,192,174955,1,0,0:0:0:0:
256,192,175038,1,8,0:0:0:0:
256,192,175205,1,0,0:0:0:0:
256,192,175372,1,8,0:0:0:0:
256,192,175455,1,8,0:0:0:0:
256,192,175538,1,0,0:0:0:0:
256,192,175622,1,8,0:0:0:0:
256,192,175705,1,0,0:0:0:0:
256,192,175787,1,0,0:0:0:0:
256,192,175871,1,8,0:0:0:0:
256,192,176038,1,8,0:0:0:0:
256,192,176121,1,8,0:0:0:0:
256,192,176204,1,0,0:0:0:0:
256,192,176372,1,8,0:0:0:0:
256,192,176538,1,0,0:0:0:0:
256,192,176622,1,8,0:0:0:0:
256,192,176787,1,8,0:0:0:0:
256,192,176872,1,0,0:0:0:0:
256,192,177038,1,12,0:0:0:0:
256,192,177205,1,0,0:0:0:0:
256,192,177288,1,8,0:0:0:0:
256,192,177372,1,0,0:0:0:0:
256,192,177454,1,8,0:0:0:0:
256,192,177538,1,0,0:0:0:0:
256,192,177705,5,12,0:0:0:0:
256,192,177872,5,0,0:0:0:0:
256,192,177955,1,0,0:0:0:0:
256,192,178038,1,8,0:0:0:0:
256,224,178122,1,8,0:0:0:0:
256,192,178205,1,0,0:0:0:0:
256,192,178288,1,0,0:0:0:0:
256,192,178372,1,8,0:0:0:0:
256,192,178455,1,0,0:0:0:0:
288,192,178538,1,8,0:0:0:0:
256,224,178621,1,8,0:0:0:0:
256,192,178705,1,4,0:0:0:0:
256,192,179037,1,8,0:0:0:0:
256,192,179371,1,8,0:0:0:0:
256,192,179538,1,0,0:0:0:0:
256,192,179705,1,8,0:0:0:0:
256,192,179871,1,8,0:0:0:0:
256,192,180037,1,0,0:0:0:0:
256,192,180371,1,8,0:0:0:0:
256,192,180704,1,0,0:0:0:0:
256,192,180871,1,0,0:0:0:0:
256,192,181038,1,8,0:0:0:0:
256,192,181287,1,8,0:0:0:0:
256,192,181371,1,0,0:0:0:0:
256,192,181537,1,0,0:0:0:0:
256,192,181705,1,8,0:0:0:0:
256,192,182038,1,8,0:0:0:0:
256,192,182204,1,0,0:0:0:0:
256,192,182372,1,0,0:0:0:0:
256,192,182537,1,8,0:0:0:0:
256,192,182705,1,0,0:0:0:0:
224,192,183038,1,8,0:0:0:0:
256,192,183205,1,0,0:0:0:0:
256,192,183371,1,0,0:0:0:0:
224,192,183455,1,8,0:0:0:0:
256,192,183538,1,0,0:0:0:0:
256,192,183705,1,8,0:0:0:0:
256,192,183871,1,8,0:0:0:0:
256,192,183954,1,0,0:0:0:0:
256,192,184038,1,0,0:0:0:0:
256,192,184205,1,0,0:0:0:0:
256,192,184372,1,8,0:0:0:0:
256,192,184704,1,0,0:0:0:0:
256,192,184871,1,0,0:0:0:0:
256,192,185037,1,8,0:0:0:0:
256,192,185204,1,8,0:0:0:0:
256,192,185371,1,0,0:0:0:0:
256,192,185705,1,8,0:0:0:0:
256,192,186038,1,0,0:0:0:0:
256,192,186204,1,0,0:0:0:0:
256,192,186371,1,8,0:0:0:0:
256,192,186537,1,8,0:0:0:0:
256,192,186622,1,8,0:0:0:0:
256,192,186705,1,0,0:0:0:0:
256,192,187037,1,8,0:0:0:0:
256,192,187287,1,8,0:0:0:0:
256,192,187372,1,0,0:0:0:0:
256,192,187537,1,8,0:0:0:0:
256,192,187704,1,0,0:0:0:0:
256,192,187871,1,0,0:0:0:0:
256,192,188038,1,8,0:0:0:0:
256,192,188371,1,8,0:0:0:0:
256,192,188537,1,0,0:0:0:0:
256,192,188621,1,0,0:0:0:0:
256,192,188704,1,8,0:0:0:0:
256,192,188871,1,0,0:0:0:0:
256,192,189037,1,8,0:0:0:0:
256,192,189121,1,0,0:0:0:0:
256,192,189204,1,8,0:0:0:0:
256,192,189287,1,8,0:0:0:0:
256,192,189371,1,4,0:0:0:0:
256,192,189538,1,0,0:0:0:0:
256,192,189621,1,0,0:0:0:0:
288,224,189705,1,8,0:0:0:0:
256,192,189871,1,0,0:0:0:0:
256,192,189954,1,0,0:0:0:0:
256,192,190038,1,8,0:0:0:0:
256,192,190121,1,8,0:0:0:0:
256,192,190287,1,8,0:0:0:0:
256,192,190371,1,0,0:0:0:0:
256,192,190538,1,8,0:0:0:0:
256,192,190705,1,0,0:0:0:0:
256,192,191038,1,8,0:0:0:0:
256,192,191205,1,0,0:0:0:0:
256,192,191371,1,8,0:0:0:0:
288,192,191455,1,8,0:0:0:0:
256,192,191538,1,0,0:0:0:0:
256,192,191621,1,0,0:0:0:0:
256,192,191705,1,8,0:0:0:0:
256,192,191871,1,8,0:0:0:0:
256,192,192038,1,0,0:0:0:0:
256,192,192205,1,0,0:0:0:0:
256,192,192288,1,0,0:0:0:0:
288,160,192371,1,8,0:0:0:0:
256,192,192538,1,0,0:0:0:0:
256,192,192705,1,8,0:0:0:0:
256,192,192788,1,8,0:0:0:0:
256,192,192871,1,0,0:0:0:0:
256,192,192955,1,8,0:0:0:0:
256,192,193038,1,0,0:0:0:0:
256,192,193205,1,0,0:0:0:0:
256,192,193371,1,8,0:0:0:0:
256,192,193705,1,8,0:0:0:0:
256,192,193871,1,0,0:0:0:0:
256,192,194037,1,8,0:0:0:0:
256,192,194121,1,8,0:0:0:0:
256,192,194204,1,0,0:0:0:0:
256,192,194288,1,0,0:0:0:0:
256,192,194371,1,8,0:0:0:0:
256,192,194538,1,8,0:0:0:0:
256,192,194621,1,8,0:0:0:0:
256,192,194705,1,0,0:0:0:0:
256,192,194871,1,0,0:0:0:0:
256,192,194954,1,0,0:0:0:0:
288,224,195038,1,8,0:0:0:0:
256,192,195204,1,0,0:0:0:0:
256,192,195287,1,0,0:0:0:0:
256,192,195371,1,8,0:0:0:0:
256,192,195454,1,8,0:0:0:0:
256,192,195621,1,8,0:0:0:0:
256,192,195704,1,0,0:0:0:0:
256,192,195871,1,8,0:0:0:0:
256,192,196038,1,0,0:0:0:0:
256,192,196371,1,8,0:0:0:0:
256,192,196538,1,0,0:0:0:0:
224,192,196621,1,0,0:0:0:0:
256,192,196704,1,8,0:0:0:0:
288,192,196788,1,8,0:0:0:0:
256,192,196871,1,0,0:0:0:0:
256,192,197038,1,8,0:0:0:0:
256,192,197204,1,8,0:0:0:0:
256,192,197287,1,8,0:0:0:0:
256,192,197371,1,0,0:0:0:0:
256,192,197538,1,0,0:0:0:0:
256,192,197621,1,0,0:0:0:0:
288,160,197704,1,8,0:0:0:0:
256,192,197871,1,0,0:0:0:0:
256,192,198038,1,8,0:0:0:0:
256,192,198121,1,0,0:0:0:0:
256,192,198204,1,8,0:0:0:0:
256,192,198288,1,8,0:0:0:0:
256,192,198371,1,0,0:0:0:0:
256,192,198538,1,0,0:0:0:0:
256,192,198704,1,8,0:0:0:0:
256,192,198871,1,0,0:0:0:0:
256,192,198954,1,0,0:0:0:0:
256,192,199038,1,8,0:0:0:0:
256,192,199205,1,0,0:0:0:0:
256,192,199372,1,8,0:0:0:0:
256,192,199454,1,8,0:0:0:0:
288,224,199537,1,0,0:0:0:0:
256,192,199621,1,0,0:0:0:0:
256,192,199704,1,8,0:0:0:0:
256,192,199787,1,0,0:0:0:0:
256,192,199871,1,8,0:0:0:0:
288,192,199954,1,8,0:0:0:0:
256,192,200037,1,4,0:0:0:0:
256,224,200204,1,0,0:0:0:0:
256,192,200287,1,0,0:0:0:0:
256,192,200371,1,8,0:0:0:0:
256,224,200537,1,0,0:0:0:0:
288,192,200871,1,0,0:0:0:0:
256,192,201037,1,8,0:0:0:0:
256,192,201204,1,0,0:0:0:0:
256,192,201371,1,8,0:0:0:0:
256,192,201454,1,8,0:0:0:0:
256,192,201537,1,0,0:0:0:0:
256,192,201621,1,0,0:0:0:0:
256,192,201704,1,8,0:0:0:0:
256,192,201871,1,0,0:0:0:0:
256,192,201954,1,8,0:0:0:0:
256,192,202037,1,8,0:0:0:0:
256,192,202204,1,0,0:0:0:0:
256,192,202371,1,8,0:0:0:0:
256,192,202454,1,0,0:0:0:0:
256,192,202537,1,8,0:0:0:0:
256,192,202621,1,8,0:0:0:0:
256,192,202704,1,0,0:0:0:0:
256,192,202871,1,0,0:0:0:0:
256,192,202954,1,0,0:0:0:0:
288,192,203037,1,8,0:0:0:0:
256,192,203204,1,0,0:0:0:0:
256,192,203537,1,0,0:0:0:0:
256,192,203704,1,8,0:0:0:0:
256,192,203871,1,0,0:0:0:0:
256,192,204037,1,0,0:0:0:0:
256,192,204121,1,0,0:0:0:0:
256,192,204204,1,8,0:0:0:0:
256,224,204287,1,0,0:0:0:0:
256,192,204371,1,8,0:0:0:0:
256,192,204454,1,0,0:0:0:0:
256,192,204537,1,0,0:0:0:0:
256,192,204621,1,8,0:0:0:0:
256,192,204787,1,8,0:0:0:0:
256,192,204871,1,0,0:0:0:0:
256,192,204954,1,0,0:0:0:0:
256,192,205037,1,8,0:0:0:0:
256,192,205204,1,8,0:0:0:0:
256,192,205287,1,8,0:0:0:0:
256,192,205371,1,0,0:0:0:0:
256,192,205537,1,0,0:0:0:0:
256,192,205621,1,0,0:0:0:0:
256,192,205704,1,8,0:0:0:0:
256,192,205871,1,0,0:0:0:0:
256,192,206204,1,0,0:0:0:0:
256,192,206371,1,8,0:0:0:0:
256,192,206537,1,0,0:0:0:0:
256,192,206704,1,0,0:0:0:0:
256,192,206815,1,8,0:0:0:0:
256,192,206926,1,8,0:0:0:0:
256,192,207037,1,0,0:0:0:0:
256,192,207204,1,8,0:0:0:0:
256,192,207371,1,0,0:0:0:0:
256,192,207454,1,8,0:0:0:0:
256,192,207537,1,0,0:0:0:0:
256,192,207621,1,0,0:0:0:0:
256,192,207704,1,8,0:0:0:0:
256,192,207871,1,0,0:0:0:0:
256,192,208037,1,8,0:0:0:0:
256,192,208121,1,0,0:0:0:0:
256,192,208204,1,8,0:0:0:0:
256,192,208287,1,8,0:0:0:0:
256,192,208371,1,0,0:0:0:0:
256,192,208537,1,0,0:0:0:0:
256,192,208621,1,0,0:0:0:0:
256,192,208704,1,8,0:0:0:0:
256,192,208787,1,8,0:0:0:0:
256,192,208871,1,0,0:0:0:0:
256,192,209037,1,0,0:0:0:0:
256,192,209121,1,8,0:0:0:0:
256,192,209204,1,8,0:0:0:0:
256,192,209287,5,0,0:0:0:0:
256,192,209371,1,8,0:0:0:0:
256,192,209454,1,8,0:0:0:0:
256,192,209537,1,0,0:0:0:0:
256,192,209704,1,12,0:0:0:0:
256,192,209871,1,0,0:0:0:0:
256,192,210037,1,12,0:0:0:0:
256,192,210204,1,0,0:0:0:0:
256,192,210371,1,8,0:0:0:0:
256,192,210454,1,8,0:0:0:0:
256,192,210537,1,8,0:0:0:0:
224,192,210621,1,8,0:0:0:0:
256,192,210704,1,4,0:0:0:0:
241,215,210871,1,0,0:0:0:0:
311,160,211204,1,8,0:0:0:0:
404,168,211537,1,8,0:0:0:0:
384,145,211704,1,0,0:0:0:0:
363,129,211871,1,0,0:0:0:0:
371,189,212037,1,8,0:0:0:0:
228,196,213371,1,0,0:0:0:0:
351,246,213537,1,8,0:0:0:0:
421,241,213871,1,8,0:0:0:0:
421,241,214204,1,0,0:0:0:0:
421,241,214371,1,8,0:0:0:0:
421,241,214537,1,0,0:0:0:0:
421,241,214704,1,0,0:0:0:0:
175,121,214871,1,8,0:0:0:0:
135,134,215204,1,0,0:0:0:0:
135,134,215371,1,8,0:0:0:0:
181,109,215537,1,0,0:0:0:0:
167,213,215621,1,0,0:0:0:0:
181,109,215704,1,8,0:0:0:0:
153,69,215871,1,8,0:0:0:0:
153,69,216037,1,0,0:0:0:0:
250,187,216204,1,0,0:0:0:0:
219,127,216537,1,8,0:0:0:0:
219,127,216871,1,8,0:0:0:0:
219,127,217037,1,0,0:0:0:0:
219,127,217204,1,0,0:0:0:0:
295,148,217371,1,8,0:0:0:0:
442,170,217815,1,0,0:0:0:0:
458,167,218260,1,8,0:0:0:0:
139,168,218704,1,4,0:0:0:0:
171,174,219204,1,8,0:0:0:0:
146,174,219593,1,0,0:0:0:0:
263,146,220037,1,0,0:0:0:0:
344,229,220537,1,8,0:0:0:0:
189,131,221371,1,8,0:0:0:0:
295,231,221871,1,8,0:0:0:0:
256,192,222037,12,0,226704,0:0:0:0:
