osu file format v14

[General]
AudioFilename: memepower.mp3
AudioLeadIn: 0
PreviewTime: 136204
Countdown: 0
SampleSet: Normal
StackLeniency: 0.3
Mode: 1
LetterboxInBreaks: 0
WidescreenStoryboard: 0

[Editor]
Bookmarks: 24204,45538,66871,88204,109538,129538,200204
DistanceSpacing: 1.1
BeatDivisor: 4
GridSize: 4
TimelineZoom: 2.4

[Metadata]
Title:Kono Hoshi de....
TitleUnicode:Kono Hoshi de....
Artist:Camellia
ArtistUnicode:Camellia
Creator:Raphalge
Version:Dreamscape
Source:Yume Nikki
Tags:mega mix
BeatmapID:1400920
BeatmapSetID:661767

[Difficulty]
HPDrainRate:5
CircleSize:4
OverallDifficulty:6.5
ApproachRate:10
SliderMultiplier:1.6
SliderTickRate:2

[Events]
//Background and Video events
0,0,"yumebg.jpg",0,-30
//Break Periods
//Storyboard Layer 0 (Background)
//Storyboard Layer 1 (Fail)
//Storyboard Layer 2 (Pass)
//Storyboard Layer 3 (Foreground)
//Storyboard Sound Samples

[TimingPoints]
205,333.333333333333,4,1,0,70,1,0
23704,-99.009900990099,4,1,0,70,0,0
23788,-98.0392156862745,4,1,0,70,0,0
23871,-97.0873786407767,4,1,0,70,0,0
23954,-96.1538461538461,4,1,0,70,0,0
24038,-95.2380952380952,4,1,0,70,0,0
24121,-94.3396226415094,4,1,0,70,0,0
24204,-93.4579439252336,4,1,0,70,0,0
66288,-94.3396226415094,4,1,0,70,0,0
66371,-95.2380952380952,4,1,0,70,0,0
66454,-96.1538461538461,4,1,0,70,0,0
66538,-97.0873786407767,4,1,0,70,0,0
66871,-100,4,1,0,70,0,0
109204,-101.010101010101,4,1,0,70,0,0
109288,-102.040816326531,4,1,0,70,0,0
109371,-103.092783505155,4,1,0,70,0,0
109454,-104.166666666667,4,1,0,70,0,0
109538,-105.263157894737,4,1,0,70,0,0
135871,-86.9565217391304,4,1,0,70,0,0
136204,-86.9565217391304,4,1,0,70,0,1
156538,-86.2068965517241,4,1,0,70,0,1
156621,-85.4700854700855,4,1,0,70,0,1
156704,-84.7457627118644,4,1,0,70,0,1
156788,-84.0336134453781,4,1,0,70,0,1
156871,-83.3333333333333,4,1,0,70,0,1
156954,-82.6446280991736,4,1,0,70,0,1
157038,-81.9672131147541,4,1,0,70,0,1
157121,-81.3008130081301,4,1,0,70,0,1
157204,-80.6451612903226,4,1,0,70,0,0
157288,-80,4,1,0,70,0,0
157371,-79.3650793650794,4,1,0,70,0,0
157454,-78.7401574803149,4,1,0,70,0,0
157538,-78.125,4,1,0,70,0,1
178288,-78.7401574803149,4,1,0,70,0,1
178371,-79.3650793650794,4,1,0,70,0,1
178454,-80,4,1,0,70,0,1
178538,-80.6451612903226,4,1,0,70,0,1
178621,-81.3008130081301,4,1,0,70,0,1
178704,-81.9672131147541,4,1,0,70,0,1
178788,-82.6446280991736,4,1,0,70,0,1
178871,-83.3333333333333,4,1,0,70,0,0
179204,-84.7457627118644,4,1,0,70,0,0
179538,-85.4700854700855,4,1,0,70,0,0
179704,-86.2068965517241,4,1,0,70,0,0
179871,-86.9565217391304,4,1,0,70,0,0
180204,-87.719298245614,4,1,0,70,0,0
180371,-88.4955752212389,4,1,0,70,0,0
180538,-89.2857142857143,4,1,0,70,0,0
180704,-90.0900900900901,4,1,0,70,0,0
181038,-90.9090909090909,4,1,0,70,0,0
181204,-91.743119266055,4,1,0,70,0,0
181371,-92.5925925925926,4,1,0,70,0,0
181704,-93.4579439252336,4,1,0,70,0,0
181871,-94.3396226415094,4,1,0,70,0,0
182204,-95.2380952380952,4,1,0,70,0,0
182371,-96.1538461538461,4,1,0,70,0,0
182538,-97.0873786407767,4,1,0,70,0,0
182871,-98.0392156862745,4,1,0,70,0,0
183038,-99.009900990099,4,1,0,70,0,0
183204,-100,4,1,0,70,0,0
217538,-100,4,1,0,70,0,0

[HitObjects]
256,200,2871,5,4,0:0:0:0:
256,200,3038,1,8,0:0:0:0:
256,200,3371,1,0,0:0:0:0:
256,200,3538,1,8,0:0:0:0:
268,204,3704,1,0,0:0:0:0:
268,204,3788,1,8,0:0:0:0:
264,192,3954,1,8,0:0:0:0:
264,192,4038,1,0,0:0:0:0:
264,192,4204,1,8,0:0:0:0:
256,200,4538,1,8,0:0:0:0:
268,188,4871,1,8,0:0:0:0:
268,188,5204,1,0,0:0:0:0:
268,188,5371,1,8,0:0:0:0:
268,188,5538,1,0,0:0:0:0:
268,188,5704,1,0,0:0:0:0:
268,188,6038,1,8,0:0:0:0:
252,176,6204,1,0,0:0:0:0:
256,176,6371,1,8,0:0:0:0:
256,176,6454,1,0,0:0:0:0:
256,176,6621,1,0,0:0:0:0:
256,176,6704,1,8,0:0:0:0:
256,184,6871,2,0,L|308:188,6,40
272,184,7704,1,0,0:0:0:0:
272,184,7871,1,8,0:0:0:0:
272,184,8038,1,8,0:0:0:0:
272,184,8204,1,0,0:0:0:0:
272,184,8371,1,8,0:0:0:0:
272,176,8704,1,8,0:0:0:0:
272,176,8788,1,8,0:0:0:0:
272,176,8871,1,0,0:0:0:0:
272,176,9038,1,8,0:0:0:0:
272,176,9121,1,0,0:0:0:0:
272,176,9288,1,0,0:0:0:0:
272,176,9371,1,8,0:0:0:0:
272,176,9538,1,0,0:0:0:0:
272,176,9871,1,0,0:0:0:0:
272,176,10204,1,0,0:0:0:0:
272,168,10538,1,0,0:0:0:0:
272,168,10704,1,8,0:0:0:0:
272,168,10788,1,8,0:0:0:0:
272,168,10871,1,0,0:0:0:0:
272,168,11038,1,8,0:0:0:0:
272,168,11204,1,0,0:0:0:0:
272,148,11371,1,8,0:0:0:0:
272,148,11454,1,0,0:0:0:0:
272,148,11538,1,8,0:0:0:0:
272,168,11704,1,0,0:0:0:0:
272,168,11788,1,8,0:0:0:0:
272,152,11954,1,8,0:0:0:0:
272,152,12038,1,0,0:0:0:0:
292,160,12204,2,0,L|352:168,5,40
312,164,12871,1,0,0:0:0:0:
312,164,12954,1,0,0:0:0:0:
312,164,13037,1,8,0:0:0:0:
312,164,13121,1,0,0:0:0:0:
312,164,13204,1,8,0:0:0:0:
312,164,13287,1,8,0:0:0:0:
312,164,13371,1,0,0:0:0:0:
312,164,13454,1,8,0:0:0:0:
292,160,13538,1,0,0:0:0:0:
296,152,13704,1,8,0:0:0:0:
296,152,13871,1,0,0:0:0:0:
300,148,14038,1,0,0:0:0:0:
300,148,14204,1,8,0:0:0:0:
312,144,14371,1,0,0:0:0:0:
312,144,14454,1,8,0:0:0:0:
312,144,14621,1,8,0:0:0:0:
312,144,14704,1,0,0:0:0:0:
308,144,14871,1,8,0:0:0:0:
308,144,15204,1,8,0:0:0:0:
280,148,15538,1,8,0:0:0:0:
288,132,15871,1,0,0:0:0:0:
288,132,16038,1,0,0:0:0:0:
288,132,16204,1,8,0:0:0:0:
288,132,16371,1,0,0:0:0:0:
296,120,16704,1,8,0:0:0:0:
296,120,16871,1,0,0:0:0:0:
296,120,17038,1,8,0:0:0:0:
296,120,17121,1,0,0:0:0:0:
296,120,17288,1,0,0:0:0:0:
296,120,17371,1,8,0:0:0:0:
300,156,17538,2,8,L|356:168,6,40
236,200,18371,1,0,0:0:0:0:
292,204,18538,1,8,0:0:0:0:
292,204,18704,1,8,0:0:0:0:
304,200,18871,1,0,0:0:0:0:
316,200,19038,1,8,0:0:0:0:
312,200,19371,1,8,0:0:0:0:
312,192,19454,1,8,0:0:0:0:
312,200,19538,1,0,0:0:0:0:
304,192,19704,1,8,0:0:0:0:
304,192,19788,1,0,0:0:0:0:
304,192,19954,1,0,0:0:0:0:
304,192,20038,1,8,0:0:0:0:
300,192,20204,1,0,0:0:0:0:
304,192,20538,1,0,0:0:0:0:
304,192,20871,1,0,0:0:0:0:
308,184,21204,1,0,0:0:0:0:
308,184,21371,1,8,0:0:0:0:
308,184,21454,1,8,0:0:0:0:
308,184,21538,1,0,0:0:0:0:
308,184,21704,1,8,0:0:0:0:
308,184,21871,1,8,0:0:0:0:
308,184,22038,1,0,0:0:0:0:
308,184,22121,1,8,0:0:0:0:
308,184,22204,1,0,0:0:0:0:
308,184,22371,1,8,0:0:0:0:
308,184,22454,1,0,0:0:0:0:
308,184,22621,1,0,0:0:0:0:
308,184,22704,1,8,0:0:0:0:
308,184,22788,1,0,0:0:0:0:
308,184,22871,1,8,0:0:0:0:
308,184,23038,1,0,0:0:0:0:
312,180,23204,1,8,0:0:0:0:
312,176,23371,1,0,0:0:0:0:
312,176,23454,1,0,0:0:0:0:
312,176,23538,1,8,0:0:0:0:
312,176,23621,1,8,0:0:0:0:
312,176,23704,1,0,0:0:0:0:
312,176,23788,1,8,0:0:0:0:
312,176,23871,1,8,0:0:0:0:
308,168,23954,1,0,0:0:0:0:
308,168,24038,1,8,0:0:0:0:
308,168,24121,1,8,0:0:0:0:
308,168,24204,1,0,0:0:0:0:
320,164,24371,1,0,0:0:0:0:
316,160,24538,1,8,0:0:0:0:
316,164,24704,1,0,0:0:0:0:
316,164,24788,1,0,0:0:0:0:
316,164,24871,1,0,0:0:0:0:
312,160,25038,1,0,0:0:0:0:
312,160,25121,1,0,0:0:0:0:
312,160,25204,1,8,0:0:0:0:
304,160,25371,1,0,0:0:0:0:
304,152,25538,1,8,0:0:0:0:
304,152,25621,1,0,0:0:0:0:
328,156,25704,1,8,0:0:0:0:
328,156,25760,1,8,0:0:0:0:
328,156,25816,1,8,0:0:0:0:
300,156,25871,1,0,0:0:0:0:
300,156,25954,1,0,0:0:0:0:
300,156,26038,1,8,0:0:0:0:
300,160,26121,1,8,0:0:0:0:
300,156,26204,1,0,0:0:0:0:
292,148,26371,1,8,0:0:0:0:
292,148,26454,1,8,0:0:0:0:
272,148,26538,1,0,0:0:0:0:
272,148,26621,1,0,0:0:0:0:
272,148,26704,1,8,0:0:0:0:
272,148,26788,1,0,0:0:0:0:
272,152,26871,1,8,0:0:0:0:
264,144,27038,1,8,0:0:0:0:
264,144,27204,1,0,0:0:0:0:
264,144,27371,1,8,0:0:0:0:
272,136,27454,1,8,0:0:0:0:
264,148,27538,1,0,0:0:0:0:
264,148,27704,1,8,0:0:0:0:
264,148,27788,1,0,0:0:0:0:
264,148,27871,1,8,0:0:0:0:
264,144,28038,1,0,0:0:0:0:
260,152,28204,1,8,0:0:0:0:
260,152,28371,1,0,0:0:0:0:
260,152,28427,1,0,0:0:0:0:
260,152,28482,1,0,0:0:0:0:
260,152,28538,1,8,0:0:0:0:
272,136,28621,1,0,0:0:0:0:
272,136,28704,1,8,0:0:0:0:
272,136,28788,1,8,0:0:0:0:
272,136,28871,1,0,0:0:0:0:
272,136,29038,1,8,0:0:0:0:
272,136,29121,1,0,0:0:0:0:
272,136,29204,1,8,0:0:0:0:
272,136,29288,1,8,0:0:0:0:
272,136,29371,1,0,0:0:0:0:
272,136,29454,1,0,0:0:0:0:
272,132,29538,1,8,0:0:0:0:
264,136,29704,1,0,0:0:0:0:
264,136,29871,1,8,0:0:0:0:
260,136,30038,1,0,0:0:0:0:
248,144,30121,1,0,0:0:0:0:
256,132,30204,1,0,0:0:0:0:
256,140,30371,1,0,0:0:0:0:
256,140,30454,1,0,0:0:0:0:
256,140,30538,1,8,0:0:0:0:
248,136,30704,1,8,0:0:0:0:
252,152,30871,1,0,0:0:0:0:
256,156,30954,1,0,0:0:0:0:
264,152,31038,1,8,0:0:0:0:
264,152,31121,1,8,0:0:0:0:
252,152,31204,1,0,0:0:0:0:
192,28,31288,1,8,0:0:0:0:
248,148,31371,1,8,0:0:0:0:
256,132,31454,1,8,0:0:0:0:
248,144,31538,1,0,0:0:0:0:
252,144,31621,1,0,0:0:0:0:
252,144,31704,1,8,0:0:0:0:
248,136,31788,1,0,0:0:0:0:
252,136,31871,1,8,0:0:0:0:
252,136,31927,1,8,0:0:0:0:
252,136,31982,1,8,0:0:0:0:
252,136,32038,1,0,0:0:0:0:
248,128,32121,1,0,0:0:0:0:
248,128,32204,1,8,0:0:0:0:
264,128,32371,1,8,0:0:0:0:
260,136,32538,1,0,0:0:0:0:
256,132,32704,1,8,0:0:0:0:
256,132,32788,1,0,0:0:0:0:
256,132,32871,1,8,0:0:0:0:
256,132,33038,1,8,0:0:0:0:
264,140,33121,1,8,0:0:0:0:
264,140,33204,1,0,0:0:0:0:
260,136,33371,1,0,0:0:0:0:
264,148,33538,1,8,0:0:0:0:
268,148,33593,1,8,0:0:0:0:
268,148,33649,1,8,0:0:0:0:
268,148,33704,1,0,0:0:0:0:
284,148,33788,1,0,0:0:0:0:
268,148,33871,1,8,0:0:0:0:
268,148,33927,1,8,0:0:0:0:
268,148,33982,1,8,0:0:0:0:
268,148,34038,1,0,0:0:0:0:
284,148,34121,1,0,0:0:0:0:
284,148,34204,1,8,0:0:0:0:
288,140,34288,1,0,0:0:0:0:
288,140,34371,1,8,0:0:0:0:
288,140,34454,1,8,0:0:0:0:
288,140,34538,1,0,0:0:0:0:
288,140,34621,1,0,0:0:0:0:
288,140,34704,1,8,0:0:0:0:
288,140,34788,1,8,0:0:0:0:
288,140,34871,1,0,0:0:0:0:
316,140,35038,1,8,0:0:0:0:
300,144,35204,1,0,0:0:0:0:
296,144,35371,1,8,0:0:0:0:
292,148,35454,1,8,0:0:0:0:
292,148,35538,1,0,0:0:0:0:
300,148,35704,1,0,0:0:0:0:
300,148,35788,1,8,0:0:0:0:
280,180,35954,1,8,0:0:0:0:
280,180,36038,1,0,0:0:0:0:
296,160,36204,1,0,0:0:0:0:
296,160,36288,1,8,0:0:0:0:
264,176,36371,1,0,0:0:0:0:
264,176,36427,1,0,0:0:0:0:
264,176,36482,1,0,0:0:0:0:
264,176,36538,1,8,0:0:0:0:
280,180,36621,1,0,0:0:0:0:
280,180,36704,1,8,0:0:0:0:
280,180,36788,1,8,0:0:0:0:
280,180,36871,1,0,0:0:0:0:
288,188,37038,1,8,0:0:0:0:
280,172,37121,1,0,0:0:0:0:
280,172,37204,1,8,0:0:0:0:
276,176,37288,1,8,0:0:0:0:
276,176,37371,1,0,0:0:0:0:
276,176,37454,1,0,0:0:0:0:
276,176,37538,1,8,0:0:0:0:
264,180,37704,1,0,0:0:0:0:
296,172,37871,1,8,0:0:0:0:
272,176,38038,1,0,0:0:0:0:
284,184,38121,1,8,0:0:0:0:
284,184,38204,1,0,0:0:0:0:
284,184,38371,1,8,0:0:0:0:
284,184,38454,1,8,0:0:0:0:
284,184,38538,1,0,0:0:0:0:
284,184,38704,1,0,0:0:0:0:
280,184,38871,1,8,0:0:0:0:
296,176,39038,1,0,0:0:0:0:
296,176,39093,1,0,0:0:0:0:
296,176,39149,1,0,0:0:0:0:
296,176,39204,1,8,0:0:0:0:
304,180,39288,1,8,0:0:0:0:
296,176,39371,1,0,0:0:0:0:
304,180,39454,1,0,0:0:0:0:
304,180,39538,1,8,0:0:0:0:
308,176,39704,1,8,0:0:0:0:
308,176,39788,1,8,0:0:0:0:
308,176,39871,1,0,0:0:0:0:
308,176,39954,1,0,0:0:0:0:
308,176,40038,1,8,0:0:0:0:
308,176,40121,1,0,0:0:0:0:
308,176,40204,1,8,0:0:0:0:
276,184,40371,1,0,0:0:0:0:
296,180,40538,1,8,0:0:0:0:
288,184,40704,1,0,0:0:0:0:
288,184,40788,1,0,0:0:0:0:
288,176,40871,1,0,0:0:0:0:
288,180,41038,1,0,0:0:0:0:
288,180,41121,1,0,0:0:0:0:
288,180,41204,1,8,0:0:0:0:
280,168,41371,1,0,0:0:0:0:
252,152,41538,1,8,0:0:0:0:
256,156,41621,1,8,0:0:0:0:
264,152,41705,1,0,0:0:0:0:
264,152,41788,1,0,0:0:0:0:
252,152,41871,1,8,0:0:0:0:
192,28,41955,1,8,0:0:0:0:
248,148,42038,1,0,0:0:0:0:
256,132,42121,1,0,0:0:0:0:
248,144,42205,1,8,0:0:0:0:
252,144,42288,1,0,0:0:0:0:
252,144,42371,1,8,0:0:0:0:
248,136,42455,1,0,0:0:0:0:
252,136,42538,1,8,0:0:0:0:
252,136,42594,1,8,0:0:0:0:
252,136,42649,1,8,0:0:0:0:
252,136,42705,1,0,0:0:0:0:
248,128,42788,1,0,0:0:0:0:
248,128,42871,1,8,0:0:0:0:
248,136,43038,1,8,0:0:0:0:
248,136,43204,1,0,0:0:0:0:
248,136,43371,1,8,0:0:0:0:
248,136,43454,1,0,0:0:0:0:
252,136,43538,1,0,0:0:0:0:
240,132,43621,1,8,0:0:0:0:
252,136,43704,1,0,0:0:0:0:
248,136,43788,1,0,0:0:0:0:
248,136,43871,1,8,0:0:0:0:
248,136,44038,1,0,0:0:0:0:
256,192,44204,12,0,45038,0:0:0:0:
260,188,45204,5,8,0:0:0:0:
260,188,45288,1,0,0:0:0:0:
260,188,45371,1,8,0:0:0:0:
260,188,45454,1,8,0:0:0:0:
260,188,45538,1,0,0:0:0:0:
264,176,45704,1,0,0:0:0:0:
264,200,45871,1,8,0:0:0:0:
260,188,46038,1,0,0:0:0:0:
260,188,46121,1,0,0:0:0:0:
260,188,46204,1,0,0:0:0:0:
264,188,46371,1,0,0:0:0:0:
264,188,46454,1,0,0:0:0:0:
264,188,46538,1,8,0:0:0:0:
264,184,46704,1,0,0:0:0:0:
252,200,46871,1,8,0:0:0:0:
260,188,46954,1,8,0:0:0:0:
276,192,47038,1,0,0:0:0:0:
276,192,47093,1,0,0:0:0:0:
276,192,47149,1,0,0:0:0:0:
276,192,47204,1,8,0:0:0:0:
272,200,47288,1,0,0:0:0:0:
272,192,47371,1,8,0:0:0:0:
272,192,47454,1,8,0:0:0:0:
272,192,47538,1,0,0:0:0:0:
272,192,47704,1,8,0:0:0:0:
272,192,47788,1,0,0:0:0:0:
272,192,47871,1,8,0:0:0:0:
272,192,47954,1,8,0:0:0:0:
276,192,48038,1,0,0:0:0:0:
276,192,48121,1,8,0:0:0:0:
276,192,48204,1,0,0:0:0:0:
276,172,48371,1,0,0:0:0:0:
276,172,48538,1,8,0:0:0:0:
276,172,48704,1,0,0:0:0:0:
276,172,48788,1,0,0:0:0:0:
276,172,48871,1,8,0:0:0:0:
276,172,49038,1,0,0:0:0:0:
276,172,49121,1,8,0:0:0:0:
276,172,49204,1,0,0:0:0:0:
276,172,49371,1,0,0:0:0:0:
264,164,49538,1,8,0:0:0:0:
272,160,49704,1,0,0:0:0:0:
272,160,49760,1,0,0:0:0:0:
272,160,49816,1,0,0:0:0:0:
272,160,49871,1,8,0:0:0:0:
300,144,49954,1,8,0:0:0:0:
276,164,50038,1,0,0:0:0:0:
276,164,50121,1,0,0:0:0:0:
276,168,50204,1,8,0:0:0:0:
304,156,50371,1,0,0:0:0:0:
304,156,50454,1,0,0:0:0:0:
304,156,50538,1,8,0:0:0:0:
304,156,50621,1,0,0:0:0:0:
304,156,50704,1,8,0:0:0:0:
304,156,50788,1,8,0:0:0:0:
304,156,50871,1,0,0:0:0:0:
304,148,51038,1,0,0:0:0:0:
304,148,51204,1,8,0:0:0:0:
304,148,51371,1,0,0:0:0:0:
304,148,51454,1,8,0:0:0:0:
304,148,51538,1,0,0:0:0:0:
304,148,51704,1,0,0:0:0:0:
304,148,51788,1,0,0:0:0:0:
304,156,51871,1,8,0:0:0:0:
300,140,52038,1,0,0:0:0:0:
252,152,52204,1,8,0:0:0:0:
256,156,52287,1,0,0:0:0:0:
264,152,52371,1,8,0:0:0:0:
264,152,52454,1,8,0:0:0:0:
252,152,52537,1,0,0:0:0:0:
192,28,52621,1,0,0:0:0:0:
248,148,52704,1,8,0:0:0:0:
256,132,52787,1,8,0:0:0:0:
248,144,52871,1,0,0:0:0:0:
252,144,52954,1,8,0:0:0:0:
252,144,53037,1,0,0:0:0:0:
248,136,53121,1,0,0:0:0:0:
252,136,53204,1,8,0:0:0:0:
252,136,53260,1,8,0:0:0:0:
252,136,53315,1,8,0:0:0:0:
252,136,53371,1,0,0:0:0:0:
248,128,53454,1,0,0:0:0:0:
248,128,53537,1,8,0:0:0:0:
252,140,53704,1,8,0:0:0:0:
252,140,53871,1,0,0:0:0:0:
240,144,54038,1,8,0:0:0:0:
240,144,54121,1,0,0:0:0:0:
240,144,54204,1,8,0:0:0:0:
244,140,54288,1,8,0:0:0:0:
248,136,54371,1,0,0:0:0:0:
252,144,54454,1,0,0:0:0:0:
248,140,54538,1,8,0:0:0:0:
252,140,54704,1,0,0:0:0:0:
264,148,54871,1,8,0:0:0:0:
268,148,54926,1,8,0:0:0:0:
268,148,54982,1,8,0:0:0:0:
268,148,55037,1,0,0:0:0:0:
284,148,55121,1,0,0:0:0:0:
268,148,55204,1,8,0:0:0:0:
268,148,55260,1,8,0:0:0:0:
268,148,55315,1,8,0:0:0:0:
268,148,55371,1,0,0:0:0:0:
284,148,55454,1,0,0:0:0:0:
284,148,55537,1,8,0:0:0:0:
288,140,55621,1,8,0:0:0:0:
288,140,55704,1,0,0:0:0:0:
288,140,55787,1,0,0:0:0:0:
288,140,55871,1,8,0:0:0:0:
288,140,55954,1,0,0:0:0:0:
288,140,56037,1,8,0:0:0:0:
288,140,56121,1,8,0:0:0:0:
288,140,56204,1,0,0:0:0:0:
296,136,56371,1,8,0:0:0:0:
296,136,56538,1,0,0:0:0:0:
296,136,56704,1,8,0:0:0:0:
296,136,56788,1,8,0:0:0:0:
296,136,56871,1,0,0:0:0:0:
296,136,57038,1,8,0:0:0:0:
296,136,57121,1,0,0:0:0:0:
296,136,57204,1,8,0:0:0:0:
296,136,57371,1,0,0:0:0:0:
296,136,57538,1,8,0:0:0:0:
296,136,57621,1,8,0:0:0:0:
296,136,57704,1,0,0:0:0:0:
280,136,57760,1,0,0:0:0:0:
288,136,57816,1,0,0:0:0:0:
288,132,57871,1,8,0:0:0:0:
276,144,57954,1,0,0:0:0:0:
276,144,58038,1,8,0:0:0:0:
276,144,58121,1,8,0:0:0:0:
276,144,58204,1,0,0:0:0:0:
296,136,58371,1,8,0:0:0:0:
296,136,58454,1,8,0:0:0:0:
296,136,58538,1,0,0:0:0:0:
296,136,58621,1,0,0:0:0:0:
296,136,58704,1,8,0:0:0:0:
292,144,58788,1,0,0:0:0:0:
292,148,58871,1,8,0:0:0:0:
288,148,59038,1,0,0:0:0:0:
288,148,59204,1,8,0:0:0:0:
284,148,59371,1,0,0:0:0:0:
284,148,59454,1,8,0:0:0:0:
284,148,59538,1,0,0:0:0:0:
284,148,59704,1,0,0:0:0:0:
284,148,59788,1,0,0:0:0:0:
284,148,59871,1,8,0:0:0:0:
288,164,60038,1,0,0:0:0:0:
272,152,60204,1,8,0:0:0:0:
284,148,60371,1,0,0:0:0:0:
284,148,60427,1,0,0:0:0:0:
284,148,60482,1,0,0:0:0:0:
284,148,60538,1,8,0:0:0:0:
272,144,60621,1,8,0:0:0:0:
268,144,60704,1,0,0:0:0:0:
256,136,60788,1,0,0:0:0:0:
256,136,60871,1,8,0:0:0:0:
268,136,61038,1,0,0:0:0:0:
268,136,61121,1,0,0:0:0:0:
268,136,61204,1,8,0:0:0:0:
268,136,61288,1,0,0:0:0:0:
268,136,61371,1,8,0:0:0:0:
268,136,61454,1,8,0:0:0:0:
268,136,61538,1,0,0:0:0:0:
264,136,61704,1,0,0:0:0:0:
264,132,61871,1,8,0:0:0:0:
268,136,62038,1,0,0:0:0:0:
268,136,62121,1,8,0:0:0:0:
268,136,62204,1,0,0:0:0:0:
268,136,62371,1,8,0:0:0:0:
268,136,62454,1,8,0:0:0:0:
268,136,62538,1,0,0:0:0:0:
264,136,62704,1,8,0:0:0:0:
264,132,62871,1,0,0:0:0:0:
260,132,62954,1,0,0:0:0:0:
268,120,63038,1,8,0:0:0:0:
264,120,63121,1,0,0:0:0:0:
268,120,63204,1,8,0:0:0:0:
268,120,63288,1,8,0:0:0:0:
268,120,63371,1,0,0:0:0:0:
268,120,63454,1,0,0:0:0:0:
268,120,63538,1,8,0:0:0:0:
268,120,63621,1,8,0:0:0:0:
268,120,63704,1,0,0:0:0:0:
276,112,63760,1,0,0:0:0:0:
276,112,63816,1,0,0:0:0:0:
276,112,63871,1,8,0:0:0:0:
264,116,63954,1,8,0:0:0:0:
268,120,64038,1,0,0:0:0:0:
264,120,64121,1,0,0:0:0:0:
268,120,64204,1,8,0:0:0:0:
276,136,64371,1,8,0:0:0:0:
276,136,64538,1,0,0:0:0:0:
276,132,64704,1,8,0:0:0:0:
276,132,64788,1,8,0:0:0:0:
276,132,64871,1,0,0:0:0:0:
276,132,64954,1,0,0:0:0:0:
276,132,65038,1,8,0:0:0:0:
276,132,65121,1,0,0:0:0:0:
276,132,65204,1,8,0:0:0:0:
264,168,65288,1,8,0:0:0:0:
264,176,65371,1,0,0:0:0:0:
264,168,65454,1,8,0:0:0:0:
260,188,65538,5,0,0:0:0:0:
260,188,65593,1,0,0:0:0:0:
264,184,65649,1,0,0:0:0:0:
272,188,65704,1,8,0:0:0:0:
288,192,65788,1,0,0:0:0:0:
284,192,65871,1,8,0:0:0:0:
284,192,65927,1,8,0:0:0:0:
284,192,65982,1,8,0:0:0:0:
284,192,66038,1,0,0:0:0:0:
288,192,66121,1,0,0:0:0:0:
284,192,66204,1,8,0:0:0:0:
284,192,66288,1,0,0:0:0:0:
284,192,66371,1,8,0:0:0:0:
284,192,66454,1,8,0:0:0:0:
284,192,66538,1,0,0:0:0:0:
284,192,66871,1,12,0:0:0:0:
280,180,67204,1,8,0:0:0:0:
264,176,67538,1,0,0:0:0:0:
280,180,67705,1,0,0:0:0:0:
280,180,67871,1,8,0:0:0:0:
280,180,68204,1,0,0:0:0:0:
288,184,68371,1,0,0:0:0:0:
288,184,68537,1,8,0:0:0:0:
288,180,68704,1,0,0:0:0:0:
284,184,69038,1,0,0:0:0:0:
284,184,69204,1,8,0:0:0:0:
276,176,69454,1,8,0:0:0:0:
288,184,69538,1,0,0:0:0:0:
288,192,69704,1,0,0:0:0:0:
292,184,69871,1,8,0:0:0:0:
284,172,70204,5,0,0:0:0:0:
288,192,70371,1,0,0:0:0:0:
288,192,70538,1,8,0:0:0:0:
280,188,70871,1,0,0:0:0:0:
280,188,71038,1,8,0:0:0:0:
280,188,71204,1,8,0:0:0:0:
280,188,71371,1,0,0:0:0:0:
276,180,71538,1,8,0:0:0:0:
276,180,71621,1,8,0:0:0:0:
276,180,71704,1,0,0:0:0:0:
276,180,71871,1,8,0:0:0:0:
276,180,72038,1,0,0:0:0:0:
276,180,72121,1,8,0:0:0:0:
276,180,72204,1,0,0:0:0:0:
276,180,72371,1,0,0:0:0:0:
276,180,72538,1,8,0:0:0:0:
288,184,72871,1,0,0:0:0:0:
276,180,73038,1,0,0:0:0:0:
276,180,73205,1,8,0:0:0:0:
276,180,73538,1,8,0:0:0:0:
276,180,73704,1,0,0:0:0:0:
276,180,73871,1,0,0:0:0:0:
272,176,74038,1,8,0:0:0:0:
276,180,74371,1,0,0:0:0:0:
284,180,74538,1,8,0:0:0:0:
284,180,74704,1,8,0:0:0:0:
284,180,74788,1,8,0:0:0:0:
284,180,74871,1,0,0:0:0:0:
284,180,75038,1,0,0:0:0:0:
288,180,75204,1,8,0:0:0:0:
284,180,75454,1,8,0:0:0:0:
280,184,75538,1,0,0:0:0:0:
280,188,75704,1,0,0:0:0:0:
280,188,75871,1,8,0:0:0:0:
280,176,76204,1,0,0:0:0:0:
284,180,76371,1,0,0:0:0:0:
280,184,76538,1,8,0:0:0:0:
280,188,76704,1,0,0:0:0:0:
276,176,76871,1,8,0:0:0:0:
280,176,76954,1,8,0:0:0:0:
280,176,77038,1,0,0:0:0:0:
276,176,77204,1,8,0:0:0:0:
272,164,77288,1,8,0:0:0:0:
272,164,77371,1,8,0:0:0:0:
272,164,77454,1,8,0:0:0:0:
272,164,77538,1,0,0:0:0:0:
256,156,77871,1,8,0:0:0:0:
256,156,78204,1,0,0:0:0:0:
256,156,78371,1,0,0:0:0:0:
256,156,78538,1,8,0:0:0:0:
252,160,78871,1,0,0:0:0:0:
252,160,79038,1,0,0:0:0:0:
256,164,79204,1,8,0:0:0:0:
256,164,79371,1,0,0:0:0:0:
252,160,79704,1,0,0:0:0:0:
252,160,79871,1,8,0:0:0:0:
248,152,80121,1,8,0:0:0:0:
248,152,80204,1,0,0:0:0:0:
248,152,80371,1,0,0:0:0:0:
248,152,80538,1,8,0:0:0:0:
248,152,80871,1,0,0:0:0:0:
248,152,81038,1,8,0:0:0:0:
248,152,81204,1,8,0:0:0:0:
248,152,81538,1,0,0:0:0:0:
248,152,81621,1,0,0:0:0:0:
248,152,81704,1,8,0:0:0:0:
240,136,81871,1,0,0:0:0:0:
248,144,82038,1,8,0:0:0:0:
248,144,82121,1,8,0:0:0:0:
248,144,82204,1,0,0:0:0:0:
248,144,82288,1,0,0:0:0:0:
248,152,82371,1,8,0:0:0:0:
248,152,82538,1,0,0:0:0:0:
248,144,82704,1,8,0:0:0:0:
248,144,82788,1,8,0:0:0:0:
248,144,82871,1,0,0:0:0:0:
240,136,83038,1,0,0:0:0:0:
240,140,83204,1,8,0:0:0:0:
244,136,83538,1,0,0:0:0:0:
244,136,83704,1,0,0:0:0:0:
244,140,83871,1,8,0:0:0:0:
240,140,84204,1,0,0:0:0:0:
240,144,84371,1,0,0:0:0:0:
244,136,84538,1,8,0:0:0:0:
244,136,84704,1,0,0:0:0:0:
244,152,85038,1,0,0:0:0:0:
244,152,85204,1,8,0:0:0:0:
236,148,85371,1,0,0:0:0:0:
236,148,85454,1,8,0:0:0:0:
236,148,85538,1,0,0:0:0:0:
236,148,85704,1,0,0:0:0:0:
220,140,85871,1,8,0:0:0:0:
228,144,86038,1,0,0:0:0:0:
224,140,86121,1,0,0:0:0:0:
224,140,86204,1,8,0:0:0:0:
224,136,86288,1,8,0:0:0:0:
224,136,86371,1,0,0:0:0:0:
216,144,86538,1,8,0:0:0:0:
220,144,86621,1,8,0:0:0:0:
220,144,86704,1,8,0:0:0:0:
220,140,86788,1,8,0:0:0:0:
220,140,86871,1,4,0:0:0:0:
216,144,87538,1,0,0:0:0:0:
220,144,87871,1,0,0:0:0:0:
216,144,88038,1,8,0:0:0:0:
216,144,88204,1,4,0:0:0:0:
224,144,88371,1,0,0:0:0:0:
220,152,88538,1,8,0:0:0:0:
220,144,88704,1,0,0:0:0:0:
220,144,88788,1,8,0:0:0:0:
220,144,88871,1,0,0:0:0:0:
224,144,89038,1,0,0:0:0:0:
220,144,89204,1,8,0:0:0:0:
220,136,89371,1,8,0:0:0:0:
212,144,89538,1,0,0:0:0:0:
216,148,89871,1,8,0:0:0:0:
224,144,90038,1,8,0:0:0:0:
220,144,90204,1,0,0:0:0:0:
220,136,90371,1,0,0:0:0:0:
216,136,90538,1,8,0:0:0:0:
224,136,90704,1,0,0:0:0:0:
224,136,90788,1,0,0:0:0:0:
224,136,90871,1,8,0:0:0:0:
224,136,91038,1,8,0:0:0:0:
232,132,91204,1,0,0:0:0:0:
232,132,91371,1,8,0:0:0:0:
232,132,91454,1,0,0:0:0:0:
232,132,91538,1,8,0:0:0:0:
232,132,91704,1,8,0:0:0:0:
232,132,91788,1,8,0:0:0:0:
232,132,91871,1,0,0:0:0:0:
232,132,92038,1,8,0:0:0:0:
236,144,92204,1,0,0:0:0:0:
232,132,92538,1,8,0:0:0:0:
236,140,92704,1,0,0:0:0:0:
232,140,92871,5,8,0:0:0:0:
232,140,92954,1,0,0:0:0:0:
232,140,93038,1,8,0:0:0:0:
236,144,93204,1,8,0:0:0:0:
232,140,93371,1,0,0:0:0:0:
232,140,93454,1,0,0:0:0:0:
232,140,93538,1,8,0:0:0:0:
236,148,93704,1,8,0:0:0:0:
248,156,93871,1,0,0:0:0:0:
236,152,94038,1,8,0:0:0:0:
236,152,94121,1,0,0:0:0:0:
236,152,94204,1,8,0:0:0:0:
236,152,94371,1,8,0:0:0:0:
236,152,94454,1,8,0:0:0:0:
236,152,94538,1,0,0:0:0:0:
224,152,94704,1,0,0:0:0:0:
228,156,94871,1,8,0:0:0:0:
216,164,95038,1,8,0:0:0:0:
216,164,95204,1,0,0:0:0:0:
216,164,95371,1,0,0:0:0:0:
216,164,95538,1,8,0:0:0:0:
216,164,95871,1,0,0:0:0:0:
216,164,96038,1,8,0:0:0:0:
216,164,96121,1,8,0:0:0:0:
216,164,96204,1,0,0:0:0:0:
216,164,96371,1,0,0:0:0:0:
216,164,96538,1,8,0:0:0:0:
224,152,96704,1,0,0:0:0:0:
224,152,96788,1,8,0:0:0:0:
224,152,96871,1,0,0:0:0:0:
224,152,97038,1,0,0:0:0:0:
224,152,97121,1,0,0:0:0:0:
224,152,97204,1,8,0:0:0:0:
224,156,97371,1,0,0:0:0:0:
220,160,97538,1,8,0:0:0:0:
224,144,97704,1,8,0:0:0:0:
224,144,97871,1,0,0:0:0:0:
224,144,98038,1,8,0:0:0:0:
224,144,98121,1,0,0:0:0:0:
224,144,98204,1,8,0:0:0:0:
224,144,98288,1,8,0:0:0:0:
224,144,98371,1,0,0:0:0:0:
224,144,98454,1,0,0:0:0:0:
224,144,98538,1,8,0:0:0:0:
224,144,98704,1,0,0:0:0:0:
224,144,98788,1,8,0:0:0:0:
224,144,98871,1,0,0:0:0:0:
212,136,99038,1,0,0:0:0:0:
212,136,99204,1,8,0:0:0:0:
224,132,99371,1,8,0:0:0:0:
224,132,99538,1,0,0:0:0:0:
224,132,99704,1,8,0:0:0:0:
244,136,99788,1,8,0:0:0:0:
244,136,99871,1,0,0:0:0:0:
236,144,100038,1,0,0:0:0:0:
236,144,100204,1,8,0:0:0:0:
228,144,100538,1,0,0:0:0:0:
228,144,100704,1,0,0:0:0:0:
228,144,100871,1,8,0:0:0:0:
236,144,101038,1,8,0:0:0:0:
236,144,101204,1,0,0:0:0:0:
240,132,101371,1,8,0:0:0:0:
240,140,101454,1,8,0:0:0:0:
240,140,101538,1,0,0:0:0:0:
240,136,101704,1,0,0:0:0:0:
232,152,101871,1,8,0:0:0:0:
232,132,102038,1,0,0:0:0:0:
232,132,102121,1,0,0:0:0:0:
232,132,102204,1,8,0:0:0:0:
240,128,102371,1,0,0:0:0:0:
236,124,102454,1,8,0:0:0:0:
236,124,102538,1,0,0:0:0:0:
236,124,102704,1,0,0:0:0:0:
236,128,102871,1,8,0:0:0:0:
240,120,103204,1,0,0:0:0:0:
240,120,103371,1,8,0:0:0:0:
236,124,103538,1,0,0:0:0:0:
236,124,103621,1,0,0:0:0:0:
248,136,103704,1,8,0:0:0:0:
248,136,103871,1,0,0:0:0:0:
248,132,104038,1,8,0:0:0:0:
248,132,104121,1,0,0:0:0:0:
248,132,104204,1,8,0:0:0:0:
248,132,104371,1,8,0:0:0:0:
248,132,104538,1,0,0:0:0:0:
248,124,104704,1,0,0:0:0:0:
248,124,104788,1,8,0:0:0:0:
248,124,104871,1,0,0:0:0:0:
248,124,105038,1,8,0:0:0:0:
248,124,105121,1,8,0:0:0:0:
248,124,105204,1,0,0:0:0:0:
248,124,105371,1,0,0:0:0:0:
260,128,105538,1,8,0:0:0:0:
260,132,105871,1,0,0:0:0:0:
260,128,106038,1,8,0:0:0:0:
260,128,106204,1,0,0:0:0:0:
260,128,106371,1,0,0:0:0:0:
240,120,106538,1,8,0:0:0:0:
256,136,106704,1,0,0:0:0:0:
240,136,106788,1,8,0:0:0:0:
260,132,106871,1,0,0:0:0:0:
256,136,107038,1,0,0:0:0:0:
256,136,107204,1,8,0:0:0:0:
256,136,107371,1,0,0:0:0:0:
256,136,107454,1,0,0:0:0:0:
256,136,107538,1,8,0:0:0:0:
256,136,107704,1,0,0:0:0:0:
256,144,107788,1,8,0:0:0:0:
256,144,107871,1,0,0:0:0:0:
256,144,108038,1,0,0:0:0:0:
256,144,108204,1,8,0:0:0:0:
256,144,108371,1,0,0:0:0:0:
256,136,108454,1,0,0:0:0:0:
252,148,108538,1,8,0:0:0:0:
252,148,108621,1,8,0:0:0:0:
252,148,108704,1,0,0:0:0:0:
248,148,108871,1,8,0:0:0:0:
248,144,109038,1,0,0:0:0:0:
248,144,109121,1,0,0:0:0:0:
248,144,109204,1,8,0:0:0:0:
248,144,109288,1,0,0:0:0:0:
248,144,109371,1,8,0:0:0:0:
248,144,109454,1,8,0:0:0:0:
248,144,109538,1,0,0:0:0:0:
232,144,109871,1,8,0:0:0:0:
232,144,110038,1,0,0:0:0:0:
236,144,110204,1,8,0:0:0:0:
236,144,110454,1,8,0:0:0:0:
236,156,110704,1,0,0:0:0:0:
236,160,110871,1,8,0:0:0:0:
236,160,110926,1,8,0:0:0:0:
236,160,110982,1,8,0:0:0:0:
236,160,111037,1,0,0:0:0:0:
244,168,111121,1,0,0:0:0:0:
244,164,111204,1,8,0:0:0:0:
244,164,111371,1,0,0:0:0:0:
244,164,111454,1,8,0:0:0:0:
244,164,111538,1,0,0:0:0:0:
244,164,111704,1,0,0:0:0:0:
244,164,111871,1,8,0:0:0:0:
252,164,111954,1,8,0:0:0:0:
252,164,112038,1,0,0:0:0:0:
252,164,112121,1,0,0:0:0:0:
252,168,112204,1,8,0:0:0:0:
244,180,112371,1,0,0:0:0:0:
240,156,112538,1,8,0:0:0:0:
244,140,112704,1,8,0:0:0:0:
248,144,112871,1,0,0:0:0:0:
248,152,113121,1,0,0:0:0:0:
240,128,113371,1,0,0:0:0:0:
264,152,113538,1,8,0:0:0:0:
260,148,113704,1,0,0:0:0:0:
260,148,113760,1,0,0:0:0:0:
260,148,113816,1,0,0:0:0:0:
260,148,113871,1,8,0:0:0:0:
264,140,113954,1,8,0:0:0:0:
264,140,114038,1,0,0:0:0:0:
264,140,114121,1,0,0:0:0:0:
264,140,114204,1,8,0:0:0:0:
264,140,114371,1,0,0:0:0:0:
260,140,114454,1,0,0:0:0:0:
260,140,114538,1,8,0:0:0:0:
260,144,114621,1,8,0:0:0:0:
260,148,114704,1,0,0:0:0:0:
256,140,114788,1,8,0:0:0:0:
256,140,114871,1,0,0:0:0:0:
256,140,115038,1,8,0:0:0:0:
256,140,115204,1,0,0:0:0:0:
248,136,115371,1,0,0:0:0:0:
248,136,115538,1,8,0:0:0:0:
248,136,115788,1,8,0:0:0:0:
248,136,116038,1,0,0:0:0:0:
256,128,116204,1,8,0:0:0:0:
256,128,116288,1,8,0:0:0:0:
256,128,116371,1,0,0:0:0:0:
252,128,116454,1,0,0:0:0:0:
252,128,116538,1,8,0:0:0:0:
252,128,116621,1,0,0:0:0:0:
252,128,116704,1,8,0:0:0:0:
252,128,116788,1,8,0:0:0:0:
248,128,116871,1,0,0:0:0:0:
248,128,116954,1,0,0:0:0:0:
252,120,117038,1,8,0:0:0:0:
252,120,117093,1,8,0:0:0:0:
252,120,117149,1,8,0:0:0:0:
256,128,117204,1,0,0:0:0:0:
256,128,117288,1,0,0:0:0:0:
256,128,117371,1,8,0:0:0:0:
252,128,117454,1,8,0:0:0:0:
252,128,117538,1,0,0:0:0:0:
252,128,117704,1,8,0:0:0:0:
248,128,117871,1,0,0:0:0:0:
248,128,118038,1,8,0:0:0:0:
248,128,118121,1,0,0:0:0:0:
248,128,118204,1,8,0:0:0:0:
256,128,118371,1,8,0:0:0:0:
252,128,118454,1,8,0:0:0:0:
252,128,118538,1,0,0:0:0:0:
252,128,118704,1,8,0:0:0:0:
252,128,118871,1,0,0:0:0:0:
248,128,118927,1,0,0:0:0:0:
248,128,118982,1,0,0:0:0:0:
248,128,119038,1,8,0:0:0:0:
260,128,119121,1,0,0:0:0:0:
248,128,119204,1,8,0:0:0:0:
248,124,119260,1,8,0:0:0:0:
248,124,119316,1,8,0:0:0:0:
248,124,119371,1,0,0:0:0:0:
260,120,119454,1,0,0:0:0:0:
248,108,119538,1,8,0:0:0:0:
248,108,119621,1,0,0:0:0:0:
248,108,119704,1,8,0:0:0:0:
244,128,119788,1,8,0:0:0:0:
244,128,119871,1,0,0:0:0:0:
248,128,119954,1,0,0:0:0:0:
248,128,120038,1,8,0:0:0:0:
244,124,120121,1,0,0:0:0:0:
248,128,120204,1,8,0:0:0:0:
240,128,120371,1,8,0:0:0:0:
240,128,120538,1,0,0:0:0:0:
248,120,120704,1,0,0:0:0:0:
248,120,120871,1,8,0:0:0:0:
232,128,121121,1,0,0:0:0:0:
232,128,121371,1,0,0:0:0:0:
232,120,121538,1,8,0:0:0:0:
244,136,121871,1,0,0:0:0:0:
252,132,122038,1,8,0:0:0:0:
252,132,122121,1,8,0:0:0:0:
252,132,122204,1,0,0:0:0:0:
248,132,122538,1,8,0:0:0:0:
244,136,122704,1,0,0:0:0:0:
244,136,122871,1,8,0:0:0:0:
244,132,123204,1,8,0:0:0:0:
260,152,123538,1,0,0:0:0:0:
268,140,123871,1,8,0:0:0:0:
268,140,124038,1,0,0:0:0:0:
268,140,124204,1,0,0:0:0:0:
256,140,124538,1,8,0:0:0:0:
256,136,124704,1,0,0:0:0:0:
256,140,124871,1,8,0:0:0:0:
256,140,125038,1,8,0:0:0:0:
256,140,125204,1,0,0:0:0:0:
248,128,125538,1,8,0:0:0:0:
224,168,125871,1,0,0:0:0:0:
224,168,126038,1,0,0:0:0:0:
224,168,126204,1,8,0:0:0:0:
224,168,126538,1,0,0:0:0:0:
224,168,126871,1,8,0:0:0:0:
224,168,127204,1,0,0:0:0:0:
220,148,127371,1,8,0:0:0:0:
220,148,127454,1,8,0:0:0:0:
220,148,127538,1,0,0:0:0:0:
232,144,127871,1,8,0:0:0:0:
240,148,128204,1,0,0:0:0:0:
240,152,128538,1,8,0:0:0:0:
240,152,128704,1,0,0:0:0:0:
240,152,128871,1,8,0:0:0:0:
244,152,129204,1,8,0:0:0:0:
244,152,129538,1,0,0:0:0:0:
240,160,129704,1,0,0:0:0:0:
240,160,129788,1,0,0:0:0:0:
240,160,129871,1,0,0:0:0:0:
240,160,130038,1,0,0:0:0:0:
240,160,130204,1,8,0:0:0:0:
256,156,130371,1,0,0:0:0:0:
256,156,130427,1,0,0:0:0:0:
256,156,130482,1,0,0:0:0:0:
256,156,130538,1,8,0:0:0:0:
272,180,130621,1,0,0:0:0:0:
272,180,130704,1,8,0:0:0:0:
272,180,130788,1,8,0:0:0:0:
272,184,130871,5,0,0:0:0:0:
272,184,131038,1,8,0:0:0:0:
272,184,131371,1,0,0:0:0:0:
272,184,131538,1,0,0:0:0:0:
272,184,131788,1,8,0:0:0:0:
272,172,132038,1,0,0:0:0:0:
272,176,133204,1,0,0:0:0:0:
272,176,133371,1,0,0:0:0:0:
272,176,133538,1,8,0:0:0:0:
272,176,133704,1,8,0:0:0:0:
272,180,134038,1,0,0:0:0:0:
268,184,134204,1,8,0:0:0:0:
264,176,134454,1,8,0:0:0:0:
272,176,134704,1,0,0:0:0:0:
264,196,135871,1,0,0:0:0:0:
264,196,135927,1,0,0:0:0:0:
264,196,135982,1,0,0:0:0:0:
264,196,136038,1,0,0:0:0:0:
264,196,136093,1,0,0:0:0:0:
264,196,136149,1,0,0:0:0:0:
264,196,136204,1,8,0:0:0:0:
280,176,136371,1,8,0:0:0:0:
284,176,136538,1,0,0:0:0:0:
280,180,136704,1,8,0:0:0:0:
280,180,136788,1,0,0:0:0:0:
280,180,136871,1,8,0:0:0:0:
288,176,137038,1,8,0:0:0:0:
288,176,137121,1,8,0:0:0:0:
288,176,137204,1,0,0:0:0:0:
276,164,137371,1,0,0:0:0:0:
284,176,137538,1,8,0:0:0:0:
280,180,137704,1,0,0:0:0:0:
264,168,137788,1,8,0:0:0:0:
264,168,137871,1,0,0:0:0:0:
264,168,138038,1,8,0:0:0:0:
276,160,138121,1,0,0:0:0:0:
272,160,138204,1,8,0:0:0:0:
276,164,138288,1,8,0:0:0:0:
272,152,138371,1,0,0:0:0:0:
272,152,138454,1,8,0:0:0:0:
272,152,138538,1,0,0:0:0:0:
260,156,138704,1,0,0:0:0:0:
260,156,138788,1,0,0:0:0:0:
260,156,138871,1,8,0:0:0:0:
260,156,139038,1,8,0:0:0:0:
260,156,139204,1,0,0:0:0:0:
264,152,139371,1,8,0:0:0:0:
264,152,139454,1,0,0:0:0:0:
264,152,139538,1,8,0:0:0:0:
256,144,139704,1,8,0:0:0:0:
256,144,139788,1,8,0:0:0:0:
256,144,139871,1,0,0:0:0:0:
252,140,140038,1,0,0:0:0:0:
252,136,140204,1,8,0:0:0:0:
248,144,140371,1,0,0:0:0:0:
240,140,140454,1,0,0:0:0:0:
244,140,140538,1,8,0:0:0:0:
244,148,140621,1,0,0:0:0:0:
244,148,140704,1,8,0:0:0:0:
248,144,140788,1,8,0:0:0:0:
248,148,140871,1,0,0:0:0:0:
240,136,140954,1,0,0:0:0:0:
240,136,141038,1,8,0:0:0:0:
240,136,141121,1,8,0:0:0:0:
240,136,141204,1,0,0:0:0:0:
232,144,141371,1,8,0:0:0:0:
232,144,141454,1,0,0:0:0:0:
232,144,141538,1,8,0:0:0:0:
236,144,141704,1,8,0:0:0:0:
236,144,141871,1,0,0:0:0:0:
232,144,142038,1,8,0:0:0:0:
232,144,142121,1,0,0:0:0:0:
232,144,142204,1,8,0:0:0:0:
228,136,142288,1,8,0:0:0:0:
232,144,142371,1,0,0:0:0:0:
232,144,142454,1,8,0:0:0:0:
232,144,142538,1,0,0:0:0:0:
236,144,142704,1,0,0:0:0:0:
232,136,142871,1,8,0:0:0:0:
224,120,143038,1,8,0:0:0:0:
224,120,143204,1,0,0:0:0:0:
224,120,143371,1,8,0:0:0:0:
220,116,143454,1,0,0:0:0:0:
220,116,143538,1,8,0:0:0:0:
220,116,143621,1,8,0:0:0:0:
220,116,143704,1,0,0:0:0:0:
224,120,143788,1,0,0:0:0:0:
224,120,143871,1,8,0:0:0:0:
224,120,144038,1,0,0:0:0:0:
224,120,144121,1,0,0:0:0:0:
224,120,144204,1,8,0:0:0:0:
236,120,144371,1,8,0:0:0:0:
232,120,144538,1,0,0:0:0:0:
232,120,144704,1,8,0:0:0:0:
232,120,144788,1,0,0:0:0:0:
232,120,144871,1,8,0:0:0:0:
236,120,145038,1,8,0:0:0:0:
240,116,145121,1,8,0:0:0:0:
240,116,145204,1,0,0:0:0:0:
240,112,145371,1,8,0:0:0:0:
240,112,145454,1,8,0:0:0:0:
240,112,145538,1,0,0:0:0:0:
240,112,145621,1,0,0:0:0:0:
240,112,145704,1,8,0:0:0:0:
240,112,145788,1,0,0:0:0:0:
240,112,145871,1,8,0:0:0:0:
240,112,145954,1,8,0:0:0:0:
240,112,146038,1,0,0:0:0:0:
240,116,146121,1,8,0:0:0:0:
240,116,146204,1,0,0:0:0:0:
244,104,146288,1,0,0:0:0:0:
240,104,146371,1,8,0:0:0:0:
240,104,146454,1,8,0:0:0:0:
240,104,146538,1,0,0:0:0:0:
232,104,146704,1,8,0:0:0:0:
236,104,146871,1,4,0:0:0:0:
236,104,147038,1,8,0:0:0:0:
236,104,147121,1,0,0:0:0:0:
236,104,147204,1,8,0:0:0:0:
240,104,147371,1,8,0:0:0:0:
232,104,147538,1,0,0:0:0:0:
236,112,147704,1,8,0:0:0:0:
236,112,147788,1,8,0:0:0:0:
236,112,147871,1,0,0:0:0:0:
240,112,148038,1,8,0:0:0:0:
236,108,148204,1,0,0:0:0:0:
236,112,148371,1,8,0:0:0:0:
236,112,148454,1,0,0:0:0:0:
236,112,148538,1,8,0:0:0:0:
236,112,148621,1,8,0:0:0:0:
236,112,148704,1,0,0:0:0:0:
244,128,148788,1,0,0:0:0:0:
248,116,148871,1,8,0:0:0:0:
232,112,149038,1,8,0:0:0:0:
236,108,149204,1,0,0:0:0:0:
232,108,149288,1,0,0:0:0:0:
232,108,149371,1,8,0:0:0:0:
232,108,149454,1,8,0:0:0:0:
232,112,149538,1,0,0:0:0:0:
224,112,149704,1,8,0:0:0:0:
220,112,149871,1,0,0:0:0:0:
220,112,150038,1,8,0:0:0:0:
220,112,150121,1,0,0:0:0:0:
220,112,150204,1,8,0:0:0:0:
220,112,150371,1,8,0:0:0:0:
216,116,150454,1,8,0:0:0:0:
216,116,150538,1,0,0:0:0:0:
220,116,150704,1,8,0:0:0:0:
220,112,150871,1,0,0:0:0:0:
220,112,150954,1,0,0:0:0:0:
220,112,151038,1,8,0:0:0:0:
220,112,151121,1,0,0:0:0:0:
220,112,151204,1,8,0:0:0:0:
220,112,151288,1,8,0:0:0:0:
236,116,151371,1,0,0:0:0:0:
224,116,151454,1,0,0:0:0:0:
232,108,151538,1,8,0:0:0:0:
232,116,151704,1,0,0:0:0:0:
232,116,151788,1,8,0:0:0:0:
232,116,151871,1,0,0:0:0:0:
232,116,151954,1,0,0:0:0:0:
232,116,152038,1,8,0:0:0:0:
232,116,152121,1,8,0:0:0:0:
232,116,152204,1,0,0:0:0:0:
244,124,152371,1,0,0:0:0:0:
244,124,152538,1,8,0:0:0:0:
236,128,152704,1,0,0:0:0:0:
236,128,152788,1,0,0:0:0:0:
236,128,152871,1,8,0:0:0:0:
236,128,152954,1,0,0:0:0:0:
236,128,153038,1,8,0:0:0:0:
236,128,153121,1,8,0:0:0:0:
232,128,153204,1,0,0:0:0:0:
232,132,153371,1,8,0:0:0:0:
216,124,153538,1,0,0:0:0:0:
248,120,153704,1,8,0:0:0:0:
248,120,153788,1,8,0:0:0:0:
248,120,153871,1,0,0:0:0:0:
236,120,153954,1,0,0:0:0:0:
248,120,154038,1,8,0:0:0:0:
248,120,154204,1,0,0:0:0:0:
248,120,154371,1,8,0:0:0:0:
248,120,154454,1,0,0:0:0:0:
248,120,154538,1,8,0:0:0:0:
240,124,154621,1,8,0:0:0:0:
240,124,154704,1,0,0:0:0:0:
224,120,154788,1,0,0:0:0:0:
224,120,154871,1,8,0:0:0:0:
248,120,155038,1,0,0:0:0:0:
248,120,155121,1,8,0:0:0:0:
248,120,155204,1,0,0:0:0:0:
248,120,155371,1,0,0:0:0:0:
248,120,155454,1,0,0:0:0:0:
248,120,155538,1,8,0:0:0:0:
244,120,155704,1,8,0:0:0:0:
244,120,155871,1,0,0:0:0:0:
260,200,156038,5,8,0:0:0:0:
260,200,156121,1,0,0:0:0:0:
260,200,156204,1,8,0:0:0:0:
260,200,156288,1,8,0:0:0:0:
260,200,156371,1,0,0:0:0:0:
256,196,156454,1,0,0:0:0:0:
260,200,156538,1,8,0:0:0:0:
260,200,156621,1,0,0:0:0:0:
260,200,156704,1,8,0:0:0:0:
260,200,156788,1,8,0:0:0:0:
260,200,156871,1,0,0:0:0:0:
260,200,156954,1,8,0:0:0:0:
260,200,157038,1,8,0:0:0:0:
260,200,157121,1,0,0:0:0:0:
260,200,157204,1,8,0:0:0:0:
260,200,157288,1,0,0:0:0:0:
260,200,157371,1,8,0:0:0:0:
256,196,157454,1,8,0:0:0:0:
260,200,157538,1,0,0:0:0:0:
264,204,157704,1,8,0:0:0:0:
264,204,157871,1,0,0:0:0:0:
276,196,158038,1,8,0:0:0:0:
276,196,158121,1,0,0:0:0:0:
276,196,158204,1,8,0:0:0:0:
276,192,158371,1,8,0:0:0:0:
276,192,158454,1,8,0:0:0:0:
276,192,158538,1,0,0:0:0:0:
276,192,158704,1,0,0:0:0:0:
288,184,158871,1,8,0:0:0:0:
280,176,159038,1,0,0:0:0:0:
280,176,159121,1,0,0:0:0:0:
280,176,159204,1,8,0:0:0:0:
280,184,159371,1,0,0:0:0:0:
292,184,159454,1,8,0:0:0:0:
292,184,159538,1,0,0:0:0:0:
292,184,159621,1,0,0:0:0:0:
292,184,159704,1,8,0:0:0:0:
288,184,159788,1,8,0:0:0:0:
288,184,159871,1,0,0:0:0:0:
300,180,160038,1,8,0:0:0:0:
280,176,160121,1,0,0:0:0:0:
296,176,160204,1,8,0:0:0:0:
296,176,160371,1,8,0:0:0:0:
296,176,160538,1,0,0:0:0:0:
296,176,160704,1,8,0:0:0:0:
304,168,160788,1,0,0:0:0:0:
300,172,160871,1,8,0:0:0:0:
300,172,160954,1,8,0:0:0:0:
300,172,161038,1,0,0:0:0:0:
300,172,161121,1,8,0:0:0:0:
296,176,161204,1,0,0:0:0:0:
296,176,161371,1,0,0:0:0:0:
296,176,161538,1,8,0:0:0:0:
296,176,161704,1,0,0:0:0:0:
292,176,161788,1,0,0:0:0:0:
292,176,161871,1,8,0:0:0:0:
296,184,161954,1,0,0:0:0:0:
296,184,162038,1,8,0:0:0:0:
296,184,162121,1,8,0:0:0:0:
296,184,162204,1,0,0:0:0:0:
296,184,162288,1,0,0:0:0:0:
292,168,162371,1,8,0:0:0:0:
292,168,162454,1,0,0:0:0:0:
296,184,162538,1,8,0:0:0:0:
288,176,162704,1,0,0:0:0:0:
292,176,162788,1,8,0:0:0:0:
292,176,162871,1,0,0:0:0:0:
288,176,163038,1,0,0:0:0:0:
288,176,163204,1,8,0:0:0:0:
288,176,163371,1,0,0:0:0:0:
288,176,163454,1,0,0:0:0:0:
288,176,163538,1,8,0:0:0:0:
288,176,163621,1,8,0:0:0:0:
288,176,163704,1,0,0:0:0:0:
292,176,163788,1,8,0:0:0:0:
292,176,163871,1,0,0:0:0:0:
296,172,164038,1,8,0:0:0:0:
292,172,164121,1,8,0:0:0:0:
292,172,164204,1,0,0:0:0:0:
292,172,164371,1,0,0:0:0:0:
292,172,164538,1,8,0:0:0:0:
296,168,164704,1,0,0:0:0:0:
296,168,164788,1,8,0:0:0:0:
296,168,164871,1,0,0:0:0:0:
296,172,164954,1,0,0:0:0:0:
296,172,165038,1,8,0:0:0:0:
296,168,165121,1,0,0:0:0:0:
296,168,165204,1,8,0:0:0:0:
292,172,165371,1,0,0:0:0:0:
292,172,165454,1,8,0:0:0:0:
292,172,165538,1,0,0:0:0:0:
296,168,165621,1,0,0:0:0:0:
296,168,165704,1,8,0:0:0:0:
296,160,165788,1,8,0:0:0:0:
296,168,165871,1,0,0:0:0:0:
296,172,166038,1,8,0:0:0:0:
296,168,166204,1,0,0:0:0:0:
292,172,166288,1,0,0:0:0:0:
292,172,166371,1,8,0:0:0:0:
292,172,166454,1,0,0:0:0:0:
292,172,166538,1,8,0:0:0:0:
288,164,166704,1,0,0:0:0:0:
288,164,166788,1,8,0:0:0:0:
288,164,166871,1,0,0:0:0:0:
288,164,166954,1,0,0:0:0:0:
288,164,167038,1,8,0:0:0:0:
284,156,167121,1,0,0:0:0:0:
284,156,167204,1,8,0:0:0:0:
284,156,167288,1,8,0:0:0:0:
284,156,167371,1,0,0:0:0:0:
284,156,167454,1,8,0:0:0:0:
284,152,167538,1,0,0:0:0:0:
284,152,167621,1,0,0:0:0:0:
284,152,167704,1,8,0:0:0:0:
268,144,167788,1,0,0:0:0:0:
268,144,167871,1,8,0:0:0:0:
272,140,168038,1,8,0:0:0:0:
272,140,168204,1,0,0:0:0:0:
256,144,168371,1,8,0:0:0:0:
268,152,168454,1,0,0:0:0:0:
256,136,168538,1,8,0:0:0:0:
248,136,168704,1,8,0:0:0:0:
256,144,168871,1,0,0:0:0:0:
264,144,168954,1,0,0:0:0:0:
256,144,169038,1,8,0:0:0:0:
256,144,169121,1,8,0:0:0:0:
256,144,169204,1,0,0:0:0:0:
264,144,169371,1,8,0:0:0:0:
264,144,169538,1,0,0:0:0:0:
264,144,169704,1,8,0:0:0:0:
248,136,169788,1,0,0:0:0:0:
264,144,169871,1,8,0:0:0:0:
272,140,169954,1,8,0:0:0:0:
272,140,170038,1,0,0:0:0:0:
236,128,170121,1,0,0:0:0:0:
272,140,170204,1,8,0:0:0:0:
272,144,170371,1,0,0:0:0:0:
272,140,170538,1,8,0:0:0:0:
272,136,170704,1,0,0:0:0:0:
272,140,170788,1,8,0:0:0:0:
272,136,170871,1,0,0:0:0:0:
272,140,170954,1,0,0:0:0:0:
272,140,171038,1,8,0:0:0:0:
272,140,171121,1,8,0:0:0:0:
272,140,171204,1,0,0:0:0:0:
272,140,171288,1,0,0:0:0:0:
272,140,171371,1,8,0:0:0:0:
272,136,171454,1,8,0:0:0:0:
272,140,171538,1,0,0:0:0:0:
272,136,171704,1,8,0:0:0:0:
276,136,171788,1,0,0:0:0:0:
256,124,171871,1,8,0:0:0:0:
280,132,172038,1,8,0:0:0:0:
280,132,172121,1,8,0:0:0:0:
280,132,172204,1,0,0:0:0:0:
280,136,172371,1,8,0:0:0:0:
280,132,172454,1,8,0:0:0:0:
280,132,172538,1,0,0:0:0:0:
272,136,172621,1,0,0:0:0:0:
272,136,172704,1,8,0:0:0:0:
264,144,172788,1,0,0:0:0:0:
264,144,172871,1,8,0:0:0:0:
276,144,173038,1,8,0:0:0:0:
276,144,173204,1,0,0:0:0:0:
276,144,173371,1,8,0:0:0:0:
276,140,173454,1,8,0:0:0:0:
272,136,173538,1,0,0:0:0:0:
272,136,173704,1,8,0:0:0:0:
272,136,173871,1,0,0:0:0:0:
272,136,174038,1,8,0:0:0:0:
272,136,174121,1,0,0:0:0:0:
268,132,174204,1,8,0:0:0:0:
268,132,174288,1,8,0:0:0:0:
268,132,174371,1,0,0:0:0:0:
268,132,174454,1,8,0:0:0:0:
268,132,174538,1,0,0:0:0:0:
264,128,174704,1,8,0:0:0:0:
272,128,174871,1,0,0:0:0:0:
272,128,175038,1,8,0:0:0:0:
268,132,175121,1,0,0:0:0:0:
268,132,175204,1,8,0:0:0:0:
280,144,175288,1,8,0:0:0:0:
268,132,175371,1,0,0:0:0:0:
284,128,175454,1,8,0:0:0:0:
248,132,175538,1,0,0:0:0:0:
248,132,175621,1,0,0:0:0:0:
284,128,175704,1,8,0:0:0:0:
284,128,175788,1,8,0:0:0:0:
284,128,175871,1,0,0:0:0:0:
280,116,176038,1,8,0:0:0:0:
280,116,176121,1,0,0:0:0:0:
280,116,176204,1,8,0:0:0:0:
280,116,176371,1,8,0:0:0:0:
280,116,176538,1,0,0:0:0:0:
272,112,176704,1,8,0:0:0:0:
272,108,176788,1,0,0:0:0:0:
272,108,176871,1,8,0:0:0:0:
292,96,176954,1,8,0:0:0:0:
268,104,177038,1,0,0:0:0:0:
268,104,177121,1,0,0:0:0:0:
268,104,177204,1,8,0:0:0:0:
284,96,177371,1,0,0:0:0:0:
284,104,177454,1,0,0:0:0:0:
284,104,177538,1,8,0:0:0:0:
284,104,177621,1,0,0:0:0:0:
284,104,177704,1,8,0:0:0:0:
284,104,177788,1,8,0:0:0:0:
284,104,177871,1,0,0:0:0:0:
288,108,177954,1,8,0:0:0:0:
288,108,178038,1,8,0:0:0:0:
288,108,178121,1,0,0:0:0:0:
288,108,178204,1,8,0:0:0:0:
296,120,178288,1,0,0:0:0:0:
296,120,178371,1,8,0:0:0:0:
296,120,178454,1,8,0:0:0:0:
296,120,178538,1,0,0:0:0:0:
296,120,178621,1,0,0:0:0:0:
296,120,178704,1,8,0:0:0:0:
296,120,178788,1,8,0:0:0:0:
296,120,178871,1,0,0:0:0:0:
256,172,179204,1,8,0:0:0:0:
272,168,179538,1,0,0:0:0:0:
272,168,179704,1,0,0:0:0:0:
288,168,179871,1,8,0:0:0:0:
284,168,180204,1,0,0:0:0:0:
284,168,180371,1,0,0:0:0:0:
296,164,180538,1,8,0:0:0:0:
288,176,180704,1,0,0:0:0:0:
300,168,181038,1,0,0:0:0:0:
304,160,181204,1,8,0:0:0:0:
304,168,181371,1,0,0:0:0:0:
304,168,181454,1,8,0:0:0:0:
304,168,181538,1,0,0:0:0:0:
304,168,181704,1,0,0:0:0:0:
312,160,181871,1,8,0:0:0:0:
304,152,182204,1,0,0:0:0:0:
304,160,182371,1,0,0:0:0:0:
316,160,182538,1,8,0:0:0:0:
312,160,182871,1,0,0:0:0:0:
316,160,183038,1,8,0:0:0:0:
316,160,183204,1,8,0:0:0:0:
316,160,183371,1,0,0:0:0:0:
316,160,183538,1,8,0:0:0:0:
312,160,183621,1,8,0:0:0:0:
312,160,183704,1,0,0:0:0:0:
316,160,183871,1,8,0:0:0:0:
316,160,184038,1,0,0:0:0:0:
316,160,184121,1,8,0:0:0:0:
316,160,184204,1,0,0:0:0:0:
316,160,184371,1,0,0:0:0:0:
316,160,184538,1,8,0:0:0:0:
316,160,184871,1,0,0:0:0:0:
316,160,185038,1,0,0:0:0:0:
316,160,185204,1,8,0:0:0:0:
312,152,185538,1,0,0:0:0:0:
312,152,185704,1,8,0:0:0:0:
312,144,185871,1,8,0:0:0:0:
312,144,186038,1,0,0:0:0:0:
312,144,186371,1,0,0:0:0:0:
312,144,186538,1,8,0:0:0:0:
312,144,186704,1,0,0:0:0:0:
312,144,186788,1,8,0:0:0:0:
312,144,186871,1,0,0:0:0:0:
312,144,187038,1,0,0:0:0:0:
312,144,187204,1,8,0:0:0:0:
312,144,187371,1,0,0:0:0:0:
312,144,187454,1,0,0:0:0:0:
312,144,187538,1,8,0:0:0:0:
312,144,187704,1,0,0:0:0:0:
328,136,187871,1,8,0:0:0:0:
324,136,188038,1,8,0:0:0:0:
320,136,188204,1,0,0:0:0:0:
316,136,188371,1,0,0:0:0:0:
316,136,188538,1,8,0:0:0:0:
316,140,188704,1,0,0:0:0:0:
316,144,188871,1,8,0:0:0:0:
316,136,189038,1,0,0:0:0:0:
316,136,189204,1,8,0:0:0:0:
316,136,189288,1,8,0:0:0:0:
316,136,189371,1,8,0:0:0:0:
316,136,189454,1,8,0:0:0:0:
316,136,189538,1,4,0:0:0:0:
316,140,189704,1,0,0:0:0:0:
316,144,189871,1,8,0:0:0:0:
312,140,190038,1,0,0:0:0:0:
312,140,190121,1,8,0:0:0:0:
312,140,190204,1,0,0:0:0:0:
320,132,190371,1,0,0:0:0:0:
320,136,190538,1,8,0:0:0:0:
316,140,190704,1,8,0:0:0:0:
320,132,190871,1,0,0:0:0:0:
332,140,191204,1,8,0:0:0:0:
332,140,191371,1,8,0:0:0:0:
332,140,191538,1,0,0:0:0:0:
332,144,191704,1,0,0:0:0:0:
316,144,191871,1,8,0:0:0:0:
316,140,192038,1,0,0:0:0:0:
316,140,192121,1,0,0:0:0:0:
316,140,192204,1,8,0:0:0:0:
316,140,192371,1,8,0:0:0:0:
300,140,192538,1,0,0:0:0:0:
304,136,192704,1,8,0:0:0:0:
304,136,192788,1,0,0:0:0:0:
304,136,192871,1,8,0:0:0:0:
304,136,193038,1,8,0:0:0:0:
288,128,193121,1,8,0:0:0:0:
308,144,193204,1,0,0:0:0:0:
304,128,193371,1,8,0:0:0:0:
300,140,193538,1,0,0:0:0:0:
272,136,193871,1,0,0:0:0:0:
272,136,194038,1,8,0:0:0:0:
272,136,194204,1,0,0:0:0:0:
276,136,194288,1,0,0:0:0:0:
276,136,194371,1,8,0:0:0:0:
272,136,194454,1,8,0:0:0:0:
272,148,194538,1,0,0:0:0:0:
272,144,194704,1,8,0:0:0:0:
272,140,194788,1,8,0:0:0:0:
264,144,194871,1,0,0:0:0:0:
264,144,195038,1,0,0:0:0:0:
264,144,195204,1,8,0:0:0:0:
268,152,195371,1,0,0:0:0:0:
268,152,195454,1,0,0:0:0:0:
272,148,195538,1,8,0:0:0:0:
268,152,195704,1,0,0:0:0:0:
268,152,195788,1,8,0:0:0:0:
268,152,195871,1,0,0:0:0:0:
268,152,196038,1,0,0:0:0:0:
268,152,196204,1,8,0:0:0:0:
268,144,196371,1,8,0:0:0:0:
272,148,196538,1,0,0:0:0:0:
268,144,196704,1,0,0:0:0:0:
268,144,196871,1,8,0:0:0:0:
268,144,197204,1,0,0:0:0:0:
256,148,197371,1,8,0:0:0:0:
264,148,197454,1,8,0:0:0:0:
264,148,197538,1,0,0:0:0:0:
264,148,197704,1,0,0:0:0:0:
264,148,197871,1,8,0:0:0:0:
268,144,198038,1,0,0:0:0:0:
268,144,198121,1,0,0:0:0:0:
268,144,198204,1,8,0:0:0:0:
268,148,198371,1,0,0:0:0:0:
264,148,198454,1,8,0:0:0:0:
264,148,198538,1,0,0:0:0:0:
256,152,198704,1,8,0:0:0:0:
264,148,198871,1,0,0:0:0:0:
268,144,198954,1,0,0:0:0:0:
264,136,199038,1,8,0:0:0:0:
264,136,199121,1,8,0:0:0:0:
264,136,199204,1,0,0:0:0:0:
260,136,199371,1,8,0:0:0:0:
260,136,199538,1,0,0:0:0:0:
260,136,199621,1,0,0:0:0:0:
260,136,199704,1,8,0:0:0:0:
260,136,199788,1,0,0:0:0:0:
260,136,199871,1,8,0:0:0:0:
260,140,200038,1,0,0:0:0:0:
260,140,200121,1,8,0:0:0:0:
260,140,200204,1,0,0:0:0:0:
260,136,200371,1,0,0:0:0:0:
260,136,200538,1,8,0:0:0:0:
260,136,200704,1,0,0:0:0:0:
260,140,201038,1,0,0:0:0:0:
260,140,201204,1,8,0:0:0:0:
260,136,201371,1,8,0:0:0:0:
260,136,201538,1,0,0:0:0:0:
244,132,201704,1,8,0:0:0:0:
244,132,201788,1,8,0:0:0:0:
244,132,201871,1,0,0:0:0:0:
244,132,202038,1,8,0:0:0:0:
252,124,202204,1,0,0:0:0:0:
252,124,202288,1,0,0:0:0:0:
252,124,202371,1,8,0:0:0:0:
256,128,202454,1,0,0:0:0:0:
256,128,202538,1,8,0:0:0:0:
252,128,202621,1,8,0:0:0:0:
252,128,202704,1,0,0:0:0:0:
268,116,202788,1,0,0:0:0:0:
256,112,202871,1,8,0:0:0:0:
256,112,203038,1,0,0:0:0:0:
272,120,203204,1,0,0:0:0:0:
272,120,203371,1,8,0:0:0:0:
264,120,203704,1,0,0:0:0:0:
264,120,203871,1,0,0:0:0:0:
264,120,204038,1,8,0:0:0:0:
260,104,204204,1,0,0:0:0:0:
264,144,204371,1,8,0:0:0:0:
264,144,204427,1,8,0:0:0:0:
264,144,204482,1,8,0:0:0:0:
264,144,204538,1,0,0:0:0:0:
264,132,204704,1,8,0:0:0:0:
264,132,204788,1,0,0:0:0:0:
264,132,204871,1,8,0:0:0:0:
264,128,204954,1,8,0:0:0:0:
264,128,205038,1,0,0:0:0:0:
264,128,205121,1,8,0:0:0:0:
264,128,205204,1,0,0:0:0:0:
272,128,205371,1,0,0:0:0:0:
272,128,205538,1,8,0:0:0:0:
268,128,205704,1,8,0:0:0:0:
260,120,205871,1,0,0:0:0:0:
260,120,206038,1,8,0:0:0:0:
264,124,206371,1,0,0:0:0:0:
264,124,206538,1,8,0:0:0:0:
264,124,206704,1,8,0:0:0:0:
260,120,206871,1,0,0:0:0:0:
252,124,206954,1,0,0:0:0:0:
252,124,207038,1,8,0:0:0:0:
252,124,207204,1,0,0:0:0:0:
252,124,207288,1,0,0:0:0:0:
252,124,207371,1,8,0:0:0:0:
264,116,207538,1,0,0:0:0:0:
264,116,207621,1,8,0:0:0:0:
264,116,207704,1,0,0:0:0:0:
264,116,207788,1,0,0:0:0:0:
264,116,207871,1,8,0:0:0:0:
264,116,207954,1,0,0:0:0:0:
264,116,208038,1,8,0:0:0:0:
264,116,208121,1,8,0:0:0:0:
264,112,208204,1,0,0:0:0:0:
280,120,208371,1,8,0:0:0:0:
268,120,208538,1,0,0:0:0:0:
268,120,208704,1,8,0:0:0:0:
272,128,208788,1,8,0:0:0:0:
272,128,208871,1,0,0:0:0:0:
272,128,208954,1,0,0:0:0:0:
272,128,209038,1,8,0:0:0:0:
272,128,209121,1,0,0:0:0:0:
272,128,209204,1,8,0:0:0:0:
264,120,209371,1,8,0:0:0:0:
268,120,209538,1,0,0:0:0:0:
268,128,209593,1,0,0:0:0:0:
268,128,209649,1,0,0:0:0:0:
256,128,209704,1,8,0:0:0:0:
272,128,209788,1,0,0:0:0:0:
272,128,209871,1,8,0:0:0:0:
272,128,209954,1,8,0:0:0:0:
272,128,210038,1,0,0:0:0:0:
272,128,210121,1,0,0:0:0:0:
284,128,210204,1,8,0:0:0:0:
248,128,210371,1,0,0:0:0:0:
248,128,210454,1,0,0:0:0:0:
268,128,210538,1,8,0:0:0:0:
268,128,210621,1,0,0:0:0:0:
264,120,210704,1,8,0:0:0:0:
264,120,210788,1,8,0:0:0:0:
264,120,210871,1,0,0:0:0:0:
264,108,211038,1,0,0:0:0:0:
264,120,211371,1,8,0:0:0:0:
256,108,211704,1,0,0:0:0:0:
256,108,211871,1,8,0:0:0:0:
256,108,212038,1,8,0:0:0:0:
256,108,212204,1,0,0:0:0:0:
276,164,212371,2,0,L|332:172,10,47.9999985351563
252,100,213537,1,0,0:0:0:0:
256,112,213704,1,8,0:0:0:0:
248,116,214038,1,0,0:0:0:0:
256,116,214204,1,8,0:0:0:0:
256,116,214371,1,8,0:0:0:0:
256,116,214538,1,0,0:0:0:0:
260,116,214704,1,0,0:0:0:0:
260,120,214871,1,8,0:0:0:0:
264,112,215038,1,0,0:0:0:0:
260,112,215371,1,8,0:0:0:0:
260,112,215454,1,0,0:0:0:0:
260,112,215538,1,8,0:0:0:0:
260,116,215704,1,8,0:0:0:0:
260,112,215788,1,8,0:0:0:0:
260,112,215871,1,0,0:0:0:0:
256,112,216038,1,0,0:0:0:0:
260,112,216204,1,8,0:0:0:0:
260,112,216371,1,0,0:0:0:0:
296,120,216704,1,8,0:0:0:0:
272,128,217038,1,0,0:0:0:0:
272,128,217204,1,8,0:0:0:0:
272,128,217371,1,8,0:0:0:0:
