osu file format v14

[General]
AudioFilename: Yume Nikki mega mix.mp3
AudioLeadIn: 0
PreviewTime: 135996
Countdown: 0
SampleSet: Normal
StackLeniency: 0.2
Mode: 0
LetterboxInBreaks: 0
WidescreenStoryboard: 0

[Editor]
Bookmarks: 2704,24204,45371,66704,88037,109371,120037,130704,136037,157371,178704,189371,200037,210704,221371
DistanceSpacing: 2.1
BeatDivisor: 4
GridSize: 4
TimelineZoom: 2.2

[Metadata]
Title:Kono Hoshi de....
TitleUnicode:この星で・・・。
Artist:Camellia
ArtistUnicode:かめりあ
Creator:Krimek
Version:Yauxo's Expert
Source:ゆめにっき
Tags:yume nikki 夢日記 窓付き dream diary madotsuki 窓付き windowed megamix mega mix かめるかめりあ cametek kamelcamellia electronic instrumental video game Yauxo Arbane -Famous-
BeatmapID:1893220
BeatmapSetID:511759

[Difficulty]
HPDrainRate:5.4
CircleSize:3.6
OverallDifficulty:8
ApproachRate:9
SliderMultiplier:1.75
SliderTickRate:1

[Events]
//Background and Video events
0,0,"bg.jpg",0,0
//Break Periods
2,130904,134037
//Storyboard Layer 0 (Background)
//Storyboard Layer 1 (Fail)
//Storyboard Layer 2 (Pass)
//Storyboard Layer 3 (Foreground)
//Storyboard Layer 4 (Overlay)
//Storyboard Sound Samples

[TimingPoints]
38,333.333333333333,4,1,1,50,1,0
2787,-100,4,1,1,5,0,0
2871,-100,4,1,1,50,0,0
3121,-100,4,1,1,5,0,0
3204,-100,4,1,1,50,0,0
3537,-100,4,1,1,5,0,0
3621,-100,4,1,1,50,0,0
3787,-100,4,1,1,5,0,0
3871,-100,4,1,1,50,0,0
3954,-100,4,1,1,5,0,0
4037,-100,4,1,1,50,0,0
5454,-100,4,1,1,5,0,0
5537,-100,4,1,1,50,0,0
5787,-100,4,1,1,5,0,0
5871,-100,4,1,1,50,0,0
6204,-100,4,1,1,5,0,0
6287,-100,4,1,1,50,0,0
6454,-100,4,1,1,5,0,0
6537,-100,4,1,1,50,0,0
6704,-100,4,1,1,25,0,0
7537,-100,4,1,1,50,0,0
8121,-100,4,1,1,5,0,0
8204,-100,4,1,1,50,0,0
8454,-100,4,1,1,5,0,0
8537,-100,4,1,1,50,0,0
8871,-100,4,1,1,5,0,0
8954,-100,4,1,1,50,0,0
9121,-100,4,1,1,5,0,0
9204,-100,4,1,1,50,0,0
9287,-100,4,1,1,5,0,0
9371,-100,4,1,1,50,0,0
10787,-100,4,1,1,5,0,0
10871,-100,4,1,1,50,0,0
10954,-100,4,1,1,5,0,0
11037,-100,4,1,1,50,0,0
11204,-100,4,1,1,25,0,0
11287,-100,4,1,1,50,0,0
11537,-100,4,1,1,5,0,0
11621,-100,4,1,1,50,0,0
11787,-100,4,1,1,5,0,0
11871,-100,4,1,1,50,0,0
12037,-100,4,1,1,25,0,0
12704,-100,4,1,1,50,0,0
13454,-100,4,1,1,5,0,0
13537,-100,4,1,1,50,0,0
13787,-100,4,1,1,5,0,0
13871,-100,4,1,1,50,0,0
14204,-100,4,1,1,25,0,0
14287,-100,4,1,1,50,0,0
14454,-100,4,1,1,5,0,0
14537,-100,4,1,1,50,0,0
14621,-100,4,1,1,5,0,0
14704,-100,4,1,1,50,0,0
16121,-100,4,1,1,25,0,0
16204,-100,4,1,1,50,0,0
16454,-100,4,1,1,5,0,0
16537,-100,4,1,1,50,0,0
16871,-100,4,1,1,5,0,0
16954,-100,4,1,1,50,0,0
17121,-100,4,1,1,5,0,0
17204,-100,4,1,1,50,0,0
17371,-100,4,1,1,25,0,0
18204,-100,4,1,1,50,0,0
18787,-100,4,1,1,5,0,0
18871,-100,4,1,1,50,0,0
19121,-100,4,1,1,5,0,0
19204,-100,4,1,1,50,0,0
19537,-100,4,1,1,5,0,0
19621,-100,4,1,1,50,0,0
19787,-100,4,1,1,5,0,0
19871,-100,4,1,1,50,0,0
19954,-100,4,1,1,5,0,0
20037,-100,4,1,1,50,0,0
21454,-100,4,1,1,5,0,0
21537,-100,4,1,1,50,0,0
21621,-100,4,1,1,5,0,0
21704,-100,4,1,1,50,0,0
21871,-100,4,1,1,25,0,0
21954,-100,4,1,1,50,0,0
22204,-100,4,1,1,5,0,0
22287,-100,4,1,1,50,0,0
22454,-100,4,1,1,5,0,0
22537,-100,4,1,1,50,0,0
22704,-100,4,1,1,25,0,0
23204,-100,4,1,1,50,0,0
24121,-100,4,1,1,5,0,0
24204,-100,4,1,1,50,0,0
24454,-100,4,1,1,5,0,0
24537,-100,4,1,1,50,0,0
24871,-100,4,1,1,25,0,0
24954,-100,4,1,1,50,0,0
25121,-100,4,1,1,5,0,0
25204,-100,4,1,1,50,0,0
25287,-100,4,1,1,5,0,0
25371,-100,4,1,1,50,0,0
25704,-100,4,1,1,25,0,0
25787,-100,4,1,1,50,0,0
25954,-100,4,1,1,5,0,0
26037,-100,4,1,1,50,0,0
26454,-100,4,1,1,5,0,0
26537,-100,4,1,1,50,0,0
26621,-100,4,1,1,25,0,0
26704,-100,4,1,1,50,0,0
26787,-100,4,1,1,5,0,0
26871,-100,4,1,1,50,0,0
27121,-100,4,1,1,5,0,0
27204,-100,4,1,1,50,0,0
27537,-100,4,1,1,25,0,0
27621,-100,4,1,1,50,0,0
27787,-100,4,1,1,5,0,0
27871,-100,4,1,1,50,0,0
27954,-100,4,1,1,5,0,0
28037,-100,4,1,1,50,0,0
28537,-100,4,1,1,5,0,0
28621,-100,4,1,1,50,0,0
29454,-100,4,1,1,5,0,0
29537,-100,4,1,1,50,0,0
29787,-100,4,1,1,5,0,0
29871,-100,4,1,1,50,0,0
30204,-100,4,1,1,25,0,0
30287,-100,4,1,1,50,0,0
30454,-100,4,1,1,5,0,0
30537,-100,4,1,1,50,0,0
30621,-100,4,1,1,5,0,0
30704,-100,4,1,1,50,0,0
32121,-100,4,1,1,5,0,0
32204,-100,4,1,1,50,0,0
32287,-100,4,1,1,5,0,0
32371,-100,4,1,1,50,0,0
32537,-100,4,1,1,25,0,0
32621,-100,4,1,1,50,0,0
32871,-100,4,1,1,25,0,0
32954,-100,4,1,1,50,0,0
33121,-100,4,1,1,5,0,0
33204,-100,4,1,1,50,0,0
34121,-100,4,1,1,25,0,0
34204,-100,4,1,1,50,0,0
34287,-100,4,1,1,5,0,0
34371,-100,4,1,1,50,0,0
34787,-100,4,1,1,5,0,0
34871,-100,4,1,1,50,0,0
35121,-100,4,1,1,5,0,0
35204,-100,4,1,1,50,0,0
35454,-100,4,1,1,5,0,0
35537,-100,4,1,1,50,0,0
35704,-100,4,1,1,5,0,0
35787,-100,4,1,1,50,0,0
35954,-100,4,1,1,5,0,0
36037,-100,4,1,1,50,0,0
36371,-100,4,1,1,25,0,0
36454,-100,4,1,1,50,0,0
36621,-100,4,1,1,5,0,0
36704,-100,4,1,1,50,0,0
37121,-100,4,1,1,5,0,0
37204,-100,4,1,1,50,0,0
37287,-100,4,1,1,25,0,0
37371,-100,4,1,1,50,0,0
37454,-100,4,1,1,5,0,0
37537,-100,4,1,1,50,0,0
37787,-100,4,1,1,5,0,0
37871,-100,4,1,1,50,0,0
38204,-100,4,1,1,25,0,0
38287,-100,4,1,1,50,0,0
38454,-100,4,1,1,5,0,0
38537,-100,4,1,1,50,0,0
38621,-100,4,1,1,5,0,0
38704,-100,4,1,1,50,0,0
39204,-100,4,1,1,5,0,0
39287,-100,4,1,1,50,0,0
40121,-100,4,1,1,5,0,0
40204,-100,4,1,1,50,0,0
40454,-100,4,1,1,5,0,0
40537,-100,4,1,1,50,0,0
40871,-100,4,1,1,25,0,0
40954,-100,4,1,1,50,0,0
41121,-100,4,1,1,5,0,0
41204,-100,4,1,1,50,0,0
41287,-100,4,1,1,5,0,0
41371,-100,4,1,1,50,0,0
42787,-100,4,1,1,5,0,0
42871,-100,4,1,1,50,0,0
42954,-100,4,1,1,5,0,0
43037,-100,4,1,1,50,0,0
43204,-100,4,1,1,25,0,0
43287,-100,4,1,1,50,0,0
43537,-100,4,1,1,25,0,0
43621,-100,4,1,1,50,0,0
43787,-100,4,1,1,5,0,0
43871,-100,4,1,1,50,0,0
44371,-166.666666666667,4,1,1,50,0,0
44537,-166.666666666667,4,1,1,40,0,0
45037,-125,4,1,1,50,0,0
45371,-100,4,1,1,50,0,0
45621,-100,4,1,1,5,0,0
45704,-100,4,1,1,50,0,0
45871,-100,4,1,1,25,0,0
45954,-100,4,1,1,50,0,0
46204,-100,4,1,1,25,0,0
46287,-100,4,1,1,50,0,0
46537,-100,4,1,1,25,0,0
46704,-100,4,1,1,50,0,0
47037,-100,4,1,1,25,0,0
47121,-100,4,1,1,50,0,0
47287,-100,4,1,1,5,0,0
47371,-100,4,1,1,50,0,0
48121,-100,4,1,1,5,0,0
48204,-100,4,1,1,50,0,0
48454,-100,4,1,1,5,0,0
48537,-100,4,1,1,50,0,0
48871,-100,4,1,1,25,0,0
48954,-100,4,1,1,50,0,0
49121,-100,4,1,1,5,0,0
49204,-100,4,1,1,50,0,0
49287,-100,4,1,1,5,0,0
49371,-100,4,1,1,50,0,0
49871,-100,4,1,1,25,0,0
49954,-100,4,1,1,50,0,0
50454,-100,4,1,1,5,0,0
50537,-100,4,1,1,50,0,0
50621,-100,4,1,1,25,0,0
50704,-100,4,1,1,50,0,0
50954,-100,4,1,1,5,0,0
51037,-100,4,1,1,50,0,0
51204,-100,4,1,1,25,0,0
51287,-100,4,1,1,50,0,0
51537,-100,4,1,1,25,0,0
51621,-100,4,1,1,50,0,0
51871,-100,4,1,1,25,0,0
52037,-100,4,1,1,50,0,0
53454,-100,4,1,1,5,0,0
53537,-100,4,1,1,50,0,0
53621,-100,4,1,1,5,0,0
53704,-100,4,1,1,50,0,0
53871,-100,4,1,1,25,0,0
53954,-100,4,1,1,50,0,0
54204,-100,4,1,1,25,0,0
54287,-100,4,1,1,50,0,0
54454,-100,4,1,1,5,0,0
54537,-100,4,1,1,50,0,0
56287,-100,4,1,1,5,0,0
56371,-100,4,1,1,50,0,0
56537,-100,4,1,1,25,0,0
56621,-100,4,1,1,50,0,0
56871,-100,4,1,1,25,0,0
56954,-100,4,1,1,50,0,0
57204,-100,4,1,1,25,0,0
57371,-100,4,1,1,50,0,0
57704,-100,4,1,1,25,0,0
57787,-100,4,1,1,50,0,0
57954,-100,4,1,1,5,0,0
58037,-100,4,1,1,50,0,0
58787,-100,4,1,1,5,0,0
58871,-100,4,1,1,50,0,0
59121,-100,4,1,1,5,0,0
59204,-100,4,1,1,50,0,0
59537,-100,4,1,1,25,0,0
59621,-100,4,1,1,50,0,0
59787,-100,4,1,1,5,0,0
59871,-100,4,1,1,50,0,0
60537,-100,4,1,1,25,0,0
60621,-100,4,1,1,50,0,0
61121,-100,4,1,1,5,0,0
61204,-100,4,1,1,50,0,0
61287,-100,4,1,1,25,0,0
61371,-100,4,1,1,50,0,0
61621,-100,4,1,1,5,0,0
61704,-100,4,1,1,50,0,0
61871,-100,4,1,1,25,0,0
61954,-100,4,1,1,50,0,0
62204,-100,4,1,1,25,0,0
62287,-100,4,1,1,50,0,0
62537,-100,4,1,1,25,0,0
62704,-100,4,1,1,50,0,0
64121,-100,4,1,1,5,0,0
64204,-100,4,1,1,50,0,0
64287,-100,4,1,1,5,0,0
64371,-100,4,1,1,50,0,0
64537,-100,4,1,1,25,0,0
64621,-100,4,1,1,50,0,0
64871,-100,4,1,1,25,0,0
64954,-100,4,1,1,50,0,0
65121,-100,4,1,1,5,0,0
65204,-100,4,1,1,50,0,0
71371,-100,4,1,1,5,0,0
71454,-100,4,1,1,50,0,0
76704,-100,4,1,1,5,0,0
76787,-100,4,1,1,50,0,0
87954,-100,4,1,1,5,0,0
88037,-100,4,1,1,50,0,0
88121,-100,4,1,1,5,0,0
88204,-100,4,1,1,50,0,0
88454,-100,4,1,1,5,0,0
88537,-100,4,1,1,50,0,0
88871,-100,4,1,1,25,0,0
88954,-100,4,1,1,50,0,0
89121,-100,4,1,1,5,0,0
89204,-100,4,1,1,50,0,0
89287,-100,4,1,1,5,0,0
89371,-100,4,1,1,50,0,0
89621,-100,4,1,1,5,0,0
89704,-100,4,1,1,50,0,0
90454,-100,4,1,1,5,0,0
90537,-100,4,1,1,50,0,0
90621,-100,4,1,1,25,0,0
90704,-100,4,1,1,50,0,0
90787,-100,4,1,1,5,0,0
90871,-100,4,1,1,50,0,0
91121,-100,4,1,1,5,0,0
91204,-100,4,1,1,50,0,0
91537,-100,4,1,1,25,0,0
91621,-100,4,1,1,50,0,0
91787,-100,4,1,1,5,0,0
91871,-100,4,1,1,50,0,0
91954,-100,4,1,1,5,0,0
92037,-100,4,1,1,50,0,0
92287,-100,4,1,1,5,0,0
92371,-100,4,1,1,50,0,0
93454,-100,4,1,1,5,0,0
93537,-100,4,1,1,50,0,0
93787,-100,4,1,1,5,0,0
93871,-100,4,1,1,50,0,0
94204,-100,4,1,1,25,0,0
94287,-100,4,1,1,50,0,0
94454,-100,4,1,1,5,0,0
94537,-100,4,1,1,50,0,0
94621,-100,4,1,1,5,0,0
94704,-100,4,1,1,50,0,0
94954,-100,4,1,1,25,0,0
95037,-100,4,1,1,50,0,0
96121,-100,4,1,1,5,0,0
96204,-100,4,1,1,50,0,0
96287,-100,4,1,1,5,0,0
96371,-100,4,1,1,50,0,0
96537,-100,4,1,1,25,0,0
96621,-100,4,1,1,50,0,0
96871,-100,4,1,1,25,0,0
96954,-100,4,1,1,50,0,0
97121,-100,4,1,1,25,0,0
97204,-100,4,1,1,50,0,0
97787,-100,4,1,1,5,0,0
97871,-100,4,1,1,50,0,0
98787,-100,4,1,1,5,0,0
98871,-100,4,1,1,50,0,0
99121,-100,4,1,1,5,0,0
99204,-100,4,1,1,50,0,0
99537,-100,4,1,1,25,0,0
99621,-100,4,1,1,50,0,0
99787,-100,4,1,1,5,0,0
99871,-100,4,1,1,50,0,0
99954,-100,4,1,1,5,0,0
100037,-100,4,1,1,50,0,0
100287,-100,4,1,1,5,0,0
100371,-100,4,1,1,50,0,0
101121,-100,4,1,1,5,0,0
101204,-100,4,1,1,50,0,0
101287,-100,4,1,1,25,0,0
101371,-100,4,1,1,50,0,0
101454,-100,4,1,1,5,0,0
101537,-100,4,1,1,50,0,0
101787,-100,4,1,1,5,0,0
101871,-100,4,1,1,50,0,0
102204,-100,4,1,1,25,0,0
102287,-100,4,1,1,50,0,0
102454,-100,4,1,1,5,0,0
102537,-100,4,1,1,50,0,0
102621,-100,4,1,1,5,0,0
102704,-100,4,1,1,50,0,0
102954,-100,4,1,1,5,0,0
103037,-100,4,1,1,50,0,0
104121,-100,4,1,1,5,0,0
104204,-100,4,1,1,50,0,0
104454,-100,4,1,1,5,0,0
104537,-100,4,1,1,50,0,0
104871,-100,4,1,1,25,0,0
104954,-100,4,1,1,50,0,0
105121,-100,4,1,1,5,0,0
105204,-100,4,1,1,50,0,0
105287,-100,4,1,1,5,0,0
105371,-100,4,1,1,50,0,0
105621,-100,4,1,1,5,0,0
105704,-100,4,1,1,50,0,0
106787,-100,4,1,1,5,0,0
106871,-100,4,1,1,50,0,0
106954,-100,4,1,1,5,0,0
107037,-100,4,1,1,50,0,0
107204,-100,4,1,1,25,0,0
107287,-100,4,1,1,50,0,0
107537,-100,4,1,1,25,0,0
107621,-100,4,1,1,50,0,0
107787,-100,4,1,1,5,0,0
107871,-100,4,1,1,50,0,0
108454,-100,4,1,1,5,0,0
108537,-100,4,1,1,50,0,0
109454,-100,4,1,1,5,0,0
109537,-100,4,1,1,50,0,0
110204,-100,4,1,1,25,0,0
110287,-100,4,1,1,50,0,0
110454,-100,4,1,1,5,0,0
110537,-100,4,1,1,50,0,0
110621,-100,4,1,1,5,0,0
110704,-100,4,1,1,50,0,0
111037,-100,4,1,1,25,0,0
111121,-100,4,1,1,50,0,0
111287,-100,4,1,1,5,0,0
111371,-100,4,1,1,50,0,0
112121,-100,4,1,1,5,0,0
112204,-100,4,1,1,50,0,0
112537,-100,4,1,1,25,0,0
112621,-100,4,1,1,50,0,0
112871,-100,4,1,1,25,0,0
112954,-100,4,1,1,50,0,0
113037,-100,4,1,1,5,0,0
113371,-100,4,1,1,50,0,0
113871,-100,4,1,1,5,0,0
113954,-100,4,1,1,50,0,0
114121,-100,4,1,1,5,0,0
114204,-100,4,1,1,50,0,0
114287,-100,4,1,1,5,0,0
114371,-100,4,1,1,50,0,0
114454,-100,4,1,1,5,0,0
114537,-100,4,1,1,50,0,0
114621,-100,4,1,1,5,0,0
114704,-100,4,1,1,50,0,0
114787,-100,4,1,1,5,0,0
114871,-100,4,1,1,50,0,0
115537,-100,4,1,1,25,0,0
115621,-100,4,1,1,50,0,0
115787,-100,4,1,1,5,0,0
115871,-100,4,1,1,50,0,0
115954,-100,4,1,1,5,0,0
116037,-100,4,1,1,50,0,0
117454,-100,4,1,1,5,0,0
117537,-100,4,1,1,50,0,0
117871,-100,4,1,1,25,0,0
117954,-100,4,1,1,50,0,0
118204,-100,4,1,1,25,0,0
118287,-100,4,1,1,50,0,0
118371,-100,4,1,1,5,0,0
118704,-100,4,1,1,50,0,0
120037,-138.888888888889,4,1,1,50,0,0
125287,-138.888888888889,4,1,1,5,0,0
125371,-138.888888888889,4,1,1,50,0,0
134704,-138.888888888889,4,1,1,5,0,0
135371,-138.888888888889,4,1,1,10,0,0
135454,-138.888888888889,4,1,1,15,0,0
135537,-138.888888888889,4,1,1,25,0,0
135621,-138.888888888889,4,1,1,40,0,0
135704,-138.888888888889,4,1,1,50,0,0
136037,-89.2857142857143,4,1,1,50,0,1
136287,-89.2857142857143,4,1,1,5,0,1
136371,-89.2857142857143,4,1,1,50,0,1
136621,-89.2857142857143,4,1,1,5,0,1
136704,-89.2857142857143,4,1,1,50,0,1
137204,-89.2857142857143,4,1,1,25,0,1
137287,-89.2857142857143,4,1,1,50,0,1
138204,-89.2857142857143,4,1,1,5,0,1
138287,-89.2857142857143,4,1,1,50,0,1
138787,-89.2857142857143,4,1,1,5,0,1
138871,-89.2857142857143,4,1,1,50,0,1
139121,-89.2857142857143,4,1,1,5,0,1
139204,-89.2857142857143,4,1,1,50,0,1
139537,-89.2857142857143,4,1,1,25,0,1
139621,-89.2857142857143,4,1,1,50,0,1
139787,-89.2857142857143,4,1,1,5,0,1
139871,-89.2857142857143,4,1,1,50,0,1
140621,-89.2857142857143,4,1,1,5,0,1
140704,-89.2857142857143,4,1,1,50,0,1
141454,-89.2857142857143,4,1,1,5,0,1
141537,-89.2857142857143,4,1,1,50,0,1
141787,-89.2857142857143,4,1,1,5,0,1
141871,-89.2857142857143,4,1,1,50,0,1
142204,-89.2857142857143,4,1,1,25,0,1
142287,-89.2857142857143,4,1,1,50,0,1
142454,-89.2857142857143,4,1,1,5,0,1
142537,-89.2857142857143,4,1,1,50,0,1
144121,-89.2857142857143,4,1,1,5,0,1
144204,-89.2857142857143,4,1,1,50,0,1
144287,-89.2857142857143,4,1,1,5,0,1
144371,-89.2857142857143,4,1,1,50,0,1
144787,-89.2857142857143,4,1,1,5,0,1
144871,-89.2857142857143,4,1,1,50,0,1
144954,-89.2857142857143,4,1,1,5,0,1
145037,-89.2857142857143,4,1,1,50,0,1
146954,-89.2857142857143,4,1,1,5,0,1
147037,-89.2857142857143,4,1,1,50,0,1
147287,-89.2857142857143,4,1,1,5,0,1
147371,-89.2857142857143,4,1,1,50,0,1
147871,-89.2857142857143,4,1,1,25,0,1
147954,-89.2857142857143,4,1,1,50,0,1
148787,-89.2857142857143,4,1,1,5,0,1
148871,-89.2857142857143,4,1,1,50,0,1
149454,-89.2857142857143,4,1,1,5,0,1
149537,-89.2857142857143,4,1,1,50,0,1
149787,-89.2857142857143,4,1,1,5,0,1
149871,-89.2857142857143,4,1,1,50,0,1
150204,-89.2857142857143,4,1,1,25,0,1
150287,-89.2857142857143,4,1,1,50,0,1
150454,-89.2857142857143,4,1,1,5,0,1
150537,-89.2857142857143,4,1,1,50,0,1
151287,-89.2857142857143,4,1,1,5,0,1
151371,-89.2857142857143,4,1,1,50,0,1
152121,-89.2857142857143,4,1,1,5,0,1
152204,-89.2857142857143,4,1,1,50,0,1
152454,-89.2857142857143,4,1,1,5,0,1
152537,-89.2857142857143,4,1,1,50,0,1
152871,-89.2857142857143,4,1,1,25,0,1
152954,-89.2857142857143,4,1,1,50,0,1
153121,-89.2857142857143,4,1,1,5,0,1
153204,-89.2857142857143,4,1,1,50,0,1
154787,-89.2857142857143,4,1,1,5,0,1
154871,-89.2857142857143,4,1,1,50,0,1
154954,-89.2857142857143,4,1,1,5,0,1
155037,-89.2857142857143,4,1,1,50,0,1
155454,-89.2857142857143,4,1,1,5,0,1
155537,-89.2857142857143,4,1,1,50,0,1
155621,-89.2857142857143,4,1,1,5,0,1
155704,-89.2857142857143,4,1,1,50,0,1
156121,-89.2857142857143,4,1,1,5,0,1
156204,-89.2857142857143,4,1,1,50,0,1
156287,-89.2857142857143,4,1,1,5,0,1
156371,-89.2857142857143,4,1,1,50,0,1
156537,-89.2857142857143,4,1,1,25,0,1
156621,-89.2857142857143,4,1,1,50,0,1
157621,-89.2857142857143,4,1,1,5,0,1
157704,-89.2857142857143,4,1,1,50,0,1
157954,-89.2857142857143,4,1,1,5,0,1
158037,-89.2857142857143,4,1,1,50,0,1
158537,-89.2857142857143,4,1,1,25,0,1
158621,-89.2857142857143,4,1,1,50,0,1
159537,-89.2857142857143,4,1,1,25,0,1
159621,-89.2857142857143,4,1,1,50,0,1
160121,-89.2857142857143,4,1,1,25,0,1
160204,-89.2857142857143,4,1,1,50,0,1
160454,-89.2857142857143,4,1,1,5,0,1
160537,-89.2857142857143,4,1,1,50,0,1
160871,-89.2857142857143,4,1,1,25,0,1
160954,-89.2857142857143,4,1,1,50,0,1
161121,-89.2857142857143,4,1,1,5,0,1
161204,-89.2857142857143,4,1,1,50,0,1
161954,-89.2857142857143,4,1,1,5,0,1
162037,-89.2857142857143,4,1,1,50,0,1
162787,-89.2857142857143,4,1,1,5,0,1
162871,-89.2857142857143,4,1,1,50,0,1
163121,-89.2857142857143,4,1,1,5,0,1
163204,-89.2857142857143,4,1,1,50,0,1
163537,-89.2857142857143,4,1,1,25,0,1
163621,-89.2857142857143,4,1,1,50,0,1
163787,-89.2857142857143,4,1,1,5,0,1
163871,-89.2857142857143,4,1,1,50,0,1
165454,-89.2857142857143,4,1,1,5,0,1
165537,-89.2857142857143,4,1,1,50,0,1
165621,-89.2857142857143,4,1,1,5,0,1
165704,-89.2857142857143,4,1,1,50,0,1
166121,-89.2857142857143,4,1,1,5,0,1
166204,-89.2857142857143,4,1,1,50,0,1
166287,-89.2857142857143,4,1,1,5,0,1
166371,-89.2857142857143,4,1,1,50,0,1
168287,-89.2857142857143,4,1,1,5,0,1
168371,-89.2857142857143,4,1,1,50,0,1
168621,-89.2857142857143,4,1,1,5,0,1
168704,-89.2857142857143,4,1,1,50,0,1
169204,-89.2857142857143,4,1,1,25,0,1
169287,-89.2857142857143,4,1,1,50,0,1
170121,-89.2857142857143,4,1,1,5,0,1
170204,-89.2857142857143,4,1,1,50,0,1
172621,-89.2857142857143,4,1,1,5,0,1
172704,-89.2857142857143,4,1,1,50,0,1
173454,-89.2857142857143,4,1,1,5,0,1
173537,-89.2857142857143,4,1,1,50,0,1
173787,-89.2857142857143,4,1,1,5,0,1
173871,-89.2857142857143,4,1,1,50,0,1
174204,-89.2857142857143,4,1,1,25,0,1
174287,-89.2857142857143,4,1,1,50,0,1
174454,-89.2857142857143,4,1,1,5,0,1
174537,-89.2857142857143,4,1,1,50,0,1
176121,-89.2857142857143,4,1,1,5,0,1
176204,-89.2857142857143,4,1,1,50,0,1
176287,-89.2857142857143,4,1,1,5,0,1
176371,-89.2857142857143,4,1,1,50,0,1
176787,-89.2857142857143,4,1,1,5,0,1
176871,-89.2857142857143,4,1,1,50,0,1
176954,-89.2857142857143,4,1,1,5,0,1
177037,-89.2857142857143,4,1,1,50,0,1
177454,-89.2857142857143,4,1,1,5,0,1
177537,-89.2857142857143,4,1,1,50,0,1
177621,-89.2857142857143,4,1,1,5,0,1
177704,-89.2857142857143,4,1,1,50,0,1
177787,-89.2857142857143,4,1,1,5,0,1
177871,-89.2857142857143,4,1,1,50,0,1
177954,-89.2857142857143,4,1,1,5,0,1
178037,-89.2857142857143,4,1,1,50,0,1
178704,-100,4,1,1,50,0,0
183371,-100,4,1,1,5,0,0
183454,-100,4,1,1,50,0,0
188287,-100,4,1,1,5,0,0
188371,-100,4,1,1,50,0,0
189454,-100,4,1,1,5,0,0
189537,-100,4,1,1,50,0,0
189787,-100,4,1,1,5,0,0
189871,-100,4,1,1,50,0,0
190204,-100,4,1,1,25,0,0
190287,-100,4,1,1,50,0,0
190454,-100,4,1,1,5,0,0
190537,-100,4,1,1,50,0,0
190621,-100,4,1,1,5,0,0
190704,-100,4,1,1,50,0,0
190954,-100,4,1,1,5,0,0
191037,-100,4,1,1,50,0,0
192121,-100,4,1,1,5,0,0
192204,-100,4,1,1,50,0,0
192454,-100,4,1,1,5,0,0
192537,-100,4,1,1,50,0,0
192871,-100,4,1,1,25,0,0
192954,-100,4,1,1,50,0,0
193121,-100,4,1,1,5,0,0
193204,-100,4,1,1,50,0,0
193287,-100,4,1,1,5,0,0
193371,-100,4,1,1,50,0,0
193621,-100,4,1,1,5,0,0
193704,-100,4,1,1,50,0,0
194121,-100,4,1,1,25,0,0
194204,-100,4,1,1,50,0,0
194787,-100,4,1,1,5,0,0
194871,-100,4,1,1,50,0,0
195121,-100,4,1,1,5,0,0
195204,-100,4,1,1,50,0,0
195537,-100,4,1,1,25,0,0
195621,-100,4,1,1,50,0,0
195787,-100,4,1,1,5,0,0
195871,-100,4,1,1,50,0,0
195954,-100,4,1,1,5,0,0
196037,-100,4,1,1,50,0,0
196287,-100,4,1,1,5,0,0
196371,-100,4,1,1,50,0,0
197454,-100,4,1,1,5,0,0
197537,-100,4,1,1,50,0,0
197621,-100,4,1,1,5,0,0
197704,-100,4,1,1,50,0,0
197871,-100,4,1,1,25,0,0
197954,-100,4,1,1,50,0,0
198204,-100,4,1,1,25,0,0
198287,-100,4,1,1,50,0,0
198454,-100,4,1,1,5,0,0
198537,-100,4,1,1,50,0,0
199121,-100,4,1,1,5,0,0
199204,-100,4,1,1,50,0,0
200454,-100,4,1,1,5,0,0
200537,-100,4,1,1,50,0,0
200787,-100,4,1,1,5,0,0
200871,-100,4,1,1,50,0,0
202121,-100,4,1,1,5,0,0
202204,-100,4,1,1,50,0,0
202287,-100,4,1,1,5,0,0
202371,-100,4,1,1,50,0,0
203121,-100,4,1,1,5,0,0
203204,-100,4,1,1,50,0,0
204454,-100,4,1,1,5,0,0
204537,-100,4,1,1,50,0,0
205787,-100,4,1,1,5,0,0
205871,-100,4,1,1,50,0,0
206121,-100,4,1,1,5,0,0
206204,-100,4,1,1,50,0,0
207454,-100,4,1,1,5,0,0
207537,-100,4,1,1,50,0,0
207621,-100,4,1,1,5,0,0
207704,-100,4,1,1,50,0,0
211454,-100,4,1,1,5,0,0
211537,-100,4,1,1,50,0,0
212037,446.428571428571,4,1,1,50,1,0
213376,333.333333333333,4,1,1,50,1,0
214126,-100,4,1,1,5,0,0
214209,-100,4,1,1,50,0,0
216792,-100,4,1,1,5,0,0
216876,-100,4,1,1,50,0,0
217376,446.428571428571,3,1,1,40,1,0
218715,494.641384995878,3,1,1,40,1,0
219209,368.098159509202,3,1,1,40,1,8
219577,471.698113207547,3,1,1,40,1,8
219930,-100,4,1,1,5,0,0
220048,500,3,1,1,40,1,0
220048,-100,4,1,1,50,0,0
220548,413.793103448276,3,1,1,40,1,8
221375,500,3,1,1,40,1,0
221937,-100,4,1,1,50,0,0
226625,-100,4,1,1,5,0,0

[Colours]
Combo1 : 111,106,111
Combo2 : 189,79,112
Combo3 : 136,85,111

[HitObjects]
176,76,2704,6,0,L|132:70,1,43.75,2|0,0:3|0:0,0:0:0:0:
49,81,2871,2,0,B|149:95|149:95|132:69,1,131.25,2|0,2:0|0:0,0:0:0:0:
118,52,3204,1,2,2:0:0:0:
104,180,3371,6,0,L|202:192,1,87.5,2|2,0:3|2:0,0:0:0:0:
254,257,3621,2,0,L|214:164,1,87.5,0|0,2:0|0:0,0:0:0:0:
76,204,3871,2,0,L|120:208,1,43.75,2|0,2:0|0:0,0:0:0:0:
344,308,4037,5,2,0:3:0:0:
344,308,4121,1,0,0:0:0:0:
396,204,4371,5,2,0:3:0:0:
396,204,4455,1,0,0:0:0:0:
200,76,4704,5,2,0:3:0:0:
200,76,4788,1,0,0:0:0:0:
396,204,5037,5,2,0:3:0:0:
344,308,5204,1,0,0:0:0:0:
280,96,5370,6,0,L|323:90,1,43.75,2|0,0:3|0:0,0:0:0:0:
408,100,5537,2,0,B|307:114|307:114|324:88,1,131.25,2|0,2:0|0:0,0:0:0:0:
338,72,5870,1,2,2:0:0:0:
396,204,6037,6,0,L|382:302,1,87.5,2|2,0:3|2:0,0:0:0:0:
269,276,6287,2,0,L|367:262,1,87.5,0|0,2:0|0:0,0:0:0:0:
472,196,6537,2,0,L|426:200,2,43.75,2|0|10,2:0|0:0|0:2,0:0:0:0:
472,196,7537,5,2,2:0:0:0:
323,160,7704,1,2,0:3:0:0:
242,234,7871,1,2,2:0:0:0:
172,172,8037,6,0,L|128:177,1,43.75,2|0,0:3|0:0,0:0:0:0:
45,166,8204,2,0,B|145:151|145:151|128:177,1,131.25,2|0,2:0|0:0,0:0:0:0:
114,196,8537,1,2,2:0:0:0:
99,214,8621,1,0,2:0:0:0:
84,232,8704,6,0,L|182:218,1,87.5,2|2,0:3|2:0,0:0:0:0:
284,248,8954,2,0,L|194:235,1,87.5,0|0,0:0|0:0,0:0:0:0:
72,328,9204,2,0,L|116:322,1,43.75,2|0,2:0|0:0,0:0:0:0:
384,280,9371,5,2,0:3:0:0:
384,280,9454,1,0,2:0:0:0:
488,332,9704,5,2,0:3:0:0:
488,332,9787,1,0,2:0:0:0:
420,80,10037,5,2,0:3:0:0:
420,80,10121,1,0,2:0:0:0:
488,332,10371,5,2,0:3:0:0:
296,292,10537,5,2,2:0:0:0:
296,292,10621,1,0,2:0:0:0:
296,292,10704,6,0,L|340:286,1,43.75,2|0,0:3|0:0,0:0:0:0:
186,230,10871,2,0,L|230:224,1,43.75,2|0,2:0|0:0,0:0:0:0:
87,280,11037,2,0,L|175:268,1,87.5,2|2,0:3|2:0,0:0:0:0:
296,292,11287,1,0,2:0:0:0:
296,292,11371,6,0,L|206:302,1,87.5,2|2,0:3|2:0,0:0:0:0:
140,350,11621,2,0,L|173:268,1,87.5,0|0,0:0|0:0,0:0:0:0:
264,159,11871,2,0,L|245:199,2,43.75,2|0|10,2:0|0:0|0:2,0:0:0:0:
259,222,12704,5,2,0:3:0:0:
279,173,12787,1,0,2:0:0:0:
300,124,12871,1,2,2:0:0:0:
321,76,12954,1,0,2:0:0:0:
366,71,13037,5,2,0:3:0:0:
321,76,13120,1,0,2:0:0:0:
276,80,13204,1,2,2:0:0:0:
233,86,13287,1,0,2:0:0:0:
190,92,13370,6,0,L|146:97,1,43.75,2|0,0:3|0:0,0:0:0:0:
63,86,13537,2,0,B|163:71|163:71|146:97,1,131.25,2|0,2:0|0:0,0:0:0:0:
132,116,13870,1,2,2:0:0:0:
68,236,14037,6,0,L|166:222,1,87.5,2|2,0:3|2:0,0:0:0:0:
218,157,14287,2,0,L|178:248,1,87.5,0|0,2:0|0:0,0:0:0:0:
83,329,14537,2,0,L|127:323,1,43.75,2|0,2:0|0:0,0:0:0:0:
314,297,14704,5,2,0:3:0:0:
314,297,14787,1,0,0:0:0:0:
366,193,15038,5,2,0:3:0:0:
366,193,15121,1,0,0:0:0:0:
140,76,15371,5,2,0:3:0:0:
140,76,15455,1,0,0:0:0:0:
366,193,15704,5,2,0:3:0:0:
314,297,15871,1,0,0:0:0:0:
240,92,16037,6,0,L|283:97,1,43.75,2|0,0:3|0:0,0:0:0:0:
368,87,16204,2,0,B|267:72|267:72|284:98,1,131.25,2|0,2:0|0:0,0:0:0:0:
298,116,16537,1,2,2:0:0:0:
456,236,16704,6,0,L|442:136,1,87.5,2|2,0:3|2:0,0:0:0:0:
472,36,16954,2,0,L|459:124,1,87.5,0|0,2:0|0:0,0:0:0:0:
439,259,17204,2,0,L|443:303,2,43.75,2|0|10,2:0|0:0|0:2,0:0:0:0:
439,259,18204,5,2,2:0:0:0:
305,298,18371,1,2,0:3:0:0:
222,222,18538,1,2,2:0:0:0:
153,284,18704,6,0,L|109:278,1,43.75,2|0,0:3|0:0,0:0:0:0:
26,289,18871,2,0,B|126:303|126:303|109:277,1,131.25,2|0,2:0|0:0,0:0:0:0:
95,260,19204,1,2,2:0:0:0:
80,242,19288,1,0,2:0:0:0:
65,224,19371,6,0,L|77:124,1,87.5,2|2,0:3|2:0,0:0:0:0:
190,152,19621,2,0,L|90:164,1,87.5,0|0,0:0|0:0,0:0:0:0:
0,64,19871,2,0,L|44:58,1,43.75,2|0,2:0|0:0,0:0:0:0:
284,11,20037,5,2,0:3:0:0:
284,11,20121,1,0,2:0:0:0:
336,115,20371,5,2,0:3:0:0:
336,115,20454,1,0,2:0:0:0:
148,260,20704,5,2,0:3:0:0:
148,260,20788,1,0,2:0:0:0:
336,115,21037,5,2,0:3:0:0:
296,278,21203,5,2,2:0:0:0:
296,278,21287,1,0,2:0:0:0:
296,278,21370,6,0,L|251:272,1,43.75,10|0,0:2|0:0,0:0:0:0:
406,216,21537,2,0,L|361:210,1,43.75,2|0,2:0|0:0,0:0:0:0:
505,266,21704,2,0,L|416:254,1,87.5,2|2,0:3|2:0,0:0:0:0:
296,278,21953,1,0,0:0:0:0:
296,278,22037,6,0,L|385:288,1,87.5,2|2,0:3|2:0,0:0:0:0:
452,336,22287,2,0,L|418:254,1,87.5,0|0,0:0|0:0,0:0:0:0:
328,145,22537,2,0,L|346:185,2,43.75,2|0|6,2:0|0:0|0:2,0:0:0:0:
333,208,23204,6,0,L|315:166,1,43.75,0|0,3:0|3:0,0:0:0:0:
253,47,23371,5,8,3:3:0:0:
253,47,23454,2,0,L|294:64,1,43.75,8|0,3:3|3:0,0:0:0:0:
426,123,23621,1,8,3:3:0:0:
426,123,23704,2,0,L|385:105,1,43.75,8|8,3:3|3:3,0:0:0:0:
210,155,23871,5,8,3:3:0:0:
164,160,23954,1,8,3:3:0:0:
118,165,24037,6,0,L|112:209,1,43.75,4|0,3:3|0:0,0:0:0:0:
81,312,24204,2,0,B|105:328|105:328|90:227,1,131.25,0|0,2:1|0:0,0:0:0:0:
85,196,24537,1,0,2:1:0:0:
228,256,24704,6,0,L|315:267,1,87.5,6|2,2:0|3:3,0:0:0:0:
436,280,24954,2,0,L|348:291,1,87.5,0|0,0:0|0:0,0:0:0:0:
228,344,25204,2,0,L|272:349,1,43.75,0|0,2:0|0:0,0:0:0:0:
372,196,25371,5,2,3:2:0:0:
401,192,25454,1,2,2:2:0:0:
432,188,25537,2,0,L|443:101,1,87.5,2|8,2:3|2:3,0:0:0:0:
480,30,25787,2,0,L|469:117,1,87.5,2|2,2:2|2:2,0:0:0:0:
468,146,26037,1,6,2:0:0:0:
372,30,26204,5,2,3:3:0:0:
372,30,26287,1,2,2:2:0:0:
372,30,26371,2,0,L|328:35,1,43.75,8|2,2:3|2:2,0:0:0:0:
184,54,26537,2,0,L|228:49,1,43.75,2|8,2:0|2:3,0:0:0:0:
360,126,26704,6,0,L|366:170,1,43.75,2|0,3:2|0:0,0:0:0:0:
397,273,26871,2,0,B|373:289|373:289|388:188,1,131.25,2|0,3:3|0:0,0:0:0:0:
393,157,27204,1,0,2:0:0:0:
284,238,27371,6,0,L|270:332,1,87.5,6|2,2:0|3:3,0:0:0:0:
162,307,27621,2,0,L|256:293,1,87.5,0|0,2:0|0:0,0:0:0:0:
400,350,27871,2,0,L|356:345,1,43.75,0|0,2:0|0:0,0:0:0:0:
148,330,28037,5,10,3:2:0:0:
157,180,28204,1,2,2:3:0:0:
172,193,28288,1,2,2:2:0:0:
188,206,28371,2,0,L|101:217,1,87.5,8|2,2:3|2:3,0:0:0:0:
20,278,28621,5,2,2:2:0:0:
20,278,28704,2,0,L|15:234,1,43.75,6|8,2:0|2:3,0:0:0:0:
44,102,28871,2,0,L|49:146,1,43.75,2|2,3:3|2:2,0:0:0:0:
84,354,29037,1,8,2:3:0:0:
164,250,29204,1,2,3:3:0:0:
164,250,29287,1,8,2:3:0:0:
164,250,29370,6,0,L|208:256,1,43.75,2|0,3:2|0:0,0:0:0:0:
311,287,29537,2,0,B|327:263|327:263|226:278,1,131.25,2|0,2:3|0:0,0:0:0:0:
195,283,29870,1,2,2:3:0:0:
183,300,29954,1,0,2:0:0:0:
171,317,30037,6,0,L|258:306,1,87.5,6|2,2:0|3:3,0:0:0:0:
383,319,30287,2,0,L|296:330,1,87.5,0|0,2:0|0:0,0:0:0:0:
480,242,30537,6,0,L|436:247,1,43.75,2|0,2:3|0:0,0:0:0:0:
305,200,30704,5,2,3:2:0:0:
276,204,30787,1,2,2:2:0:0:
247,208,30871,1,2,2:3:0:0:
392,216,31037,5,8,2:3:0:0:
363,220,31120,1,2,2:2:0:0:
334,224,31204,1,2,2:3:0:0:
264,312,31371,5,6,2:0:0:0:
235,316,31454,1,2,2:2:0:0:
206,320,31538,1,2,3:3:0:0:
177,324,31620,1,2,2:2:0:0:
202,354,31704,5,8,2:3:0:0:
206,320,31788,1,2,2:2:0:0:
211,285,31870,1,2,3:3:0:0:
216,250,31954,1,0,3:0:0:0:
221,215,32037,6,0,L|227:171,1,43.75,2|0,3:2|0:0,0:0:0:0:
124,240,32204,2,0,L|80:246,1,43.75,2|0,2:3|0:0,0:0:0:0:
300,284,32371,2,0,L|387:273,1,87.5,8|2,2:3|2:3,0:0:0:0:
496,252,32621,1,8,2:3:0:0:
496,252,32704,6,0,L|409:241,1,87.5,6|2,3:2|3:3,0:0:0:0:
388,148,32954,2,0,L|377:235,1,87.5,0|2,2:0|2:2,0:0:0:0:
448,336,33204,1,2,2:3:0:0:
448,336,33287,1,0,2:0:0:0:
448,336,33371,6,0,L|454:380,3,43.75,10|2|2|2,3:2|2:2|2:3|2:2,0:0:0:0:
434,244,33704,1,8,2:3:0:0:
267,104,33871,5,2,2:3:0:0:
296,100,33954,1,2,2:2:0:0:
325,96,34038,1,6,2:2:0:0:
354,92,34120,1,8,2:3:0:0:
383,88,34204,1,0,3:0:0:0:
278,78,34371,5,8,2:3:0:0:
249,82,34454,1,2,1:2:0:0:
220,86,34538,1,2,2:3:0:0:
191,90,34620,1,2,1:2:0:0:
162,94,34704,6,0,L|118:100,1,43.75,6|0,3:3|0:0,0:0:0:0:
15,131,34871,2,0,B|-1:107|-1:107|100:122,1,131.25,2|0,2:3|0:0,0:0:0:0:
131,127,35204,1,0,3:0:0:0:
73,231,35371,5,6,2:2:0:0:
303,269,35538,1,0,3:0:0:0:
303,269,35621,1,8,2:3:0:0:
222,195,35787,1,0,3:0:0:0:
222,195,35871,1,8,2:3:0:0:
392,180,36037,5,6,3:2:0:0:
388,151,36120,1,2,2:2:0:0:
384,119,36204,2,0,L|297:108,1,87.5,2|8,2:3|2:3,0:0:0:0:
226,72,36454,2,0,L|313:83,1,87.5,2|2,2:2|2:2,0:0:0:0:
342,84,36703,1,6,2:0:0:0:
176,163,36871,5,2,3:3:0:0:
176,163,36954,1,2,2:2:0:0:
176,163,37038,2,0,L|220:168,1,43.75,8|2,2:3|2:2,0:0:0:0:
364,187,37204,2,0,L|320:182,1,43.75,10|8,2:3|2:3,0:0:0:0:
213,310,37371,6,0,L|207:266,1,43.75,2|0,3:2|0:0,0:0:0:0:
176,163,37538,2,0,B|200:147|200:147|185:248,1,131.25,2|0,3:3|0:0,0:0:0:0:
180,279,37871,1,2,2:3:0:0:
0,200,38037,6,0,L|94:214,1,87.5,6|2,2:0|3:3,0:0:0:0:
69,322,38287,2,0,L|55:228,1,87.5,0|0,2:0|0:0,0:0:0:0:
112,84,38537,2,0,L|107:128,1,43.75,2|0,2:3|0:0,0:0:0:0:
92,336,38703,5,10,3:2:0:0:
214,196,38871,1,2,2:3:0:0:
197,209,38955,1,2,2:2:0:0:
181,222,39037,2,0,L|268:233,1,87.5,8|2,2:3|2:3,0:0:0:0:
367,292,39287,5,2,2:2:0:0:
367,292,39370,2,0,L|362:248,1,43.75,6|8,2:0|2:3,0:0:0:0:
409,155,39537,2,0,L|404:111,1,43.75,2|2,3:3|2:2,0:0:0:0:
333,18,39704,1,8,2:3:0:0:
267,232,39871,1,2,3:3:0:0:
267,232,39954,1,8,2:3:0:0:
267,232,40037,6,0,L|223:226,1,43.75,2|0,3:2|0:0,0:0:0:0:
120,195,40204,2,0,B|104:219|104:219|205:204,1,131.25,2|0,2:3|0:0,0:0:0:0:
236,199,40537,1,2,2:3:0:0:
248,182,40621,1,0,2:0:0:0:
260,165,40704,6,0,L|173:176,1,87.5,6|2,2:0|3:3,0:0:0:0:
48,163,40954,2,0,L|135:152,1,87.5,0|0,0:0|0:0,0:0:0:0:
273,71,41204,2,0,L|229:77,1,43.75,2|0,2:3|0:0,0:0:0:0:
118,239,41371,5,2,3:2:0:0:
122,268,41454,1,2,2:2:0:0:
126,297,41538,1,2,2:3:0:0:
134,152,41704,5,8,2:3:0:0:
138,181,41787,1,0,0:0:0:0:
142,210,41871,1,2,2:3:0:0:
220,335,42038,5,6,2:0:0:0:
249,339,42121,1,2,2:2:0:0:
278,343,42205,1,0,0:0:0:0:
307,347,42287,1,2,2:2:0:0:
282,377,42371,5,8,2:3:0:0:
278,343,42455,1,2,2:2:0:0:
273,308,42537,1,2,3:3:0:0:
268,273,42621,1,0,3:0:0:0:
263,238,42704,6,0,L|257:194,1,43.75,2|0,3:2|0:0,0:0:0:0:
198,66,42871,2,0,L|204:110,1,43.75,0|0,2:0|0:0,0:0:0:0:
147,237,43037,2,0,L|234:226,1,87.5,8|2,2:3|3:2,0:0:0:0:
343,205,43287,1,8,2:3:0:0:
343,205,43370,6,0,L|256:194,1,87.5,6|2,3:2|3:2,0:0:0:0:
235,101,43620,2,0,L|224:188,1,87.5,0|0,0:0|0:0,0:0:0:0:
295,289,43870,1,2,2:2:0:0:
295,289,43953,1,0,0:0:0:0:
295,289,44037,6,0,L|301:333,1,43.75,0|0,3:3|3:3,0:0:0:0:
395,266,44204,6,0,L|398:237,2,29.1666666666667,0|0|0,3:3|0:0|0:0,0:0:0:0:
372,218,44371,2,0,L|368:193,7,17.4999994659424,8|0|0|8|0|0|8|0,1:3|0:0|0:0|1:3|0:0|0:0|3:3|0:0,0:0:0:0:
278,152,44815,2,0,L|282:127,3,17.4999994659424,0|10|0|0,0:0|3:3|0:0|0:0,0:0:0:0:
310,122,45037,6,0,L|305:81,3,35,8|8|8|8,3:1|3:1|3:1|3:1,0:0:0:0:
198,263,45371,6,0,B|174:279|174:279|189:178,1,131.25,4|0,3:3|0:0,0:0:0:0:
167,92,45704,2,0,L|156:179,1,87.5,8|0,2:3|2:1,0:0:0:0:
66,220,45954,1,0,0:0:0:0:
66,220,46037,2,0,L|153:209,1,87.5,6|2,2:0|3:3,0:0:0:0:
256,226,46287,1,0,0:0:0:0:
256,226,46371,2,0,L|169:237,1,87.5,8|0,2:3|2:0,0:0:0:0:
69,119,46704,5,2,3:2:0:0:
73,90,46787,1,2,2:2:0:0:
77,59,46870,2,0,L|164:48,1,87.5,2|8,2:3|2:3,0:0:0:0:
235,11,47120,2,0,L|148:22,1,87.5,2|2,2:2|2:2,0:0:0:0:
119,23,47370,1,6,2:0:0:0:
248,107,47537,5,2,3:3:0:0:
277,103,47620,1,2,2:2:0:0:
309,117,47704,1,8,2:3:0:0:
338,113,47787,1,2,2:2:0:0:
367,109,47871,1,2,2:0:0:0:
396,105,47953,1,0,0:0:0:0:
425,101,48037,6,0,L|431:145,1,43.75,2|0,3:2|0:0,0:0:0:0:
462,248,48204,2,0,B|438:264|438:264|453:163,1,131.25,2|0,3:3|0:0,0:0:0:0:
458,132,48537,1,0,2:0:0:0:
348,213,48704,6,0,L|254:199,1,87.5,6|2,2:0|3:3,0:0:0:0:
279,91,48954,2,0,L|293:185,1,87.5,0|0,2:0|0:0,0:0:0:0:
236,329,49204,2,0,L|241:285,1,43.75,0|0,2:0|0:0,0:0:0:0:
256,77,49370,5,10,3:2:0:0:
128,196,49537,1,2,2:3:0:0:
112,182,49621,1,2,2:2:0:0:
96,169,49704,2,0,L|183:158,1,87.5,8|2,2:3|2:3,0:0:0:0:
279,185,49954,1,2,2:2:0:0:
261,200,50037,1,6,2:0:0:0:
265,171,50120,1,8,2:3:0:0:
269,142,50204,1,2,3:3:0:0:
273,113,50286,1,0,0:0:0:0:
277,84,50371,6,0,L|282:40,1,43.75,8|2,2:3|2:2,0:0:0:0:
362,146,50537,2,0,L|357:190,1,43.75,2|8,3:3|2:3,0:0:0:0:
97,235,50704,6,0,B|81:259|81:259|182:244,1,131.25,2|0,3:2|0:0,0:0:0:0:
268,266,51037,2,0,L|181:277,1,87.5,8|2,2:3|2:3,0:0:0:0:
140,367,51287,1,0,2:0:0:0:
140,367,51370,2,0,L|151:280,1,87.5,6|2,2:0|3:3,0:0:0:0:
134,177,51620,1,0,2:0:0:0:
134,177,51704,2,0,L|123:264,1,87.5,8|2,2:3|2:3,0:0:0:0:
227,351,52037,5,2,3:2:0:0:
256,355,52120,1,2,2:2:0:0:
285,359,52204,1,2,2:3:0:0:
140,367,52370,5,8,2:3:0:0:
169,371,52453,1,0,0:0:0:0:
198,375,52537,1,2,2:3:0:0:
360,295,52704,5,6,2:0:0:0:
389,299,52787,1,2,2:2:0:0:
418,303,52871,1,2,3:3:0:0:
447,307,52953,1,0,0:0:0:0:
422,337,53037,5,8,2:3:0:0:
418,303,53121,1,2,2:2:0:0:
413,268,53203,1,0,0:0:0:0:
408,233,53287,1,0,3:0:0:0:
403,198,53370,6,0,L|397:154,1,43.75,2|0,3:2|0:0,0:0:0:0:
481,61,53537,2,0,L|487:105,1,43.75,2|0,2:3|0:0,0:0:0:0:
303,213,53704,2,0,L|216:202,1,87.5,8|2,2:3|2:3,0:0:0:0:
107,181,53954,1,8,2:3:0:0:
107,181,54037,6,0,L|194:170,1,87.5,6|2,3:2|3:3,0:0:0:0:
215,77,54287,2,0,L|226:164,1,87.5,0|2,2:0|2:2,0:0:0:0:
155,265,54537,1,2,2:3:0:0:
155,265,54620,1,0,2:0:0:0:
155,265,54704,6,0,L|149:309,3,43.75,10|2|2|2,3:2|2:2|2:3|2:2,0:0:0:0:
168,174,55037,1,8,2:3:0:0:
331,47,55204,1,2,2:3:0:0:
331,47,55287,1,2,2:2:0:0:
331,47,55371,5,10,2:3:0:0:
283,54,55454,1,8,2:3:0:0:
235,60,55537,1,0,3:0:0:0:
187,67,55621,1,2,2:2:0:0:
202,49,55704,5,8,2:3:0:0:
154,56,55787,1,2,1:2:0:0:
106,62,55870,1,2,2:3:0:0:
58,69,55954,1,2,1:2:0:0:
10,76,56038,6,0,B|-6:100|-6:100|95:85,1,131.25,6|0,3:3|0:0,0:0:0:0:
181,107,56371,2,0,L|94:118,1,87.5,8|0,2:3|3:0,0:0:0:0:
32,184,56621,1,0,0:0:0:0:
32,184,56704,2,0,L|21:271,1,87.5,6|0,2:2|3:0,0:0:0:0:
38,374,56954,1,8,2:3:0:0:
38,374,57038,2,0,L|49:287,1,87.5,0|8,3:0|2:3,0:0:0:0:
248,148,57371,5,2,3:2:0:0:
219,152,57454,1,2,2:2:0:0:
188,156,57537,2,0,L|177:243,1,87.5,2|8,2:3|2:3,0:0:0:0:
140,314,57787,2,0,L|151:227,1,87.5,2|2,2:2|2:2,0:0:0:0:
152,198,58037,1,6,2:0:0:0:
248,320,58204,5,2,3:3:0:0:
277,324,58287,1,2,2:2:0:0:
309,310,58371,1,8,2:3:0:0:
338,314,58454,1,2,2:2:0:0:
367,318,58538,1,10,2:3:0:0:
396,322,58620,1,8,2:3:0:0:
425,326,58704,6,0,L|431:282,1,43.75,2|0,3:2|0:0,0:0:0:0:
462,179,58871,2,0,B|438:163|438:163|453:264,1,131.25,2|0,3:3|0:0,0:0:0:0:
458,295,59204,1,2,2:3:0:0:
328,216,59371,6,0,L|241:227,1,87.5,6|2,2:0|3:3,0:0:0:0:
120,240,59621,2,0,L|208:251,1,87.5,0|0,2:0|0:0,0:0:0:0:
328,304,59871,2,0,L|284:309,1,43.75,2|0,2:3|0:0,0:0:0:0:
74,330,60037,5,10,3:2:0:0:
32,150,60204,1,2,2:3:0:0:
16,163,60288,1,2,2:2:0:0:
0,176,60371,2,0,L|87:187,1,87.5,8|2,2:3|2:3,0:0:0:0:
193,136,60621,1,2,2:2:0:0:
175,121,60704,1,6,2:0:0:0:
179,150,60787,1,8,2:3:0:0:
183,179,60871,1,2,3:3:0:0:
187,208,60954,1,2,2:2:0:0:
191,237,61037,6,0,L|196:281,1,43.75,8|2,2:3|2:2,0:0:0:0:
283,148,61204,2,0,L|288:192,1,43.75,2|8,3:3|2:3,0:0:0:0:
422,298,61371,6,0,B|398:314|398:314|413:213,1,131.25,2|0,3:2|0:0,0:0:0:0:
391,127,61704,2,0,L|380:214,1,87.5,8|2,2:3|2:3,0:0:0:0:
314,276,61954,1,0,2:0:0:0:
314,276,62037,2,0,L|227:287,1,87.5,6|2,2:0|3:3,0:0:0:0:
124,270,62287,1,0,0:0:0:0:
124,270,62371,2,0,L|211:259,1,87.5,8|2,2:3|2:3,0:0:0:0:
288,120,62704,5,2,3:2:0:0:
284,149,62787,1,2,2:2:0:0:
280,178,62871,1,2,2:3:0:0:
272,33,63037,5,8,2:3:0:0:
268,62,63120,1,0,0:0:0:0:
264,91,63204,1,2,2:3:0:0:
180,160,63371,5,6,2:0:0:0:
151,164,63454,1,2,2:2:0:0:
122,168,63538,1,2,3:3:0:0:
93,172,63620,1,2,2:2:0:0:
118,202,63704,5,8,2:3:0:0:
122,168,63788,1,2,2:2:0:0:
127,133,63870,1,2,3:3:0:0:
132,98,63954,1,0,3:0:0:0:
137,63,64037,6,0,L|143:19,1,43.75,2|0,3:2|0:0,0:0:0:0:
0,100,64204,2,0,L|44:94,1,43.75,2|0,2:3|0:0,0:0:0:0:
216,144,64371,2,0,L|303:133,1,87.5,8|2,2:3|2:3,0:0:0:0:
412,112,64621,1,8,2:3:0:0:
412,112,64704,6,0,L|325:101,1,87.5,6|2,2:0|3:3,0:0:0:0:
304,8,64954,2,0,L|293:95,1,87.5,0|0,2:0|0:0,0:0:0:0:
364,196,65204,1,2,2:3:0:0:
364,196,65287,1,8,2:3:0:0:
364,196,65371,6,0,L|370:240,3,43.75,0|0|0|0,3:3|3:3|3:3|3:3,0:0:0:0:
291,307,65704,1,8,1:3:0:0:
293,315,65787,1,8,1:3:0:0:
294,324,65870,1,8,1:3:0:0:
295,333,65953,1,0,0:0:0:0:
296,341,66037,6,0,L|302:385,3,43.75,8|8|8|8,3:3|3:3|3:3|3:3,0:0:0:0:
279,220,66371,1,10,3:3:0:0:
279,220,66704,6,0,B|239:208|239:208|151:232|151:232|111:220,2,175,4|10|2,3:3|1:3|1:3,0:0:0:0:
383,300,67537,1,2,3:3:0:0:
383,300,67704,2,0,L|394:213,1,87.5,10|2,1:3|1:3,0:0:0:0:
435,125,68037,6,0,B|395:113|395:113|307:137|307:137|267:125,2,175,2|10|2,3:3|1:3|1:3,0:0:0:0:
393,213,68871,1,2,3:3:0:0:
393,213,69037,2,0,B|309:236|309:236|252:218,1,131.25,10|8,1:3|1:3,0:0:0:0:
239,209,69371,5,2,3:3:0:0:
99,300,69537,1,2,3:3:0:0:
99,300,69704,2,0,L|186:289,1,87.5,10|2,1:3|1:3,0:0:0:0:
459,216,70204,5,2,3:3:0:0:
459,216,70371,2,0,L|372:205,1,87.5,10|2,1:3|1:3,0:0:0:0:
284,161,70704,6,0,B|272:201|272:201|296:289|296:289|284:329,2,175,2|10|2,3:3|1:3|1:3,0:0:0:0:
247,204,71454,5,8,1:3:0:0:
239,180,71537,1,2,3:3:0:0:
311,72,71704,1,10,1:3:0:0:
147,164,71871,1,2,3:3:0:0:
139,140,71954,1,8,1:3:0:0:
131,116,72037,6,0,B|96:99|96:99|136:229,2,175,2|10|2,3:3|1:3|1:3,0:0:0:0:
243,204,72871,1,2,3:3:0:0:
243,204,73038,2,0,L|232:291,1,87.5,10|2,1:3|1:3,0:0:0:0:
371,292,73371,6,0,L|197:268,2,175,2|0|2,3:3|0:0|1:3,0:0:0:0:
475,308,74204,1,2,3:3:0:0:
475,308,74371,2,0,L|486:221,1,87.5,10|2,1:3|3:3,0:0:0:0:
451,232,74621,1,8,1:3:0:0:
443,208,74704,1,2,3:3:0:0:
491,4,75037,5,10,1:3:0:0:
415,188,75287,5,8,1:3:0:0:
407,164,75370,1,2,3:3:0:0:
375,60,75537,1,2,3:3:0:0:
339,264,75704,5,10,1:3:0:0:
183,180,76037,6,0,B|205:211|205:211|139:196|139:196|67:212,2,175,2|10|2,3:3|1:3|1:3,0:0:0:0:
227,216,76787,5,8,1:3:0:0:
251,224,76870,1,2,3:3:0:0:
83,116,77037,5,10,1:3:0:0:
59,108,77120,1,0,0:0:0:0:
35,100,77204,1,2,3:3:0:0:
308,152,77371,6,0,B|348:140|348:140|436:164|436:164|476:152,2,175,6|10|2,3:3|1:3|1:3,0:0:0:0:
184,48,78204,1,2,3:3:0:0:
184,48,78371,2,0,L|271:59,1,87.5,10|2,1:3|1:3,0:0:0:0:
296,188,78704,6,0,B|256:200|256:200|168:176|168:176|128:188,2,175,2|10|2,3:3|1:3|1:3,0:0:0:0:
380,108,79537,1,2,3:3:0:0:
380,108,79704,2,0,B|399:197|399:197|375:233,1,131.25,10|8,1:3|1:3,0:0:0:0:
359,253,80037,5,2,3:3:0:0:
467,381,80203,1,2,3:3:0:0:
467,381,80370,2,0,L|456:294,1,87.5,10|2,1:3|1:3,0:0:0:0:
248,220,80870,5,2,3:3:0:0:
248,220,81037,2,0,L|259:307,1,87.5,10|2,1:3|1:3,0:0:0:0:
104,256,81371,5,2,3:3:0:0:
128,248,81454,1,2,3:2:0:0:
152,240,81538,1,10,1:3:0:0:
256,204,81704,1,10,1:3:0:0:
168,336,81871,5,2,0:2:0:0:
160,360,81954,1,10,1:3:0:0:
76,164,82121,1,10,1:3:0:0:
68,140,82204,1,2,3:3:0:0:
256,204,82371,1,8,1:3:0:0:
104,256,82537,1,2,3:3:0:0:
128,248,82620,1,8,1:3:0:0:
152,240,82704,6,0,B|186:257|186:257|59:305,2,175,2|10|2,3:3|1:3|1:3,0:0:0:0:
272,320,83537,1,2,3:3:0:0:
272,320,83704,2,0,L|359:331,1,87.5,10|2,1:3|1:3,0:0:0:0:
360,192,84037,6,0,L|336:366,2,175,2|10|2,3:3|1:3|1:3,0:0:0:0:
380,80,84871,1,2,3:3:0:0:
380,80,85037,1,10,1:3:0:0:
324,176,85204,1,2,3:3:0:0:
332,200,85287,1,8,1:3:0:0:
340,224,85371,1,2,3:3:0:0:
380,80,85704,5,10,1:3:0:0:
220,132,85871,5,2,3:3:0:0:
220,132,86037,1,2,3:3:0:0:
324,176,86204,1,2,3:3:0:0:
164,228,86371,1,10,1:3:0:0:
220,132,86537,1,2,1:3:0:0:
212,108,86621,1,2,3:3:0:0:
204,84,86704,1,6,1:3:0:0:
256,192,86787,12,8,87954,1:3:0:0:
242,60,88037,6,0,L|198:54,1,43.75,4|0,3:3|0:0,0:0:0:0:
95,23,88204,2,0,B|79:47|79:47|180:32,1,131.25,0|0,2:1|0:0,0:0:0:0:
211,27,88537,1,0,2:1:0:0:
128,142,88704,6,0,L|117:229,1,87.5,6|2,2:0|3:3,0:0:0:0:
104,350,88954,2,0,L|93:262,1,87.5,2|0,1:2|0:0,0:0:0:0:
40,142,89204,2,0,L|35:186,1,43.75,0|2,2:0|1:2,0:0:0:0:
200,285,89371,6,0,L|329:301,1,131.25,2|2,3:3|1:2,0:0:0:0:
488,352,89704,2,0,L|205:316,1,262.5,8|2,2:3|3:3,0:0:0:0:
412,244,90371,6,0,L|456:249,1,43.75,8|0,2:3|0:0,0:0:0:0:
324,192,90537,2,0,L|280:187,1,43.75,2|8,1:3|1:3,0:0:0:0:
80,281,90704,6,0,L|124:287,1,43.75,2|2,3:3|1:2,0:0:0:0:
227,318,90871,2,0,B|243:294|243:294|142:309,1,131.25,2|0,3:3|0:0,0:0:0:0:
111,314,91204,1,2,1:3:0:0:
184,168,91371,6,0,L|196:81,1,87.5,6|2,2:0|3:3,0:0:0:0:
306,99,91621,2,0,L|219:111,1,87.5,2|0,1:2|0:0,0:0:0:0:
68,57,91871,2,0,L|112:62,1,43.75,2|0,1:3|0:0,0:0:0:0:
320,77,92038,6,0,L|336:206,1,131.25,2|2,3:3|1:2,0:0:0:0:
387,365,92371,2,0,L|357:136,1,218.75,8|2,2:3|1:2,0:0:0:0:
356,121,92871,1,2,3:3:0:0:
248,237,93037,1,8,2:3:0:0:
68,48,93204,1,2,1:3:0:0:
68,48,93287,1,8,1:3:0:0:
68,48,93370,6,0,L|74:92,1,43.75,4|0,3:3|0:0,0:0:0:0:
105,195,93537,2,0,B|81:211|81:211|96:110,1,131.25,0|0,2:1|0:0,0:0:0:0:
101,79,93870,1,0,2:1:0:0:
118,67,93954,1,2,1:2:0:0:
135,55,94037,6,0,L|124:142,1,87.5,6|2,2:0|3:3,0:0:0:0:
137,267,94287,2,0,L|148:180,1,87.5,2|0,1:2|0:0,0:0:0:0:
236,36,94537,2,0,L|231:80,1,43.75,0|2,2:0|1:2,0:0:0:0:
425,200,94704,6,0,L|296:216,1,131.25,2|2,3:3|1:2,0:0:0:0:
137,267,95037,2,0,L|420:231,1,262.5,8|2,2:3|3:3,0:0:0:0:
208,156,95704,1,8,2:3:0:0:
340,356,95871,1,2,1:3:0:0:
340,356,95954,1,8,1:3:0:0:
340,356,96037,6,0,L|384:350,1,43.75,2|2,3:3|1:2,0:0:0:0:
512,291,96204,2,0,L|468:297,1,43.75,2|0,3:3|0:0,0:0:0:0:
280,248,96371,2,0,L|193:259,1,87.5,10|2,1:3|1:3,0:0:0:0:
84,280,96620,1,2,1:2:0:0:
84,280,96704,6,0,L|171:291,1,87.5,6|2,2:0|3:3,0:0:0:0:
192,384,96954,2,0,L|203:297,1,87.5,2|0,1:2|0:0,0:0:0:0:
219,173,97204,1,2,1:3:0:0:
222,142,97287,1,2,1:2:0:0:
226,112,97371,6,0,L|232:68,1,43.75,2|0,3:3|0:0,0:0:0:0:
346,82,97537,1,0,2:1:0:0:
346,82,97621,2,0,L|259:93,1,87.5,2|0,1:2|0:0,0:0:0:0:
138,113,97871,1,0,2:1:0:0:
107,116,97954,1,2,1:2:0:0:
312,186,98121,1,2,1:2:0:0:
343,183,98204,1,2,3:3:0:0:
204,203,98371,5,8,2:3:0:0:
208,237,98455,1,0,0:0:0:0:
213,272,98537,1,2,1:3:0:0:
218,307,98621,1,8,1:3:0:0:
223,342,98704,6,0,L|267:348,1,43.75,4|0,3:3|0:0,0:0:0:0:
370,379,98871,2,0,B|386:355|386:355|285:370,1,131.25,0|0,2:1|0:0,0:0:0:0:
254,375,99204,1,0,2:1:0:0:
362,234,99371,6,0,L|373:147,1,87.5,6|2,2:0|3:3,0:0:0:0:
386,26,99621,2,0,L|397:114,1,87.5,2|0,1:2|0:0,0:0:0:0:
454,234,99871,2,0,L|459:190,1,43.75,0|2,2:0|1:2,0:0:0:0:
288,84,100037,6,0,L|159:68,1,131.25,2|2,3:3|1:2,0:0:0:0:
0,17,100371,2,0,L|283:53,1,262.5,8|2,2:3|3:3,0:0:0:0:
72,124,101037,6,0,L|77:168,1,43.75,8|0,2:3|0:0,0:0:0:0:
134,300,101204,2,0,L|129:256,1,43.75,2|8,1:3|1:3,0:0:0:0:
260,50,101371,6,0,L|304:56,1,43.75,2|2,3:3|1:2,0:0:0:0:
407,87,101538,2,0,B|423:63|423:63|322:78,1,131.25,2|0,3:3|0:0,0:0:0:0:
291,83,101871,1,2,1:3:0:0:
272,216,102037,6,0,L|260:303,1,87.5,6|2,1:2|3:3,0:0:0:0:
150,285,102287,2,0,L|237:273,1,87.5,2|0,1:2|0:0,0:0:0:0:
388,327,102537,2,0,L|344:322,1,43.75,2|2,1:3|1:2,0:0:0:0:
136,307,102704,6,0,L|120:178,1,131.25,2|2,3:3|1:2,0:0:0:0:
69,19,103037,2,0,L|99:248,1,218.75,8|2,2:3|1:2,0:0:0:0:
100,263,103537,1,2,3:3:0:0:
188,88,103704,1,8,2:3:0:0:
432,256,103871,1,2,1:3:0:0:
432,256,103954,1,8,1:3:0:0:
432,256,104037,6,0,L|388:250,1,43.75,4|0,3:3|0:0,0:0:0:0:
285,219,104204,2,0,B|269:243|269:243|370:228,1,131.25,0|0,2:1|0:0,0:0:0:0:
401,223,104537,1,0,2:1:0:0:
413,206,104621,1,2,1:2:0:0:
425,189,104704,6,0,L|338:200,1,87.5,6|2,2:0|3:3,0:0:0:0:
213,187,104954,2,0,L|300:176,1,87.5,2|0,1:2|0:0,0:0:0:0:
368,48,105204,2,0,L|363:92,1,43.75,0|2,2:0|1:2,0:0:0:0:
332,324,105371,6,0,L|203:308,1,131.25,2|2,3:3|1:2,0:0:0:0:
44,257,105704,2,0,L|327:293,1,262.5,8|2,2:3|3:3,0:0:0:0:
120,368,106371,1,8,2:3:0:0:
280,172,106538,1,2,1:3:0:0:
280,172,106621,1,8,1:3:0:0:
280,172,106704,6,0,L|324:178,1,43.75,2|2,3:3|1:2,0:0:0:0:
452,237,106871,2,0,L|408:231,1,43.75,2|0,3:3|0:0,0:0:0:0:
212,280,107037,2,0,L|124:268,1,87.5,10|2,1:3|1:3,0:0:0:0:
3,292,107287,1,2,1:2:0:0:
3,292,107371,6,0,L|93:302,1,87.5,6|2,2:0|3:3,0:0:0:0:
159,350,107621,2,0,L|126:268,1,87.5,2|0,1:2|0:0,0:0:0:0:
82,150,107871,1,2,1:3:0:0:
113,147,107954,1,2,1:2:0:0:
143,143,108038,6,0,L|187:137,1,43.75,2|0,3:3|0:0,0:0:0:0:
173,23,108204,1,0,2:1:0:0:
173,23,108288,2,0,L|162:110,1,87.5,2|0,1:2|0:0,0:0:0:0:
102,243,108537,1,0,2:1:0:0:
98,272,108620,1,2,1:2:0:0:
128,263,108704,6,0,L|134:307,3,43.75,6|2|2|2,2:0|1:2|3:3|1:2,0:0:0:0:
192,384,109037,5,8,2:3:0:0:
226,380,109122,1,0,0:0:0:0:
261,375,109204,1,2,1:3:0:0:
296,370,109288,1,8,1:3:0:0:
331,365,109370,6,0,L|375:359,1,43.75,6|0,3:3|0:0,0:0:0:0:
397,333,109537,2,0,L|484:344,2,87.5,2|10|2,1:3|1:3|1:3,0:0:0:0:
312,260,110037,6,0,L|323:173,1,87.5,6|2,1:2|3:3,0:0:0:0:
275,101,110287,2,0,L|344:154,1,87.5,2|0,1:2|0:0,0:0:0:0:
444,200,110537,2,0,L|369:231,1,43.75,2|2,1:3|1:2,0:0:0:0:
220,192,110704,5,2,3:2:0:0:
216,221,110787,1,2,2:2:0:0:
212,252,110870,2,0,L|125:263,1,87.5,2|8,2:3|2:3,0:0:0:0:
54,300,111120,2,0,L|141:289,1,87.5,2|2,2:2|2:2,0:0:0:0:
170,288,111370,1,2,2:0:0:0:
44,196,111537,5,8,2:3:0:0:
13,199,111620,1,2,2:2:0:0:
176,96,111787,1,2,2:2:0:0:
207,93,111870,1,2,3:3:0:0:
284,208,112037,6,0,L|290:164,1,43.75,2|0,3:3|0:0,0:0:0:0:
316,142,112204,2,0,L|305:55,2,87.5,2|10|2,1:3|1:3|1:3,0:0:0:0:
344,284,112621,1,2,1:2:0:0:
344,284,112704,6,0,L|431:273,1,87.5,6|2,1:2|3:3,0:0:0:0:
501,287,112954,2,0,L|457:293,1,43.75,2|10,1:2|1:3,0:0:0:0:
240,324,113371,5,2,3:2:0:0:
256,160,113538,1,2,2:3:0:0:
271,173,113622,1,2,2:2:0:0:
287,186,113705,2,0,L|200:197,1,87.5,8|2,2:3|3:3,0:0:0:0:
100,160,113954,5,8,2:3:0:0:
100,160,114037,2,0,L|95:204,1,43.75,6|2,2:0|2:2,0:0:0:0:
124,336,114204,2,0,L|129:292,1,43.75,2|2,3:3|2:2,0:0:0:0:
104,352,114371,6,0,L|109:308,1,43.75,2|2,3:3|2:2,0:0:0:0:
84,139,114537,2,0,L|78:182,1,43.75,8|2,2:3|3:3,0:0:0:0:
236,300,114704,6,0,L|280:306,1,43.75,2|0,3:3|0:0,0:0:0:0:
302,332,114871,2,0,L|389:321,2,87.5,2|10|2,1:3|1:3|3:3,0:0:0:0:
276,200,115371,6,0,L|265:113,1,87.5,6|10,1:2|1:3,0:0:0:0:
313,41,115621,2,0,L|243:94,1,87.5,2|0,1:2|0:0,0:0:0:0:
144,140,115871,2,0,L|218:171,1,43.75,2|2,3:3|1:2,0:0:0:0:
372,200,116037,5,2,3:2:0:0:
376,229,116120,1,2,2:2:0:0:
380,258,116204,1,2,2:3:0:0:
388,113,116370,5,8,2:3:0:0:
392,142,116453,1,2,2:2:0:0:
396,171,116537,1,2,3:3:0:0:
249,37,116705,5,6,2:0:0:0:
253,66,116788,1,2,2:2:0:0:
257,95,116872,1,0,0:0:0:0:
261,124,116954,1,2,2:2:0:0:
291,99,117038,5,2,3:3:0:0:
257,95,117122,1,0,0:0:0:0:
222,90,117204,1,2,3:3:0:0:
187,85,117288,1,8,2:3:0:0:
152,80,117371,6,0,L|108:74,1,43.75,2|0,3:3|0:0,0:0:0:0:
86,48,117537,2,0,L|-1:59,2,87.5,2|10|2,1:3|1:3|1:3,0:0:0:0:
119,175,117954,5,2,1:2:0:0:
119,175,118037,2,0,L|206:186,1,87.5,6|2,1:2|3:3,0:0:0:0:
276,172,118287,2,0,L|232:166,1,43.75,2|10,1:2|1:3,0:0:0:0:
88,304,118704,5,10,3:3:0:0:
119,307,118787,1,8,1:0:0:0:
232,348,118954,1,8,1:0:0:0:
263,351,119037,1,8,2:3:0:0:
460,140,119204,5,10,3:3:0:0:
429,143,119287,1,8,1:0:0:0:
316,184,119454,1,8,3:0:0:0:
285,187,119537,1,8,3:0:0:0:
432,358,119704,5,8,2:3:0:0:
435,334,119787,1,8,2:1:0:0:
438,311,119871,1,2,3:3:0:0:
441,288,119953,1,0,3:0:0:0:
444,264,120037,6,0,L|341:277,1,94.500002307129,14|0,3:3|0:0,0:0:0:0:
326,280,120371,1,10,3:3:0:0:
239,212,120537,1,0,0:0:0:0:
123,319,120704,2,0,L|225:332,2,94.500002307129,2|0|0,0:3|0:0|0:0,0:0:0:0:
239,212,121371,6,0,L|222:79,3,126.000003076172,2|2|2|2,0:3|3:3|0:3|3:3,0:0:0:0:
402,16,122704,6,0,L|344:127,3,126.000003076172,2|2|2|2,0:3|3:3|0:3|3:3,0:0:0:0:
223,87,124037,6,0,L|239:212,2,126.000003076172,2|2|2,0:3|3:3|0:3,0:0:0:0:
114,182,124871,1,0,0:0:0:0:
114,182,125037,2,0,L|207:193,1,94.500002307129,6|0,3:2|0:0,0:0:0:0:
239,212,125371,6,0,L|223:87,3,126.000003076172,0|2|2|2,0:0|3:3|0:3|3:3,0:0:0:0:
352,288,126704,6,0,L|240:345,3,126.000003076172,2|2|2|2,0:3|3:3|0:3|3:3,0:0:0:0:
223,87,128037,6,0,L|239:212,3,126.000003076172,2|2|2|2,0:3|3:3|0:3|3:3,0:0:0:0:
215,330,129371,5,2,3:3:0:0:
186,326,129454,1,8,3:3:0:0:
157,322,129538,1,0,3:3:0:0:
128,318,129620,1,0,0:0:0:0:
139,342,129704,5,0,0:0:0:0:
110,346,129787,1,0,0:0:0:0:
81,350,129871,1,8,3:3:0:0:
52,354,129953,1,0,3:3:0:0:
27,358,130037,6,0,L|32:320,1,31.500000769043,0|0,3:3|3:3,0:0:0:0:
75,246,130204,2,0,L|72:225,2,21.0000005126953,8|8|8,1:3|1:3|1:3,0:0:0:0:
128,318,130371,5,0,3:3:0:0:
169,323,130454,1,8,1:3:0:0:
211,329,130537,1,8,1:3:0:0:
253,335,130621,1,8,1:3:0:0:
293,341,130704,5,0,2:2:0:0:
256,192,134704,12,0,135662,0:0:0:0:
474,351,135704,6,0,L|472:335,6,15.7500003845215,4|0|0|0|0|0|0,1:1|0:0|0:0|0:0|0:0|0:0|0:0,0:0:0:0:
442,319,136037,6,0,B|460:291|460:291|343:308,1,147.000001794434,4|0,3:3|0:0,0:0:0:0:
226,275,136371,2,0,B|207:302|207:302|324:285,1,147.000001794434,8|0,2:3|0:0,0:0:0:0:
378,207,136704,2,0,L|390:121,1,49.0000005981445,6|0,2:0|0:0,0:0:0:0:
302,43,136871,2,0,L|314:128,1,49.0000005981445,2|0,3:3|0:0,0:0:0:0:
502,119,137037,2,0,L|404:131,1,98.0000011962891,8|0,2:3|2:0,0:0:0:0:
268,182,137287,1,0,0:0:0:0:
232,178,137371,6,0,L|134:166,2,98.0000011962891,2|2|8,3:2|2:3|2:3,0:0:0:0:
94,68,137871,2,0,L|119:262,1,196.000002392578,2|2,2:3|3:3,0:0:0:0:
88,371,138287,1,2,2:2:0:0:
70,356,138371,1,8,2:3:0:0:
106,352,138454,1,2,2:2:0:0:
142,348,138538,1,2,2:0:0:0:
178,344,138621,1,8,2:3:0:0:
214,340,138704,6,0,L|264:334,1,49.0000005981445,0|0,3:3|0:0,0:0:0:0:
382,298,138871,2,0,B|400:326|400:326|284:309,1,147.000001794434,0|0,2:1|0:0,0:0:0:0:
249,303,139204,1,0,2:1:0:0:
455,111,139371,2,0,L|443:209,1,98.0000011962891,6|2,2:0|3:3,0:0:0:0:
400,325,139621,2,0,L|412:227,1,98.0000011962891,0|0,0:0|0:0,0:0:0:0:
350,142,139871,1,0,2:0:0:0:
354,106,139954,1,0,0:0:0:0:
358,70,140037,6,0,L|364:20,2,49.0000005981445,2|2|2,3:2|2:2|2:3,0:0:0:0:
258,124,140287,1,2,2:2:0:0:
258,124,140371,2,0,L|113:143,1,147.000001794434,8|2,2:3|2:2,0:0:0:0:
34,107,140704,5,6,2:0:0:0:
26,160,140787,1,0,0:0:0:0:
19,213,140870,1,2,3:3:0:0:
12,266,140954,1,2,2:2:0:0:
42,298,141037,5,8,2:3:0:0:
50,245,141120,1,2,2:2:0:0:
57,192,141203,1,2,2:0:0:0:
64,139,141287,1,8,2:3:0:0:
71,86,141371,6,0,L|121:80,1,49.0000005981445,0|0,3:3|0:0,0:0:0:0:
228,12,141537,2,0,B|200:-6|200:-6|217:110,1,147.000001794434,0|0,2:1|0:0,0:0:0:0:
184,200,141871,1,0,2:1:0:0:
220,204,141955,1,0,0:0:0:0:
256,208,142037,2,0,L|354:220,1,98.0000011962891,6|2,2:0|3:3,0:0:0:0:
470,263,142287,2,0,L|372:251,1,98.0000011962891,0|0,0:0|0:0,0:0:0:0:
280,308,142537,1,0,2:0:0:0:
244,304,142621,1,0,0:0:0:0:
208,300,142704,6,0,L|110:288,2,98.0000011962891,2|2|8,3:2|2:3|2:3,0:0:0:0:
96,384,143204,2,0,L|71:190,1,196.000002392578,2|2,2:3|3:3,0:0:0:0:
60,100,143621,1,2,2:2:0:0:
56,64,143705,1,8,2:3:0:0:
256,208,143871,1,2,2:0:0:0:
220,204,143955,1,8,2:3:0:0:
184,200,144037,6,0,L|178:150,1,49.0000005981445,0|0,3:3|0:0,0:0:0:0:
160,8,144204,2,0,L|165:56,1,49.0000005981445,0|0,2:1|0:0,0:0:0:0:
192,304,144371,1,8,2:3:0:0:
320,288,144537,1,0,2:1:0:0:
356,284,144621,1,0,0:0:0:0:
392,280,144703,6,0,L|398:230,1,49.0000005981445,6|0,2:0|0:0,0:0:0:0:
416,88,144870,2,0,L|410:136,1,49.0000005981445,2|0,3:3|0:0,0:0:0:0:
384,384,145037,1,8,2:3:0:0:
192,304,145204,1,0,2:0:0:0:
156,308,145288,1,0,0:0:0:0:
120,312,145371,5,2,3:2:0:0:
133,328,145454,2,0,L|127:378,1,49.0000005981445,2|2,2:2|2:3,0:0:0:0:
32,236,145621,1,2,2:2:0:0:
19,252,145704,2,0,L|25:302,1,49.0000005981445,8|2,2:3|2:2,0:0:0:0:
146,147,145871,1,2,2:3:0:0:
159,163,145954,2,0,L|153:213,1,49.0000005981445,2|6,2:2|2:0,0:0:0:0:
49,54,146121,1,0,0:0:0:0:
36,70,146204,2,0,L|42:120,1,49.0000005981445,2|2,3:3|2:2,0:0:0:0:
201,304,146370,5,8,2:3:0:0:
254,296,146453,1,2,2:2:0:0:
307,289,146536,1,2,2:0:0:0:
360,282,146621,1,8,2:3:0:0:
413,275,146704,6,0,B|431:247|431:247|314:264,1,147.000001794434,4|0,3:3|0:0,0:0:0:0:
197,231,147037,2,0,B|178:258|178:258|295:241,1,147.000001794434,8|0,2:3|0:0,0:0:0:0:
353,163,147371,2,0,L|341:77,1,49.0000005981445,6|0,2:0|0:0,0:0:0:0:
429,1,147538,2,0,L|417:86,1,49.0000005981445,2|0,3:3|0:0,0:0:0:0:
229,76,147704,2,0,L|327:88,1,98.0000011962891,8|0,2:3|2:0,0:0:0:0:
463,139,147954,1,0,0:0:0:0:
499,135,148037,1,2,3:2:0:0:
281,241,148204,5,2,2:3:0:0:
245,237,148287,1,2,2:2:0:0:
209,233,148371,1,8,2:3:0:0:
173,229,148454,1,2,2:2:0:0:
137,225,148537,2,0,L|118:68,1,147.000001794434,2|0,2:3|0:0,0:0:0:0:
113,38,148871,1,2,3:3:0:0:
29,217,149037,1,8,2:3:0:0:
240,140,149204,1,2,2:0:0:0:
276,144,149287,1,8,2:3:0:0:
312,148,149371,6,0,L|362:155,1,49.0000005981445,0|0,3:3|0:0,0:0:0:0:
480,190,149537,2,0,B|498:162|498:162|382:179,1,147.000001794434,0|0,2:1|0:0,0:0:0:0:
347,185,149870,1,0,2:1:0:0:
196,340,150037,2,0,L|294:328,1,98.0000011962891,6|2,2:0|3:3,0:0:0:0:
410,285,150287,2,0,L|312:297,1,98.0000011962891,0|0,0:0|0:0,0:0:0:0:
228,240,150537,1,0,2:0:0:0:
192,244,150620,1,0,0:0:0:0:
156,247,150704,6,0,L|106:253,2,49.0000005981445,2|2|2,3:2|2:2|2:3,0:0:0:0:
210,148,150953,1,0,0:0:0:0:
210,148,151037,2,0,L|229:3,1,147.000001794434,8|2,2:3|2:2,0:0:0:0:
320,40,151371,5,6,2:0:0:0:
373,32,151454,1,0,0:0:0:0:
426,25,151537,1,2,3:3:0:0:
479,18,151621,1,2,2:2:0:0:
512,48,151704,5,8,2:3:0:0:
459,56,151787,1,2,2:2:0:0:
406,63,151870,1,2,2:0:0:0:
353,70,151954,1,8,2:3:0:0:
300,77,152038,6,0,L|294:127,1,49.0000005981445,0|0,3:3|0:0,0:0:0:0:
328,248,152204,2,0,B|346:220|346:220|230:237,1,147.000001794434,0|0,2:1|0:0,0:0:0:0:
128,288,152537,1,0,2:1:0:0:
132,252,152621,1,0,0:0:0:0:
136,216,152704,2,0,L|147:118,1,98.0000011962891,6|2,2:0|3:3,0:0:0:0:
191,2,152954,2,0,L|178:100,1,98.0000011962891,0|0,0:0|0:0,0:0:0:0:
248,176,153203,1,0,0:0:0:0:
284,172,153287,1,0,0:0:0:0:
320,168,153370,6,0,L|418:156,1,98.0000011962891,0|2,0:0|2:3,0:0:0:0:
453,152,153621,1,2,2:2:0:0:
489,148,153705,1,8,2:3:0:0:
408,328,153871,1,2,2:3:0:0:
412,292,153955,1,2,2:2:0:0:
416,256,154037,2,0,L|466:250,3,49.0000005981445,6|0|2|2,2:0|0:0|3:3|2:2,0:0:0:0:
316,268,154371,1,8,2:3:0:0:
212,180,154537,1,2,2:0:0:0:
176,184,154621,1,8,2:3:0:0:
140,188,154703,6,0,L|134:238,1,49.0000005981445,0|0,3:3|0:0,0:0:0:0:
116,380,154870,2,0,L|121:332,1,49.0000005981445,0|0,2:1|0:0,0:0:0:0:
148,84,155037,1,8,2:3:0:0:
276,100,155203,1,0,2:1:0:0:
312,104,155287,1,0,0:0:0:0:
348,108,155371,6,0,L|354:158,1,49.0000005981445,6|0,2:0|0:0,0:0:0:0:
372,300,155537,2,0,L|366:252,1,49.0000005981445,2|0,3:3|0:0,0:0:0:0:
340,4,155703,1,8,2:3:0:0:
148,84,155871,1,0,2:0:0:0:
112,80,155955,1,0,0:0:0:0:
76,76,156037,6,0,L|70:26,1,49.0000005981445,2|2,3:2|2:2,0:0:0:0:
56,100,156204,2,0,L|50:50,1,49.0000005981445,2|2,2:3|2:2,0:0:0:0:
120,188,156371,2,0,L|217:199,1,98.0000011962891,8|2,2:3|2:3,0:0:0:0:
332,248,156621,1,2,2:2:0:0:
314,263,156704,5,6,2:0:0:0:
306,210,156787,1,0,0:0:0:0:
299,157,156870,1,2,3:3:0:0:
292,104,156954,1,2,2:2:0:0:
322,71,157037,5,8,2:3:0:0:
330,124,157120,1,2,2:2:0:0:
337,177,157203,1,2,2:0:0:0:
344,230,157287,1,8,2:3:0:0:
351,283,157370,6,0,B|369:311|369:311|252:294,1,147.000001794434,4|0,3:3|0:0,0:0:0:0:
135,327,157704,2,0,B|116:300|116:300|233:317,1,147.000001794434,8|0,2:3|0:0,0:0:0:0:
204,200,158037,2,0,L|118:188,1,49.0000005981445,6|0,2:0|0:0,0:0:0:0:
40,276,158204,2,0,L|125:264,1,49.0000005981445,2|0,3:3|0:0,0:0:0:0:
116,76,158370,2,0,L|128:174,1,98.0000011962891,8|0,2:3|2:0,0:0:0:0:
296,216,158621,1,0,0:0:0:0:
332,220,158705,6,0,L|430:232,2,98.0000011962891,2|2|8,3:2|2:3|2:3,0:0:0:0:
470,330,159205,2,0,L|445:136,1,196.000002392578,2|2,2:3|3:3,0:0:0:0:
476,27,159621,1,2,2:2:0:0:
494,42,159705,1,8,2:3:0:0:
458,46,159788,1,2,2:2:0:0:
422,50,159872,1,2,2:0:0:0:
386,54,159955,1,8,2:3:0:0:
350,58,160038,6,0,L|300:64,1,49.0000005981445,0|0,3:3|0:0,0:0:0:0:
73,74,160204,2,0,B|55:102|55:102|171:85,1,147.000001794434,0|0,2:1|0:0,0:0:0:0:
206,79,160537,1,0,2:1:0:0:
295,272,160704,2,0,L|307:174,1,98.0000011962891,6|2,2:0|3:3,0:0:0:0:
350,58,160954,2,0,L|338:156,1,98.0000011962891,0|0,0:0|0:0,0:0:0:0:
403,239,161204,1,0,2:0:0:0:
399,275,161287,1,0,0:0:0:0:
395,311,161370,6,0,L|389:361,2,49.0000005981445,0|2|2,0:0|2:2|2:3,0:0:0:0:
295,272,161620,1,0,0:0:0:0:
295,272,161704,2,0,L|150:253,1,147.000001794434,8|2,2:3|2:2,0:0:0:0:
71,289,162038,5,6,2:0:0:0:
63,236,162121,1,0,0:0:0:0:
56,183,162204,1,2,3:3:0:0:
49,130,162288,1,2,2:2:0:0:
79,98,162371,5,8,2:3:0:0:
87,151,162454,1,2,2:2:0:0:
94,204,162537,1,2,2:0:0:0:
101,257,162621,1,8,2:3:0:0:
108,310,162705,6,0,L|158:316,1,49.0000005981445,0|0,3:3|0:0,0:0:0:0:
270,369,162871,2,0,B|242:387|242:387|259:271,1,147.000001794434,0|0,2:1|0:0,0:0:0:0:
222,182,163204,1,0,2:1:0:0:
258,178,163287,1,0,0:0:0:0:
294,174,163371,2,0,L|392:162,1,98.0000011962891,6|2,2:0|3:3,0:0:0:0:
508,119,163621,2,0,L|410:131,1,98.0000011962891,0|0,0:0|0:0,0:0:0:0:
311,76,163871,1,0,2:0:0:0:
275,80,163955,1,0,0:0:0:0:
239,84,164037,6,0,L|141:96,2,98.0000011962891,0|2|8,0:0|2:3|2:3,0:0:0:0:
127,0,164537,2,0,L|102:194,1,196.000002392578,0|2,0:0|3:3,0:0:0:0:
91,284,164954,1,2,2:2:0:0:
87,320,165038,1,8,2:3:0:0:
281,176,165204,1,2,2:0:0:0:
245,180,165288,1,8,2:3:0:0:
209,184,165370,6,0,L|203:234,1,49.0000005981445,0|0,3:3|0:0,0:0:0:0:
185,376,165537,2,0,L|190:328,1,49.0000005981445,0|0,2:1|0:0,0:0:0:0:
217,80,165704,1,8,2:3:0:0:
345,96,165870,1,0,2:1:0:0:
381,100,165954,1,0,0:0:0:0:
417,104,166037,6,0,L|422:152,1,49.0000005981445,6|0,2:0|0:0,0:0:0:0:
441,296,166203,2,0,L|435:248,1,49.0000005981445,0|0,0:0|0:0,0:0:0:0:
409,0,166370,1,8,2:3:0:0:
245,180,166537,1,0,2:0:0:0:
249,216,166621,1,0,0:0:0:0:
253,252,166704,5,2,3:2:0:0:
269,239,166787,2,0,L|319:245,1,49.0000005981445,2|2,2:2|2:3,0:0:0:0:
177,340,166954,1,2,2:2:0:0:
193,353,167037,2,0,L|243:347,1,49.0000005981445,8|2,2:3|2:2,0:0:0:0:
88,226,167204,1,2,2:3:0:0:
104,213,167287,2,0,L|154:219,1,49.0000005981445,2|6,2:2|2:0,0:0:0:0:
6,332,167454,1,0,0:0:0:0:
22,345,167537,2,0,L|72:339,1,49.0000005981445,2|2,3:3|2:2,0:0:0:0:
365,289,167704,5,8,2:3:0:0:
357,236,167787,1,2,2:2:0:0:
350,183,167870,1,2,2:0:0:0:
343,130,167954,1,8,2:3:0:0:
336,77,168037,6,0,B|354:49|354:49|237:66,1,147.000001794434,4|0,3:3|0:0,0:0:0:0:
120,33,168371,2,0,B|101:60|101:60|218:43,1,147.000001794434,8|0,2:3|0:0,0:0:0:0:
181,160,168704,2,0,L|169:246,1,49.0000005981445,6|0,2:0|0:0,0:0:0:0:
257,324,168871,2,0,L|245:239,1,49.0000005981445,2|0,3:3|0:0,0:0:0:0:
57,248,169037,2,0,L|155:236,1,98.0000011962891,8|0,2:3|2:0,0:0:0:0:
291,185,169287,1,0,0:0:0:0:
327,189,169371,1,2,3:2:0:0:
512,329,169537,5,2,2:3:0:0:
476,325,169620,1,2,2:2:0:0:
440,321,169704,1,8,2:3:0:0:
404,317,169787,1,2,2:2:0:0:
368,313,169871,2,0,L|211:294,1,147.000001794434,2|0,2:3|0:0,0:0:0:0:
181,289,170205,1,2,3:3:0:0:
327,189,170371,1,8,2:3:0:0:
140,52,170537,5,2,2:0:0:0:
136,88,170621,1,8,2:3:0:0:
165,108,170704,5,0,3:3:0:0:
169,72,170787,1,0,0:0:0:0:
173,36,170871,1,0,2:1:0:0:
69,170,171037,1,8,2:3:0:0:
65,206,171121,1,0,0:0:0:0:
61,242,171204,1,0,2:1:0:0:
257,213,171371,5,6,2:0:0:0:
221,217,171454,1,0,0:0:0:0:
185,221,171538,1,2,3:3:0:0:
11,357,171704,1,8,2:3:0:0:
47,353,171788,1,0,0:0:0:0:
83,349,171871,1,0,2:0:0:0:
119,345,171954,1,0,0:0:0:0:
155,341,172037,5,2,3:2:0:0:
289,323,172204,1,2,2:3:0:0:
423,305,172371,2,0,L|442:160,1,147.000001794434,8|2,2:3|2:2,0:0:0:0:
452,65,172704,5,6,2:0:0:0:
399,73,172787,1,0,0:0:0:0:
346,80,172870,1,2,3:3:0:0:
293,87,172954,1,2,2:2:0:0:
260,57,173037,5,8,2:3:0:0:
313,49,173120,1,2,2:2:0:0:
366,42,173203,1,2,2:0:0:0:
419,35,173287,1,8,2:3:0:0:
472,28,173371,6,0,L|466:78,1,49.0000005981445,0|0,3:3|0:0,0:0:0:0:
500,199,173537,2,0,B|518:171|518:171|402:188,1,147.000001794434,0|0,2:1|0:0,0:0:0:0:
313,255,173871,1,0,2:1:0:0:
277,251,173955,1,0,0:0:0:0:
241,247,174037,2,0,L|143:235,1,98.0000011962891,6|2,2:0|3:3,0:0:0:0:
27,192,174287,2,0,L|125:204,1,98.0000011962891,0|0,0:0|0:0,0:0:0:0:
221,77,174537,1,0,2:0:0:0:
225,113,174621,1,0,0:0:0:0:
229,149,174704,6,0,L|241:247,1,98.0000011962891,2|2,3:2|2:3,0:0:0:0:
245,282,174954,1,2,2:2:0:0:
249,318,175037,1,8,2:3:0:0:
403,188,175204,1,2,2:3:0:0:
367,184,175287,1,2,2:2:0:0:
331,180,175370,2,0,L|325:130,3,49.0000005981445,6|0|2|2,2:0|0:0|3:3|2:2,0:0:0:0:
343,280,175704,1,8,2:3:0:0:
160,207,175871,1,2,2:0:0:0:
124,203,175955,1,8,2:3:0:0:
88,199,176037,6,0,L|82:149,1,49.0000005981445,0|0,3:3|0:0,0:0:0:0:
64,7,176204,2,0,L|69:55,1,49.0000005981445,0|0,2:1|0:0,0:0:0:0:
96,303,176371,1,8,2:3:0:0:
224,287,176537,1,0,2:1:0:0:
260,283,176621,1,0,0:0:0:0:
296,279,176703,6,0,L|302:229,1,49.0000005981445,6|0,2:0|0:0,0:0:0:0:
320,87,176870,2,0,L|314:135,1,49.0000005981445,2|0,3:3|0:0,0:0:0:0:
288,383,177037,1,8,2:3:0:0:
88,199,177204,1,0,2:0:0:0:
52,203,177288,1,0,0:0:0:0:
16,207,177371,6,0,L|10:257,1,49.0000005981445,2|2,3:2|2:2,0:0:0:0:
111,351,177537,2,0,L|116:302,1,49.0000005981445,2|2,2:3|2:2,0:0:0:0:
233,120,177704,6,0,L|227:170,1,49.0000005981445,8|0,2:3|0:0,0:0:0:0:
328,264,177870,2,0,L|333:215,1,49.0000005981445,0|2,2:1|1:2,0:0:0:0:
461,87,178037,5,6,2:0:0:0:
463,69,178121,1,2,1:2:0:0:
465,51,178204,1,2,3:3:0:0:
467,33,178288,1,0,0:0:0:0:
469,15,178371,5,8,2:3:0:0:
460,88,178454,1,0,0:0:0:0:
453,163,178537,1,2,1:3:0:0:
444,238,178621,1,8,1:3:0:0:
436,313,178704,6,0,B|398:337|398:337|421:182,2,175,6|10|2,3:3|1:3|1:3,0:0:0:0:
308,295,179537,1,2,3:3:0:0:
308,295,179704,2,0,L|221:284,1,87.5,10|2,1:3|1:3,0:0:0:0:
133,329,180037,6,0,B|121:289|121:289|145:201|145:201|133:161,2,175,2|10|2,3:3|1:3|1:3,0:0:0:0:
221,284,180871,1,2,3:3:0:0:
221,284,181037,2,0,B|244:200|244:200|226:143,1,131.25,10|8,1:3|1:3,0:0:0:0:
217,130,181371,5,2,3:3:0:0:
417,160,181537,1,2,3:3:0:0:
417,160,181704,2,0,L|330:149,1,87.5,10|2,1:3|1:3,0:0:0:0:
58,212,182204,5,2,3:3:0:0:
58,212,182371,2,0,L|145:201,1,87.5,10|2,1:3|1:3,0:0:0:0:
230,157,182704,6,0,B|242:197|242:197|218:285|218:285|230:325,2,175,2|10|2,1:3|1:3|1:2,0:0:0:0:
267,200,183454,5,10,1:3:0:0:
275,176,183537,1,2,1:3:0:0:
203,68,183704,1,8,1:3:0:0:
387,128,183871,1,2,1:3:0:0:
395,104,183954,1,8,1:3:0:0:
403,80,184037,6,0,L|427:254,2,175,2|10|2,1:3|1:3|1:3,0:0:0:0:
311,208,184871,1,2,3:3:0:0:
311,208,185037,2,0,L|224:197,1,87.5,10|2,1:3|1:3,0:0:0:0:
223,336,185371,6,0,L|247:162,2,175,2|0|2,3:3|0:0|1:3,0:0:0:0:
38,275,186204,1,2,3:3:0:0:
38,275,186371,2,0,L|125:286,1,87.5,10|2,1:3|1:3,0:0:0:0:
114,251,186621,1,8,1:3:0:0:
138,243,186704,1,2,3:3:0:0:
342,291,187037,5,10,1:3:0:0:
172,136,187287,5,2,1:2:0:0:
148,144,187370,1,2,1:3:0:0:
44,176,187537,1,2,3:3:0:0:
256,204,187704,5,10,1:3:0:0:
384,31,188037,6,0,L|406:192,1,131.25,2|0,3:3|0:0,0:0:0:0:
404,190,188371,2,0,L|491:201,1,87.5,0|0,0:0|0:0,0:0:0:0:
191,98,188704,2,0,L|278:109,1,87.5,0|0,0:0|0:0,0:0:0:0:
10,212,189037,1,0,0:0:0:0:
37,215,189120,1,0,0:0:0:0:
65,219,189203,1,0,0:0:0:0:
93,222,189288,1,0,0:0:0:0:
121,225,189371,6,0,L|165:231,1,43.75,4|0,3:3|0:0,0:0:0:0:
268,262,189537,2,0,B|284:238|284:238|183:253,1,131.25,0|0,2:1|0:0,0:0:0:0:
152,258,189871,1,0,2:1:0:0:
222,147,190037,6,0,L|234:60,1,87.5,6|2,2:0|3:3,0:0:0:0:
344,78,190287,2,0,L|257:90,1,87.5,2|0,1:2|0:0,0:0:0:0:
106,36,190537,2,0,L|150:41,1,43.75,0|2,2:0|1:2,0:0:0:0:
467,3,190704,6,0,L|451:132,1,131.25,2|2,3:3|1:2,0:0:0:0:
400,291,191037,2,0,L|436:8,1,262.5,8|2,2:3|3:3,0:0:0:0:
314,113,191704,1,8,2:3:0:0:
158,18,191871,1,2,1:3:0:0:
42,165,192037,6,0,L|86:159,1,43.75,2|2,3:3|1:2,0:0:0:0:
189,128,192204,2,0,B|205:152|205:152|104:137,1,131.25,2|0,3:3|0:0,0:0:0:0:
73,132,192537,1,2,1:3:0:0:
139,245,192704,6,0,L|226:256,1,87.5,2|2,1:3|3:3,0:0:0:0:
347,269,192954,2,0,L|259:280,1,87.5,2|0,1:2|0:0,0:0:0:0:
304,132,193204,2,0,L|299:176,1,43.75,2|2,1:3|1:2,0:0:0:0:
28,320,193371,6,0,L|44:191,1,131.25,2|2,3:3|1:2,0:0:0:0:
95,32,193704,2,0,L|65:261,1,218.75,8|2,2:3|1:2,0:0:0:0:
64,276,194204,1,2,3:3:0:0:
200,140,194371,1,8,2:3:0:0:
293,342,194537,1,2,1:3:0:0:
293,342,194620,1,8,1:3:0:0:
293,342,194703,6,0,L|337:336,1,43.75,4|0,3:3|0:0,0:0:0:0:
440,305,194870,2,0,B|456:329|456:329|355:314,1,131.25,0|0,2:1|0:0,0:0:0:0:
324,309,195203,1,0,2:1:0:0:
312,292,195287,1,2,1:2:0:0:
300,275,195370,6,0,L|387:286,1,87.5,6|2,2:0|3:3,0:0:0:0:
512,273,195620,2,0,L|425:262,1,87.5,2|0,1:2|0:0,0:0:0:0:
357,129,195870,2,0,L|352:173,1,43.75,0|2,2:0|1:2,0:0:0:0:
98,218,196037,6,0,L|227:234,1,131.25,2|2,3:3|1:2,0:0:0:0:
386,285,196371,2,0,L|103:249,1,262.5,8|2,2:3|3:3,0:0:0:0:
321,169,197037,2,0,L|450:185,1,87.5,8|2,2:3|1:3,0:0:0:0:
506,209,197287,1,8,1:3:0:0:
506,209,197370,6,0,L|500:165,1,43.75,2|2,3:3|1:2,0:0:0:0:
425,36,197537,2,0,L|431:80,1,43.75,2|2,3:3|1:2,0:0:0:0:
350,278,197704,2,0,L|262:290,1,87.5,10|2,1:3|1:3,0:0:0:0:
141,266,197954,1,2,1:2:0:0:
141,266,198038,6,0,L|231:256,1,87.5,6|2,2:0|3:3,0:0:0:0:
297,208,198288,2,0,L|264:290,1,87.5,2|0,1:2|0:0,0:0:0:0:
206,147,198537,1,2,1:3:0:0:
203,116,198620,1,2,1:2:0:0:
199,86,198704,6,0,L|193:42,1,43.75,2|0,3:3|0:0,0:0:0:0:
79,56,198870,1,0,2:1:0:0:
79,56,198954,2,0,L|166:67,1,87.5,2|0,1:2|0:0,0:0:0:0:
287,87,199204,1,0,2:1:0:0:
318,90,199287,1,2,1:2:0:0:
346,113,199371,1,6,2:0:0:0:
379,116,199454,1,2,1:2:0:0:
412,120,199537,1,2,3:3:0:0:
444,123,199621,1,2,1:2:0:0:
476,126,199704,6,0,L|470:82,3,43.75,8|0|2|8,2:3|0:0|1:3|1:3,0:0:0:0:
416,213,200037,5,4,3:3:0:0:
416,213,200204,2,0,B|401:314|401:314|425:298,1,131.25,0|0,2:1|0:0,0:0:0:0:
512,200,200537,2,0,L|381:216,1,131.25,0|0,2:1|0:0,0:0:0:0:
349,221,200870,1,2,3:3:0:0:
248,234,201037,1,8,2:3:0:0:
147,247,201204,1,0,2:0:0:0:
46,260,201371,6,0,L|2:266,3,43.75,2|2|2|2,3:2|2:2|2:3|2:2,0:0:0:0:
77,278,201704,2,0,L|121:272,3,43.75,8|2|2|2,2:3|2:2|2:3|2:2,0:0:0:0:
184,172,202037,6,0,L|136:178,1,43.75,6|0,2:0|0:0,0:0:0:0:
199,146,202204,2,0,L|155:151,1,43.75,2|2,3:3|2:2,0:0:0:0:
281,203,202371,2,0,L|325:197,3,43.75,8|2|2|8,2:3|2:2|2:0|2:3,0:0:0:0:
428,186,202704,5,2,3:2:0:0:
428,186,202871,2,0,B|529:171|529:171|513:195,1,131.25,2|0,3:3|0:0,0:0:0:0:
415,282,203204,2,0,L|437:102,1,175,0|2,2:0|3:3,0:0:0:0:
441,75,203621,1,0,2:0:0:0:
445,42,203705,1,8,2:3:0:0:
332,135,203871,1,0,2:0:0:0:
181,55,204037,5,10,3:2:0:0:
181,55,204204,2,0,B|80:70|80:70|96:46,1,131.25,2|2,2:3|2:2,0:0:0:0:
113,20,204537,1,2,2:3:0:0:
162,156,204704,1,6,2:0:0:0:
129,160,204788,1,8,2:3:0:0:
96,164,204871,1,2,3:3:0:0:
63,168,204954,1,2,2:2:0:0:
30,172,205037,1,8,2:3:0:0:
266,143,205204,1,2,3:3:0:0:
299,139,205287,1,8,2:3:0:0:
332,135,205371,5,2,3:2:0:0:
332,135,205538,2,0,B|433:121|433:121|411:102,1,131.25,2|0,2:3|0:0,0:0:0:0:
320,40,205871,2,0,L|336:171,1,131.25,2|0,2:3|0:0,0:0:0:0:
341,203,206204,1,2,3:3:0:0:
354,304,206371,1,8,2:3:0:0:
444,240,206537,1,2,2:3:0:0:
252,264,206704,6,0,L|246:220,3,43.75,2|2|2|2,3:2|2:2|2:3|2:2,0:0:0:0:
234,295,207037,2,0,L|240:339,3,43.75,8|2|2|2,2:3|2:2|2:3|2:2,0:0:0:0:
124,212,207370,6,0,L|118:164,1,43.75,6|2,2:0|2:2,0:0:0:0:
150,227,207537,2,0,L|145:183,1,43.75,2|2,3:3|2:2,0:0:0:0:
132,68,207704,1,8,2:3:0:0:
66,285,207871,1,2,3:3:0:0:
48,300,207955,1,0,3:0:0:0:
30,315,208038,5,10,3:3:0:0:
73,321,208121,1,8,1:0:0:0:
116,327,208204,1,8,3:0:0:0:
159,333,208287,1,8,1:0:0:0:
203,339,208371,1,8,2:3:0:0:
246,345,208453,1,8,2:3:0:0:
209,382,208537,5,10,3:3:0:0:
203,339,208620,1,8,1:0:0:0:
197,296,208703,1,8,3:0:0:0:
191,253,208787,1,8,3:0:0:0:
185,210,208871,1,8,3:0:0:0:
179,167,208954,1,8,3:0:0:0:
142,204,209037,5,8,2:3:0:0:
185,210,209120,1,8,2:1:0:0:
228,215,209203,1,2,3:3:0:0:
271,220,209287,1,0,3:0:0:0:
314,225,209371,6,0,L|358:231,3,43.75,10|2|2|2,3:3|2:2|2:3|2:2,0:0:0:0:
436,288,209704,5,8,2:3:0:0:
496,156,209871,1,2,2:3:0:0:
456,304,210037,5,10,2:3:0:0:
392,124,210204,1,0,3:0:0:0:
348,360,210371,1,8,2:3:0:0:
340,362,210454,1,2,1:2:0:0:
331,363,210537,1,2,2:3:0:0:
322,364,210620,1,2,1:2:0:0:
314,365,210704,6,0,L|227:376,1,87.5,2|2,0:3|2:0,0:0:0:0:
124,252,211204,2,0,B|108:276|108:276|209:261,1,131.25,2|0,2:0|0:0,0:0:0:0:
240,256,211537,1,2,2:0:0:0:
120,308,211704,2,0,L|33:319,1,87.5,2|2,0:3|2:0,0:0:0:0:
314,365,213376,6,0,L|227:376,1,87.5,2|2,0:3|2:0,0:0:0:0:
124,252,213876,2,0,B|108:276|108:276|209:261,1,131.25,2|0,2:0|0:0,0:0:0:0:
240,256,214209,1,2,2:0:0:0:
120,308,214376,2,0,L|33:319,1,87.5,2|2,0:3|2:0,0:0:0:0:
184,160,214709,6,0,L|271:149,1,87.5,2|2,0:3|2:0,0:0:0:0:
456,272,215209,1,2,2:0:0:0:
460,236,215293,1,0,0:0:0:0:
464,200,215376,6,0,L|476:102,1,87.5,2|2,0:3|2:0,0:0:0:0:
480,76,215626,1,0,0:0:0:0:
484,40,215708,1,2,0:3:0:0:
314,365,216042,6,0,L|227:376,1,87.5,2|2,3:3|2:0,0:0:0:0:
124,252,216542,2,0,B|108:276|108:276|209:261,1,131.25,2|0,2:0|0:0,0:0:0:0:
240,256,216876,1,2,2:0:0:0:
120,308,217042,2,0,L|33:319,1,87.5,2|2,0:3|2:0,0:0:0:0:
350,352,217376,6,0,B|361:311|361:311|337:223|337:223|350:183,2,175,2|0|0,0:3|0:0|0:0,0:0:0:0:
258,155,218715,6,0,L|471:127,1,175,2|2,0:3|0:3,0:0:0:0:
278,186,219577,2,0,L|106:163,1,131.25,2|0,0:3|0:0,0:0:0:0:
122,137,220048,6,0,L|148:344,1,175,2|2,0:3|0:3,0:0:0:0:
125,334,221375,6,0,L|97:123,1,175,2|2,0:3|0:3,0:0:0:0:
256,192,221937,12,0,226625,0:0:0:0:
