osu file format v14

[General]
AudioFilename: Yume Nikki mega mix.mp3
AudioLeadIn: 0
PreviewTime: 135996
Countdown: 0
SampleSet: Normal
StackLeniency: 0.2
Mode: 0
LetterboxInBreaks: 0
WidescreenStoryboard: 0

[Editor]
Bookmarks: 24037,66704,109371,130704,136037,178704
DistanceSpacing: 1.5
BeatDivisor: 4
GridSize: 4
TimelineZoom: 2.2

[Metadata]
Title:Kono Hoshi de....
TitleUnicode:この星で・・・。
Artist:Camellia
ArtistUnicode:かめりあ
Creator:Krimek
Version:Insane
Source:ゆめにっき
Tags:yume nikki 夢日記 窓付き dream diary madotsuki 窓付き windowed megamix mega mix かめるかめりあ cametek kamelcamellia electronic instrumental video game Yauxo Arbane -Famous-
BeatmapID:1893219
BeatmapSetID:511759

[Difficulty]
HPDrainRate:5.5
CircleSize:3.3
OverallDifficulty:7.5
ApproachRate:9
SliderMultiplier:1.5
SliderTickRate:1

[Events]
//Background and Video events
0,0,"bg.jpg",0,0
//Break Periods
//Storyboard Layer 0 (Background)
//Storyboard Layer 1 (Fail)
//Storyboard Layer 2 (Pass)
//Storyboard Layer 3 (Foreground)
//Storyboard Layer 4 (Overlay)
//Storyboard Sound Samples

[TimingPoints]
38,333.333333333333,4,1,1,35,1,0
2704,-100,4,1,1,35,0,0
13371,-100,4,1,1,40,0,0
23204,-100,4,1,1,60,0,0
24037,-100,4,1,1,60,0,0
44037,-100,4,1,1,50,0,0
45037,-100,4,1,1,55,0,0
45371,-100,4,1,1,60,0,0
66704,-133.333333333333,4,1,1,40,0,0
88037,-133.333333333333,4,1,1,55,0,0
109371,-100,4,1,1,45,0,0
110371,-133.333333333333,4,1,1,45,0,0
112037,-100,4,1,1,45,0,0
113037,-133.333333333333,4,1,1,45,0,0
114704,-100,4,1,1,45,0,0
115704,-133.333333333333,4,1,1,45,0,0
117371,-100,4,1,1,45,0,0
120037,-200,4,1,1,50,0,0
121371,-200,4,1,1,30,0,0
129371,-133.333333333333,4,1,1,30,0,0
129704,-100,4,1,1,30,0,0
130037,-80,4,1,1,30,0,0
130204,-100,4,1,1,30,0,0
130704,-100,4,1,1,35,0,0
132037,-400,4,1,1,15,0,0
132954,-100,4,1,1,5,0,0
133037,-100,4,1,1,35,0,0
134704,-100,4,1,1,20,0,0
135704,-133.333333333333,4,1,1,35,0,0
136037,-80,4,1,1,55,0,1
178704,-133.333333333333,4,1,1,40,0,0
189371,-100,4,1,1,45,0,0
210704,-133.333333333333,4,1,1,40,0,0
212037,446.428571428571,4,1,1,50,1,0
213376,333.333333333333,4,1,1,50,1,0
213376,-133.333333333333,4,1,1,50,0,0
217376,446.428571428571,3,1,1,40,1,0
218715,494.641384995878,3,1,1,40,1,0
219209,368.098159509202,3,1,1,40,1,8
219577,471.698113207547,3,1,1,40,1,8
220048,500,3,1,1,40,1,0
220548,413.793103448276,3,1,1,40,1,8
221375,500,3,1,1,40,1,0
221875,-100,3,1,1,40,0,0
222875,-200,4,1,1,35,0,0
223375,-200,4,1,1,30,0,0
223875,-200,4,1,1,25,0,0
224375,-200,4,1,1,20,0,0
224875,-200,4,1,1,15,0,0
225375,-200,4,1,1,10,0,0
225875,-200,4,1,1,5,0,0

[Colours]
Combo1 : 111,106,111
Combo2 : 189,79,112
Combo3 : 136,85,111

[HitObjects]
48,240,2704,6,0,L|48:328,1,75,2|2,0:3|2:0,0:0:0:0:
132,88,3204,1,2,2:0:0:0:
132,163,3371,6,0,L|132:238,1,75,2|2,0:3|2:0,0:0:0:0:
212,163,3621,2,0,L|286:163,1,75,0|0,2:0|0:0,0:0:0:0:
212,88,3871,2,0,L|213:48,1,37.5,2|0,2:0|0:0,0:0:0:0:
131,50,4037,5,2,0:3:0:0:
132,88,4371,1,2,0:3:0:0:
132,125,4704,1,2,0:3:0:0:
225,239,5037,2,0,L|299:239,1,75,2|0,0:3|0:0,0:0:0:0:
464,240,5371,6,0,L|464:328,1,75,2|2,0:3|2:0,0:0:0:0:
380,88,5871,1,2,2:0:0:0:
380,163,6038,6,0,L|380:238,1,75,2|2,0:3|2:0,0:0:0:0:
300,163,6288,2,0,L|225:163,1,75,0|0,2:0|0:0,0:0:0:0:
300,88,6538,2,0,L|299:48,1,37.5,2|0,2:0|0:0,0:0:0:0:
380,50,6704,6,0,L|380:87,3,37.5,10|0|2|0,0:2|0:0|2:0|0:0,0:0:0:0:
380,125,7037,2,0,L|380:162,3,37.5,2|0|2|0,0:3|0:0|2:0|0:0,0:0:0:0:
300,164,7371,5,2,0:3:0:0:
299,50,7537,1,2,2:0:0:0:
464,52,7704,5,2,0:3:0:0:
464,168,7870,1,2,2:0:0:0:
300,240,8037,6,0,L|225:239,1,75,2|2,0:3|2:0,0:0:0:0:
132,50,8537,2,0,L|131:87,1,37.5,2|0,2:0|2:0,0:0:0:0:
132,164,8704,6,0,L|132:239,1,75,2|2,0:3|2:0,0:0:0:0:
216,163,8954,2,0,L|216:88,1,75,0|0,0:0|0:0,0:0:0:0:
299,50,9204,2,0,L|299:87,1,37.5,2|0,2:0|0:0,0:0:0:0:
342,162,9371,6,0,L|380:162,1,37.5,2|0,0:3|2:0,0:0:0:0:
264,240,9704,2,0,L|226:239,1,37.5,2|0,0:3|2:0,0:0:0:0:
384,240,10037,6,0,L|421:239,1,37.5,2|0,0:3|2:0,0:0:0:0:
305,317,10370,2,0,L|267:316,1,37.5,2|0,0:3|2:0,0:0:0:0:
145,239,10537,2,0,L|108:240,1,37.5,2|0,2:0|2:0,0:0:0:0:
148,160,10704,6,0,L|223:161,1,75,2|2,0:3|2:0,0:0:0:0:
301,238,11037,2,0,L|226:239,1,75,2|2,0:3|2:0,0:0:0:0:
304,159,11288,5,0,2:0:0:0:
322,159,11371,2,0,L|397:160,1,75,2|2,0:3|2:0,0:0:0:0:
475,237,11621,2,0,L|400:238,1,75,0|0,0:0|0:0,0:0:0:0:
400,316,11871,2,0,L|333:315,1,37.5,2|0,2:0|0:0,0:0:0:0:
144,316,12037,6,0,L|106:316,7,37.5,10|0|0|0|2|0|0|0,0:2|2:0|2:0|2:0|0:3|2:0|2:0|2:0,0:0:0:0:
226,313,12704,5,2,0:3:0:0:
226,294,12787,1,0,2:0:0:0:
226,275,12871,1,2,2:0:0:0:
226,256,12954,1,0,2:0:0:0:
226,238,13037,2,0,L|188:237,1,37.5,2|0,0:3|2:0,0:0:0:0:
106,160,13204,2,0,L|144:160,1,37.5,2|0,2:0|2:0,0:0:0:0:
308,161,13371,6,0,L|308:236,1,75,2|2,0:3|2:0,0:0:0:0:
108,240,13871,1,2,2:0:0:0:
228,316,14037,6,0,L|303:315,1,75,2|2,0:3|2:0,0:0:0:0:
389,235,14287,2,0,L|464:236,1,75,0|0,2:0|0:0,0:0:0:0:
226,238,14537,1,2,2:0:0:0:
388,316,14704,5,2,0:3:0:0:
426,315,15038,1,2,0:3:0:0:
463,315,15371,1,2,0:3:0:0:
464,152,15704,2,0,L|464:78,1,75,2|0,0:3|0:0,0:0:0:0:
263,156,16037,6,0,L|263:231,1,75,2|2,0:3|2:0,0:0:0:0:
463,235,16537,1,2,2:0:0:0:
343,311,16704,6,0,L|268:310,1,75,2|2,0:3|2:0,0:0:0:0:
182,230,16954,2,0,L|107:231,1,75,0|0,2:0|0:0,0:0:0:0:
345,233,17203,1,2,2:0:0:0:
265,119,17371,6,0,L|265:156,3,37.5,10|0|2|0,0:2|0:0|2:0|0:0,0:0:0:0:
265,194,17704,2,0,L|265:231,3,37.5,2|0|2|0,0:3|0:0|2:0|0:0,0:0:0:0:
265,269,18037,1,2,0:3:0:0:
345,233,18204,5,2,2:0:0:0:
265,94,18371,1,2,0:3:0:0:
185,233,18537,1,2,2:0:0:0:
348,316,18704,6,0,L|423:315,1,75,2|2,0:3|2:0,0:0:0:0:
265,194,19204,2,0,L|265:231,1,37.5,2|0,2:0|2:0,0:0:0:0:
180,316,19371,6,0,L|105:315,1,75,2|2,0:3|2:0,0:0:0:0:
100,232,19621,2,0,L|25:231,1,75,0|0,0:0|0:0,0:0:0:0:
181,121,19871,1,2,2:0:0:0:
346,119,20037,6,0,L|384:120,1,37.5,2|0,0:3|2:0,0:0:0:0:
265,231,20370,2,0,L|227:230,1,37.5,2|0,0:3|2:0,0:0:0:0:
383,205,20703,6,0,L|421:206,1,37.5,2|0,0:3|2:0,0:0:0:0:
302,317,21037,2,0,L|264:316,1,37.5,2|0,0:3|2:0,0:0:0:0:
137,231,21204,2,0,L|99:232,1,37.5,2|0,2:0|2:0,0:0:0:0:
149,151,21371,6,0,L|224:152,1,75,10|2,0:2|2:0,0:0:0:0:
300,232,21704,2,0,L|225:231,1,75,2|2,0:3|2:0,0:0:0:0:
304,148,21954,5,0,2:0:0:0:
322,148,22037,2,0,L|397:149,1,75,2|2,0:3|2:0,0:0:0:0:
475,226,22287,2,0,L|400:227,1,75,0|0,0:0|0:0,0:0:0:0:
400,305,22537,2,0,L|333:304,1,37.5,2|0,2:0|0:0,0:0:0:0:
137,306,22704,5,6,0:2:0:0:
256,192,23037,1,6,0:2:0:0:
256,304,23204,6,0,L|255:341,1,37.5,0|0,3:0|3:0,0:0:0:0:
137,306,23371,1,8,3:3:0:0:
137,287,23454,1,8,3:3:0:0:
137,268,23538,1,0,3:0:0:0:
137,249,23621,1,8,3:3:0:0:
137,231,23704,2,0,L|175:230,1,37.5,8|8,3:3|3:3,0:0:0:0:
337,230,23871,2,0,L|375:231,1,37.5,8|8,3:3|3:3,0:0:0:0:
256,192,24037,6,0,L|256:117,1,75,4|0,3:3|2:1,0:0:0:0:
256,40,24371,1,8,2:3:0:0:
336,116,24537,2,0,L|336:153,1,37.5,0|0,2:1|0:0,0:0:0:0:
176,153,24704,6,0,L|176:78,1,75,6|2,2:0|3:3,0:0:0:0:
96,39,24954,2,0,L|96:114,1,75,0|0,0:0|0:0,0:0:0:0:
100,192,25204,2,0,L|100:229,1,37.5,0|0,2:0|0:0,0:0:0:0:
136,268,25371,5,2,3:2:0:0:
137,287,25455,1,2,2:2:0:0:
137,306,25538,1,2,2:3:0:0:
176,228,25704,6,0,L|176:153,1,75,8|2,2:3|2:3,0:0:0:0:
176,78,25954,1,2,2:2:0:0:
176,59,26037,2,0,L|176:21,1,37.5,6|0,2:0|0:0,0:0:0:0:
256,40,26204,2,0,L|256:77,1,37.5,2|2,3:3|2:2,0:0:0:0:
256,152,26371,2,0,L|256:227,1,75,8|2,2:3|2:0,0:0:0:0:
256,304,26621,1,8,2:3:0:0:
256,324,26704,6,0,L|181:324,1,75,2|2,3:2|3:3,0:0:0:0:
28,324,27037,1,8,2:3:0:0:
136,230,27204,2,0,L|174:230,1,37.5,0|0,2:0|0:0,0:0:0:0:
181,152,27371,6,0,L|256:152,1,75,6|2,2:0|3:3,0:0:0:0:
256,227,27621,2,0,L|331:227,1,75,0|0,2:0|0:0,0:0:0:0:
331,302,27871,2,0,L|368:300,1,37.5,0|0,2:0|0:0,0:0:0:0:
472,224,28037,6,0,L|472:187,3,37.5,10|2|2|2,3:2|2:2|2:3|2:2,0:0:0:0:
472,149,28371,2,0,L|472:112,3,37.5,8|2|2|2,2:3|2:2|2:3|2:2,0:0:0:0:
468,32,28704,1,6,2:0:0:0:
449,32,28787,2,0,L|411:32,1,37.5,8|2,2:3|3:3,0:0:0:0:
384,112,28954,1,2,2:2:0:0:
365,112,29037,2,0,L|327:112,1,37.5,8|2,2:3|2:2,0:0:0:0:
298,191,29204,5,2,3:3:0:0:
279,192,29288,1,8,2:3:0:0:
260,192,29371,6,0,L|260:267,1,75,2|2,3:2|2:3,0:0:0:0:
260,344,29705,1,8,2:3:0:0:
180,268,29871,2,0,L|180:231,1,37.5,2|0,2:3|2:0,0:0:0:0:
340,231,30038,6,0,L|340:306,1,75,6|2,2:0|3:3,0:0:0:0:
420,345,30288,2,0,L|420:270,1,75,0|0,2:0|0:0,0:0:0:0:
416,192,30538,2,0,L|416:155,1,37.5,2|0,2:3|0:0,0:0:0:0:
380,116,30705,5,2,3:2:0:0:
379,97,30787,1,2,2:2:0:0:
379,78,30872,1,2,2:3:0:0:
341,193,31037,1,8,2:3:0:0:
340,212,31121,1,2,2:2:0:0:
340,231,31204,1,2,2:3:0:0:
300,308,31371,6,0,L|300:345,1,37.5,6|2,2:0|2:2,0:0:0:0:
216,308,31537,2,0,L|179:308,1,37.5,2|2,3:3|2:2,0:0:0:0:
256,232,31705,2,0,L|256:157,1,75,8|2,2:3|3:3,0:0:0:0:
256,80,31955,1,0,3:0:0:0:
256,60,32038,6,0,L|331:60,1,75,2|2,3:2|2:3,0:0:0:0:
488,60,32371,1,8,2:3:0:0:
368,156,32538,2,0,L|330:156,1,37.5,2|8,2:3|2:3,0:0:0:0:
181,156,32704,2,0,L|144:156,2,37.5,6|0|2,3:2|0:0|3:3,0:0:0:0:
100,76,32954,1,0,2:0:0:0:
82,76,33037,2,0,L|44:76,2,37.5,8|2|2,2:3|2:2|2:3,0:0:0:0:
44,160,33371,6,0,L|44:197,3,37.5,10|2|2|2,3:2|2:2|2:3|2:2,0:0:0:0:
44,235,33704,2,0,L|44:272,1,37.5,8|2,2:3|2:2,0:0:0:0:
48,352,33871,2,0,L|85:352,1,37.5,2|2,2:3|2:2,0:0:0:0:
165,348,34037,1,6,2:2:0:0:
165,329,34120,1,8,2:3:0:0:
165,310,34203,1,0,3:0:0:0:
161,231,34371,2,0,L|123:231,1,37.5,8|2,2:3|1:2,0:0:0:0:
228,268,34538,5,2,2:3:0:0:
247,267,34621,1,2,1:2:0:0:
266,267,34704,2,0,B|376:268|376:268|348:240,1,150,6|8,3:3|2:3,0:0:0:0:
256,152,35204,1,0,3:0:0:0:
256,352,35371,5,6,2:2:0:0:
456,352,35621,1,8,2:3:0:0:
456,148,35871,1,8,2:3:0:0:
376,116,36037,5,6,3:2:0:0:
375,97,36121,1,2,2:2:0:0:
375,78,36204,1,2,2:3:0:0:
336,156,36370,6,0,L|336:231,1,75,8|2,2:3|2:3,0:0:0:0:
336,306,36620,1,2,2:2:0:0:
336,325,36703,2,0,L|336:363,1,37.5,6|0,2:0|0:0,0:0:0:0:
256,344,36870,2,0,L|256:307,1,37.5,2|2,3:3|2:2,0:0:0:0:
256,232,37037,2,0,L|256:157,1,75,8|10,2:3|2:3,0:0:0:0:
256,80,37287,1,8,2:3:0:0:
256,60,37371,6,0,L|181:60,1,75,2|2,3:2|3:3,0:0:0:0:
28,60,37704,1,8,2:3:0:0:
28,236,37871,1,2,2:3:0:0:
181,232,38037,6,0,L|256:232,1,75,6|2,2:0|3:3,0:0:0:0:
256,157,38287,2,0,L|331:157,1,75,0|0,2:0|0:0,0:0:0:0:
331,82,38537,2,0,L|368:84,1,37.5,2|0,2:3|0:0,0:0:0:0:
472,160,38704,6,0,L|472:197,3,37.5,10|2|2|2,3:2|2:2|2:3|2:2,0:0:0:0:
472,235,39037,2,0,L|472:272,3,37.5,8|2|2|2,2:3|2:2|2:3|2:2,0:0:0:0:
472,352,39371,1,6,2:0:0:0:
453,352,39454,2,0,L|415:352,1,37.5,8|2,2:3|3:3,0:0:0:0:
336,352,39621,1,2,2:2:0:0:
317,352,39704,2,0,L|279:352,1,37.5,8|2,2:3|2:2,0:0:0:0:
280,276,39871,5,2,3:3:0:0:
299,275,39955,1,0,0:0:0:0:
318,275,40038,6,0,L|393:275,1,75,2|0,3:2|0:0,0:0:0:0:
280,196,40371,1,8,2:3:0:0:
200,352,40537,2,0,L|162:352,1,37.5,2|0,2:3|2:0,0:0:0:0:
124,272,40704,6,0,L|199:272,1,75,6|2,2:0|3:3,0:0:0:0:
80,352,40954,2,0,L|5:352,1,75,0|0,0:0|0:0,0:0:0:0:
4,272,41204,2,0,L|42:272,1,37.5,2|0,2:3|0:0,0:0:0:0:
78,187,41371,5,2,3:2:0:0:
59,187,41454,1,2,2:2:0:0:
40,188,41538,1,2,2:3:0:0:
20,100,41703,1,8,2:3:0:0:
39,100,41786,1,0,0:0:0:0:
58,101,41870,1,2,2:3:0:0:
160,272,42037,6,0,L|123:272,1,37.5,6|2,2:0|2:2,0:0:0:0:
160,184,42203,2,0,L|160:147,1,37.5,2|2,3:3|2:2,0:0:0:0:
236,228,42371,2,0,L|311:228,1,75,8|2,2:3|3:3,0:0:0:0:
388,228,42621,1,0,3:0:0:0:
408,228,42704,6,0,L|408:153,1,75,2|0,3:2|2:0,0:0:0:0:
312,73,43037,2,0,L|312:148,1,75,8|2,2:3|3:2,0:0:0:0:
236,172,43287,1,8,2:3:0:0:
236,190,43371,2,0,L|236:227,2,37.5,6|0|2,3:2|0:0|3:2,0:0:0:0:
156,271,43621,1,0,0:0:0:0:
156,289,43704,2,0,L|156:327,2,37.5,8|0|2,2:3|0:0|2:2,0:0:0:0:
240,327,44038,6,0,L|277:327,3,37.5,0|0|0|0,3:3|3:3|3:3|3:3,0:0:0:0:
316,228,44371,2,0,L|353:228,3,37.5,8|8|8|8,1:3|1:3|1:3|1:3,0:0:0:0:
392,129,44704,6,0,L|429:129,1,37.5,8|8,3:3|3:3,0:0:0:0:
508,129,44871,2,0,L|508:92,1,37.5,10|10,3:3|3:3,0:0:0:0:
508,13,45037,2,0,L|471:13,1,37.5,8|8,3:1|3:1,0:0:0:0:
392,13,45204,2,0,L|392:50,1,37.5,8|8,3:1|3:1,0:0:0:0:
436,232,45371,6,0,P|447:286|437:341,1,112.5,4|0,3:3|0:0,0:0:0:0:
351,366,45704,2,0,P|314:363|280:348,1,75,8|0,2:3|2:1,0:0:0:0:
278,228,46037,2,0,L|353:228,1,75,6|2,2:0|3:3,0:0:0:0:
351,108,46371,2,0,P|317:93|280:90,1,75,8|0,2:3|2:0,0:0:0:0:
201,270,46704,5,2,3:2:0:0:
200,289,46788,1,2,2:2:0:0:
200,308,46871,1,2,2:3:0:0:
161,230,47037,6,0,L|161:155,1,75,8|2,2:3|2:3,0:0:0:0:
161,80,47287,1,2,2:2:0:0:
161,61,47370,2,0,L|161:23,1,37.5,6|0,2:0|0:0,0:0:0:0:
81,42,47537,2,0,L|81:79,1,37.5,2|2,3:3|2:2,0:0:0:0:
81,154,47704,2,0,L|81:229,1,75,8|2,2:3|2:0,0:0:0:0:
81,306,47954,1,8,2:3:0:0:
81,326,48037,6,0,L|156:326,1,75,2|2,3:2|3:3,0:0:0:0:
431,326,48371,1,8,2:3:0:0:
351,254,48538,2,0,L|313:254,1,37.5,0|0,2:0|0:0,0:0:0:0:
306,176,48705,6,0,L|231:176,1,75,6|2,2:0|3:3,0:0:0:0:
231,251,48955,2,0,L|156:251,1,75,0|0,2:0|0:0,0:0:0:0:
156,326,49205,2,0,L|119:324,1,37.5,0|0,2:0|0:0,0:0:0:0:
0,248,49371,6,0,L|0:211,3,37.5,10|2|2|2,3:2|2:2|2:3|2:2,0:0:0:0:
77,191,49704,2,0,L|77:154,3,37.5,8|2|2|2,2:3|2:2|2:3|2:2,0:0:0:0:
158,134,50037,6,0,L|158:97,1,37.5,6|8,2:0|2:3,0:0:0:0:
235,77,50204,2,0,L|235:40,1,37.5,2|2,3:3|2:2,0:0:0:0:
233,156,50371,6,0,L|233:193,1,37.5,8|2,2:3|2:2,0:0:0:0:
156,213,50538,2,0,L|156:250,1,37.5,2|8,3:3|2:3,0:0:0:0:
143,330,50704,6,0,P|197:319|231:276,1,112.5,2|0,3:2|0:0,0:0:0:0:
304,232,51037,2,0,P|338:216|375:214,1,75,8|2,2:3|2:3,0:0:0:0:
416,126,51371,2,0,P|381:114|344:116,1,75,6|2,2:0|3:3,0:0:0:0:
432,28,51704,2,0,P|466:41|495:65,1,75,8|2,2:3|2:3,0:0:0:0:
456,241,52037,5,2,3:2:0:0:
455,260,52121,1,2,2:2:0:0:
455,279,52204,1,2,2:3:0:0:
416,201,52370,6,0,L|416:126,1,75,8|2,2:3|2:3,0:0:0:0:
336,116,52621,1,2,2:2:0:0:
336,97,52704,2,0,L|336:59,1,37.5,6|2,2:0|2:2,0:0:0:0:
336,192,52870,2,0,L|336:229,1,37.5,2|2,3:3|2:2,0:0:0:0:
256,192,53037,2,0,L|256:117,1,75,8|2,2:3|3:3,0:0:0:0:
256,40,53287,1,0,3:0:0:0:
256,20,53370,6,0,L|181:20,1,75,2|2,3:2|2:3,0:0:0:0:
28,20,53704,1,8,2:3:0:0:
139,116,53871,2,0,L|176:116,1,37.5,2|8,2:3|2:3,0:0:0:0:
336,116,54037,2,0,L|373:116,2,37.5,6|0|2,3:2|0:0|3:3,0:0:0:0:
417,36,54287,1,0,2:0:0:0:
435,36,54370,2,0,L|473:36,2,37.5,8|2|2,2:3|2:2|2:3,0:0:0:0:
473,120,54704,6,0,L|473:157,3,37.5,10|2|2|2,3:2|2:2|2:3|2:2,0:0:0:0:
473,195,55037,2,0,L|473:232,1,37.5,8|2,2:3|2:2,0:0:0:0:
469,312,55204,2,0,L|432:312,1,37.5,2|2,2:3|2:2,0:0:0:0:
352,308,55370,5,10,2:3:0:0:
352,289,55453,1,0,0:0:0:0:
352,270,55537,1,0,3:0:0:0:
352,251,55620,1,2,2:2:0:0:
352,232,55704,1,8,2:3:0:0:
352,213,55787,1,2,1:2:0:0:
352,194,55871,1,2,2:3:0:0:
352,175,55954,1,2,1:2:0:0:
352,156,56037,6,0,P|363:102|353:47,1,112.5,6|0,3:3|0:0,0:0:0:0:
271,21,56371,6,0,P|234:31|202:50,1,75,8|0,2:3|3:0,0:0:0:0:
208,136,56704,2,0,P|234:162|266:181,1,75,6|0,2:2|3:0,0:0:0:0:
139,262,57037,2,0,P|106:280|80:307,1,75,0|8,3:0|2:3,0:0:0:0:
121,118,57370,5,2,3:2:0:0:
120,99,57454,1,2,2:2:0:0:
120,80,57537,1,2,2:3:0:0:
81,158,57704,6,0,L|81:233,1,75,8|2,2:3|2:3,0:0:0:0:
81,308,57953,1,0,0:0:0:0:
81,327,58037,2,0,L|81:365,1,37.5,6|0,2:0|0:0,0:0:0:0:
1,346,58203,2,0,L|1:309,1,37.5,2|2,3:3|2:2,0:0:0:0:
1,234,58370,2,0,L|1:159,1,75,8|10,2:3|2:3,0:0:0:0:
1,82,58620,1,8,2:3:0:0:
1,62,58704,6,0,L|76:62,1,75,2|2,3:2|3:3,0:0:0:0:
256,64,59037,1,8,2:3:0:0:
256,192,59204,1,2,2:3:0:0:
256,320,59371,6,0,L|360:320,1,75,6|2,2:0|3:3,0:0:0:0:
412,316,59621,2,0,L|412:241,1,75,0|0,2:0|0:0,0:0:0:0:
336,233,59871,6,0,L|336:196,1,37.5,2|0,2:3|0:0,0:0:0:0:
256,229,60037,6,0,L|256:192,3,37.5,10|2|2|2,3:2|2:2|2:3|2:2,0:0:0:0:
179,172,60370,2,0,L|179:135,3,37.5,8|2|2|2,2:3|2:2|2:3|2:2,0:0:0:0:
98,115,60703,6,0,L|98:78,1,37.5,0|8,0:0|2:3,0:0:0:0:
21,58,60870,2,0,L|21:21,1,37.5,2|2,3:3|2:2,0:0:0:0:
23,137,61037,6,0,L|23:174,1,37.5,8|2,2:3|2:2,0:0:0:0:
100,194,61204,2,0,L|100:231,1,37.5,2|8,3:3|2:3,0:0:0:0:
24,255,61370,6,0,P|58:298|113:310,1,112.5,2|0,3:2|0:0,0:0:0:0:
179,247,61704,2,0,P|184:208|179:172,1,75,8|2,2:3|2:3,0:0:0:0:
228,324,61954,1,0,2:0:0:0:
244,312,62037,2,0,P|262:279|271:243,1,75,6|2,2:0|3:3,0:0:0:0:
256,152,62371,2,0,P|278:122|308:99,1,75,8|2,2:3|2:3,0:0:0:0:
468,104,62704,5,2,3:2:0:0:
468,123,62787,1,2,2:2:0:0:
469,142,62871,1,2,2:3:0:0:
408,272,63037,6,0,L|408:197,1,75,8|2,2:3|2:3,0:0:0:0:
388,120,63288,1,2,2:2:0:0:
388,101,63371,2,0,L|388:63,1,37.5,6|2,2:0|2:2,0:0:0:0:
328,183,63537,2,0,L|328:220,1,37.5,2|2,3:3|2:2,0:0:0:0:
488,225,63704,2,0,L|488:300,1,75,8|2,2:3|3:3,0:0:0:0:
328,300,63954,1,0,3:0:0:0:
308,300,64037,6,0,L|308:375,1,75,2|2,3:2|2:3,0:0:0:0:
408,300,64371,2,0,L|408:225,1,75,8|2,2:3|2:3,0:0:0:0:
328,220,64704,2,0,L|291:220,2,37.5,6|0|2,2:0|0:0|3:3,0:0:0:0:
451,142,64954,1,0,2:0:0:0:
469,142,65037,2,0,L|507:142,2,37.5,8|0|2,2:3|0:0|2:3,0:0:0:0:
348,64,65287,5,8,2:3:0:0:
328,64,65371,2,0,L|291:64,1,37.5,0|0,3:3|3:3,0:0:0:0:
208,64,65537,2,0,L|171:64,1,37.5,0|0,3:3|3:3,0:0:0:0:
88,64,65704,6,0,L|88:101,1,37.5,8|8,1:3|1:3,0:0:0:0:
88,184,65870,2,0,L|88:221,1,37.5,8|8,1:3|1:3,0:0:0:0:
92,304,66037,5,8,3:3:0:0:
111,304,66120,1,8,3:3:0:0:
130,304,66204,1,8,3:3:0:0:
149,304,66287,1,8,3:3:0:0:
168,304,66371,1,10,3:3:0:0:
344,192,66704,6,0,L|480:192,1,112.500004291535,4|10,3:3|1:3,0:0:0:0:
320,108,67371,1,2,1:3:0:0:
255,168,67537,2,0,P|250:195|254:223,1,56.2500021457673,2|10,3:3|1:3,0:0:0:0:
230,83,68037,6,0,P|175:73|119:77,1,112.500004291535,2|10,3:3|1:3,0:0:0:0:
255,168,68704,1,2,1:3:0:0:
320,108,68870,2,0,P|324:80|320:52,1,56.2500021457673,2|10,3:3|1:3,0:0:0:0:
180,212,69287,5,8,1:3:0:0:
191,230,69371,2,0,P|212:247|238:257,1,56.2500021457673,2|2,3:3|3:3,0:0:0:0:
236,340,69704,2,0,P|262:337|288:325,1,56.2500021457673,10|2,1:3|0:3,0:0:0:0:
372,271,70037,2,0,P|350:253|324:244,1,56.2500021457673,2|2,3:3|3:3,0:0:0:0:
327,162,70370,2,0,P|299:165|274:177,1,56.2500021457673,10|2,1:3|0:3,0:0:0:0:
191,230,70704,6,0,L|169:96,1,112.500004291535,2|10,3:3|1:3,0:0:0:0:
66,189,71288,1,0,0:0:0:0:
48,202,71371,2,0,P|31:223|20:249,1,56.2500021457673,2|2,1:3|3:3,0:0:0:0:
108,272,71704,2,0,P|111:299|122:325,1,56.2500021457673,10|2,1:3|3:3,0:0:0:0:
252,324,71954,1,8,1:3:0:0:
239,306,72037,6,0,P|217:288|191:278,1,56.2500021457673,2|2,3:3|1:3,0:0:0:0:
316,221,72371,2,0,P|342:213|366:198,1,56.2500021457673,10|2,1:3|1:3,0:0:0:0:
223,197,72704,2,0,P|195:190|167:191,1,56.2500021457673,2|2,1:3|3:3,0:0:0:0:
311,131,73037,2,0,P|332:112|347:89,1,56.2500021457673,10|2,1:3|1:3,0:0:0:0:
232,0,73371,6,0,P|224:55|228:112,1,112.500004291535,2|0,3:3|0:0,0:0:0:0:
252,324,74037,1,2,1:3:0:0:
280,244,74204,2,0,P|278:216|268:189,1,56.2500021457673,2|10,3:3|1:3,0:0:0:0:
128,192,74538,1,2,3:3:0:0:
136,212,74621,1,8,1:3:0:0:
149,230,74704,6,0,P|170:247|196:257,1,56.2500021457673,2|2,3:3|1:3,0:0:0:0:
340,303,75037,2,0,P|379:288|420:282,1,84.3750032186509,10|8,1:3|1:3,0:0:0:0:
496,216,75371,6,0,P|474:198|448:188,1,56.2500021457673,2|2,3:3|3:3,0:0:0:0:
304,142,75704,2,0,P|264:157|223:163,1,84.3750032186509,10|0,1:3|0:0,0:0:0:0:
127,191,76037,6,0,P|126:136|155:89,1,112.500004291535,2|10,3:3|1:3,0:0:0:0:
336,24,76704,5,2,1:3:0:0:
332,44,76787,1,8,1:3:0:0:
328,64,76871,1,2,3:3:0:0:
440,148,77037,1,10,1:3:0:0:
444,168,77121,1,0,0:0:0:0:
448,188,77204,1,2,3:3:0:0:
452,208,77288,1,8,1:3:0:0:
456,228,77371,6,0,L|475:338,1,112.500004291535,6|10,3:3|1:3,0:0:0:0:
360,192,78038,1,2,1:3:0:0:
436,127,78204,2,0,P|463:126|490:134,1,56.2500021457673,2|10,3:3|1:3,0:0:0:0:
264,156,78704,6,0,L|244:45,1,112.500004291535,2|10,3:3|1:3,0:0:0:0:
360,192,79371,1,2,1:3:0:0:
283,256,79537,2,0,P|255:257|228:249,1,56.2500021457673,2|10,3:3|1:3,0:0:0:0:
168,107,79954,1,8,1:3:0:0:
155,89,80037,6,0,P|133:71|107:61,1,56.2500021457673,2|2,3:3|3:3,0:0:0:0:
156,184,80371,2,0,P|210:174|242:130,1,112.500004291535,10|2,1:3|1:3,0:0:0:0:
88,140,80871,1,2,3:3:0:0:
252,56,81037,6,0,P|301:79|319:131,1,112.500004291535,10|2,1:3|3:3,0:0:0:0:
315,151,81454,1,2,3:2:0:0:
311,171,81537,1,10,1:3:0:0:
307,191,81621,1,2,0:2:0:0:
303,211,81704,2,0,L|292:264,1,28.1250010728836,10|0,1:3|0:0,0:0:0:0:
236,157,81871,2,0,L|247:104,1,28.1250010728836,2|10,0:2|1:3,0:0:0:0:
159,159,82037,2,0,L|165:132,1,28.1250010728836,2|10,0:2|1:3,0:0:0:0:
140,268,82371,1,8,1:3:0:0:
88,140,82537,5,2,3:3:0:0:
92,120,82621,1,8,1:3:0:0:
96,100,82704,2,0,L|124:-16,1,112.500004291535,2|10,3:3|1:3,0:0:0:0:
12,120,83371,1,2,1:3:0:0:
159,159,83537,2,0,L|174:84,1,56.2500021457673,2|10,3:3|1:3,0:0:0:0:
305,189,84037,6,0,L|277:305,1,112.500004291535,2|10,3:3|1:3,0:0:0:0:
389,169,84704,1,2,1:3:0:0:
229,184,84871,2,0,L|241:129,1,56.2500021457673,2|10,3:3|1:3,0:0:0:0:
162,63,85204,1,2,3:3:0:0:
166,83,85287,1,8,1:3:0:0:
170,104,85371,6,0,L|36:72,1,112.500004291535,2|10,3:3|1:3,0:0:0:0:
310,161,85871,2,0,L|304:188,1,28.1250010728836,2|8,3:3|1:3,0:0:0:0:
212,264,86037,1,2,3:3:0:0:
304,80,86204,1,2,3:3:0:0:
417,251,86371,5,10,1:3:0:0:
395,252,86454,1,0,0:0:0:0:
374,253,86537,1,2,1:3:0:0:
353,254,86621,1,2,3:3:0:0:
332,255,86705,1,6,1:3:0:0:
212,264,87704,5,10,1:3:0:0:
310,256,87871,1,2,3:3:0:0:
408,248,88037,6,0,P|419:194|409:139,1,112.5,4|8,3:3|2:3,0:0:0:0:
360,68,88537,1,0,2:1:0:0:
283,112,88704,2,0,P|302:132|328:144,1,56.2500021457673,6|2,2:0|3:3,0:0:0:0:
284,28,89037,2,0,P|256:32|232:47,1,56.2500021457673,8|0,2:3|2:0,0:0:0:0:
159,25,89371,6,0,P|161:79|201:117,1,112.500004291535,2|8,3:3|2:3,0:0:0:0:
250,187,89871,1,0,2:1:0:0:
327,143,90037,2,0,P|308:122|282:111,1,56.2500021457673,6|2,2:0|3:3,0:0:0:0:
326,227,90371,2,0,P|353:222|377:207,1,56.2500021457673,8|2,2:3|1:3,0:0:0:0:
464,140,90621,5,8,1:3:0:0:
468,119,90704,2,0,P|440:118|413:128,1,56.2500021457673,2|2,3:3|3:3,0:0:0:0:
372,232,91037,2,0,P|348:246|320:252,1,56.2500021457673,10|2,1:3|1:3,0:0:0:0:
250,187,91371,6,0,L|195:174,1,56.2500021457673,6|2,2:0|3:3,0:0:0:0:
152,100,91621,1,2,1:2:0:0:
148,79,91704,2,0,L|202:91,1,56.2500021457673,10|2,1:3|1:3,0:0:0:0:
112,176,92037,6,0,P|80:144|72:80,1,112.500004291535,2|8,3:3|2:3,0:0:0:0:
249,61,92705,1,6,2:0:0:0:
253,82,92788,1,2,1:2:0:0:
257,103,92871,2,0,L|203:91,1,56.2500021457673,2|8,3:3|2:3,0:0:0:0:
195,174,93204,1,2,1:3:0:0:
191,195,93287,1,8,1:3:0:0:
188,216,93370,6,0,L|242:204,1,56.2500021457673,4|0,3:3|2:1,0:0:0:0:
352,224,93704,2,0,L|406:236,1,56.2500021457673,8|0,2:3|2:1,0:0:0:0:
303,73,94037,2,0,L|249:61,1,56.2500021457673,6|2,2:0|3:3,0:0:0:0:
253,82,94287,1,2,1:2:0:0:
257,103,94370,2,0,L|203:91,1,56.2500021457673,8|0,2:3|2:0,0:0:0:0:
112,175,94704,6,0,P|87:189|60:197,1,56.2500021457673,2|0,3:3|2:1,0:0:0:0:
195,174,95037,2,0,P|221:182|246:195,1,56.2500021457673,8|0,2:3|2:1,0:0:0:0:
260,280,95371,1,6,2:0:0:0:
256,301,95454,1,2,1:2:0:0:
252,322,95537,2,0,L|306:310,1,56.2500021457673,2|8,3:3|2:3,0:0:0:0:
372,252,95871,1,2,1:3:0:0:
376,231,95954,1,8,1:3:0:0:
380,210,96037,6,0,L|326:222,1,56.2500021457673,2|2,3:3|3:3,0:0:0:0:
260,280,96371,2,0,P|221:265|180:259,1,84.3750032186509,10|0,1:3|0:0,0:0:0:0:
103,193,96705,6,0,P|138:168|152:165,1,56.2500021457673,6|0,2:0|0:0,0:0:0:0:
312,144,97037,2,0,P|325:140|338:134,1,28.1250010728836,10|0,1:3|0:0,0:0:0:0:
296,64,97204,2,0,P|306:54|313:42,1,28.1250010728836,2|0,1:3|0:0,0:0:0:0:
216,44,97371,6,0,P|213:85|231:122,2,84.3750032186509,2|0|0,3:3|0:0|0:0,0:0:0:0:
312,24,97954,1,2,1:2:0:0:
313,42,98037,2,0,P|305:53|295:63,1,28.1250010728836,6|2,2:0|1:2,0:0:0:0:
111,233,98371,1,8,2:3:0:0:
107,213,98455,1,0,0:0:0:0:
103,193,98538,1,2,1:3:0:0:
99,173,98622,1,0,0:0:0:0:
95,153,98705,6,0,L|76:43,1,112.500004291535,4|8,3:3|2:3,0:0:0:0:
116,252,99204,1,0,2:1:0:0:
177,115,99370,2,0,P|204:114|231:122,1,56.2500021457673,6|2,2:0|3:3,0:0:0:0:
360,176,99704,2,0,P|347:199|326:219,1,56.2500021457673,8|0,2:3|2:0,0:0:0:0:
212,312,100037,6,0,L|193:202,1,112.500004291535,2|8,3:3|2:3,0:0:0:0:
160,32,100537,1,0,2:1:0:0:
231,122,100704,2,0,L|220:200,1,56.2500021457673,6|2,2:0|3:3,0:0:0:0:
116,252,101037,1,8,2:3:0:0:
92,148,101204,1,2,1:3:0:0:
88,127,101287,1,8,1:3:0:0:
84,106,101370,6,0,L|156:116,1,56.2500021457673,2|2,3:3|3:3,0:0:0:0:
323,125,101704,1,10,2:3:0:0:
225,280,101871,1,2,1:3:0:0:
231,122,102037,1,6,1:2:0:0:
340,204,102204,1,2,3:3:0:0:
344,225,102287,1,2,1:2:0:0:
348,244,102370,2,0,L|294:232,1,56.2500021457673,10|2,1:3|1:3,0:0:0:0:
113,285,102704,6,0,P|168:289|224:279,1,112.500004291535,2|8,3:3|2:3,0:0:0:0:
424,204,103371,1,6,2:0:0:0:
428,225,103454,1,2,1:2:0:0:
432,246,103537,2,0,L|486:234,1,56.2500021457673,2|8,3:3|2:3,0:0:0:0:
385,95,103871,1,2,1:3:0:0:
381,116,103954,1,8,1:3:0:0:
377,137,104037,6,0,L|323:125,1,56.2500021457673,4|0,3:3|2:1,0:0:0:0:
278,267,104371,2,0,L|224:279,1,56.2500021457673,8|0,2:3|2:1,0:0:0:0:
356,304,104704,1,6,2:0:0:0:
352,325,104787,1,2,1:2:0:0:
348,346,104870,2,0,L|296:336,1,28.1250010728836,2|2,3:3|1:2,0:0:0:0:
240,363,105037,2,0,P|200:364|160:336,1,84.3750032186509,8|2,2:3|1:2,0:0:0:0:
96,298,105371,6,0,P|115:277|140:264,1,56.2500021457673,2|0,3:3|2:1,0:0:0:0:
288,228,105704,1,8,2:3:0:0:
224,279,105871,1,0,2:1:0:0:
196,160,106037,1,6,2:0:0:0:
192,139,106120,1,2,1:2:0:0:
188,120,106204,1,2,3:3:0:0:
127,209,106371,2,0,L|139:263,1,56.2500021457673,8|2,2:3|1:3,0:0:0:0:
207,354,106621,5,8,1:3:0:0:
211,333,106704,2,0,L|223:279,1,56.2500021457673,2|2,3:3|3:3,0:0:0:0:
264,108,107037,1,10,1:3:0:0:
260,88,107120,1,0,0:0:0:0:
256,68,107204,1,2,1:3:0:0:
252,47,107287,1,2,1:2:0:0:
248,27,107371,6,0,P|222:40|195:44,1,56.2500021457673,6|2,2:0|3:3,0:0:0:0:
44,44,107704,1,10,1:3:0:0:
120,168,107871,1,2,1:3:0:0:
124,189,107954,1,2,1:2:0:0:
127,209,108038,6,0,P|152:196|179:192,1,56.2500021457673,2|0,3:3|2:1,0:0:0:0:
332,192,108371,1,8,2:3:0:0:
195,293,108537,1,0,2:1:0:0:
199,313,108620,1,2,1:2:0:0:
202,333,108704,6,0,P|214:325|227:320,3,28.1250010728836,6|2|2|0,2:0|1:2|3:3|0:0,0:0:0:0:
316,272,109037,6,0,P|329:274|343:273,1,28.1250010728836,8|0,2:3|0:0,0:0:0:0:
208,192,109204,2,0,P|194:189|180:190,1,28.1250010728836,2|8,1:3|1:3,0:0:0:0:
356,112,109371,6,0,P|390:126|412:156,1,75,6|2,3:3|1:3,0:0:0:0:
408,328,109704,2,0,P|378:350|341:355,1,75,10|2,1:3|1:3,0:0:0:0:
192,276,110037,5,6,1:2:0:0:
332,192,110204,1,2,3:3:0:0:
343,272,110371,6,0,P|329:274|315:272,1,28.1250010728836,10|0,1:3|0:0,0:0:0:0:
208,192,110537,2,0,P|194:189|180:190,1,28.1250010728836,2|2,1:3|1:2,0:0:0:0:
68,276,110704,6,0,P|54:281|43:288,3,28.1250010728836,2|2|2|2,3:2|2:2|2:3|2:2,0:0:0:0:
27,196,111037,2,0,P|13:192|0:191,3,28.1250010728836,8|2|2|2,2:3|2:2|3:3|2:2,0:0:0:0:
104,148,111371,2,0,P|96:135|87:125,3,28.1250010728836,2|2|8|2,2:0|2:2|2:3|2:2,0:0:0:0:
180,192,111705,5,2,3:3:0:0:
173,212,111788,1,2,2:2:0:0:
167,232,111871,1,2,3:3:0:0:
161,252,111954,1,8,2:3:0:0:
156,272,112037,2,0,P|122:258|100:228,1,75,2|2,3:3|1:3,0:0:0:0:
104,56,112370,2,0,P|134:34|171:29,1,75,10|2,1:3|1:3,0:0:0:0:
320,108,112704,5,6,1:2:0:0:
180,192,112871,1,2,3:3:0:0:
169,112,113038,6,0,P|183:110|197:112,1,28.1250010728836,10|0,1:3|0:0,0:0:0:0:
304,192,113204,2,0,P|318:195|332:194,1,28.1250010728836,2|2,1:3|1:2,0:0:0:0:
444,108,113371,6,0,P|458:103|469:96,3,28.1250010728836,2|2|2|2,3:2|2:2|2:3|2:2,0:0:0:0:
485,188,113704,2,0,P|499:192|512:193,3,28.1250010728836,8|2|2|8,2:3|2:2|3:3|2:3,0:0:0:0:
466,277,114038,2,0,P|432:264|408:235,1,56.2500021457673,6|2,2:0|3:3,0:0:0:0:
332,192,114372,5,2,3:3:0:0:
339,172,114455,1,2,2:2:0:0:
345,152,114538,1,8,2:3:0:0:
351,132,114621,1,2,3:3:0:0:
356,112,114704,2,0,P|390:126|412:156,1,75,2|2,3:3|1:3,0:0:0:0:
360,324,115037,2,0,P|330:346|293:350,1,75,10|2,1:3|3:3,0:0:0:0:
186,242,115371,5,6,1:2:0:0:
46,326,115538,1,10,1:3:0:0:
35,246,115705,6,0,P|49:244|63:246,1,28.1250010728836,10|0,1:3|0:0,0:0:0:0:
170,326,115871,2,0,P|184:329|198:328,1,28.1250010728836,2|2,3:3|1:2,0:0:0:0:
274,246,116037,6,0,P|288:251|299:258,3,28.1250010728836,2|2|2|2,3:2|2:2|2:3|2:2,0:0:0:0:
315,166,116370,2,0,P|329:162|342:161,3,28.1250010728836,8|2|2|2,2:3|2:2|3:3|2:2,0:0:0:0:
238,118,116704,2,0,P|246:105|255:95,3,28.1250010728836,6|2|8|2,2:0|2:2|2:3|2:2,0:0:0:0:
162,162,117038,5,2,3:3:0:0:
169,182,117121,1,2,2:2:0:0:
175,202,117204,1,2,3:3:0:0:
181,222,117287,1,8,2:3:0:0:
186,242,117370,2,0,P|220:228|242:198,1,75,2|0,3:3|0:0,0:0:0:0:
152,52,117704,2,0,P|122:30|85:24,1,75,10|2,1:3|1:3,0:0:0:0:
28,80,117954,1,2,1:2:0:0:
18,98,118037,2,0,P|51:112|88:106,1,75,6|2,1:2|3:3,0:0:0:0:
232,40,118371,1,10,1:3:0:0:
408,36,118704,5,10,3:3:0:0:
408,56,118787,2,0,L|408:93,1,37.5,8|8,1:0|3:0,0:0:0:0:
408,176,118954,1,8,1:0:0:0:
408,196,119037,2,0,L|408:233,1,37.5,8|8,2:3|2:3,0:0:0:0:
316,232,119204,5,10,3:3:0:0:
316,212,119288,2,0,L|316:175,1,37.5,8|8,1:0|3:0,0:0:0:0:
316,92,119454,1,8,3:0:0:0:
316,72,119537,2,0,L|316:35,1,37.5,8|8,3:0|3:0,0:0:0:0:
236,132,119704,5,8,2:3:0:0:
217,132,119787,1,8,2:1:0:0:
198,132,119871,1,2,3:3:0:0:
179,132,119954,1,0,3:0:0:0:
160,132,120038,5,14,3:3:0:0:
80,174,120371,1,10,3:3:0:0:
95,263,120704,1,2,0:3:0:0:
184,276,121037,1,2,3:3:0:0:
224,195,121370,5,2,0:3:0:0:
179,132,121704,1,2,3:3:0:0:
176,52,121871,1,0,0:0:0:0:
170,33,121954,1,0,0:0:0:0:
164,15,122037,1,2,0:3:0:0:
252,33,122370,1,2,3:3:0:0:
262,123,122704,5,2,0:3:0:0:
180,160,123036,1,2,3:3:0:0:
119,93,123371,1,2,0:3:0:0:
156,8,123704,1,2,3:3:0:0:
204,80,124037,5,2,0:3:0:0:
180,160,124371,1,2,3:3:0:0:
12,152,124537,1,0,0:0:0:0:
82,88,124704,2,0,P|100:88|119:93,1,37.5,2|0,0:3|0:0,0:0:0:0:
159,244,125037,2,0,P|138:262|112:271,1,56.25,6|0,3:2|0:0,0:0:0:0:
32,240,125371,5,0,0:0:0:0:
96,180,125704,1,2,3:3:0:0:
180,160,126037,1,2,0:3:0:0:
262,182,126370,1,2,3:3:0:0:
323,246,126704,5,2,0:3:0:0:
342,169,127038,1,2,3:3:0:0:
296,104,127205,1,2,0:3:0:0:
293,83,127288,1,2,0:3:0:0:
292,65,127371,2,0,P|262:86|224:96,1,75,2|2,0:3|3:3,0:0:0:0:
60,108,128037,5,2,0:3:0:0:
121,44,128371,1,2,3:3:0:0:
203,22,128704,1,2,0:3:0:0:
287,42,129037,1,2,3:3:0:0:
351,102,129371,6,0,L|356:152,1,28.1250010728836,2|8,3:3|3:3,0:0:0:0:
272,156,129537,2,0,L|269:128,1,28.1250010728836,0|0,0:0|0:0,0:0:0:0:
418,236,129704,6,0,L|412:304,1,37.5,0|0,0:0|3:3,0:0:0:0:
333,247,129870,2,0,L|337:210,1,37.5,8|0,3:3|3:3,0:0:0:0:
480,128,130037,6,0,L|471:40,1,46.875,0|0,3:3|3:3,0:0:0:0:
384,13,130203,1,8,1:3:0:0:
386,36,130286,1,8,1:3:0:0:
388,59,130371,5,0,3:3:0:0:
390,83,130453,1,8,1:3:0:0:
392,106,130536,1,8,1:3:0:0:
395,130,130621,1,8,1:3:0:0:
397,153,130704,5,0,2:2:0:0:
460,208,130871,1,0,2:2:0:0:
316,332,131204,1,0,2:2:0:0:
253,277,131371,2,0,B|184:304|184:304|120:296,2,112.5,0|0|0,2:2|2:2|2:2,0:0:0:0:
331,251,132037,6,0,P|370:232|372:276,1,103.125,0|0,0:0|0:0,0:0:0:0:
316,332,133037,1,0,2:2:0:0:
253,277,133204,1,0,2:2:0:0:
268,196,133371,6,0,P|292:168|336:152,1,75,0|0,2:2|2:2,0:0:0:0:
240,356,133871,1,0,2:2:0:0:
162,383,134038,2,0,P|125:376|76:312,2,112.5,0|0|0,2:2|2:2|2:2,0:0:0:0:
176,300,134704,6,0,L|144:304,22,18.75,0|0|0|0|0|0|0|0|0|0|0|0|0|0|0|0|0|0|0|0|0|0|0,0:0|0:0|0:0|0:0|0:0|0:0|0:0|0:0|0:0|0:0|0:0|0:0|0:0|0:0|0:0|0:0|0:0|0:0|0:0|0:0|0:0|0:0|0:0,0:0:0:0:
239,355,135704,6,0,L|246:372,6,14.0625005364418,4|0|0|0|0|0|0,1:1|0:0|0:0|0:0|0:0|0:0|0:0,0:0:0:0:
316,332,136037,6,0,P|359:319|424:317,1,93.75,4|0,3:3|2:1,0:0:0:0:
256,268,136371,2,0,P|211:252|171:228,1,93.75,8|0,2:3|2:1,0:0:0:0:
363,240,136704,2,0,P|410:238|456:248,1,93.75,6|2,2:0|3:3,0:0:0:0:
256,192,137037,2,0,P|217:165|184:132,1,93.75,8|0,2:3|2:0,0:0:0:0:
424,160,137371,6,0,P|469:170|511:191,1,93.75,2|2,3:2|2:3,0:0:0:0:
272,112,137704,2,0,P|241:76|218:35,1,93.75,8|2,2:3|2:3,0:0:0:0:
363,240,138037,2,0,P|383:281|394:327,1,93.75,6|2,2:0|3:3,0:0:0:0:
172,116,138371,2,0,P|151:74|140:28,1,93.75,8|2,2:3|2:0,0:0:0:0:
292,280,138704,6,0,P|312:340|256:384,1,140.625,0|0,3:3|0:0,0:0:0:0:
190,346,139037,2,0,P|204:327|223:314,1,46.875,8|0,2:3|0:0,0:0:0:0:
184,248,139204,2,0,P|205:238|228:236,1,46.875,0|0,2:1|0:0,0:0:0:0:
305,320,139371,6,0,P|348:336|394:327,1,93.75,6|2,2:0|3:3,0:0:0:0:
351,255,139621,2,0,P|397:246|431:216,1,93.75,0|0,0:0|0:0,0:0:0:0:
364,172,139871,1,0,2:0:0:0:
288,132,140037,6,0,L|280:85,1,46.875,2|2,3:2|2:2,0:0:0:0:
360,88,140204,2,0,L|352:41,1,46.875,2|2,2:3|2:2,0:0:0:0:
435,137,140371,6,0,L|443:91,1,46.875,8|2,2:3|2:2,0:0:0:0:
504,180,140538,2,0,L|511:133,1,46.875,2|2,2:3|2:2,0:0:0:0:
364,172,140704,5,6,2:0:0:0:
349,215,140787,1,0,0:0:0:0:
362,260,140870,1,2,3:3:0:0:
397,290,140954,1,2,2:2:0:0:
443,296,141037,2,0,P|468:292|488:276,1,46.875,8|2,2:3|2:2,0:0:0:0:
431,216,141204,1,2,2:0:0:0:
196,332,141371,6,0,P|149:328|104:315,1,93.75,0|0,3:3|2:1,0:0:0:0:
316,332,141704,2,0,P|362:328|407:315,1,93.75,8|0,2:3|2:1,0:0:0:0:
164,252,142037,2,0,P|119:236|79:212,1,93.75,6|2,2:0|3:3,0:0:0:0:
348,252,142370,2,0,P|392:236|432:212,1,93.75,8|0,2:3|2:0,0:0:0:0:
256,44,142704,5,2,3:2:0:0:
151,167,142871,2,0,P|131:156|113:142,1,46.875,2|2,2:3|2:2,0:0:0:0:
360,167,143037,2,0,P|380:156|398:142,1,46.875,8|2,2:3|2:2,0:0:0:0:
204,108,143204,6,0,P|187:91|173:72,1,46.875,2|2,2:3|2:2,0:0:0:0:
308,108,143371,2,0,P|324:91|338:72,2,46.875,6|0|2,2:0|0:0|3:3,0:0:0:0:
224,200,143704,1,8,2:3:0:0:
348,252,143871,1,2,2:0:0:0:
370,245,143954,1,8,2:3:0:0:
391,235,144037,6,0,P|357:267|330:305,1,93.75,0|0,3:3|2:1,0:0:0:0:
204,108,144371,2,0,P|192:62|172:20,1,93.75,8|0,2:3|2:1,0:0:0:0:
407,9,144704,2,0,P|451:21|498:25,1,93.75,6|2,2:0|3:3,0:0:0:0:
224,200,145037,2,0,P|177:203|132:216,1,93.75,8|0,2:3|2:0,0:0:0:0:
407,314,145371,6,0,P|453:317|498:330,1,93.75,2|2,3:2|2:3,0:0:0:0:
504,344,145621,2,0,P|459:331|412:327,1,93.75,2|2,2:2|2:2,0:0:0:0:
330,305,145871,2,0,P|306:305|283:308,1,46.875,2|2,2:3|2:2,0:0:0:0:
440,188,146037,1,6,2:0:0:0:
460,184,146121,2,0,P|479:171|497:156,2,46.875,0|2|2,0:0|3:3|2:2,0:0:0:0:
372,144,146371,1,8,2:3:0:0:
357,187,146454,1,2,2:2:0:0:
370,232,146537,1,2,2:0:0:0:
405,262,146621,1,8,2:3:0:0:
450,267,146704,6,0,P|496:259|530:228,1,93.75,4|0,3:3|2:1,0:0:0:0:
379,59,147037,2,0,P|334:68|300:99,1,93.75,8|0,2:3|2:1,0:0:0:0:
460,184,147371,2,0,P|494:152|506:108,1,93.75,6|2,2:0|3:3,0:0:0:0:
263,24,147704,2,0,P|229:55|217:99,1,93.75,8|0,2:3|2:0,0:0:0:0:
354,319,148037,6,0,P|374:277|369:231,1,93.75,2|2,3:2|2:3,0:0:0:0:
296,260,148287,1,2,2:2:0:0:
276,264,148371,2,0,P|256:276|238:291,1,46.875,8|2,2:3|2:2,0:0:0:0:
432,344,148537,2,0,P|441:322|448:300,1,46.875,2|2,2:3|2:2,0:0:0:0:
308,188,148704,2,0,P|290:145|299:99,1,93.75,6|2,2:0|3:3,0:0:0:0:
437,19,149037,2,0,P|451:63|440:108,1,93.75,8|2,2:3|2:0,0:0:0:0:
323,176,149371,6,0,P|319:108|371:66,1,140.625,0|0,3:3|0:0,0:0:0:0:
460,184,149704,2,0,P|436:187|414:183,1,46.875,8|0,2:3|0:0,0:0:0:0:
394,257,149871,2,0,P|372:249|354:234,1,46.875,0|0,2:1|0:0,0:0:0:0:
372,66,150038,2,0,P|342:30|298:15,1,93.75,6|2,2:0|3:3,0:0:0:0:
299,99,150288,2,0,P|254:83|210:92,1,93.75,0|0,0:0|0:0,0:0:0:0:
246,163,150538,1,0,2:0:0:0:
244,288,150704,6,0,L|252:335,1,46.875,2|2,3:2|2:2,0:0:0:0:
171,331,150871,2,0,L|179:377,1,46.875,2|2,2:3|2:2,0:0:0:0:
96,283,151038,6,0,L|88:329,1,46.875,8|2,2:3|2:2,0:0:0:0:
27,239,151205,2,0,L|20:286,1,46.875,2|2,2:3|2:2,0:0:0:0:
172,248,151371,5,6,2:0:0:0:
188,206,151454,1,0,0:0:0:0:
175,161,151537,1,2,3:3:0:0:
141,130,151621,1,2,2:2:0:0:
94,124,151704,2,0,P|69:127|49:143,1,46.875,8|2,2:3|2:2,0:0:0:0:
104,204,151871,1,2,2:0:0:0:
316,332,152037,6,0,P|362:328|407:315,1,93.75,0|0,3:3|2:1,0:0:0:0:
196,331,152370,2,0,P|149:327|104:314,1,93.75,0|0,0:0|2:1,0:0:0:0:
340,248,152704,2,0,P|383:232|424:207,1,93.75,6|2,2:0|3:3,0:0:0:0:
172,248,153037,2,0,P|128:232|87:207,1,93.75,8|0,2:3|2:0,0:0:0:0:
256,44,153371,5,2,3:2:0:0:
361,167,153538,2,0,P|381:156|399:142,1,46.875,2|2,2:3|2:2,0:0:0:0:
152,167,153704,2,0,P|132:156|114:142,1,46.875,8|2,2:3|2:2,0:0:0:0:
308,108,153871,6,0,P|325:91|339:72,1,46.875,2|2,2:3|2:2,0:0:0:0:
204,108,154038,2,0,P|188:91|174:72,2,46.875,6|0|2,2:0|0:0|3:3,0:0:0:0:
288,200,154371,1,8,2:3:0:0:
164,252,154538,1,2,2:0:0:0:
142,245,154621,1,8,2:3:0:0:
121,235,154704,6,0,P|155:267|182:305,1,93.75,0|0,3:3|2:1,0:0:0:0:
32,148,155038,2,0,P|11:105|0:60,1,93.75,8|0,2:3|2:1,0:0:0:0:
184,260,155371,2,0,P|208:299|224:343,1,93.75,6|2,2:0|3:3,0:0:0:0:
120,136,155704,2,0,P|95:96|79:52,1,93.75,8|0,2:3|2:0,0:0:0:0:
310,276,156037,6,0,P|324:319|329:366,1,93.75,2|2,3:2|2:3,0:0:0:0:
318,376,156287,2,0,P|313:329|299:284,1,93.75,2|2,2:2|2:2,0:0:0:0:
288,200,156537,2,0,P|279:177|267:157,1,46.875,2|2,2:3|2:2,0:0:0:0:
438,258,156703,1,6,2:0:0:0:
449,275,156787,2,0,P|468:287|488:298,2,46.875,0|2|2,0:0|3:3|2:2,0:0:0:0:
476,176,157037,1,8,2:3:0:0:
430,165,157120,1,2,2:2:0:0:
386,181,157203,1,2,2:0:0:0:
357,215,157287,1,8,2:3:0:0:
344,260,157371,6,0,P|354:305|375:347,1,93.75,4|0,3:3|2:1,0:0:0:0:
297,114,157704,2,0,P|280:68|257:28,1,93.75,8|0,2:3|2:1,0:0:0:0:
268,221,158037,2,0,P|266:268|276:313,1,93.75,6|2,2:0|3:3,0:0:0:0:
221,114,158370,2,0,P|194:74|161:42,1,93.75,8|0,2:3|2:0,0:0:0:0:
189,281,158704,6,0,P|199:325|220:368,1,93.75,2|2,3:2|2:3,0:0:0:0:
141,129,159037,2,0,P|105:97|63:75,1,93.75,8|2,2:3|2:3,0:0:0:0:
268,221,159370,2,0,P|308:240|354:252,1,93.75,6|2,2:0|3:3,0:0:0:0:
144,30,159704,2,0,P|102:9|55:-1,1,93.75,8|2,2:3|2:0,0:0:0:0:
308,150,160037,6,0,P|368:170|412:114,1,140.625,0|0,3:3|0:0,0:0:0:0:
375,47,160370,2,0,P|355:61|343:80,1,46.875,0|0,0:0|0:0,0:0:0:0:
277,42,160537,2,0,P|266:62|265:85,1,46.875,0|0,2:1|0:0,0:0:0:0:
350,221,160704,2,0,P|339:265|307:299,1,93.75,6|2,2:0|3:3,0:0:0:0:
268,221,160954,2,0,P|240:256|188:268,1,93.75,0|0,0:0|0:0,0:0:0:0:
192,189,161204,1,0,2:0:0:0:
307,150,161370,6,0,P|325:134|338:114,1,46.875,0|2,0:0|2:2,0:0:0:0:
265,86,161537,2,0,P|275:64|278:41,1,46.875,2|2,2:3|2:2,0:0:0:0:
188,64,161704,6,0,P|185:87|189:110,1,46.875,8|2,2:3|2:2,0:0:0:0:
116,24,161871,2,0,P|107:45|105:68,1,46.875,2|2,2:3|2:2,0:0:0:0:
114,181,162037,5,6,2:0:0:0:
117,223,162120,1,0,0:0:0:0:
150,261,162203,1,0,0:0:0:0:
194,270,162287,1,2,2:2:0:0:
237,255,162370,2,0,P|256:242|267:221,1,46.875,0|2,0:0|2:2,0:0:0:0:
192,189,162537,1,2,2:0:0:0:
84,303,162704,6,0,P|54:268|31:228,1,93.75,0|0,3:3|2:1,0:0:0:0:
160,112,163037,2,0,P|207:111|253:120,1,93.75,0|0,0:0|2:1,0:0:0:0:
188,282,163371,2,0,P|149:256|116:223,1,93.75,6|2,2:0|3:3,0:0:0:0:
103,48,163704,2,0,P|148:35|195:32,1,93.75,8|0,2:3|2:0,0:0:0:0:
337,115,164037,5,0,0:0:0:0:
300,220,164204,2,0,P|278:229|255:234,1,46.875,2|2,2:3|2:2,0:0:0:0:
135,343,164371,2,0,P|156:355|178:363,1,46.875,8|2,2:3|2:2,0:0:0:0:
271,317,164537,2,0,P|293:322|316:325,1,46.875,0|2,0:0|2:2,0:0:0:0:
412,284,164704,2,0,P|434:283|458:280,2,46.875,6|0|2,2:0|0:0|3:3,0:0:0:0:
192,189,165037,1,0,0:0:0:0:
420,116,165204,1,2,2:0:0:0:
442,109,165287,1,0,0:0:0:0:
463,98,165370,6,0,P|445:114|430:132,1,46.875,0|0,3:3|0:0,0:0:0:0:
368,184,165537,2,0,P|354:203|345:224,1,46.875,0|0,2:1|0:0,0:0:0:0:
298,290,165704,2,0,P|290:312|286:335,1,46.875,8|0,2:3|0:0,0:0:0:0:
264,212,165871,1,0,2:1:0:0:
120,166,166037,2,0,P|77:146|32:134,1,93.75,6|2,2:0|3:3,0:0:0:0:
304,92,166371,2,0,P|349:79|395:75,1,93.75,8|0,2:3|2:0,0:0:0:0:
192,189,166704,6,0,P|177:232|152:272,1,93.75,2|2,3:2|2:3,0:0:0:0:
134,272,166954,2,0,P|158:231|174:187,1,93.75,2|2,2:2|2:2,0:0:0:0:
218,114,167204,2,0,P|224:90|227:67,1,46.875,2|2,2:3|2:2,0:0:0:0:
298,290,167370,1,6,2:0:0:0:
297,311,167454,2,0,P|307:331|319:351,2,46.875,0|2|2,0:0|3:3|2:2,0:0:0:0:
349,229,167704,1,8,2:3:0:0:
310,207,167787,1,2,2:2:0:0:
265,215,167870,1,2,2:0:0:0:
227,246,167953,1,0,0:0:0:0:
218,288,168037,6,0,P|219:334|245:372,1,93.75,4|0,3:3|2:1,0:0:0:0:
304,92,168371,2,0,P|302:45|276:7,1,93.75,8|0,2:3|2:1,0:0:0:0:
297,311,168704,2,0,P|325:348|368:364,1,93.75,6|2,2:0|3:3,0:0:0:0:
224,72,169037,2,0,P|196:34|153:18,1,93.75,8|0,2:3|2:0,0:0:0:0:
41,289,169371,6,0,L|134:272,1,93.75,2|2,3:2|2:3,0:0:0:0:
363,147,169704,2,0,L|456:164,1,93.75,8|2,2:3|2:3,0:0:0:0:
173,187,170037,2,0,L|80:170,1,93.75,6|2,2:0|3:3,0:0:0:0:
376,284,170371,2,0,L|469:267,1,93.75,8|2,2:3|2:0,0:0:0:0:
264,104,170704,5,0,3:3:0:0:
248,112,170787,1,0,0:0:0:0:
232,120,170871,2,0,L|320:134,1,46.875,0|0,2:1|0:0,0:0:0:0:
340,64,171037,1,8,2:3:0:0:
356,56,171120,1,0,0:0:0:0:
372,48,171204,2,0,L|284:34,1,46.875,0|0,2:1|0:0,0:0:0:0:
160,160,171371,5,6,2:0:0:0:
144,168,171454,1,0,0:0:0:0:
128,176,171537,2,0,L|81:168,1,46.875,2|0,3:3|0:0,0:0:0:0:
168,36,171704,1,8,2:3:0:0:
184,28,171787,1,0,0:0:0:0:
200,20,171870,2,0,L|246:27,1,46.875,0|0,2:0|0:0,0:0:0:0:
278,127,172037,6,0,L|232:120,1,46.875,2|2,3:2|2:2,0:0:0:0:
325,40,172204,2,0,L|372:48,1,46.875,2|2,2:3|2:2,0:0:0:0:
363,141,172371,6,0,L|409:148,1,46.875,8|2,2:3|2:2,0:0:0:0:
316,228,172538,2,0,L|269:220,1,46.875,2|2,2:3|2:2,0:0:0:0:
192,196,172704,5,6,2:0:0:0:
187,240,172787,1,0,0:0:0:0:
211,280,172870,1,2,3:3:0:0:
252,301,172954,1,2,2:2:0:0:
296,310,173037,2,0,L|342:317,1,46.875,8|2,2:3|2:2,0:0:0:0:
488,168,173204,1,2,2:0:0:0:
340,64,173370,6,0,L|236:84,1,93.75,0|0,3:3|2:1,0:0:0:0:
112,177,173704,2,0,L|20:160,1,93.75,8|0,2:3|2:1,0:0:0:0:
268,219,174037,2,0,L|361:202,1,93.75,6|2,2:0|3:3,0:0:0:0:
133,315,174371,2,0,L|41:298,1,93.75,8|0,2:3|2:0,0:0:0:0:
279,83,174704,5,2,3:2:0:0:
316,188,174871,2,0,P|338:197|361:202,1,46.875,2|2,2:3|2:2,0:0:0:0:
481,311,175038,2,0,P|460:323|438:331,1,46.875,8|2,2:3|2:2,0:0:0:0:
345,285,175204,2,0,P|323:290|300:293,1,46.875,2|2,2:3|2:2,0:0:0:0:
204,252,175371,2,0,P|182:251|158:248,2,46.875,6|0|2,2:0|0:0|3:3,0:0:0:0:
360,116,175704,1,8,2:3:0:0:
172,128,175871,1,2,2:0:0:0:
156,136,175954,1,8,2:3:0:0:
140,144,176038,6,0,L|228:158,1,46.875,0|0,3:3|0:0,0:0:0:0:
352,32,176205,1,0,2:1:0:0:
368,24,176288,1,0,0:0:0:0:
384,16,176371,2,0,L|430:23,1,46.875,8|0,2:3|0:0,0:0:0:0:
460,116,176537,1,0,2:1:0:0:
478,121,176620,1,0,0:0:0:0:
495,125,176704,6,0,L|412:158,1,46.875,6|0,2:0|0:0,0:0:0:0:
360,116,176871,1,2,3:3:0:0:
342,112,176954,1,0,0:0:0:0:
325,108,177037,2,0,L|281:125,3,46.875,8|0|0|0,2:3|0:0|2:0|0:0,0:0:0:0:
168,128,177371,6,0,P|133:159|105:197,1,93.75,2|2,3:2|2:3,0:0:0:0:
109,210,177621,2,0,P|136:172|170:140,1,93.75,2|0,2:2|0:0,0:0:0:0:
223,72,177871,2,0,P|241:57|261:45,1,46.875,0|0,2:1|0:0,0:0:0:0:
64,47,178037,1,6,2:0:0:0:
46,57,178121,2,0,P|22:57|0:57,2,46.875,2|2|0,1:2|3:3|0:0,0:0:0:0:
141,26,178371,1,8,2:3:0:0:
182,48,178454,1,0,0:0:0:0:
223,72,178537,1,2,1:3:0:0:
263,93,178621,1,8,1:3:0:0:
304,116,178704,6,0,L|437:92,1,112.500004291535,6|10,3:3|1:3,0:0:0:0:
261,44,179371,1,2,1:3:0:0:
216,120,179537,2,0,P|222:146|238:170,1,56.2500021457673,2|10,3:3|1:3,0:0:0:0:
176,44,180037,6,0,P|120:43|65:57,1,112.500004291535,2|10,3:3|1:3,0:0:0:0:
216,120,180704,1,2,1:3:0:0:
264,40,180870,2,0,L|325:27,1,56.2500021457673,2|10,3:3|1:3,0:0:0:0:
152,172,181287,1,8,1:3:0:0:
166,188,181371,2,0,P|189:201|216:206,1,56.2500021457673,2|2,3:3|3:3,0:0:0:0:
287,157,181704,6,0,P|341:143|398:144,1,112.500004291535,10|2,1:3|1:3,0:0:0:0:
425,226,182204,1,2,3:3:0:0:
346,266,182370,2,0,P|317:259|292:246,1,56.2500021457673,10|2,1:3|1:3,0:0:0:0:
136,154,182704,6,0,L|2:177,1,112.500004291535,2|10,1:3|1:3,0:0:0:0:
216,111,183287,1,10,1:3:0:0:
225,131,183371,2,0,P|229:158|225:186,1,56.2500021457673,2|2,1:2|1:3,0:0:0:0:
76,235,183704,2,0,P|79:262|90:288,1,56.2500021457673,8|2,1:3|1:3,0:0:0:0:
220,287,183954,1,8,1:3:0:0:
207,269,184037,6,0,P|185:251|159:241,1,56.2500021457673,2|2,1:3|1:3,0:0:0:0:
293,247,184371,2,0,P|319:239|343:224,1,56.2500021457673,10|2,1:3|1:3,0:0:0:0:
224,186,184704,6,0,P|198:171|171:165,1,56.2500021457673,2|2,1:3|3:3,0:0:0:0:
300,156,185037,2,0,P|321:137|336:114,1,56.2500021457673,10|2,1:3|1:3,0:0:0:0:
235,0,185371,6,0,P|224:54|240:108,1,112.500004291535,2|0,3:3|0:0,0:0:0:0:
265,327,186037,1,2,1:3:0:0:
293,247,186204,2,0,P|283:220|267:196,1,56.2500021457673,2|10,3:3|1:3,0:0:0:0:
138,203,186538,1,2,1:3:0:0:
146,223,186621,1,8,1:3:0:0:
159,241,186704,6,0,P|180:258|206:268,1,56.2500021457673,2|2,3:3|3:3,0:0:0:0:
350,314,187037,2,0,P|389:299|430:293,1,84.3750032186509,10|2,1:3|1:2,0:0:0:0:
506,227,187371,6,0,P|484:209|458:199,1,56.2500021457673,2|2,1:3|3:3,0:0:0:0:
320,157,187704,2,0,P|278:160|237:172,1,84.3750032186509,10|0,1:3|0:0,0:0:0:0:
138,203,188037,2,0,P|160:240|216:272,1,84.3750032186509,2|0,3:3|0:0,0:0:0:0:
288,256,188371,1,0,0:0:0:0:
176,100,188537,1,0,0:0:0:0:
60,288,188704,5,0,0:0:0:0:
80,292,188787,1,0,0:0:0:0:
100,296,188871,1,0,0:0:0:0:
237,172,189037,1,0,0:0:0:0:
257,168,189121,1,0,0:0:0:0:
277,164,189204,1,0,0:0:0:0:
297,160,189288,1,0,0:0:0:0:
317,156,189371,6,0,B|428:136|428:136|400:184,1,150,4|8,3:3|2:3,0:0:0:0:
350,314,189871,1,0,2:1:0:0:
232,253,190037,2,0,L|154:239,1,75,6|2,2:0|3:3,0:0:0:0:
26,308,190371,2,0,L|99:295,1,75,8|0,2:3|2:0,0:0:0:0:
196,169,190704,2,0,P|124:163|80:220,1,150,2|8,3:3|2:3,0:0:0:0:
176,324,191371,1,6,2:0:0:0:
228,257,191537,2,0,P|195:241|158:240,1,75,2|8,3:3|2:3,0:0:0:0:
60,288,191871,5,2,1:3:0:0:
80,292,191954,1,8,1:3:0:0:
100,296,192037,2,0,P|66:312|29:313,1,75,2|2,3:3|3:3,0:0:0:0:
136,164,192371,1,10,2:3:0:0:
176,324,192537,1,2,1:3:0:0:
72,204,192704,1,2,1:3:0:0:
60,178,192787,1,0,0:0:0:0:
59,150,192870,1,2,3:3:0:0:
67,123,192954,1,2,1:2:0:0:
85,102,193037,2,0,P|118:85|155:84,1,75,10|2,1:3|1:3,0:0:0:0:
252,214,193371,6,0,P|180:220|135:163,1,150,2|8,3:3|2:3,0:0:0:0:
228,44,194037,5,6,2:0:0:0:
244,36,194120,1,2,1:2:0:0:
260,28,194204,2,0,L|306:35,1,37.5,2|2,3:3|1:2,0:0:0:0:
412,60,194371,1,8,2:3:0:0:
276,136,194537,1,2,1:3:0:0:
258,131,194620,1,8,1:3:0:0:
241,127,194704,6,0,B|280:108|280:108|404:140,1,150,4|8,3:3|2:3,0:0:0:0:
297,33,195204,1,0,2:1:0:0:
172,84,195371,1,6,2:0:0:0:
160,110,195454,1,2,1:2:0:0:
159,138,195537,1,2,3:3:0:0:
167,165,195621,1,2,1:2:0:0:
185,186,195704,2,0,P|218:203|255:204,1,75,8|0,2:3|2:0,0:0:0:0:
355,150,196037,6,0,B|384:136|384:136|432:164|498:161,1,150,2|8,3:3|2:3,0:0:0:0:
412,60,196537,1,0,2:1:0:0:
385,242,196704,1,6,2:0:0:0:
241,127,196871,1,2,3:3:0:0:
268,309,197037,1,8,2:3:0:0:
355,150,197204,5,2,1:3:0:0:
336,147,197287,1,8,1:3:0:0:
318,145,197371,2,0,L|288:240,1,75,2|2,3:3|3:3,0:0:0:0:
476,268,197704,1,10,1:3:0:0:
268,309,197871,5,2,1:3:0:0:
252,317,197954,1,2,1:2:0:0:
236,325,198038,2,0,L|162:313,1,75,6|2,2:0|3:3,0:0:0:0:
385,242,198371,1,10,1:3:0:0:
478,119,198537,5,2,1:3:0:0:
481,100,198620,1,2,1:2:0:0:
483,82,198704,2,0,L|388:52,1,75,2|0,3:3|2:1,0:0:0:0:
328,72,198954,2,0,L|233:42,1,75,2|0,1:2|0:0,0:0:0:0:
384,136,199204,1,0,2:1:0:0:
328,228,199371,5,6,2:0:0:0:
347,233,199454,1,2,1:2:0:0:
365,238,199538,1,2,3:3:0:0:
384,243,199621,1,2,1:2:0:0:
402,248,199705,1,8,2:3:0:0:
420,253,199788,1,0,0:0:0:0:
439,258,199872,1,2,1:3:0:0:
457,263,199955,1,8,1:3:0:0:
475,267,200037,6,0,L|371:299,1,75,4|0,3:3|2:1,0:0:0:0:
212,336,200537,1,0,2:1:0:0:
212,261,200704,6,0,L|212:186,1,75,6|2,2:0|3:3,0:0:0:0:
296,264,201037,2,0,L|296:339,1,75,8|0,2:3|2:0,0:0:0:0:
109,289,201371,6,0,L|109:252,3,37.5,2|2|2|2,3:2|2:2|2:3|2:2,0:0:0:0:
109,214,201705,2,0,L|109:177,3,37.5,8|0|2|2,2:3|0:0|2:3|2:2,0:0:0:0:
113,97,202038,1,6,2:0:0:0:
132,97,202121,2,0,L|170:97,1,37.5,0|2,0:0|3:3,0:0:0:0:
197,177,202288,1,2,2:2:0:0:
216,177,202371,2,0,L|254:177,1,37.5,8|2,2:3|2:2,0:0:0:0:
283,256,202538,5,2,2:0:0:0:
302,257,202622,1,8,2:3:0:0:
321,257,202705,2,0,L|321:332,1,75,2|2,3:2|3:3,0:0:0:0:
196,256,203037,1,8,2:3:0:0:
412,176,203204,5,0,2:0:0:0:
431,177,203288,1,0,0:0:0:0:
448,176,203371,2,0,L|448:251,1,75,6|2,2:0|3:3,0:0:0:0:
324,176,203703,1,8,2:3:0:0:
454,96,203871,1,0,2:0:0:0:
321,257,204037,5,10,3:2:0:0:
320,276,204121,1,2,2:2:0:0:
320,295,204204,1,2,2:3:0:0:
282,180,204371,1,8,2:3:0:0:
281,161,204454,1,2,2:2:0:0:
281,142,204536,1,2,2:3:0:0:
241,65,204703,6,0,L|241:28,1,37.5,6|8,2:0|2:3,0:0:0:0:
157,65,204871,2,0,L|120:65,1,37.5,2|2,3:3|2:2,0:0:0:0:
197,141,205037,2,0,L|197:216,1,75,8|2,2:3|3:3,0:0:0:0:
197,293,205287,1,8,2:3:0:0:
197,313,205370,6,0,L|272:313,1,75,2|2,3:2|2:3,0:0:0:0:
362,308,205704,1,8,2:3:0:0:
282,92,205871,5,2,2:3:0:0:
283,73,205955,1,0,2:0:0:0:
284,56,206038,2,0,L|359:56,1,75,6|2,2:0|3:3,0:0:0:0:
282,180,206370,1,8,2:3:0:0:
202,50,206538,1,2,2:3:0:0:
363,183,206704,5,2,3:2:0:0:
382,184,206786,1,2,2:2:0:0:
401,184,206871,1,2,2:3:0:0:
300,260,207037,1,8,2:3:0:0:
281,261,207121,1,2,2:2:0:0:
262,261,207204,1,2,2:3:0:0:
201,183,207371,5,6,2:0:0:0:
182,184,207453,1,2,2:2:0:0:
163,184,207538,1,2,3:3:0:0:
204,88,207704,1,8,2:3:0:0:
282,180,207871,1,2,3:3:0:0:
283,88,208037,5,10,3:3:0:0:
303,88,208120,2,0,L|340:88,1,37.5,8|8,1:0|3:0,0:0:0:0:
423,88,208287,1,8,1:0:0:0:
443,88,208370,2,0,L|480:88,1,37.5,8|8,2:3|2:3,0:0:0:0:
479,180,208537,5,10,3:3:0:0:
459,180,208621,2,0,L|422:180,1,37.5,8|8,1:0|3:0,0:0:0:0:
339,180,208787,1,8,3:0:0:0:
319,180,208870,2,0,L|282:180,1,37.5,8|8,3:0|3:0,0:0:0:0:
201,183,209037,5,8,2:3:0:0:
182,183,209120,1,8,2:1:0:0:
163,182,209204,1,2,3:3:0:0:
144,183,209287,1,0,3:0:0:0:
125,183,209371,2,0,L|88:183,1,37.5,10|2,3:3|2:2,0:0:0:0:
88,96,209537,2,0,L|125:96,1,37.5,2|2,2:3|2:2,0:0:0:0:
204,92,209704,5,8,2:3:0:0:
282,180,209871,2,0,L|319:180,1,37.5,2|2,2:3|2:2,0:0:0:0:
340,88,210037,5,10,2:3:0:0:
422,180,210204,2,0,L|459:180,1,37.5,0|2,3:0|2:2,0:0:0:0:
340,296,210371,5,8,2:3:0:0:
321,296,210454,1,2,1:2:0:0:
302,297,210538,1,2,2:3:0:0:
283,296,210621,1,2,1:2:0:0:
264,296,210704,6,0,L|184:296,1,56.2500021457673,2|2,0:3|2:0,0:0:0:0:
340,212,211204,1,2,2:0:0:0:
265,212,211371,6,0,L|196:212,1,56.2500021457673,2|2,0:3|2:0,0:0:0:0:
265,132,211704,2,0,L|264:64,1,56.2500021457673,2|2,0:3|2:0,0:0:0:0:
344,128,212037,6,0,L|504:128,2,150,2|0|0,0:3|0:0|0:0,0:0:0:0:
132,128,213376,6,0,L|52:128,1,56.2500021457673,2|2,0:3|2:0,0:0:0:0:
208,212,213876,1,2,2:0:0:0:
133,212,214042,6,0,L|64:212,1,56.2500021457673,2|2,0:3|2:0,0:0:0:0:
133,292,214376,2,0,L|132:360,1,56.2500021457673,2|2,0:3|2:0,0:0:0:0:
284,296,214709,6,0,L|364:296,1,56.2500021457673,2|2,0:3|2:0,0:0:0:0:
252,212,215209,1,2,2:0:0:0:
268,212,215292,1,0,0:0:0:0:
284,212,215376,6,0,L|353:212,1,56.2500021457673,2|2,0:3|2:0,0:0:0:0:
284,124,215626,1,0,0:0:0:0:
284,108,215709,2,0,L|285:40,1,56.2500021457673,2|2,0:3|2:0,0:0:0:0:
192,128,216042,6,0,L|112:128,1,56.2500021457673,2|2,3:3|2:0,0:0:0:0:
268,212,216542,1,2,2:0:0:0:
193,212,216709,6,0,L|124:212,1,56.2500021457673,2|2,0:3|2:0,0:0:0:0:
193,292,217042,2,0,L|192:360,1,56.2500021457673,2|2,0:3|2:0,0:0:0:0:
268,296,217376,6,0,L|436:296,2,150,2|0|0,0:3|0:0|0:0,0:0:0:0:
268,212,218715,6,0,L|118:212,1,150,2|2,0:3|0:3,0:0:0:0:
118,296,219577,2,0,L|206:296,1,75,2|0,0:3|0:0,0:0:0:0:
118,128,220048,6,0,L|268:128,1,150,2|2,0:3|0:3,0:0:0:0:
268,128,221375,6,0,L|418:128,1,150,2|2,0:3|0:3,0:0:0:0:
256,192,222000,12,0,225875,0:0:0:0:
