osu file format v14

[General]
AudioFilename: Yume Nikki mega mix.mp3
AudioLeadIn: 0
PreviewTime: 135996
Countdown: 0
SampleSet: Normal
StackLeniency: 0.2
Mode: 0
LetterboxInBreaks: 0
WidescreenStoryboard: 0

[Editor]
Bookmarks: 24037,66704,109371,130704,136037,178704
DistanceSpacing: 1.4
BeatDivisor: 4
GridSize: 4
TimelineZoom: 2.2

[Metadata]
Title:Kono Hoshi de....
TitleUnicode:この星で・・・。
Artist:Camellia
ArtistUnicode:かめりあ
Creator:Krimek
Version:Hyper
Source:ゆめにっき
Tags:yume nikki 夢日記 窓付き dream diary madotsuki 窓付き windowed megamix mega mix かめるかめりあ cametek kamelcamellia electronic instrumental video game Yauxo Arbane -Famous-
BeatmapID:1894420
BeatmapSetID:511759

[Difficulty]
HPDrainRate:4
CircleSize:3.8
OverallDifficulty:6.5
ApproachRate:7.2
SliderMultiplier:1.4
SliderTickRate:1

[Events]
//Background and Video events
0,0,"bg.jpg",0,0
//Break Periods
//Storyboard Layer 0 (Background)
//Storyboard Layer 1 (Fail)
//Storyboard Layer 2 (Pass)
//Storyboard Layer 3 (Foreground)
//Storyboard Layer 4 (Overlay)
//Storyboard Sound Samples

[TimingPoints]
38,333.333333333333,4,1,1,60,1,0
2704,-100,4,1,1,35,0,0
13371,-100,4,1,1,40,0,0
23204,-100,4,1,1,60,0,0
24037,-100,4,1,1,60,0,0
44037,-100,4,1,1,50,0,0
45037,-100,4,1,1,55,0,0
45371,-100,4,1,1,60,0,0
66704,-133.333333333333,4,1,1,40,0,0
88037,-133.333333333333,4,1,1,55,0,0
109371,-133.333333333333,4,1,1,45,0,0
120037,-200,4,1,1,40,0,0
129371,-133.333333333333,4,1,1,50,0,0
130704,-100,4,1,1,35,0,0
132037,-200,4,1,1,15,0,0
132954,-200,4,1,1,5,0,0
133037,-100,4,1,1,35,0,0
135704,-200,4,1,1,55,0,0
136037,-100,4,1,1,60,0,1
178704,-133.333333333333,4,1,1,40,0,0
189371,-133.333333333333,4,1,1,55,0,0
208037,-100,4,1,1,45,0,0
209371,-133.333333333333,4,1,1,45,0,0
210704,-133.333333333333,4,1,1,40,0,0
212037,446.428571428571,4,1,1,50,1,0
212037,-133.333333333333,4,1,1,50,0,0
213376,333.333333333333,4,1,1,50,1,0
213376,-133.333333333333,4,1,1,50,0,0
217376,446.428571428571,3,1,1,40,1,0
217376,-133.333333333333,3,1,1,40,0,0
218715,494.641384995878,3,1,1,40,1,0
218715,-133.333333333333,3,1,1,40,0,0
219209,368.098159509202,3,1,1,40,1,8
219577,471.698113207547,3,1,1,40,1,8
220048,500,3,1,1,40,1,0
220048,-133.333333333333,3,1,1,40,0,0
220548,413.793103448276,3,1,1,40,1,8
221375,500,3,1,1,40,1,0
221375,-133.333333333333,3,1,1,40,0,0
221875,-100,3,1,1,40,0,0
222875,-200,4,1,1,35,0,0
223375,-200,4,1,1,30,0,0
223875,-200,4,1,1,25,0,0
224375,-200,4,1,1,20,0,0
224875,-200,4,1,1,15,0,0
225375,-200,4,1,1,10,0,0
225875,-200,4,1,1,5,0,0

[Colours]
Combo1 : 111,106,111
Combo2 : 189,79,112
Combo3 : 136,85,111

[HitObjects]
242,294,2704,6,0,L|147:307,1,70,2|2,0:3|2:0,0:0:0:0:
332,320,3204,5,2,2:0:0:0:
316,240,3371,2,0,P|335:210|420:192,2,105,2|0|2,0:3|2:0|2:0,0:0:0:0:
256,292,4037,1,2,0:3:0:0:
120,268,5037,2,0,P|104:299|103:333,1,70,2|0,0:3|0:0,0:0:0:0:
181,318,5370,5,2,0:3:0:0:
196,240,5537,2,0,P|176:210|146:193,1,70,2|2,2:0|0:3,0:0:0:0:
68,200,5871,1,2,2:0:0:0:
104,132,6037,6,0,P|136:118|170:121,1,70,2|2,0:3|2:0,0:0:0:0:
208,136,6287,2,0,P|242:138|274:125,1,70,0|0,2:0|0:0,0:0:0:0:
300,96,6537,1,2,2:0:0:0:
232,60,6704,2,0,L|192:36,8,35,10|0|2|0|2|0|2|0|2,0:2|0:0|2:0|0:0|0:3|0:0|2:0|0:0|0:3,0:0:0:0:
300,96,7537,5,2,2:0:0:0:
368,60,7704,1,2,0:3:0:0:
436,96,7871,1,2,2:0:0:0:
367,132,8037,6,0,P|364:166|367:201,1,70,2|2,0:3|2:0,0:0:0:0:
504,276,8537,2,0,P|506:298|503:322,1,35,2|0,2:0|2:0,0:0:0:0:
480,340,8704,6,0,P|483:305|480:270,1,70,2|2,0:3|2:0,0:0:0:0:
456,240,8954,2,0,P|443:207|437:172,1,70,0|0,0:0|0:0,0:0:0:0:
436,136,9204,1,2,2:0:0:0:
448,60,9371,5,2,0:3:0:0:
179,107,10537,6,0,P|177:90|177:73,1,35,2|0,2:0|2:0,0:0:0:0:
204,43,10704,2,0,P|199:78|203:113,1,70,2|2,0:3|2:0,0:0:0:0:
256,172,11037,1,2,0:3:0:0:
300,236,11204,6,0,P|302:258|299:282,1,35,2|0,2:0|2:0,0:0:0:0:
324,304,11371,2,0,P|327:269|324:234,1,70,2|2,0:3|2:0,0:0:0:0:
316,196,11621,2,0,P|312:161|316:126,1,70,0|0,0:0|0:0,0:0:0:0:
332,92,11871,1,2,2:0:0:0:
396,48,12037,6,0,L|436:25,6,35,10|0|0|0|2|0|0,0:2|2:0|2:0|2:0|0:3|2:0|2:0,0:0:0:0:
404,124,12704,6,0,L|444:101,3,35,2|0|2|0,0:3|2:0|2:0|2:0,0:0:0:0:
468,88,13037,2,0,L|467:122,3,35,2|0|2|0,0:3|2:0|2:0|2:0,0:0:0:0:
468,160,13371,6,0,L|468:256,1,70,2|2,0:3|2:0,0:0:0:0:
392,272,13871,5,2,2:0:0:0:
388,192,14037,2,0,L|388:68,2,105,2|0|2,0:3|2:0|2:0,0:0:0:0:
320,232,14704,5,2,0:3:0:0:
256,192,15037,1,2,0:3:0:0:
192,232,15371,1,2,0:3:0:0:
124,192,15704,2,0,L|124:96,1,70,2|0,0:3|0:0,0:0:0:0:
44,160,16037,2,0,L|44:230,1,70,2|2,0:3|2:0,0:0:0:0:
192,232,16537,5,2,2:0:0:0:
120,268,16704,2,0,P|168:308|232:296,2,105,2|0|2,0:3|2:0|2:0,0:0:0:0:
124,192,17371,2,0,L|124:132,8,35,10|0|2|0|2|0|2|0|2,0:2|0:0|2:0|0:0|0:3|0:0|2:0|0:0|0:3,0:0:0:0:
192,232,18204,5,2,2:0:0:0:
256,188,18371,1,2,0:3:0:0:
320,232,18537,1,2,2:0:0:0:
256,272,18704,6,0,P|253:306|256:341,1,70,2|2,0:3|2:0,0:0:0:0:
396,273,19204,2,0,P|418:271|442:274,1,35,2|0,2:0|2:0,0:0:0:0:
460,297,19371,6,0,P|425:294|390:297,1,70,2|2,0:3|2:0,0:0:0:0:
360,321,19621,2,0,P|327:334|292:340,1,70,0|0,0:0|0:0,0:0:0:0:
256,341,19871,1,2,2:0:0:0:
180,329,20038,5,2,0:3:0:0:
388,88,21204,6,0,P|411:85|435:88,1,35,2|0,2:0|2:0,0:0:0:0:
452,111,21371,2,0,P|418:107|383:110,1,70,10|2,0:2|2:0,0:0:0:0:
323,163,21704,1,2,0:3:0:0:
259,208,21871,6,0,P|237:210|213:207,1,35,2|0,2:0|2:0,0:0:0:0:
192,232,22038,2,0,P|227:235|262:232,1,70,2|2,0:3|2:0,0:0:0:0:
300,224,22288,2,0,P|335:220|370:224,1,70,0|0,0:0|0:0,0:0:0:0:
404,240,22538,1,2,2:0:0:0:
448,304,22704,6,0,L|471:344,2,35,6|0|0,0:2|0:0|0:0,0:0:0:0:
332,357,23205,1,0,3:0:0:0:
321,365,23288,1,0,3:0:0:0:
309,373,23371,2,0,L|286:333,2,35,8|8|0,3:3|3:3|3:0,0:0:0:0:
317,254,23704,2,0,L|294:214,2,35,8|8|8,3:3|3:3|3:3,0:0:0:0:
325,135,24037,6,0,P|290:132|256:141,1,70,4|0,3:3|2:1,0:0:0:0:
216,208,24371,1,8,2:3:0:0:
180,139,24537,1,0,2:1:0:0:
140,205,24704,2,0,P|169:268|231:279,2,105,6|0|0,2:0|0:0|2:0,0:0:0:0:
104,135,25371,6,0,L|98:100,2,35,2|2|2,3:2|2:2|2:3,0:0:0:0:
68,203,25704,2,0,L|62:237,2,35,8|2|2,2:3|2:2|2:3,0:0:0:0:
28,136,26037,2,0,L|22:101,2,35,6|0|2,2:0|0:0|3:3,0:0:0:0:
104,135,26371,1,8,2:3:0:0:
140,205,26537,1,2,2:0:0:0:
124,280,26704,6,0,P|120:331|133:364,1,70,2|2,3:2|3:3,0:0:0:0:
194,314,27037,1,8,2:3:0:0:
210,239,27204,1,0,2:0:0:0:
267,290,27371,2,0,B|337:312|337:312|397:300,2,105,6|0|0,2:0|2:0|2:0,0:0:0:0:
309,226,28037,6,0,L|345:237,8,35,10|2|2|2|8|2|2|2|6,3:2|2:2|2:3|2:2|2:3|2:2|2:3|2:2|2:0,0:0:0:0:
232,212,28871,1,2,3:3:0:0:
284,155,29037,2,0,L|306:128,2,35,8|2|2,2:3|2:2|3:3,0:0:0:0:
208,137,29371,6,0,P|168:166|157:203,1,70,2|2,3:2|2:3,0:0:0:0:
168,260,29704,1,8,2:3:0:0:
232,212,29871,1,2,2:3:0:0:
309,226,30037,2,0,L|434:247,2,105,6|0|2,2:0|2:0|2:3,0:0:0:0:
284,155,30704,6,0,L|249:148,2,35,2|2|2,3:2|2:2|2:3,0:0:0:0:
361,158,31037,2,0,L|395:164,2,35,8|2|2,2:3|2:2|2:3,0:0:0:0:
329,87,31370,2,0,L|294:80,2,35,6|2|2,2:0|2:2|3:3,0:0:0:0:
380,28,31704,1,8,2:3:0:0:
453,52,31871,5,2,3:3:0:0:
466,54,31954,1,0,3:0:0:0:
480,57,32037,2,0,P|465:94|459:140,1,70,2|2,3:2|2:3,0:0:0:0:
496,192,32371,1,8,2:3:0:0:
420,188,32537,5,2,2:3:0:0:
407,190,32620,1,8,2:3:0:0:
392,192,32704,2,0,P|401:208|407:224,2,35,6|0|2,3:2|0:0|3:3,0:0:0:0:
328,240,33037,2,0,P|330:257|329:274,2,35,8|2|2,2:3|2:2|2:3,0:0:0:0:
250,259,33371,6,0,P|245:275|238:291,2,35,10|2|2,3:2|2:2|2:3,0:0:0:0:
172,252,33704,1,8,2:3:0:0:
216,188,33871,1,2,2:3:0:0:
292,172,34037,6,0,P|287:155|280:139,2,35,6|8|0,2:2|2:3|3:0,0:0:0:0:
344,100,34371,2,0,P|333:85|320:74,3,35,8|2|2|2,2:3|1:2|2:3|1:2,0:0:0:0:
288,64,34704,6,0,P|253:67|220:88,1,70,6|2,3:3|2:3,0:0:0:0:
164,132,35037,1,8,2:3:0:0:
216,188,35204,1,0,3:0:0:0:
280,139,35371,2,0,P|296:188|272:248,2,105,6|8|8,2:2|2:3|2:3,0:0:0:0:
223,84,36037,6,0,L|205:53,2,35,6|2|2,3:2|2:2|2:3,0:0:0:0:
211,158,36370,2,0,L|216:192,2,35,8|2|2,2:3|2:2|2:3,0:0:0:0:
149,109,36704,2,0,L|131:78,2,35,6|0|2,2:0|0:0|3:3,0:0:0:0:
223,84,37037,1,8,2:3:0:0:
280,139,37203,1,10,2:3:0:0:
290,212,37370,6,0,P|303:261|327:287,1,70,2|2,3:2|3:3,0:0:0:0:
368,332,37704,1,8,2:3:0:0:
443,316,37871,1,2,2:3:0:0:
392,259,38038,2,0,B|384:216|370:189|370:189|382:129,2,105,6|0|2,2:0|2:0|2:3,0:0:0:0:
458,216,38704,6,0,P|456:200|450:183,8,35,10|2|2|2|8|2|2|2|6,3:2|2:2|2:3|2:2|2:3|2:2|2:3|2:2|2:0,0:0:0:0:
461,295,39538,1,2,3:3:0:0:
392,259,39704,2,0,P|376:248|352:240,2,35,8|2|2,2:3|2:2|3:3,0:0:0:0:
336,312,40038,6,0,P|363:333|397:339,1,70,2|0,3:2|0:0,0:0:0:0:
461,295,40371,1,8,2:3:0:0:
458,216,40537,1,2,2:3:0:0:
396,172,40704,2,0,P|336:168|296:200,2,105,6|0|2,2:0|0:0|2:3,0:0:0:0:
468,144,41371,6,0,P|460:128|450:113,2,35,2|2|2,3:2|2:2|2:3,0:0:0:0:
458,216,41704,2,0,P|454:233|448:249,2,35,8|0|2,2:3|0:0|2:3,0:0:0:0:
461,295,42037,2,0,P|464:312|470:328,2,35,6|2|2,2:0|2:2|3:3,0:0:0:0:
384,284,42371,1,8,2:3:0:0:
390,199,42538,5,2,3:3:0:0:
393,186,42621,1,0,3:0:0:0:
396,172,42704,2,0,P|356:172|311:160,1,70,2|0,3:2|2:0,0:0:0:0:
276,107,43038,1,8,2:3:0:0:
252,178,43204,5,2,3:2:0:0:
244,190,43287,1,8,2:3:0:0:
237,203,43371,2,0,P|225:188|212:177,2,35,6|0|2,3:2|0:0|3:2,0:0:0:0:
169,244,43704,2,0,P|153:235|137:230,2,35,8|0|2,2:3|0:0|2:2,0:0:0:0:
122,310,44038,6,0,P|105:308|87:309,3,35,0|0|0|0,3:3|3:3|3:3|3:3,0:0:0:0:
112,332,44371,2,0,P|95:337|80:345,3,35,8|8|8|8,1:3|1:3|1:3|1:3,0:0:0:0:
113,360,44704,2,0,P|100:371|88:384,2,35,8|8|10,3:3|3:3|3:3,0:0:0:0:
192,348,45037,6,0,L|252:356,1,35,8|8,3:1|3:1,0:0:0:0:
264,360,45204,2,0,L|324:368,1,35,8|8,3:1|3:1,0:0:0:0:
336,372,45371,6,0,L|323:303,1,70,4|0,3:3|2:1,0:0:0:0:
308,228,45704,2,0,L|295:159,1,70,8|0,2:3|2:1,0:0:0:0:
276,80,46037,2,0,P|248:96|222:125,1,70,6|2,2:0|3:3,0:0:0:0:
164,176,46371,2,0,P|141:202|111:220,1,70,8|0,2:3|2:0,0:0:0:0:
71,287,46704,6,0,L|38:275,2,35,2|2|2,3:2|2:2|2:3,0:0:0:0:
112,351,47037,2,0,L|145:363,2,35,8|2|2,2:3|2:2|2:3,0:0:0:0:
34,354,47370,2,0,L|1:342,2,35,6|0|2,2:0|0:0|3:3,0:0:0:0:
71,287,47704,1,8,2:3:0:0:
148,284,47870,1,2,2:0:0:0:
212,328,48037,6,0,P|238:350|271:361,1,70,2|2,3:2|3:3,0:0:0:0:
276,284,48370,1,8,2:3:0:0:
216,236,48537,1,0,2:0:0:0:
288,204,48704,2,0,P|344:240|356:296,2,105,6|0|0,2:0|2:0|2:0,0:0:0:0:
216,236,49371,6,0,L|188:257,3,35,10|2|2|2,3:2|2:2|2:3|2:2,0:0:0:0:
148,284,49704,2,0,L|120:305,3,35,8|2|2|2,2:3|2:2|2:3|2:2,0:0:0:0:
80,332,50037,2,0,L|75:297,2,35,6|8|2,2:0|2:3|3:3,0:0:0:0:
56,188,50371,1,8,2:3:0:0:
176,372,50704,6,0,L|189:303,1,70,2|2,3:2|2:3,0:0:0:0:
204,228,51037,2,0,L|217:159,1,70,8|2,2:3|2:3,0:0:0:0:
236,80,51370,2,0,P|264:96|290:125,1,70,6|2,2:0|3:3,0:0:0:0:
348,176,51704,2,0,P|371:202|401:220,1,70,8|2,2:3|2:3,0:0:0:0:
441,287,52037,6,0,L|474:275,2,35,2|2|2,3:2|2:2|2:3,0:0:0:0:
400,351,52370,2,0,L|367:363,2,35,8|2|2,2:3|2:2|2:3,0:0:0:0:
478,354,52704,2,0,L|511:342,2,35,6|2|2,2:0|2:2|3:3,0:0:0:0:
441,287,53037,1,8,2:3:0:0:
364,284,53203,1,0,0:0:0:0:
300,328,53370,6,0,P|274:350|241:361,1,70,2|2,3:2|2:3,0:0:0:0:
236,284,53703,1,0,0:0:0:0:
296,236,53871,5,2,2:3:0:0:
296,221,53954,1,8,2:3:0:0:
296,206,54038,2,0,P|313:212|330:216,2,35,6|0|2,3:2|0:0|3:3,0:0:0:0:
334,137,54371,2,0,P|352:136|368:133,2,35,8|2|2,2:3|2:2|2:3,0:0:0:0:
256,136,54704,6,0,P|238:140|223:148,3,35,10|2|2|2,3:2|2:2|2:3|2:2,0:0:0:0:
192,168,55037,2,0,P|205:135|207:100,1,70,8|2,2:3|2:3,0:0:0:0:
196,92,55287,1,2,2:2:0:0:
180,76,55371,6,0,P|144:81|116:92,3,35,10|8|0|2,2:3|2:3|3:0|2:2,0:0:0:0:
106,84,55704,2,0,P|88:82|71:78,3,35,8|2|2|2,2:3|1:2|2:3|1:2,0:0:0:0:
35,59,56037,6,0,L|48:128,1,70,6|2,3:3|2:3,0:0:0:0:
63,203,56370,2,0,L|76:272,1,70,8|0,2:3|3:0,0:0:0:0:
95,351,56704,2,0,P|123:335|149:306,1,70,6|0,2:2|3:0,0:0:0:0:
207,255,57037,2,0,P|230:229|260:211,1,70,0|8,3:0|2:3,0:0:0:0:
300,144,57370,6,0,L|333:156,2,35,2|2|2,3:2|2:2|2:3,0:0:0:0:
259,80,57704,2,0,L|226:68,2,35,8|2|2,2:3|2:2|2:3,0:0:0:0:
337,77,58037,2,0,L|370:89,2,35,6|0|2,2:0|0:0|3:3,0:0:0:0:
300,144,58370,1,8,2:3:0:0:
223,147,58536,1,10,2:3:0:0:
159,103,58704,6,0,P|133:81|100:70,1,70,2|2,3:2|3:3,0:0:0:0:
95,147,59036,1,8,2:3:0:0:
155,195,59203,1,2,2:3:0:0:
83,227,59370,2,0,P|27:191|15:135,2,105,6|0|2,2:0|2:0|2:3,0:0:0:0:
148,272,60037,6,0,L|179:287,3,35,10|2|2|2,3:2|2:2|2:3|2:2,0:0:0:0:
223,306,60371,2,0,L|254:321,3,35,8|2|2|2,2:3|2:2|2:3|2:2,0:0:0:0:
298,342,60704,6,0,L|303:307,2,35,6|8|2,2:0|2:3|3:3,0:0:0:0:
320,192,61038,1,8,2:3:0:0:
468,68,61371,6,0,L|455:137,1,70,2|2,3:2|2:3,0:0:0:0:
440,212,61704,2,0,L|427:281,1,70,8|2,2:3|2:3,0:0:0:0:
408,360,62037,2,0,P|380:344|354:315,1,70,6|2,2:0|3:3,0:0:0:0:
296,264,62371,2,0,P|273:238|243:220,1,70,8|2,2:3|2:3,0:0:0:0:
203,153,62704,6,0,L|170:165,2,35,2|2|2,3:2|2:2|2:3,0:0:0:0:
244,89,63037,2,0,L|277:77,2,35,8|0|2,2:3|0:0|2:3,0:0:0:0:
166,86,63370,2,0,L|133:98,2,35,6|2|2,2:0|2:2|3:3,0:0:0:0:
203,153,63704,1,8,2:3:0:0:
280,156,63870,1,2,3:3:0:0:
344,112,64037,6,0,P|370:90|403:79,1,70,2|2,3:2|2:3,0:0:0:0:
408,156,64370,1,8,2:3:0:0:
348,204,64537,1,2,2:3:0:0:
420,236,64704,2,0,P|476:200|488:144,2,105,6|0|2,2:0|2:0|2:3,0:0:0:0:
355,281,65371,6,0,L|323:296,3,35,0|0|0|0,3:3|3:3|3:3|3:3,0:0:0:0:
280,315,65704,2,0,L|248:330,3,35,8|8|8|8,1:3|1:3|1:3|1:3,0:0:0:0:
205,351,66037,2,0,L|206:315,3,35,8|8|8|8,3:3|3:3|3:3|3:3,0:0:0:0:
207,273,66371,1,10,3:3:0:0:
256,152,66704,6,0,P|264:101|256:49,1,105.000004005432,4|10,3:3|1:3,0:0:0:0:
100,49,67371,1,2,1:3:0:0:
136,101,67537,2,0,P|156:116|181:126,1,52.5000020027161,2|10,3:3|1:3,0:0:0:0:
256,229,68037,6,0,P|264:280|256:332,1,105.000004005432,2|10,3:3|1:3,0:0:0:0:
100,332,68704,1,2,1:3:0:0:
136,280,68870,2,0,P|156:265|181:255,1,52.5000020027161,2|10,3:3|1:3,0:0:0:0:
280,252,69287,5,8,1:3:0:0:
300,281,69370,2,0,P|320:296|345:306,1,52.5000020027161,2|2,3:3|3:3,0:0:0:0:
407,295,69704,2,0,P|416:243|408:192,1,105.000004005432,10|2,1:3|1:3,0:0:0:0:
364,144,70204,1,2,3:3:0:0:
312,104,70371,6,0,P|303:52|312:0,2,105.000004005432,10|2|10,1:3|3:3|1:3,0:0:0:0:
472,4,71371,1,2,1:3:0:0:
452,28,71454,1,8,1:3:0:0:
432,53,71537,2,0,P|412:68|387:78,1,52.5000020027161,2|10,3:3|1:3,0:0:0:0:
312,181,72037,6,0,P|304:232|312:284,1,105.000004005432,2|10,3:3|1:3,0:0:0:0:
468,284,72704,1,2,1:3:0:0:
432,232,72870,2,0,P|412:217|387:207,1,52.5000020027161,2|10,3:3|1:3,0:0:0:0:
268,233,73370,6,0,P|248:248|223:258,1,52.5000020027161,2|2,3:3|1:3,0:0:0:0:
160,248,73704,2,0,P|151:196|159:145,1,105.000004005432,10|2,1:3|1:3,0:0:0:0:
203,97,74204,1,2,3:3:0:0:
256,60,74371,2,0,P|281:66|305:77,1,52.5000020027161,10|2,1:3|3:3,0:0:0:0:
325,101,74621,1,8,1:3:0:0:
345,126,74704,6,0,P|365:141|452:148,1,105.000004005432,2|10,3:3|1:3,0:0:0:0:
500,76,75287,1,8,1:3:0:0:
470,64,75370,2,0,P|444:61|418:66,1,52.5000020027161,2|2,3:3|3:3,0:0:0:0:
353,34,75704,6,0,P|301:33|255:59,2,105.000004005432,10|2|10,1:3|3:3|1:3,0:0:0:0:
420,140,76704,5,2,1:3:0:0:
390,128,76787,1,8,1:3:0:0:
296,148,77037,2,0,L|271:139,3,26.2500010013581,10|0|2|8,1:3|0:0|3:3|1:3,0:0:0:0:
240,128,77371,6,0,P|232:179|240:231,1,105.000004005432,6|10,3:3|1:3,0:0:0:0:
396,224,78038,1,2,1:3:0:0:
364,170,78204,2,0,L|314:153,1,52.5000020027161,2|10,3:3|1:3,0:0:0:0:
337,277,78704,6,0,P|377:309|426:328,1,105.000004005432,2|10,3:3|1:3,0:0:0:0:
497,189,79371,1,2,1:3:0:0:
435,189,79537,2,0,P|412:203|395:223,1,52.5000020027161,2|10,3:3|1:3,0:0:0:0:
314,153,79954,5,8,1:3:0:0:
325,123,80037,2,0,P|323:96|314:71,1,52.5000020027161,2|2,3:3|3:3,0:0:0:0:
276,24,80371,2,0,L|388:56,1,105.000004005432,10|2,1:3|1:3,0:0:0:0:
436,68,80871,1,2,3:3:0:0:
404,121,81037,2,0,L|354:137,1,52.5000020027161,10|2,1:3|1:3,0:0:0:0:
314,153,81371,6,0,L|270:137,2,26.2500010013581,2|2|10,3:3|3:2|1:3,0:0:0:0:
388,184,81704,1,10,1:3:0:0:
478,90,81871,6,0,L|522:74,4,26.2500010013581,2|10|2|10|2,0:2|1:3|0:2|1:3|3:3,0:0:0:0:
404,121,82371,1,8,1:3:0:0:
336,84,82537,5,2,3:3:0:0:
310,65,82620,1,8,1:3:0:0:
283,46,82704,6,0,P|232:38|180:46,1,105.000004005432,2|10,3:3|1:3,0:0:0:0:
180,202,83371,1,2,1:3:0:0:
232,166,83537,2,0,P|247:146|257:121,1,52.5000020027161,2|10,3:3|1:3,0:0:0:0:
378,46,84037,6,0,P|429:38|481:46,1,105.000004005432,2|10,3:3|1:3,0:0:0:0:
429,166,84704,2,0,P|414:146|404:121,1,52.5000020027161,2|2,1:3|3:3,0:0:0:0:
496,120,85037,1,10,1:3:0:0:
496,200,85204,1,2,3:3:0:0:
485,229,85288,1,8,1:3:0:0:
473,258,85371,6,0,P|470:282|507:361,1,105.000004005432,2|10,3:3|1:3,0:0:0:0:
430,324,85871,1,2,3:3:0:0:
358,356,86037,1,2,3:3:0:0:
366,280,86204,1,2,3:3:0:0:
298,312,86371,6,0,L|273:321,1,26.2500010013581,10|0,1:3|0:0,0:0:0:0:
246,332,86537,2,0,L|221:341,1,26.2500010013581,2|2,1:3|3:3,0:0:0:0:
190,352,86704,1,6,1:3:0:0:
268,248,87704,2,0,L|332:224,1,52.5000020027161,10|2,1:3|3:3,0:0:0:0:
388,192,88037,6,0,P|328:172|280:144,1,105.000004005432,4|8,3:3|2:3,0:0:0:0:
256,80,88537,1,0,2:1:0:0:
323,33,88704,2,0,P|332:58|336:84,1,52.5000020027161,6|2,2:0|3:3,0:0:0:0:
408,116,89037,2,0,P|411:90|420:65,1,52.5000020027161,8|0,2:3|2:0,0:0:0:0:
484,16,89371,6,0,P|502:69|484:118,1,105.000004005432,2|8,3:3|2:3,0:0:0:0:
372,188,90037,1,6,2:0:0:0:
408,116,90204,1,2,3:3:0:0:
451,183,90371,2,0,P|449:209|438:234,1,52.5000020027161,8|2,2:3|1:3,0:0:0:0:
352,264,90704,6,0,P|292:244|244:216,1,105.000004005432,2|10,3:3|1:3,0:0:0:0:
220,152,91204,1,2,1:3:0:0:
287,105,91371,2,0,P|296:130|300:156,1,52.5000020027161,6|2,2:0|3:3,0:0:0:0:
372,188,91704,2,0,P|389:167|409:151,1,52.5000020027161,10|2,1:3|1:3,0:0:0:0:
402,73,92037,6,0,P|375:68|351:58,1,52.5000020027161,2|0,3:3|2:1,0:0:0:0:
280,20,92371,1,8,2:3:0:0:
436,4,92704,2,0,P|461:8|477:16,2,26.2500010013581,6|2|2,2:0|1:2|3:3,0:0:0:0:
480,84,93037,1,8,2:3:0:0:
438,233,93371,6,0,P|440:296|452:352,1,105.000004005432,4|8,3:3|2:3,0:0:0:0:
380,187,94037,2,0,P|384:175|391:164,2,26.2500010013581,6|2|2,2:0|1:2|3:3,0:0:0:0:
467,163,94370,1,8,2:3:0:0:
352,264,94704,6,0,P|300:280|232:276,1,105.000004005432,2|8,3:3|2:3,0:0:0:0:
232,112,95371,1,6,2:0:0:0:
268,40,95538,1,2,3:3:0:0:
311,107,95705,2,0,P|309:133|298:158,1,52.5000020027161,0|0,0:0|0:0,0:0:0:0:
272,184,95954,1,8,1:3:0:0:
232,192,96037,6,0,P|167:181|108:196,1,105.000004005432,2|10,3:3|1:3,0:0:0:0:
232,112,96537,1,2,1:3:0:0:
272,124,96621,1,2,1:2:0:0:
298,157,96704,6,0,P|320:217|363:262,1,105.000004005432,6|10,2:0|1:3,0:0:0:0:
424,260,97204,1,2,1:3:0:0:
468,196,97371,2,0,P|452:148|416:120,2,78.7500030040742,2|0|0,3:3|0:0|0:0,0:0:0:0:
496,232,97954,1,2,1:2:0:0:
500,268,98037,2,0,L|488:312,2,26.2500010013581,6|2|2,2:0|1:2|3:3,0:0:0:0:
424,260,98371,2,0,L|412:304,2,26.2500010013581,8|0|2,2:3|0:0|1:3,0:0:0:0:
388,192,98704,6,0,P|328:208|304:256,1,105.000004005432,4|8,3:3|2:3,0:0:0:0:
278,314,99204,1,0,2:1:0:0:
350,353,99371,2,0,P|355:327|356:300,1,52.5000020027161,6|2,2:0|3:3,0:0:0:0:
424,260,99704,2,0,P|430:285|442:309,1,52.5000020027161,8|0,2:3|2:0,0:0:0:0:
511,350,100038,6,0,P|522:295|498:248,1,105.000004005432,2|8,3:3|2:3,0:0:0:0:
379,193,100704,1,6,2:0:0:0:
424,260,100871,1,2,3:3:0:0:
458,188,101038,2,0,P|452:162|438:138,1,52.5000020027161,8|2,2:3|1:3,0:0:0:0:
364,112,101371,6,0,P|312:140|296:184,1,105.000004005432,2|10,3:3|2:3,0:0:0:0:
264,260,101871,1,2,1:3:0:0:
336,298,102038,2,0,P|341:272|342:245,1,52.5000020027161,6|2,1:2|3:3,0:0:0:0:
410,206,102371,2,0,P|429:224|451:238,1,52.5000020027161,10|2,1:3|1:3,0:0:0:0:
454,316,102704,6,0,P|427:324|405:337,1,52.5000020027161,2|0,3:3|2:1,0:0:0:0:
340,384,103038,1,8,2:3:0:0:
472,384,103371,2,0,P|496:376|511:367,2,26.2500010013581,6|2|2,2:0|1:2|3:3,0:0:0:0:
512,276,103704,1,8,2:3:0:0:
440,141,104038,6,0,P|434:78|439:21,1,105.000004005432,4|8,3:3|2:3,0:0:0:0:
388,194,104704,2,0,P|393:205|401:215,2,26.2500010013581,6|2|2,2:0|1:2|3:3,0:0:0:0:
477,206,105037,1,8,2:3:0:0:
308,194,105371,6,0,P|250:167|203:134,1,105.000004005432,2|8,3:3|2:3,0:0:0:0:
388,194,106037,1,6,2:0:0:0:
348,264,106204,1,2,3:3:0:0:
308,194,106371,2,0,P|311:168|323:143,1,52.5000020027161,8|2,2:3|1:3,0:0:0:0:
351,120,106620,1,8,1:3:0:0:
392,114,106703,6,0,P|456:128|516:116,1,105.000004005432,2|10,3:3|1:3,0:0:0:0:
388,194,107204,1,2,1:3:0:0:
348,179,107287,1,2,1:2:0:0:
322,144,107371,2,0,P|303:82|262:35,1,105.000004005432,6|10,2:0|1:3,0:0:0:0:
204,36,107870,1,2,1:3:0:0:
156,97,108037,6,0,P|169:145|203:175,2,78.7500030040742,2|2|0,3:3|1:2|2:1,0:0:0:0:
130,60,108620,1,2,1:2:0:0:
128,24,108704,2,0,L|142:-19,2,26.2500010013581,6|2|2,2:0|1:2|3:3,0:0:0:0:
204,36,109037,2,0,L|218:-7,2,26.2500010013581,8|0|2,2:3|0:0|1:3,0:0:0:0:
236,105,109370,6,0,P|296:92|323:45,1,105.000004005432,6|10,3:3|1:3,0:0:0:0:
341,218,110037,2,0,P|322:277|349:323,1,105.000004005432,6|10,1:2|1:3,0:0:0:0:
190,252,110704,6,0,P|184:241|177:230,3,26.2500010013581,2|2|2|2,3:2|2:2|2:3|2:2,0:0:0:0:
152,196,111037,2,0,P|143:186|133:177,3,26.2500010013581,8|2|2|2,2:3|2:2|3:3|2:2,0:0:0:0:
100,152,111371,2,0,L|164:140,1,52.5000020027161,2|8,2:0|2:3,0:0:0:0:
232,172,111704,2,0,L|260:177,2,26.2500010013581,2|2|2,3:3|2:2|3:3,0:0:0:0:
332,172,112037,6,0,P|303:117|251:103,1,105.000004005432,2|10,3:3|1:3,0:0:0:0:
412,41,112704,2,0,P|473:44|511:6,1,105.000004005432,6|10,1:2|1:3,0:0:0:0:
485,177,113371,6,0,P|475:185|467:195,3,26.2500010013581,2|2|2|2,3:2|2:2|2:3|2:2,0:0:0:0:
440,230,113704,2,0,P|432:241|426:253,3,26.2500010013581,8|2|2|8,2:3|2:2|3:3|2:3,0:0:0:0:
411,290,114038,2,0,L|382:231,1,52.5000020027161,6|2,2:0|3:3,0:0:0:0:
396,158,114371,2,0,L|393:128,2,26.2500010013581,2|2|8,3:3|2:2|2:3,0:0:0:0:
319,196,114704,6,0,P|268:204|216:196,1,105.000004005432,2|10,3:3|1:3,0:0:0:0:
388,242,115371,2,0,P|420:282|440:331,1,105.000004005432,6|10,1:2|1:3,0:0:0:0:
395,158,116037,6,0,P|398:145|403:132,3,26.2500010013581,2|2|2|2,3:2|2:2|2:3|2:2,0:0:0:0:
420,96,116371,2,0,P|426:84|433:73,3,26.2500010013581,8|2|2|0,2:3|2:2|3:3|0:0,0:0:0:0:
456,40,116704,2,0,L|392:28,1,52.5000020027161,6|8,2:0|2:3,0:0:0:0:
324,60,117037,2,0,L|295:65,2,26.2500010013581,2|2|2,3:3|2:2|3:3,0:0:0:0:
245,137,117371,6,0,P|207:100|160:77,1,105.000004005432,2|10,3:3|1:3,0:0:0:0:
326,139,118038,2,0,P|376:124|419:95,1,105.000004005432,6|10,1:2|1:3,0:0:0:0:
283,210,118704,5,10,3:3:0:0:
278,222,118787,1,8,1:0:0:0:
274,234,118871,1,8,3:0:0:0:
272,247,118954,1,8,1:0:0:0:
272,260,119037,2,0,P|270:273|270:286,2,26.2500010013581,8|8|10,2:3|2:3|3:3,0:0:0:0:
196,276,119371,6,0,P|197:289|201:301,2,26.2500010013581,8|8|8,3:0|3:0|3:0,0:0:0:0:
126,311,119704,6,0,P|131:323|137:334,1,26.2500010013581,8|8,2:3|2:1,0:0:0:0:
108,324,119871,2,0,P|115:334|125:343,1,26.2500010013581,2|0,3:3|3:0,0:0:0:0:
96,336,120037,5,14,3:3:0:0:
36,248,120371,1,10,3:3:0:0:
36,140,120704,1,2,0:3:0:0:
96,56,121038,1,2,3:3:0:0:
187,3,121371,2,0,P|221:-3|256:4,1,70,2|2,0:3|3:3,0:0:0:0:
304,28,121871,1,0,0:0:0:0:
296,52,121954,1,0,0:0:0:0:
288,76,122037,2,0,P|253:83|219:75,1,70,2|2,0:3|3:3,0:0:0:0:
187,3,122704,5,2,0:3:0:0:
289,3,123038,1,2,3:3:0:0:
368,64,123371,1,2,0:3:0:0:
399,166,123705,1,2,3:3:0:0:
383,269,124038,2,0,P|367:300|341:322,1,70,2|2,0:3|3:3,0:0:0:0:
292,240,124537,6,0,L|256:232,2,35,0|2|0,0:0|0:3|0:0,0:0:0:0:
399,166,125037,1,6,3:2:0:0:
383,269,125371,5,0,0:0:0:0:
324,351,125705,1,2,3:3:0:0:
229,380,126038,1,2,0:3:0:0:
127,348,126372,1,2,3:3:0:0:
52,275,126704,2,0,P|36:243|34:209,1,70,2|2,0:3|3:3,0:0:0:0:
44,156,127204,1,2,0:3:0:0:
69,157,127287,1,2,0:3:0:0:
95,158,127370,2,0,P|110:189|112:223,1,70,2|2,0:3|3:3,0:0:0:0:
127,348,128037,6,0,B|124:296|176:260|220:268|220:268|268:276|304:240|304:200,1,262.5,2|0,0:3|0:0,0:0:0:0:
228,196,129371,6,0,L|216:148,2,26.2500010013581,2|8|0,3:3|3:3|3:3,0:0:0:0:
284,128,129704,2,0,L|278:103,2,26.2500010013581,0|0|8,0:0|3:3|3:3,0:0:0:0:
364,148,130037,1,0,3:3:0:0:
361,135,130120,1,0,3:3:0:0:
358,123,130204,2,0,L|352:98,1,26.2500010013581,8|8,1:3|1:3,0:0:0:0:
380,68,130371,2,0,L|386:43,3,26.2500010013581,0|8|8|8,3:3|1:3|1:3|1:3,0:0:0:0:
435,24,130704,6,0,P|465:5|499:0,1,70,0|0,2:2|2:2,0:0:0:0:
492,84,131204,5,0,2:2:0:0:
411,98,131371,2,0,P|381:78|363:-6,2,105,0|0|0,2:2|2:2|2:2,0:0:0:0:
463,159,132037,6,0,P|492:200|424:300,1,175,0|0,0:0|0:0,0:0:0:0:
348,276,133037,2,0,P|344:310|355:342,1,70,0|0,2:2|2:2,0:0:0:0:
420,301,133370,5,0,2:2:0:0:
407,219,133537,2,0,P|377:198|343:193,1,70,0|0,2:2|0:0,0:0:0:0:
273,228,133871,1,0,2:2:0:0:
281,151,134037,6,0,P|306:126|339:118,1,70,0|0,2:2|0:0,0:0:0:0:
378,117,134287,2,0,P|410:107|436:84,1,70,0|0,2:2|0:0,0:0:0:0:
451,49,134537,1,0,2:2:0:0:
256,192,134704,12,4,135704,1:1:0:0:
180,96,136037,6,0,L|110:84,1,70,4|0,3:3|2:1,0:0:0:0:
72,152,136371,2,0,L|140:163,1,70,8|0,2:3|2:1,0:0:0:0:
220,168,136704,2,0,L|284:138,1,70,6|2,2:0|3:3,0:0:0:0:
338,194,137038,2,0,L|274:223,1,70,8|0,2:3|2:0,0:0:0:0:
200,244,137371,6,0,L|129:240,1,70,2|2,3:2|2:3,0:0:0:0:
98,311,137705,2,0,L|167:314,1,70,8|2,2:3|2:3,0:0:0:0:
240,336,138037,2,0,L|299:297,1,70,6|2,2:0|3:3,0:0:0:0:
359,344,138371,2,0,L|300:381,1,70,8|2,2:3|2:0,0:0:0:0:
368,268,138704,6,0,P|412:288|432:372,1,140,0|8,3:3|2:3,0:0:0:0:
508,380,139204,1,0,2:1:0:0:
504,304,139371,2,0,P|484:256|448:224,1,70,6|2,2:0|3:3,0:0:0:0:
408,200,139704,2,0,P|356:193|310:208,1,70,8|0,2:3|2:0,0:0:0:0:
332,272,140037,6,0,P|288:252|268:168,1,140,2|8,3:2|2:3,0:0:0:0:
328,120,140537,1,2,2:3:0:0:
392,76,140704,2,0,L|444:84,2,35,6|0|2,2:0|0:0|3:3,0:0:0:0:
400,152,141037,2,0,L|452:160,2,35,8|2|2,2:3|2:2|2:0,0:0:0:0:
256,92,141371,6,0,P|220:108|192:160,1,70,0|0,3:3|2:1,0:0:0:0:
268,168,141704,2,0,P|244:199|246:258,1,70,8|0,2:3|2:1,0:0:0:0:
316,224,142037,2,0,P|346:248|360:306,1,70,6|2,2:0|3:3,0:0:0:0:
284,294,142370,2,0,P|298:330|281:387,1,70,8|0,2:3|2:0,0:0:0:0:
220,340,142704,5,2,3:2:0:0:
176,276,142871,1,2,2:3:0:0:
168,196,143037,1,8,2:3:0:0:
104,240,143204,2,0,P|40:240|104:172,1,210,2|8,2:3|2:3,0:0:0:0:
240,228,143871,5,2,2:0:0:0:
256,223,143954,1,8,2:3:0:0:
272,217,144037,2,0,L|343:196,1,70,0|0,3:3|2:1,0:0:0:0:
351,274,144371,2,0,L|283:293,1,70,8|0,2:3|2:1,0:0:0:0:
208,304,144704,2,0,L|143:265,1,70,6|2,2:0|3:3,0:0:0:0:
116,338,145038,2,0,L|176:373,1,70,8|0,2:3|2:0,0:0:0:0:
252,376,145371,6,0,B|324:356|324:356|376:372,2,105,2|2|2,3:2|2:2|2:3,0:0:0:0:
240,304,146037,1,6,2:0:0:0:
256,300,146120,1,0,0:0:0:0:
272,295,146204,1,2,3:3:0:0:
336,283,146371,5,8,2:3:0:0:
352,288,146454,1,2,2:2:0:0:
368,293,146537,1,2,2:0:0:0:
384,298,146620,1,8,2:3:0:0:
400,304,146704,6,0,L|493:336,1,70,4|0,3:3|2:1,0:0:0:0:
512,258,147037,2,0,L|445:239,1,70,8|0,2:3|2:1,0:0:0:0:
366,228,147370,2,0,L|299:251,1,70,6|2,2:0|3:3,0:0:0:0:
252,189,147704,2,0,L|318:166,1,70,8|0,2:3|2:0,0:0:0:0:
394,154,148037,6,0,L|464:165,1,70,2|2,3:2|2:3,0:0:0:0:
503,98,148371,2,0,L|434:87,1,70,8|2,2:3|2:3,0:0:0:0:
364,58,148704,2,0,L|301:90,1,70,6|2,2:0|3:3,0:0:0:0:
247,37,149037,2,0,L|309:6,1,70,8|2,2:3|2:0,0:0:0:0:
230,112,149370,6,0,P|188:87|177:1,1,140,0|8,3:3|2:3,0:0:0:0:
100,0,149871,1,0,2:1:0:0:
100,76,150038,2,0,P|89:109|68:137,1,70,6|2,2:0|3:3,0:0:0:0:
28,204,150371,2,0,P|80:211|126:196,1,70,8|0,2:3|2:0,0:0:0:0:
156,168,150704,6,0,P|203:175|244:251,1,140,2|8,3:2|2:3,0:0:0:0:
200,320,151204,1,2,2:3:0:0:
131,356,151371,2,0,P|114:359|97:358,2,35,6|0|2,2:0|0:0|3:3,0:0:0:0:
44,304,151704,2,0,P|40:286|41:269,2,35,8|2|2,2:3|2:2|2:0,0:0:0:0:
114,284,152038,6,0,P|149:266|174:212,1,70,0|0,3:3|2:1,0:0:0:0:
96,207,152371,2,0,P|117:173|112:115,1,70,8|0,2:3|2:1,0:0:0:0:
45,155,152704,2,0,P|13:131|-3:75,1,70,6|2,2:0|3:3,0:0:0:0:
74,83,153037,2,0,P|57:47|71:-10,1,70,8|0,2:3|2:0,0:0:0:0:
140,32,153371,5,2,3:2:0:0:
184,96,153538,1,2,2:3:0:0:
192,176,153704,1,8,2:3:0:0:
256,132,153871,2,0,P|320:132|256:200,1,210,2|8,2:3|2:3,0:0:0:0:
120,144,154538,5,2,2:0:0:0:
104,149,154621,1,8,2:3:0:0:
88,155,154704,2,0,L|16:175,1,70,0|0,3:3|2:1,0:0:0:0:
96,192,155037,2,0,L|163:211,1,70,8|0,2:3|2:1,0:0:0:0:
216,268,155371,2,0,P|250:284|292:280,1,70,6|2,2:0|3:3,0:0:0:0:
208,304,155704,2,0,P|176:307|140:323,1,70,8|0,2:3|2:0,0:0:0:0:
80,372,156037,6,0,P|64:324|100:260,2,105,2|2|2,3:2|2:2|2:3,0:0:0:0:
141,322,156704,1,6,2:0:0:0:
157,317,156787,1,0,0:0:0:0:
173,311,156871,1,2,3:3:0:0:
263,276,157037,1,8,2:3:0:0:
280,279,157120,1,2,2:2:0:0:
297,282,157204,1,2,2:0:0:0:
314,285,157287,1,8,2:3:0:0:
332,288,157371,6,0,L|402:300,1,70,4|0,3:3|2:1,0:0:0:0:
392,224,157705,2,0,L|324:213,1,70,8|0,2:3|2:1,0:0:0:0:
256,180,158037,6,0,P|220:188|189:203,1,70,6|2,2:0|3:3,0:0:0:0:
184,124,158371,2,0,P|216:110|250:104,1,70,8|0,2:3|2:0,0:0:0:0:
320,132,158704,6,0,L|390:144,1,70,2|2,3:2|2:3,0:0:0:0:
380,68,159038,2,0,L|312:57,1,70,8|2,2:3|2:3,0:0:0:0:
242,26,159371,2,0,P|209:30|176:46,1,70,6|2,2:0|3:3,0:0:0:0:
144,116,159704,2,0,P|109:121|77:135,1,70,8|2,2:3|2:0,0:0:0:0:
132,192,160038,6,0,P|196:172|220:108,1,140,0|8,3:3|2:3,0:0:0:0:
296,120,160538,1,0,2:1:0:0:
270,192,160705,2,0,P|247:223|221:241,1,70,6|2,2:0|3:3,0:0:0:0:
148,263,161038,2,0,P|113:261|80:249,1,70,8|0,2:3|2:0,0:0:0:0:
93,174,161371,6,0,P|28:193|4:257,1,140,2|8,3:2|2:3,0:0:0:0:
50,320,161871,1,2,2:3:0:0:
100,379,162038,2,0,L|134:382,2,35,6|0|2,2:0|0:0|3:3,0:0:0:0:
128,308,162371,2,0,L|162:311,2,35,8|2|2,2:3|2:2|2:0,0:0:0:0:
236,336,162705,6,0,P|272:320|300:268,1,70,0|0,3:3|2:1,0:0:0:0:
224,260,163038,2,0,P|248:229|246:170,1,70,8|0,2:3|2:1,0:0:0:0:
176,204,163371,2,0,P|146:180|132:122,1,70,6|2,2:0|3:3,0:0:0:0:
208,134,163704,2,0,P|194:98|211:41,1,70,8|0,2:3|2:0,0:0:0:0:
272,88,164038,5,2,3:2:0:0:
316,152,164205,1,2,2:3:0:0:
324,232,164371,1,8,2:3:0:0:
388,188,164538,2,0,P|452:188|388:256,1,210,2|8,2:3|2:3,0:0:0:0:
248,196,165205,5,2,2:0:0:0:
232,186,165288,1,8,2:3:0:0:
216,180,165371,2,0,P|184:166|160:140,1,70,0|0,3:3|2:1,0:0:0:0:
232,101,165705,2,0,P|265:91|299:95,1,70,8|0,2:3|2:1,0:0:0:0:
380,92,166037,2,0,P|414:93|447:80,1,70,6|2,2:0|3:3,0:0:0:0:
403,16,166371,2,0,P|369:6|335:10,1,70,8|0,2:3|2:0,0:0:0:0:
260,8,166705,6,0,B|188:28|188:28|136:12,2,105,2|2|2,3:2|2:2|2:3,0:0:0:0:
292,81,167371,1,6,2:0:0:0:
276,86,167454,1,0,0:0:0:0:
260,92,167537,1,2,3:3:0:0:
176,101,167704,5,8,2:3:0:0:
160,96,167787,1,2,2:2:0:0:
144,91,167871,1,2,2:0:0:0:
128,86,167954,1,8,2:3:0:0:
112,80,168038,6,0,P|77:72|42:73,1,70,4|0,3:3|2:1,0:0:0:0:
71,145,168371,2,0,P|36:146|2:156,1,70,8|0,2:3|2:1,0:0:0:0:
48,219,168704,2,0,P|82:220|116:230,1,70,6|2,2:0|3:3,0:0:0:0:
71,293,169037,2,0,P|104:303|133:322,1,70,8|0,2:3|2:0,0:0:0:0:
199,363,169371,6,0,P|232:352|261:333,1,70,2|2,3:2|2:3,0:0:0:0:
202,285,169704,2,0,P|231:266|255:240,1,70,8|2,2:3|2:3,0:0:0:0:
256,163,170037,6,0,P|281:139|312:123,1,70,6|2,2:0|3:3,0:0:0:0:
325,199,170370,2,0,P|356:182|390:175,1,70,8|2,2:3|2:0,0:0:0:0:
384,252,170704,6,0,P|341:275|261:242,1,140,0|8,3:3|2:3,0:0:0:0:
190,201,171205,1,0,2:1:0:0:
256,163,171372,2,0,P|279:136|292:104,1,70,6|2,2:0|3:3,0:0:0:0:
331,37,171705,2,0,P|363:78|373:125,1,70,8|0,2:3|2:0,0:0:0:0:
447,68,172038,6,0,P|452:115|389:174,1,140,2|8,3:2|2:3,0:0:0:0:
314,155,172538,1,2,2:3:0:0:
243,122,172705,2,0,P|235:137|232:154,2,35,6|0|2,2:0|0:0|3:3,0:0:0:0:
272,224,173037,2,0,P|268:241|261:256,2,35,8|2|2,2:3|2:2|2:0,0:0:0:0:
194,297,173372,6,0,P|160:288|133:266,1,70,0|0,3:3|2:1,0:0:0:0:
193,214,173705,2,0,P|168:189|156:157,1,70,8|0,2:3|2:1,0:0:0:0:
232,154,174038,2,0,P|255:128|265:95,1,70,6|2,2:0|3:3,0:0:0:0:
188,90,174371,2,0,P|197:56|190:22,1,70,8|0,2:3|2:0,0:0:0:0:
114,53,174705,5,2,3:2:0:0:
82,124,174872,1,2,2:3:0:0:
92,204,175038,1,8,2:3:0:0:
124,272,175205,2,0,P|206:289|167:214,1,210,2|8,2:3|2:3,0:0:0:0:
114,113,175872,5,2,2:0:0:0:
98,118,175955,1,8,2:3:0:0:
82,124,176038,2,0,L|10:144,1,70,0|0,3:3|2:1,0:0:0:0:
92,156,176371,2,0,L|159:137,1,70,8|0,2:3|2:1,0:0:0:0:
232,168,176705,2,0,P|266:184|308:180,1,70,6|2,2:0|3:3,0:0:0:0:
217,184,177038,2,0,P|185:187|149:203,1,70,8|0,2:3|2:0,0:0:0:0:
89,252,177371,6,0,P|73:204|109:140,2,105,2|2|0,3:2|2:2|2:1,0:0:0:0:
164,276,178037,1,6,2:0:0:0:
180,271,178120,1,2,1:2:0:0:
196,265,178204,1,2,3:3:0:0:
286,230,178370,1,8,2:3:0:0:
303,233,178453,1,0,0:0:0:0:
320,236,178537,1,2,1:3:0:0:
337,239,178620,1,8,1:3:0:0:
355,242,178704,6,0,L|465:260,1,105.000004005432,6|10,3:3|1:3,0:0:0:0:
320,144,179371,1,2,1:3:0:0:
256,148,179537,2,0,P|233:157|211:174,1,52.5000020027161,2|10,3:3|1:3,0:0:0:0:
112,267,180037,6,0,P|68:286|2:285,1,105.000004005432,2|10,3:3|1:3,0:0:0:0:
240,240,180704,2,0,P|263:249|285:266,1,52.5000020027161,2|2,1:3|3:3,0:0:0:0:
336,320,181037,1,10,1:3:0:0:
429,254,181287,5,8,1:3:0:0:
458,234,181370,2,0,P|473:214|483:189,1,52.5000020027161,2|2,3:3|3:3,0:0:0:0:
472,127,181704,2,0,P|420:118|369:126,1,105.000004005432,10|2,1:3|1:3,0:0:0:0:
321,170,182204,1,2,3:3:0:0:
281,222,182371,6,0,P|229:231|177:222,2,105.000004005432,10|2|10,1:3|1:3|1:3,0:0:0:0:
181,62,183371,1,2,1:2:0:0:
205,82,183454,1,10,1:3:0:0:
230,102,183537,2,0,P|245:122|255:147,1,52.5000020027161,2|8,1:3|1:3,0:0:0:0:
358,222,184037,6,0,P|409:230|461:222,1,105.000004005432,2|10,1:3|1:3,0:0:0:0:
383,89,184704,1,2,1:3:0:0:
347,141,184870,2,0,P|327:156|302:166,1,52.5000020027161,2|10,3:3|1:3,0:0:0:0:
183,140,185370,6,0,P|163:125|138:115,1,52.5000020027161,2|2,3:3|1:3,0:0:0:0:
75,125,185704,2,0,P|66:177|74:228,1,105.000004005432,10|2,1:3|1:3,0:0:0:0:
118,276,186204,1,2,3:3:0:0:
171,313,186371,2,0,P|196:307|220:296,1,52.5000020027161,10|2,1:3|1:3,0:0:0:0:
240,272,186621,1,8,1:3:0:0:
260,247,186704,6,0,P|280:232|367:225,1,105.000004005432,2|10,3:3|1:3,0:0:0:0:
415,297,187287,1,2,1:2:0:0:
385,309,187370,2,0,P|359:312|333:307,1,52.5000020027161,2|2,1:3|3:3,0:0:0:0:
268,339,187704,6,0,P|216:340|170:314,2,105.000004005432,10|2|0,1:3|3:3|0:0,0:0:0:0:
335,233,188704,5,0,0:0:0:0:
305,245,188787,1,0,0:0:0:0:
211,225,189037,2,0,L|186:234,3,26.2500010013581,0|0|0|0,0:0|0:0|0:0|0:0,0:0:0:0:
155,245,189371,6,0,P|147:194|155:142,1,105.000004005432,4|8,3:3|2:3,0:0:0:0:
210,88,189871,1,0,2:1:0:0:
282,53,190038,2,0,P|284:79|282:106,1,52.5000020027161,6|2,2:0|3:3,0:0:0:0:
348,153,190371,2,0,P|356:128|371:106,1,52.5000020027161,8|0,2:3|2:0,0:0:0:0:
442,72,190705,6,0,P|447:127|418:172,1,105.000004005432,2|8,3:3|2:3,0:0:0:0:
296,216,191371,1,6,2:0:0:0:
348,153,191538,1,2,3:3:0:0:
373,231,191705,2,0,P|364:256|347:278,1,52.5000020027161,8|2,2:3|1:3,0:0:0:0:
270,296,192038,6,0,P|221:262|209:217,1,105.000004005432,2|10,3:3|2:3,0:0:0:0:
186,138,192538,1,2,1:3:0:0:
263,109,192705,2,0,P|265:135|263:162,1,52.5000020027161,2|2,1:3|3:3,0:0:0:0:
328,206,193038,2,0,P|348:190|372:178,1,52.5000020027161,10|2,1:3|1:3,0:0:0:0:
383,100,193371,6,0,P|356:89|336:73,1,52.5000020027161,2|0,3:3|2:1,0:0:0:0:
275,21,193705,1,8,2:3:0:0:
408,36,194038,2,0,P|431:46|445:56,2,26.2500010013581,6|2|2,2:0|1:2|3:3,0:0:0:0:
437,149,194371,1,8,2:3:0:0:
350,274,194705,6,0,P|337:336|336:393,1,105.000004005432,4|8,3:3|2:3,0:0:0:0:
305,216,195371,2,0,P|311:205|320:196,2,26.2500010013581,6|2|2,2:0|1:2|3:3,0:0:0:0:
394,212,195704,1,8,2:3:0:0:
225,206,196038,6,0,P|164:226|114:254,1,105.000004005432,2|8,3:3|2:3,0:0:0:0:
305,216,196704,1,6,2:0:0:0:
271,141,196871,1,2,3:3:0:0:
225,206,197038,2,0,P|225:232|234:258,1,52.5000020027161,8|2,2:3|1:3,0:0:0:0:
259,287,197287,1,8,1:3:0:0:
299,296,197370,6,0,P|364:288|422:306,1,105.000004005432,2|10,3:3|1:3,0:0:0:0:
305,216,197871,1,2,1:3:0:0:
262,228,197954,1,2,1:2:0:0:
235,258,198038,2,0,P|209:317|163:360,1,105.000004005432,6|10,2:0|1:3,0:0:0:0:
104,354,198537,1,2,1:3:0:0:
63,288,198704,6,0,P|80:241|117:215,2,78.7500030040742,2|2|0,3:3|1:2|2:1,0:0:0:0:
33,324,199287,1,2,1:2:0:0:
27,359,199371,2,0,L|36:403,2,26.2500010013581,6|2|2,2:0|1:2|3:3,0:0:0:0:
104,354,199704,2,0,L|113:398,2,26.2500010013581,8|0|2,2:3|0:0|1:3,0:0:0:0:
140,288,200037,6,0,P|200:301|227:348,1,105.000004005432,4|8,3:3|2:3,0:0:0:0:
245,175,200704,2,0,P|226:116|253:70,1,105.000004005432,6|8,2:0|2:3,0:0:0:0:
94,141,201371,6,0,P|88:152|81:163,3,26.2500010013581,2|2|2|2,3:2|2:2|2:3|2:2,0:0:0:0:
56,197,201704,2,0,P|47:207|37:216,3,26.2500010013581,8|2|2|2,2:3|2:2|2:3|2:2,0:0:0:0:
4,241,202038,2,0,L|68:253,1,52.5000020027161,6|2,2:0|3:3,0:0:0:0:
136,221,202371,2,0,L|164:216,2,26.2500010013581,8|2|2,2:3|2:2|2:0,0:0:0:0:
236,221,202704,6,0,P|207:276|155:290,1,105.000004005432,2|8,3:2|2:3,0:0:0:0:
316,352,203371,2,0,P|377:349|415:387,1,105.000004005432,6|8,2:0|2:3,0:0:0:0:
389,216,204038,6,0,P|379:208|371:198,3,26.2500010013581,10|2|2|0,3:2|2:2|2:3|0:0,0:0:0:0:
344,163,204371,2,0,P|336:152|330:140,3,26.2500010013581,8|2|2|2,2:3|2:2|2:3|2:2,0:0:0:0:
315,103,204705,2,0,L|286:162,1,52.5000020027161,6|2,2:0|3:3,0:0:0:0:
300,235,205038,2,0,L|297:265,2,26.2500010013581,8|2|2,2:3|2:2|3:3,0:0:0:0:
222,196,205371,6,0,P|171:188|119:196,1,105.000004005432,2|8,3:2|2:3,0:0:0:0:
291,150,206038,2,0,P|323:110|343:61,1,105.000004005432,6|8,2:0|2:3,0:0:0:0:
298,234,206704,6,0,P|301:247|306:260,3,26.2500010013581,2|2|2|2,3:2|2:2|2:3|2:2,0:0:0:0:
323,296,207038,2,0,P|329:308|336:319,3,26.2500010013581,8|2|2|0,2:3|2:2|2:3|0:0,0:0:0:0:
359,352,207371,2,0,L|295:364,1,52.5000020027161,6|2,2:0|3:3,0:0:0:0:
227,332,207704,2,0,L|198:327,2,26.2500010013581,8|2|2,2:3|2:2|3:3,0:0:0:0:
131,289,208037,6,0,P|114:287|96:288,3,35,10|8|8|8,3:3|1:0|3:0|1:0,0:0:0:0:
121,311,208371,2,0,P|104:316|89:324,3,35,8|8|10|8,2:3|2:3|3:3|1:0,0:0:0:0:
122,339,208703,2,0,P|109:350|97:363,2,35,8|8|8,3:0|3:0|3:0,0:0:0:0:
201,327,209036,6,0,L|261:335,1,35,8|8,2:3|2:1,0:0:0:0:
273,339,209203,2,0,L|333:347,1,35,2|0,3:3|3:0,0:0:0:0:
400,344,209371,5,10,3:3:0:0:
398,331,209454,1,2,2:2:0:0:
395,318,209538,1,2,2:3:0:0:
391,306,209621,1,2,2:2:0:0:
384,295,209704,2,0,P|379:282|372:271,2,26.2500010013581,8|2|2,2:3|2:2|2:3,0:0:0:0:
442,243,210038,6,0,P|434:232|425:223,2,26.2500010013581,10|8|0,2:3|2:3|3:0,0:0:0:0:
485,178,210371,6,0,P|474:170|463:163,1,26.2500010013581,8|2,2:3|1:2,0:0:0:0:
494,157,210538,2,0,P|482:151|469:149,1,26.2500010013581,2|2,2:3|1:2,0:0:0:0:
498,141,210704,5,2,0:3:0:0:
223,36,211371,2,0,P|177:59|125:66,1,105.000004005432,2|2,0:3|0:3,0:0:0:0:
20,40,212037,6,0,P|19:91|42:138,2,105.000004005432,2|0|0,0:3|0:0|0:0,0:0:0:0:
23,242,213376,6,0,L|42:138,1,105.000004005432,2|2,0:3|0:3,0:0:0:0:
116,116,213876,1,2,2:0:0:0:
156,184,214042,2,0,L|136:287,1,105.000004005432,2|2,0:3|0:3,0:0:0:0:
256,192,214709,6,0,L|275:88,1,105.000004005432,2|2,0:3|0:3,0:0:0:0:
350,67,215209,1,2,2:0:0:0:
390,135,215375,2,0,L|370:238,1,105.000004005432,2|2,0:3|0:3,0:0:0:0:
480,348,216042,5,2,3:3:0:0:
205,243,216709,2,0,P|158:266|106:273,1,105.000004005432,2|2,0:3|0:3,0:0:0:0:
0,248,217376,6,0,P|0:299|22:346,2,105.000004005432,2|0|0,0:3|0:0|0:0,0:0:0:0:
106,273,218715,6,0,P|158:276|203:303,1,105.000004005432,2|2,0:3|0:3,0:0:0:0:
256,159,219577,1,2,0:3:0:0:
370,238,220048,2,0,P|421:234|466:208,1,105.000004005432,2|2,0:3|0:3,0:0:0:0:
256,87,221375,6,0,L|256:192,1,105.000004005432,2|2,0:3|0:3,0:0:0:0:
256,192,222000,12,0,225875,0:0:0:0:
