osu file format v14

[General]
AudioFilename: Yume Nikki mega mix.mp3
AudioLeadIn: 0
PreviewTime: 135996
Countdown: 0
SampleSet: Normal
StackLeniency: 0.4
Mode: 0
LetterboxInBreaks: 0
WidescreenStoryboard: 0

[Editor]
Bookmarks: 2704,24037,45371,66704,88037,109371,130704,136037,157371,178704,200037,221371
DistanceSpacing: 2
BeatDivisor: 4
GridSize: 32
TimelineZoom: 2.2

[Metadata]
Title:Kono Hoshi de....
TitleUnicode:この星で・・・。
Artist:Camellia
ArtistUnicode:かめりあ
Creator:Krimek
Version:Famous' Another
Source:ゆめにっき
Tags:yume nikki 夢日記 窓付き dream diary madotsuki 窓付き windowed megamix mega mix かめるかめりあ cametek kamelcamellia electronic instrumental video game Yauxo Arbane -Famous-
BeatmapID:1926138
BeatmapSetID:511759

[Difficulty]
HPDrainRate:5.5
CircleSize:4
OverallDifficulty:8
ApproachRate:9.2
SliderMultiplier:1.8
SliderTickRate:1

[Events]
//Background and Video events
0,0,"bg.jpg",0,0
//Break Periods
//Storyboard Layer 0 (Background)
//Storyboard Layer 1 (Fail)
//Storyboard Layer 2 (Pass)
//Storyboard Layer 3 (Foreground)
//Storyboard Layer 4 (Overlay)
//Storyboard Sound Samples

[TimingPoints]
38,333.333333333333,4,1,1,50,1,0
2704,-117.647058823529,4,1,1,35,0,0
2871,-90.9090909090909,4,1,1,35,0,0
3037,-117.647058823529,4,1,1,35,0,0
5537,-90.9090909090909,4,1,1,35,0,0
5704,-117.647058823529,4,1,1,35,0,0
6704,-333.333333333333,4,1,1,35,0,0
7371,-117.647058823529,4,1,1,35,0,0
8204,-90.9090909090909,4,1,1,35,0,0
8371,-117.647058823529,4,1,1,35,0,0
9704,-117.647058823529,4,1,1,35,0,0
10037,-117.647058823529,4,1,1,35,0,0
10371,-117.647058823529,4,1,1,35,0,0
10704,-117.647058823529,4,1,1,35,0,0
10871,-90.9090909090909,4,1,1,35,0,0
11037,-117.647058823529,4,1,1,35,0,0
12037,-333.333333333333,4,1,1,35,0,0
12621,-333.333333333333,4,1,1,35,0,0
12704,-117.647058823529,4,1,1,35,0,0
13037,-166.666666666667,4,1,1,35,0,0
13371,-117.647058823529,4,1,1,35,0,0
13537,-90.9090909090909,4,1,1,35,0,0
13704,-117.647058823529,4,1,1,35,0,0
16204,-90.9090909090909,4,1,1,35,0,0
16371,-117.647058823529,4,1,1,35,0,0
17371,-333.333333333333,4,1,1,35,0,0
18037,-117.647058823529,4,1,1,35,0,0
18871,-90.9090909090909,4,1,1,35,0,0
19037,-117.647058823529,4,1,1,35,0,0
20371,-117.647058823529,4,1,1,35,0,0
20704,-117.647058823529,4,1,1,35,0,0
21037,-117.647058823529,4,1,1,35,0,0
21537,-90.9090909090909,4,1,1,35,0,0
21704,-117.647058823529,4,1,1,35,0,0
23204,-100,4,1,1,35,0,0
24037,-100,4,1,1,50,0,0
44037,-100,4,1,1,20,0,0
44704,-100,4,1,1,30,0,0
44871,-100,4,1,1,40,0,0
45037,-100,4,1,1,50,0,0
45204,-100,4,1,1,60,0,0
66704,-117.647058823529,4,1,1,40,0,0
88037,-117.647058823529,4,1,1,55,0,0
109371,-117.647058823529,4,1,1,45,0,0
120037,-117.647058823529,4,1,1,45,0,0
121371,-117.647058823529,4,1,1,30,0,0
129371,-100,4,1,1,30,0,0
130704,-117.647058823529,4,1,1,35,0,0
130871,-90.9090909090909,4,1,1,35,0,0
131037,-117.647058823529,4,1,1,35,0,0
132037,-166.666666666667,4,1,1,15,0,0
132954,-166.666666666667,4,1,1,5,0,0
133037,-117.647058823529,4,1,1,35,0,0
133537,-90.9090909090909,4,1,1,35,0,0
133704,-117.647058823529,4,1,1,35,0,0
134704,-166.666666666667,4,1,1,35,0,0
135704,-117.647058823529,4,1,1,45,0,0
136037,-90.9090909090909,4,1,1,55,0,1
171037,-111.111111111111,4,1,1,55,0,1
171371,-142.857142857143,4,1,1,55,0,1
171704,-90.9090909090909,4,1,1,55,0,1
178704,-117.647058823529,4,1,1,40,0,0
189371,-117.647058823529,4,1,1,45,0,0
200037,-100,4,1,1,45,0,0
210704,-117.647058823529,4,1,1,40,0,0
212037,446.428571428571,4,1,1,50,1,0
213376,333.333333333333,4,1,1,50,1,0
213376,-117.647058823529,4,1,1,50,0,0
216042,-117.647058823529,4,1,1,30,0,0
216542,-117.647058823529,4,1,1,20,0,0
217376,446.428571428571,3,1,1,40,1,0
218715,494.641384995878,3,1,1,40,1,0
219209,368.098159509202,3,1,1,40,1,8
219577,471.698113207547,3,1,1,40,1,8
220048,500,3,1,1,40,1,0
220548,413.793103448276,3,1,1,40,1,8
221371,-166.666666666667,4,1,1,20,0,0
221375,500,3,1,1,40,1,0
221875,-100,3,1,1,40,0,0
222875,-200,4,1,1,35,0,0
223375,-200,4,1,1,30,0,0
223875,-200,4,1,1,25,0,0
224375,-200,4,1,1,20,0,0
224875,-200,4,1,1,15,0,0
225375,-200,4,1,1,10,0,0
225875,-200,4,1,1,5,0,0

[Colours]
Combo1 : 111,106,111
Combo2 : 189,79,112
Combo3 : 136,85,111

[HitObjects]
323,67,2704,5,2,0:3:0:0:
323,67,2871,2,0,L|435:54,1,99.0000030212403,2|2,2:0|0:3,0:0:0:0:
274,156,3204,1,2,2:0:0:0:
274,156,3371,2,0,P|350:172|398:211,2,114.750002188683,2|0|2,0:3|2:0|2:0,0:0:0:0:
163,196,4037,1,2,0:3:0:0:
156,242,4371,1,2,0:3:0:0:
152,272,4704,1,2,0:3:0:0:
149,287,5037,5,2,0:3:0:0:
261,339,5204,1,0,0:0:0:0:
72,366,5371,1,2,0:3:0:0:
227,229,5537,2,0,P|242:167|229:112,1,99.0000030212403,2|2,2:0|0:3,0:0:0:0:
382,155,5871,1,2,2:0:0:0:
382,155,6037,2,0,P|334:127|312:75,2,114.750002188683,2|0|2,0:3|2:0|2:0,0:0:0:0:
476,119,6704,6,0,P|480:182|454:227,1,107.999996704102,10|2,0:2|0:3,0:0:0:0:
281,339,7537,5,2,2:0:0:0:
234,161,7704,1,2,0:3:0:0:
361,271,7871,1,2,2:0:0:0:
382,155,8037,1,2,0:3:0:0:
211,257,8204,6,0,P|156:246|113:229,1,99.0000030212403,2|2,2:0|0:3,0:0:0:0:
281,339,8537,1,2,2:0:0:0:
281,339,8621,1,0,2:0:0:0:
281,339,8704,2,0,P|350:316|415:312,2,114.750002188683,2|0|2,0:3|0:0|2:0,0:0:0:0:
130,321,9371,1,2,0:3:0:0:
123,275,9705,1,2,0:3:0:0:
119,245,10038,1,2,0:3:0:0:
116,230,10371,1,2,0:3:0:0:
55,130,10537,5,2,2:0:0:0:
59,115,10621,1,0,2:0:0:0:
63,100,10704,1,2,0:3:0:0:
171,161,10871,2,0,B|214:136|214:136|286:152,1,99.0000030212403,2|2,2:0|0:3,0:0:0:0:
374,312,11204,1,2,2:0:0:0:
345,322,11287,1,0,2:0:0:0:
316,332,11371,2,0,P|253:322|197:297,2,114.750002188683,2|0|2,0:3|0:0|2:0,0:0:0:0:
423,230,12037,6,0,P|421:180|438:127,1,94.4999971160889,10|0,0:2|2:0,0:0:0:0:
447,117,12704,6,0,L|393:96,3,38.2500007295609,2|0|2|0,0:3|2:0|2:0|2:0,0:0:0:0:
333,154,13037,2,0,L|285:161,3,26.9999991760254,2|0|2|0,0:3|2:0|2:0|2:0,0:0:0:0:
241,108,13371,5,2,0:3:0:0:
115,206,13537,2,0,L|229:226,1,99.0000030212403,2|2,2:0|0:3,0:0:0:0:
49,292,13871,1,2,2:0:0:0:
49,292,14037,2,0,P|14:243|11:177,2,114.750002188683,2|0|2,0:3|2:0|2:0,0:0:0:0:
177,337,14704,1,2,0:3:0:0:
223,330,15038,1,2,0:3:0:0:
253,326,15371,1,2,0:3:0:0:
268,323,15704,5,2,0:3:0:0:
317,194,15871,1,0,0:0:0:0:
383,356,16037,1,2,0:3:0:0:
213,228,16204,2,0,P|213:158|244:110,1,99.0000030212403,2|2,2:0|0:3,0:0:0:0:
420,151,16537,1,2,2:0:0:0:
420,151,16704,2,0,P|364:161|317:194,2,114.750002188683,2|0|2,0:3|2:0|2:0,0:0:0:0:
297,68,17371,6,0,L|185:57,1,107.999996704102,10|2,0:2|0:3,0:0:0:0:
75,239,18204,5,2,2:0:0:0:
51,56,18371,1,2,0:3:0:0:
165,178,18537,1,2,2:0:0:0:
189,57,18704,1,2,0:3:0:0:
270,250,18871,6,0,L|378:260,1,99.0000030212403,2|2,2:0|0:3,0:0:0:0:
204,350,19204,1,2,2:0:0:0:
204,350,19287,1,0,2:0:0:0:
204,350,19371,2,0,L|89:361,2,114.750002188683,2|0|2,0:3|0:0|2:0,0:0:0:0:
348,302,20037,1,2,0:3:0:0:
368,259,20371,1,2,0:3:0:0:
381,233,20704,1,2,0:3:0:0:
388,218,21037,1,2,0:3:0:0:
485,116,21204,5,2,2:0:0:0:
470,112,21287,1,0,2:0:0:0:
454,109,21371,1,10,0:2:0:0:
388,218,21537,2,0,L|292:241,1,99.0000030212403,2|2,2:0|0:3,0:0:0:0:
223,103,21871,1,2,2:0:0:0:
223,103,21954,1,0,2:0:0:0:
223,103,22037,2,0,B|263:144|263:144|337:153,2,114.750002188683,2|0|2,0:3|0:0|2:0,0:0:0:0:
307,53,22704,1,6,0:2:0:0:
81,329,23204,5,0,3:0:0:0:
76,316,23287,1,0,3:0:0:0:
71,303,23371,2,0,L|77:258,2,45,8|8|0,3:3|3:3|3:0,0:0:0:0:
147,286,23621,2,0,L|153:241,2,45,8|8|8,3:3|3:3|3:3,0:0:0:0:
225,268,23871,2,0,L|235:197,1,45,8|8,3:3|3:3,0:0:0:0:
245,145,24037,6,0,P|292:130|334:123,1,90,4|0,3:3|2:1,0:0:0:0:
512,234,24371,1,8,2:3:0:0:
394,296,24537,1,0,2:1:0:0:
394,296,24704,2,0,L|410:155,1,135,6|0,2:0|0:0,0:0:0:0:
430,144,25037,1,8,2:3:0:0:
410,318,25204,1,0,2:0:0:0:
312,238,25371,6,0,L|305:175,2,45,2|2|2,3:2|2:2|2:3,0:0:0:0:
231,334,25704,1,8,2:3:0:0:
213,332,25787,1,2,2:2:0:0:
195,330,25871,1,2,2:3:0:0:
177,328,25953,1,2,2:2:0:0:
159,326,26037,1,6,2:0:0:0:
76,233,26204,5,2,3:3:0:0:
72,215,26287,1,2,2:2:0:0:
72,196,26371,2,0,P|79:161|95:124,1,45,8|2,2:3|2:2,0:0:0:0:
190,202,26537,2,0,P|196:223|199:245,1,45,2|8,2:0|2:3,0:0:0:0:
183,85,26704,6,0,P|238:98|284:126,1,90,2|2,3:2|3:3,0:0:0:0:
362,306,27037,1,8,2:3:0:0:
413,165,27204,1,0,2:0:0:0:
427,353,27371,2,0,L|271:339,1,135,6|0,2:0|2:0,0:0:0:0:
270,356,27704,1,8,2:3:0:0:
237,205,27871,1,0,2:0:0:0:
123,308,28037,5,10,3:2:0:0:
123,308,28121,1,2,2:2:0:0:
123,308,28204,2,0,L|119:356,3,30,2|2|2|8,2:3|2:2|2:2|2:3,0:0:0:0:
237,205,28537,5,2,2:3:0:0:
243,187,28621,1,2,2:2:0:0:
248,169,28704,2,0,L|241:87,3,45,6|8|2|2,2:0|2:3|3:3|2:2,0:0:0:0:
149,74,29037,2,0,L|152:118,1,45,8|2,2:3|2:2,0:0:0:0:
56,171,29204,2,0,L|53:127,1,45,2|8,3:3|2:3,0:0:0:0:
138,208,29371,6,0,B|129:261|129:261|97:295,1,90,2|2,3:2|2:3,0:0:0:0:
314,258,29704,1,8,2:3:0:0:
220,350,29871,1,2,2:3:0:0:
220,350,29954,1,0,2:0:0:0:
220,350,30037,2,0,B|286:338|286:338|368:342,1,135,6|0,2:0|2:0,0:0:0:0:
381,345,30371,1,8,2:3:0:0:
237,205,30537,1,2,2:3:0:0:
431,161,30704,5,2,3:2:0:0:
431,161,30815,2,0,L|439:116,2,30,0|2|0,0:0|2:3|0:0,0:0:0:0:
332,242,31037,1,8,2:3:0:0:
332,242,31148,2,0,L|324:197,2,30,0|2|0,0:0|2:3|0:0,0:0:0:0:
297,89,31371,1,6,2:0:0:0:
274,74,31454,1,2,2:2:0:0:
247,68,31537,1,2,3:3:0:0:
219,69,31621,1,2,2:2:0:0:
193,78,31704,2,0,P|168:87|143:89,1,45,8|2,2:3|2:2,0:0:0:0:
53,64,31871,1,2,3:3:0:0:
58,81,31954,1,0,3:0:0:0:
63,98,32037,6,0,L|55:217,1,90,2|2,3:2|2:3,0:0:0:0:
41,369,32371,1,8,2:3:0:0:
128,251,32537,1,2,2:3:0:0:
134,244,32621,1,8,2:3:0:0:
140,238,32704,2,0,P|183:220|242:248,1,90,6|2,3:2|3:3,0:0:0:0:
230,236,32954,1,0,2:0:0:0:
237,241,33037,2,0,P|279:251|320:233,1,90,8|2,2:3|2:3,0:0:0:0:
187,294,33371,5,10,3:2:0:0:
272,176,33537,2,0,P|268:139|262:122,2,45,2|2|8,2:3|2:2|2:3,0:0:0:0:
197,315,33871,1,2,2:3:0:0:
368,289,34037,2,0,P|386:268|401:217,1,45,6|8,2:2|2:3,0:0:0:0:
413,169,34204,1,0,3:0:0:0:
305,332,34371,2,0,P|294:302|307:255,3,45,8|2|2|2,2:3|1:2|2:3|1:2,0:0:0:0:
296,271,34704,6,0,P|298:214|273:158,1,90,6|2,3:3|2:3,0:0:0:0:
202,11,35037,1,8,2:3:0:0:
148,173,35204,1,0,3:0:0:0:
279,80,35371,2,0,P|323:85|360:110,1,90,6|0,2:2|3:0,0:0:0:0:
441,122,35621,2,0,P|438:85|411:52,1,45,8|0,2:3|3:0,0:0:0:0:
384,192,35787,1,0,3:0:0:0:
380,209,35871,2,0,P|382:230|391:250,1,45,8|0,2:3|3:0,0:0:0:0:
468,318,36037,6,0,L|521:309,2,45,6|2|2,3:2|2:2|2:3,0:0:0:0:
303,349,36371,1,8,2:3:0:0:
285,346,36454,1,2,2:2:0:0:
267,344,36537,1,2,2:3:0:0:
249,342,36621,1,2,2:2:0:0:
231,340,36704,1,6,2:0:0:0:
291,209,36871,5,2,3:3:0:0:
273,211,36954,1,2,2:2:0:0:
255,213,37037,2,0,L|187:206,1,45,8|2,2:3|2:2,0:0:0:0:
91,141,37204,2,0,L|159:134,1,45,10|8,2:3|2:3,0:0:0:0:
250,62,37371,6,0,L|140:51,1,90,2|2,3:2|3:3,0:0:0:0:
95,260,37704,1,8,2:3:0:0:
228,197,37871,1,2,2:3:0:0:
334,317,38037,2,0,L|200:302,1,135,6|0,2:0|2:0,0:0:0:0:
187,288,38371,1,8,2:3:0:0:
353,306,38537,1,2,2:3:0:0:
228,197,38704,5,10,3:2:0:0:
228,197,38788,1,2,2:2:0:0:
228,197,38871,2,0,L|221:152,3,30,2|2|2|8,2:3|2:2|2:2|2:3,0:0:0:0:
320,34,39204,5,2,2:3:0:0:
295,45,39288,1,2,2:2:0:0:
269,53,39371,2,0,P|232:54|186:41,3,45,6|0|2|2,2:0|0:0|3:3|2:2,0:0:0:0:
103,16,39704,2,0,P|132:33|149:54,1,45,8|2,2:3|2:2,0:0:0:0:
22,109,39871,2,0,P|20:86|25:64,1,45,2|0,3:3|0:0,0:0:0:0:
160,125,40037,6,0,P|132:156|85:165,1,90,2|2,3:2|2:3,0:0:0:0:
294,241,40371,1,8,2:3:0:0:
143,315,40537,1,2,2:3:0:0:
143,315,40621,1,0,2:0:0:0:
143,315,40704,2,0,P|225:315|290:345,1,135,6|0,2:0|0:0,0:0:0:0:
286,345,41037,1,8,2:3:0:0:
377,174,41204,1,2,2:3:0:0:
434,292,41371,5,2,3:2:0:0:
434,292,41482,2,0,L|479:285,2,30,0|2|0,0:0|2:3|0:0,0:0:0:0:
294,241,41704,1,8,2:3:0:0:
294,241,41815,2,0,L|249:234,2,30,0|2|0,0:0|2:3|0:0,0:0:0:0:
432,181,42037,5,6,2:0:0:0:
445,157,42120,1,2,2:2:0:0:
451,131,42203,1,2,3:3:0:0:
449,104,42287,1,2,2:2:0:0:
440,78,42371,2,0,P|412:60|387:54,1,45,8|2,2:3|2:2,0:0:0:0:
245,105,42538,1,2,3:3:0:0:
227,101,42621,1,0,3:0:0:0:
209,97,42704,6,0,L|320:82,1,90,2|0,3:2|2:0,0:0:0:0:
142,235,43037,1,8,2:3:0:0:
52,70,43204,1,2,3:2:0:0:
55,78,43287,1,8,2:3:0:0:
58,86,43371,2,0,L|51:190,1,90,6|2,3:2|3:2,0:0:0:0:
55,184,43621,1,0,0:0:0:0:
58,192,43704,2,0,L|51:296,1,90,8|2,2:3|2:2,0:0:0:0:
191,336,44037,6,0,L|246:331,5,30,0|0|0|0|0|0,3:3|0:0|0:0|3:3|0:0|0:0,0:0:0:0:
269,277,44371,2,0,L|298:279,5,30,8|0|0|8|0|0,1:3|0:0|0:0|1:3|0:0|0:0,0:0:0:0:
348,332,44704,2,0,L|377:329,5,30,8|0|0|10|0|0,3:3|0:0|0:0|3:3|0:0|0:0,0:0:0:0:
433,282,45037,2,0,L|441:226,3,45,8|8|8|8,3:1|3:1|3:1|3:1,0:0:0:0:
392,169,45371,6,0,L|376:54,1,90,4|0,3:3|2:1,0:0:0:0:
298,279,45704,1,8,2:3:0:0:
370,156,45871,1,0,2:1:0:0:
235,207,46037,2,0,B|144:192|144:192|172:246,1,135,6|0,2:0|0:0,0:0:0:0:
172,246,46371,1,8,2:3:0:0:
191,97,46537,1,0,2:0:0:0:
73,166,46704,6,0,P|69:189|74:217,2,45,2|2|2,3:2|2:2|2:3,0:0:0:0:
210,81,47037,1,8,2:3:0:0:
227,85,47121,1,2,2:2:0:0:
243,93,47204,1,2,2:3:0:0:
258,103,47287,1,2,2:2:0:0:
271,115,47371,1,6,2:0:0:0:
359,7,47537,6,0,P|352:39|353:67,1,45,2|2,3:3|2:2,0:0:0:0:
479,72,47704,2,0,P|454:49|430:36,1,45,8|2,2:3|2:2,0:0:0:0:
365,145,47871,2,0,P|396:135|419:120,1,45,2|8,2:0|2:3,0:0:0:0:
379,223,48037,6,0,P|340:199|298:183,1,90,2|2,3:2|3:3,0:0:0:0:
89,232,48371,1,8,2:3:0:0:
236,281,48537,1,0,2:0:0:0:
170,78,48704,2,0,L|177:214,1,135,6|0,2:0|2:0,0:0:0:0:
169,229,49037,1,8,2:3:0:0:
159,63,49204,1,0,2:0:0:0:
281,137,49371,5,10,3:2:0:0:
281,137,49454,1,2,2:2:0:0:
281,137,49537,2,0,L|277:187,3,30,2|2|2|8,2:3|2:2|2:2|2:3,0:0:0:0:
134,170,49871,1,2,2:3:0:0:
133,152,49954,1,2,2:2:0:0:
132,134,50037,2,0,L|130:83,3,45,6|8|2|2,2:0|2:3|3:3|2:2,0:0:0:0:
50,29,50371,2,0,L|51:73,1,45,8|2,2:3|2:2,0:0:0:0:
211,107,50537,2,0,L|209:62,1,45,2|8,3:3|2:3,0:0:0:0:
133,152,50704,6,0,B|166:187|166:187|232:203,1,90,2|2,3:2|2:3,0:0:0:0:
359,51,51037,1,8,2:3:0:0:
392,193,51204,1,2,2:3:0:0:
392,193,51287,1,0,2:0:0:0:
392,193,51371,2,0,P|388:276|379:333,1,135,6|0,2:0|2:0,0:0:0:0:
376,345,51704,1,8,2:3:0:0:
295,227,51871,1,2,2:3:0:0:
466,281,52037,5,2,3:2:0:0:
466,281,52148,2,0,P|468:261|469:231,2,30,0|2|0,0:0|2:3|0:0,0:0:0:0:
425,132,52371,1,8,2:3:0:0:
425,132,52482,2,0,P|423:152|422:182,2,30,0|2|0,0:0|2:3|0:0,0:0:0:0:
374,263,52704,5,6,2:0:0:0:
349,274,52787,1,2,2:2:0:0:
323,278,52871,1,2,3:3:0:0:
296,274,52954,1,2,2:2:0:0:
271,264,53037,2,0,P|249:254|217:251,1,45,8|2,2:3|2:2,0:0:0:0:
111,286,53204,1,2,3:3:0:0:
108,294,53287,1,0,3:0:0:0:
105,302,53371,6,0,P|90:246|84:175,1,90,2|2,3:2|2:3,0:0:0:0:
115,28,53704,1,8,2:3:0:0:
288,130,53871,1,2,2:3:0:0:
278,133,53954,1,8,2:3:0:0:
270,138,54037,2,0,P|241:172|224:214,1,90,6|2,3:2|3:3,0:0:0:0:
220,202,54287,1,0,2:0:0:0:
217,192,54371,2,0,P|198:150|156:117,1,90,8|2,2:3|2:3,0:0:0:0:
115,28,54704,5,10,3:2:0:0:
61,133,54871,2,0,L|71:191,2,45,2|2|8,2:3|2:2|2:3,0:0:0:0:
215,44,55204,1,2,2:3:0:0:
232,49,55287,1,2,2:2:0:0:
249,54,55371,6,0,L|306:47,1,45,10|8,2:3|2:3,0:0:0:0:
396,13,55537,2,0,L|389:70,1,45,0|2,3:0|2:2,0:0:0:0:
329,174,55704,2,0,L|336:117,1,45,8|2,2:3|1:2,0:0:0:0:
476,133,55871,2,0,L|419:140,1,45,2|2,2:3|1:2,0:0:0:0:
307,194,56037,5,6,3:3:0:0:
424,210,56204,1,2,2:3:0:0:
249,54,56371,1,8,2:3:0:0:
288,209,56537,1,0,3:0:0:0:
186,119,56704,2,0,B|132:100|132:100|52:93,1,135,6|8,2:2|2:3,0:0:0:0:
36,93,57037,1,0,3:0:0:0:
202,142,57204,1,8,2:3:0:0:
53,174,57371,6,0,L|8:169,2,45,2|2|2,3:2|2:2|2:3,0:0:0:0:
129,255,57704,1,8,2:3:0:0:
147,252,57787,1,2,2:2:0:0:
165,250,57870,1,2,2:3:0:0:
183,248,57954,1,2,2:2:0:0:
201,246,58037,1,6,2:0:0:0:
299,164,58204,5,2,3:3:0:0:
301,181,58287,1,2,2:2:0:0:
305,198,58370,2,0,L|293:272,1,45,8|2,2:3|2:2,0:0:0:0:
259,355,58537,2,0,L|251:310,1,45,10|8,2:3|2:3,0:0:0:0:
341,319,58704,6,0,L|430:327,1,90,2|2,3:2|3:3,0:0:0:0:
179,360,59037,1,8,2:3:0:0:
298,242,59204,1,2,2:3:0:0:
157,269,59371,2,0,P|131:188|120:117,1,135,6|0,2:0|2:0,0:0:0:0:
125,121,59704,1,8,2:3:0:0:
288,228,59871,1,2,2:3:0:0:
166,282,60037,5,10,3:2:0:0:
166,282,60121,1,2,2:2:0:0:
166,282,60204,2,0,P|137:270|117:268,3,30,2|2|2|8,2:3|2:2|2:2|2:3,0:0:0:0:
298,242,60537,5,2,2:3:0:0:
324,236,60621,1,2,2:2:0:0:
350,239,60704,2,0,P|384:232|419:204,3,45,6|8|2|2,2:0|2:3|3:3|2:2,0:0:0:0:
445,163,61037,2,0,L|452:118,1,45,8|2,2:3|2:2,0:0:0:0:
334,122,61204,2,0,L|327:77,1,45,2|8,3:3|2:3,0:0:0:0:
230,148,61371,5,2,3:2:0:0:
243,23,61537,1,2,2:3:0:0:
457,94,61704,1,8,2:3:0:0:
327,77,61870,1,2,2:3:0:0:
324,94,61954,1,0,2:0:0:0:
321,111,62037,2,0,P|328:185|353:251,1,135,6|0,2:0|0:0,0:0:0:0:
357,257,62370,1,8,2:3:0:0:
470,313,62537,1,2,2:3:0:0:
316,332,62704,5,2,3:2:0:0:
316,332,62815,2,0,P|298:319|278:291,2,30,0|2|0,0:0|2:3|0:0,0:0:0:0:
202,339,63037,1,8,2:3:0:0:
202,339,63149,2,0,P|198:317|204:283,2,30,0|2|0,0:0|2:3|0:0,0:0:0:0:
249,234,63370,5,6,2:0:0:0:
225,220,63453,1,0,0:0:0:0:
198,216,63536,1,2,3:3:0:0:
171,221,63620,1,2,2:2:0:0:
147,233,63704,2,0,P|116:246|83:248,1,45,8|2,2:3|2:2,0:0:0:0:
25,149,63871,1,2,3:3:0:0:
49,159,63954,1,0,3:0:0:0:
75,163,64037,6,0,P|125:153|166:118,1,90,2|2,3:2|2:3,0:0:0:0:
236,11,64370,1,8,2:3:0:0:
274,148,64537,1,2,2:3:0:0:
272,156,64620,1,8,2:3:0:0:
270,165,64704,2,0,P|252:212|215:263,1,90,6|2,2:0|3:3,0:0:0:0:
225,252,64954,1,0,2:0:0:0:
219,259,65037,2,0,P|270:270|322:294,1,90,8|2,2:3|2:3,0:0:0:0:
359,349,65287,1,8,2:3:0:0:
366,343,65371,6,0,P|379:322|387:297,1,45,0|0,3:3|3:3,0:0:0:0:
319,174,65537,2,0,P|326:195|338:213,1,45,0|0,3:3|3:3,0:0:0:0:
463,217,65704,2,0,L|418:229,1,45,8|8,1:3|1:3,0:0:0:0:
261,273,65871,2,0,L|305:285,1,45,8|8,1:3|1:3,0:0:0:0:
403,332,66037,2,0,P|394:311|383:292,1,45,8|8,3:3|3:3,0:0:0:0:
322,160,66204,2,0,P|310:179|301:200,1,45,8|8,3:3|3:3,0:0:0:0:
400,353,66371,1,10,3:3:0:0:
400,353,66704,6,0,B|363:339|327:354|327:354|293:369|226:339,1,153.000002918243,4|10,3:3|1:3,0:0:0:0:
170,157,67371,2,0,L|155:256,1,76.5000014591217,2|2,1:3|3:3,0:0:0:0:
141,323,67704,1,10,1:3:0:0:
89,114,68037,6,0,P|159:66|246:104,1,153.000002918243,2|10,3:3|1:3,0:0:0:0:
198,227,68704,2,0,P|179:193|170:157,1,76.5000014591217,2|2,1:3|3:3,0:0:0:0:
220,80,69037,1,10,1:3:0:0:
278,220,69204,2,0,P|277:247|254:287,1,38.2500007295609,2|8,1:3|1:3,0:0:0:0:
211,314,69371,5,2,3:3:0:0:
211,314,69537,1,2,3:3:0:0:
170,157,69704,1,10,1:3:0:0:
55,354,70037,2,0,L|164:364,1,76.5000014591217,2|2,1:3|3:3,0:0:0:0:
211,314,70371,1,10,1:3:0:0:
144,85,70704,6,0,P|69:109|119:146,1,153.000002918243,2|10,3:3|1:3,0:0:0:0:
305,81,71371,1,2,1:3:0:0:
305,81,71454,2,0,L|313:122,1,38.2500007295609,8|2,1:3|3:3,0:0:0:0:
330,208,71704,1,10,1:3:0:0:
263,292,71871,2,0,L|270:254,1,38.2500007295609,2|8,3:3|1:3,0:0:0:0:
330,208,72037,6,0,L|165:227,1,153.000002918243,2|10,3:3|1:3,0:0:0:0:
387,290,72704,2,0,P|417:257|428:203,1,76.5000014591217,2|2,1:3|3:3,0:0:0:0:
395,140,73037,1,10,1:3:0:0:
317,355,73371,6,0,P|247:323|159:312,1,153.000002918243,2|0,3:3|0:0,0:0:0:0:
325,172,74037,2,0,P|361:158|395:140,1,76.5000014591217,2|2,1:3|3:3,0:0:0:0:
449,64,74371,1,10,1:3:0:0:
286,104,74537,2,0,P|270:116|253:142,1,38.2500007295609,2|8,3:3|1:3,0:0:0:0:
253,212,74704,6,0,P|234:153|170:79,1,153.000002918243,2|10,3:3|1:3,0:0:0:0:
78,49,75204,2,0,P|97:71|111:96,1,38.2500007295609,2|8,1:3|1:3,0:0:0:0:
125,165,75371,1,2,3:3:0:0:
125,165,75537,1,2,3:3:0:0:
50,41,75704,1,10,1:3:0:0:
10,264,76037,6,0,B|74:250|74:250|170:273,1,153.000002918243,2|10,3:3|1:3,0:0:0:0:
82,369,76704,1,2,1:3:0:0:
82,369,76787,2,0,L|69:323,1,38.2500007295609,8|2,1:3|3:3,0:0:0:0:
239,225,77037,1,10,1:3:0:0:
236,251,77121,1,0,0:0:0:0:
233,278,77204,1,2,3:3:0:0:
230,304,77287,1,8,1:3:0:0:
225,330,77371,6,0,L|205:157,1,153.000002918243,6|10,3:3|1:3,0:0:0:0:
413,273,78037,2,0,P|366:266|333:242,1,76.5000014591217,2|2,1:3|3:3,0:0:0:0:
299,168,78371,1,10,1:3:0:0:
188,370,78704,6,0,P|244:320|253:246,1,153.000002918243,2|10,3:3|1:3,0:0:0:0:
74,263,79371,2,0,L|151:270,1,76.5000014591217,2|2,1:3|3:3,0:0:0:0:
240,231,79704,2,0,L|100:245,1,114.750002188683,10|8,1:3|1:3,0:0:0:0:
109,230,80037,5,2,3:3:0:0:
109,230,80204,1,2,3:3:0:0:
160,56,80371,1,10,1:3:0:0:
222,277,80704,2,0,B|244:245|244:245|258:190,1,76.5000014591217,2|2,1:3|3:3,0:0:0:0:
270,118,81037,1,10,1:3:0:0:
344,314,81371,5,2,3:3:0:0:
350,332,81454,1,2,3:2:0:0:
356,349,81537,1,10,1:3:0:0:
427,199,81704,1,10,1:3:0:0:
278,258,81871,2,0,L|217:254,1,38.2500007295609,2|10,0:2|1:3,0:0:0:0:
171,173,82037,2,0,L|209:170,1,38.2500007295609,2|10,0:2|1:3,0:0:0:0:
295,275,82204,1,2,3:3:0:0:
123,313,82371,1,8,1:3:0:0:
69,138,82537,1,2,3:3:0:0:
69,138,82621,1,8,1:3:0:0:
69,138,82704,6,0,B|49:236|49:236|3:287,1,153.000002918243,2|10,3:3|1:3,0:0:0:0:
0,46,83371,2,0,B|92:38,1,76.5000014591217,2|2,1:3|3:3,0:0:0:0:
167,26,83704,1,10,1:3:0:0:
232,244,84037,6,0,L|51:229,1,153.000002918243,2|10,3:3|1:3,0:0:0:0:
285,95,84704,1,2,1:3:0:0:
285,95,84871,1,2,3:3:0:0:
285,95,85037,1,10,1:3:0:0:
214,222,85204,1,2,3:3:0:0:
214,222,85287,1,8,1:3:0:0:
214,222,85371,6,0,P|252:264|364:267,1,153.000002918243,2|10,3:3|1:3,0:0:0:0:
417,221,85871,2,0,L|426:166,1,38.2500007295609,2|8,3:3|1:3,0:0:0:0:
434,108,86037,1,2,3:3:0:0:
434,108,86204,1,2,3:3:0:0:
319,148,86371,1,10,1:3:0:0:
292,144,86454,1,0,0:0:0:0:
265,140,86537,1,2,1:3:0:0:
239,136,86621,1,2,3:3:0:0:
212,132,86704,5,6,1:3:0:0:
212,132,87371,1,2,1:3:0:0:
167,284,87704,2,0,L|149:209,1,76.5000014591217,10|2,1:3|3:3,0:0:0:0:
125,120,88037,6,0,P|139:82|168:55,1,76.5000014591217,4|0,3:3|2:1,0:0:0:0:
349,38,88371,1,8,2:3:0:0:
301,134,88537,1,0,2:1:0:0:
294,139,88621,1,2,1:2:0:0:
288,144,88704,2,0,L|213:132,1,76.5000014591217,6|2,2:0|3:3,0:0:0:0:
130,235,89037,2,0,L|229:219,1,76.5000014591217,8|0,2:3|2:0,0:0:0:0:
303,315,89371,6,0,B|205:298|205:298|250:368,1,153.000002918243,2|8,3:3|2:3,0:0:0:0:
437,198,90037,2,0,L|443:108,1,76.5000014591217,6|2,2:0|3:3,0:0:0:0:
334,77,90371,1,8,2:3:0:0:
335,92,90454,1,0,0:0:0:0:
336,107,90538,2,0,L|338:145,1,38.2500007295609,2|0,1:3|0:0,0:0:0:0:
346,241,90705,5,2,3:3:0:0:
346,241,90871,1,2,3:3:0:0:
242,120,91037,1,10,1:3:0:0:
250,216,91204,1,2,1:3:0:0:
87,181,91371,2,0,P|124:172|162:170,1,76.5000014591217,6|2,2:0|3:3,0:0:0:0:
120,265,91621,1,2,1:2:0:0:
107,270,91704,2,0,P|68:267|31:258,1,76.5000014591217,10|2,1:3|1:3,0:0:0:0:
135,358,92038,6,0,P|205:327|280:315,1,153.000002918243,2|8,3:3|2:3,0:0:0:0:
454,345,92705,1,6,2:0:0:0:
454,345,92787,2,0,L|457:307,1,38.2500007295609,2|2,1:2|3:3,0:0:0:0:
464,218,93038,1,8,2:3:0:0:
369,308,93204,2,0,L|366:270,1,38.2500007295609,2|8,1:3|1:3,0:0:0:0:
382,183,93371,6,0,L|392:84,1,76.5000014591217,4|0,3:3|2:1,0:0:0:0:
291,213,93704,1,8,2:3:0:0:
190,197,93871,1,0,2:1:0:0:
194,182,93954,1,2,1:2:0:0:
201,168,94037,2,0,P|235:129|286:111,1,76.5000014591217,6|2,2:0|3:3,0:0:0:0:
271,113,94287,1,2,1:2:0:0:
286,111,94371,2,0,P|318:91|341:60,1,76.5000014591217,8|0,2:3|2:0,0:0:0:0:
152,61,94704,6,0,L|173:244,1,153.000002918243,2|8,3:3|2:3,0:0:0:0:
32,365,95370,2,0,L|40:288,1,76.5000014591217,6|2,2:0|3:3,0:0:0:0:
187,230,95704,1,8,2:3:0:0:
277,319,95870,2,0,P|273:293|262:267,1,38.2500007295609,2|8,1:3|1:3,0:0:0:0:
235,346,96037,6,0,L|335:358,1,76.5000014591217,2|2,3:3|3:3,0:0:0:0:
467,291,96371,1,10,1:3:0:0:
361,239,96537,2,0,P|365:213|376:187,1,38.2500007295609,2|2,1:3|1:2,0:0:0:0:
430,131,96704,1,6,2:0:0:0:
275,185,96870,1,2,3:3:0:0:
394,36,97037,2,0,P|343:26|285:22,1,76.5000014591217,10|2,1:3|1:3,0:0:0:0:
245,73,97287,1,2,1:2:0:0:
232,81,97371,6,0,P|181:91|123:95,1,76.5000014591217,2|0,3:3|2:1,0:0:0:0:
69,77,97621,1,2,1:2:0:0:
55,70,97704,1,8,2:3:0:0:
0,208,97871,2,0,L|38:187,1,38.2500007295609,0|0,2:1|0:0,0:0:0:0:
139,217,98038,1,6,2:0:0:0:
127,206,98121,2,0,L|114:160,1,38.2500007295609,2|2,1:2|3:3,0:0:0:0:
36,339,98371,1,8,2:3:0:0:
56,322,98454,1,0,0:0:0:0:
80,309,98537,1,2,1:3:0:0:
106,301,98621,1,8,1:3:0:0:
132,299,98704,6,0,P|176:305|219:327,1,76.5000014591217,4|0,3:3|2:1,0:0:0:0:
355,208,99037,2,0,P|319:222|281:226,1,76.5000014591217,8|0,2:3|2:1,0:0:0:0:
293,118,99371,2,0,L|281:29,1,76.5000014591217,6|2,2:0|3:3,0:0:0:0:
209,119,99621,1,2,1:2:0:0:
197,108,99704,2,0,L|185:19,1,76.5000014591217,8|0,2:3|2:0,0:0:0:0:
94,179,100037,6,0,P|141:177|188:268,1,153.000002918243,2|8,3:3|2:3,0:0:0:0:
359,333,100704,2,0,L|459:319,1,76.5000014591217,6|2,2:0|3:3,0:0:0:0:
491,193,101037,1,8,2:3:0:0:
479,182,101121,1,0,0:0:0:0:
467,172,101204,2,0,L|412:164,1,38.2500007295609,2|8,1:3|1:3,0:0:0:0:
345,195,101371,6,0,P|340:156|373:99,1,76.5000014591217,2|2,3:3|3:3,0:0:0:0:
505,41,101704,1,10,2:3:0:0:
373,100,101871,1,2,1:3:0:0:
256,58,102037,2,0,L|151:64,1,76.5000014591217,6|2,1:2|3:3,0:0:0:0:
102,113,102287,1,2,1:2:0:0:
87,119,102371,2,0,L|10:114,1,76.5000014591217,10|2,1:3|1:3,0:0:0:0:
58,219,102704,6,0,P|137:212|186:150,1,153.000002918243,2|8,3:3|2:3,0:0:0:0:
251,328,103371,1,6,2:0:0:0:
251,328,103454,1,2,1:2:0:0:
251,328,103537,1,2,3:3:0:0:
417,264,103704,1,8,2:3:0:0:
285,224,103871,2,0,L|276:174,1,38.2500007295609,2|8,1:3|1:3,0:0:0:0:
331,123,104037,6,0,L|318:198,1,76.5000014591217,4|0,3:3|2:1,0:0:0:0:
158,284,104371,1,8,2:3:0:0:
113,120,104537,1,0,2:1:0:0:
113,120,104621,1,2,1:2:0:0:
113,120,104704,2,0,P|61:156|30:169,1,76.5000014591217,6|2,2:0|3:3,0:0:0:0:
1,242,104954,1,2,1:2:0:0:
1,242,105037,2,0,P|53:278|84:291,1,76.5000014591217,8|0,2:3|2:0,0:0:0:0:
240,273,105371,6,0,P|167:295|113:348,1,153.000002918243,2|8,3:3|2:3,0:0:0:0:
362,318,106037,1,6,2:0:0:0:
362,318,106205,1,2,3:3:0:0:
362,318,106371,1,8,2:3:0:0:
304,184,106537,1,2,1:3:0:0:
304,184,106620,1,8,1:3:0:0:
304,184,106704,6,0,L|313:102,1,76.5000014591217,2|2,3:3|3:3,0:0:0:0:
426,34,107037,1,10,1:3:0:0:
208,133,107204,2,0,L|152:127,1,38.2500007295609,2|2,1:3|1:2,0:0:0:0:
78,116,107370,1,6,2:0:0:0:
78,116,107537,1,2,3:3:0:0:
15,272,107704,1,10,1:3:0:0:
42,268,107787,1,0,0:0:0:0:
69,264,107870,1,2,1:3:0:0:
95,260,107954,1,2,1:2:0:0:
122,256,108037,6,0,L|210:265,1,76.5000014591217,2|0,3:3|2:1,0:0:0:0:
261,317,108287,1,2,1:2:0:0:
261,317,108371,1,8,2:3:0:0:
338,152,108537,1,0,2:1:0:0:
338,152,108621,1,2,1:2:0:0:
338,152,108704,6,0,L|276:158,1,38.2500007295609,6|2,2:0|1:2,0:0:0:0:
194,66,108871,2,0,L|256:72,1,38.2500007295609,2|0,3:3|0:0,0:0:0:0:
400,88,109037,1,8,2:3:0:0:
416,109,109120,1,0,0:0:0:0:
425,134,109203,1,2,1:3:0:0:
426,160,109286,1,8,1:3:0:0:
419,186,109371,6,0,B|402:241|402:241|430:308,1,114.750002188683,6|2,3:3|1:2,0:0:0:0:
431,307,109704,1,10,1:3:0:0:
508,236,109871,1,2,1:3:0:0:
317,294,110037,2,0,L|220:276,1,76.5000014591217,6|2,1:2|3:3,0:0:0:0:
158,335,110371,1,10,1:3:0:0:
158,335,110537,1,2,1:3:0:0:
205,209,110704,5,2,3:2:0:0:
202,193,110787,1,2,2:2:0:0:
199,177,110871,2,0,L|191:139,1,38.2500007295609,2|2,2:3|2:2,0:0:0:0:
102,212,111037,2,0,L|109:174,1,38.2500007295609,8|2,2:3|2:2,0:0:0:0:
55,102,111204,1,2,3:3:0:0:
69,97,111287,1,2,2:2:0:0:
84,93,111371,1,2,2:0:0:0:
98,88,111454,1,2,2:2:0:0:
112,82,111537,2,0,L|176:59,1,38.2500007295609,8|2,2:3|2:2,0:0:0:0:
266,102,111704,1,2,3:3:0:0:
280,107,111787,2,0,L|316:119,1,38.2500007295609,2|2,2:2|3:3,0:0:0:0:
431,78,111954,1,8,2:3:0:0:
437,91,112037,6,0,P|437:143|418:190,1,76.5000014591217,2|2,3:3|1:3,0:0:0:0:
325,277,112371,1,10,1:3:0:0:
477,234,112537,1,2,1:3:0:0:
315,297,112704,1,6,1:2:0:0:
490,249,112871,2,0,L|482:290,1,38.2500007295609,2|0,3:3|0:0,0:0:0:0:
463,372,113037,1,10,1:3:0:0:
342,159,113371,5,2,3:2:0:0:
315,297,113537,1,2,2:3:0:0:
303,307,113621,1,2,2:2:0:0:
290,315,113704,2,0,P|258:325|226:324,1,38.2500007295609,8|2,2:3|2:2,0:0:0:0:
141,278,113871,2,0,P|160:281|177:288,1,38.2500007295609,2|8,3:3|2:3,0:0:0:0:
62,305,114037,1,6,2:0:0:0:
59,289,114121,1,2,2:2:0:0:
59,273,114204,2,0,P|65:248|89:212,1,38.2500007295609,2|2,3:3|2:2,0:0:0:0:
13,173,114371,2,0,P|34:159|77:151,1,38.2500007295609,2|2,3:3|2:2,0:0:0:0:
180,208,114537,2,0,P|162:200|146:190,1,38.2500007295609,8|2,2:3|3:3,0:0:0:0:
90,83,114704,6,0,P|150:70|210:88,1,114.750002188683,2|2,3:3|1:2,0:0:0:0:
214,90,115037,1,10,1:3:0:0:
355,53,115204,1,2,3:3:0:0:
273,171,115371,2,0,P|278:216|298:271,1,76.5000014591217,6|10,1:2|1:3,0:0:0:0:
293,259,115621,1,2,1:2:0:0:
300,272,115704,1,10,1:3:0:0:
401,190,115871,1,2,3:3:0:0:
450,307,116037,6,0,L|413:302,2,38.2500007295609,2|2|2,3:2|2:2|2:3,0:0:0:0:
317,357,116371,2,0,L|279:351,2,38.2500007295609,8|2|2,2:3|2:2|3:3,0:0:0:0:
205,271,116704,6,0,L|167:265,1,38.2500007295609,6|2,2:0|2:2,0:0:0:0:
70,319,116871,2,0,L|33:314,1,38.2500007295609,8|2,2:3|2:2,0:0:0:0:
85,223,117037,5,2,3:3:0:0:
83,207,117121,1,2,2:2:0:0:
82,192,117204,1,2,3:3:0:0:
81,177,117287,1,8,2:3:0:0:
80,161,117371,6,0,L|74:237,1,76.5000014591217,2|2,3:3|1:3,0:0:0:0:
178,96,117704,1,10,1:3:0:0:
46,68,117871,1,2,1:3:0:0:
46,68,117954,1,2,1:2:0:0:
46,68,118037,2,0,L|121:60,1,38.2500007295609,6|2,1:2|1:2,0:0:0:0:
187,108,118204,1,2,3:3:0:0:
273,77,118371,1,10,1:3:0:0:
357,111,118537,1,2,1:3:0:0:
439,69,118704,6,0,L|446:37,4,19.1250003647804,10|0|8|0|8,3:3|0:0|1:0|0:0|3:0,0:0:0:0:
430,149,118954,2,0,L|485:141,2,38.2500007295609,8|8|8,1:0|2:3|2:3,0:0:0:0:
365,194,119204,2,0,L|389:222,4,19.1250003647804,10|0|8|0|8,3:3|0:0|1:0|0:0|3:0,0:0:0:0:
291,162,119454,2,0,L|284:210,2,38.2500007295609,8|8|8,3:0|3:0|3:0,0:0:0:0:
273,77,119704,2,0,L|267:39,3,38.2500007295609,8|8|2|0,2:3|2:1|3:3|3:0,0:0:0:0:
265,23,120037,6,0,L|250:126,1,76.5000014591217,14|0,3:3|0:0,0:0:0:0:
233,204,120371,1,10,3:3:0:0:
233,204,120537,1,0,0:0:0:0:
135,158,120704,2,0,L|152:271,2,114.750002188683,2|0|0,0:3|0:0|0:0,0:0:0:0:
121,65,121371,5,2,0:3:0:0:
90,224,121704,1,2,3:3:0:0:
169,292,121871,1,0,0:0:0:0:
169,292,121954,1,0,0:0:0:0:
169,292,122037,2,0,B|245:304|245:256|343:272,1,153.000002918243,2|2,0:3|3:3,0:0:0:0:
195,209,122704,2,0,B|119:221|119:173|21:189,5,153.000002918243,2|2|2|2|2|2,0:3|3:3|0:3|3:3|0:3|3:3,0:0:0:0:
170,121,124537,5,0,0:0:0:0:
71,268,124704,1,2,0:3:0:0:
179,138,124871,1,0,0:0:0:0:
93,259,125037,2,0,L|221:284,1,114.750002188683,6|0,3:2|0:0,0:0:0:0:
230,298,125371,2,0,L|387:267,5,153.000002918243,0|2|2|2|2|2,0:0|3:3|0:3|3:3|0:3|3:3,0:0:0:0:
441,166,127204,5,2,0:3:0:0:
436,151,127287,1,2,0:3:0:0:
428,137,127371,2,0,P|376:117|308:127,1,114.750002188683,2|0,0:3|0:0,0:0:0:0:
366,192,127704,2,0,P|314:212|246:202,1,114.750002188683,2|0,3:3|0:0,0:0:0:0:
235,123,128037,2,0,P|193:152|195:269,3,153.000002918243,2|2|2|2,0:3|3:3|0:3|3:3,0:0:0:0:
382,333,129371,6,0,P|394:302|401:270,1,45,2|8,3:3|3:3,0:0:0:0:
271,301,129537,2,0,P|303:295|335:285,1,45,0|0,0:0|0:0,0:0:0:0:
244,185,129704,2,0,P|264:210|289:232,1,45,0|0,0:0|3:3,0:0:0:0:
331,105,129871,2,0,P|319:136|312:167,1,45,8|0,3:3|3:3,0:0:0:0:
442,142,130038,2,0,P|409:147|377:157,1,45,0|0,3:3|3:3,0:0:0:0:
478,259,130204,6,0,P|469:246|457:233,3,22.5,8|0|8|0,1:3|0:0|1:3|0:0,0:0:0:0:
450,232,130371,5,0,3:3:0:0:
418,228,130454,1,8,1:3:0:0:
387,236,130537,1,8,1:3:0:0:
362,256,130621,1,8,1:3:0:0:
347,283,130704,5,0,2:2:0:0:
300,181,130871,2,0,L|196:166,1,99.0000030212403,0|0,2:2|0:0,0:0:0:0:
121,269,131204,1,0,2:2:0:0:
121,269,131371,2,0,L|245:251,2,114.750002188683,0|0|0,2:2|2:2|2:2,0:0:0:0:
70,334,132037,6,0,B|11:278|47:196|112:188|112:188|43:167|56:96,1,296.99999093628,0|0,0:0|0:0,0:0:0:0:
61,98,133037,5,0,2:2:0:0:
184,39,133204,1,0,2:2:0:0:
112,188,133371,1,0,2:2:0:0:
303,149,133537,2,0,L|203:139,1,99.0000030212403,0|0,2:2|0:0,0:0:0:0:
245,232,133871,1,0,2:2:0:0:
245,232,134037,2,0,L|373:219,2,114.750002188683,0|0|0,2:2|2:2|2:2,0:0:0:0:
181,284,134704,6,0,B|219:181|219:181|86:194|86:194|121:247,1,296.99999093628,0|0,0:0|0:0,0:0:0:0:
110,316,135704,6,0,L|83:332,7,19.1250003647804,4|0|0|0|0|0|0|0,1:1|0:0|0:0|0:0|0:0|0:0|0:0|0:0,0:0:0:0:
39,270,136037,6,0,L|34:160,1,99.0000030212403,4|0,3:3|2:1,0:0:0:0:
250,47,136371,2,0,L|245:145,1,99.0000030212403,8|0,2:3|2:1,0:0:0:0:
181,202,136621,1,0,0:0:0:0:
181,202,136704,2,0,B|340:171,1,148.50000453186,6|0,2:0|0:0,0:0:0:0:
343,184,137037,1,8,2:3:0:0:
271,34,137204,1,0,2:0:0:0:
251,233,137371,2,0,P|261:286|279:334,1,99.0000030212403,2|2,3:2|2:3,0:0:0:0:
429,126,137704,2,0,P|445:79|454:30,1,99.0000030212403,8|2,2:3|2:3,0:0:0:0:
327,173,138037,5,6,2:0:0:0:
297,147,138120,1,0,0:0:0:0:
259,135,138203,1,2,3:3:0:0:
220,139,138287,1,2,2:2:0:0:
186,158,138370,1,8,2:3:0:0:
163,190,138453,1,2,2:2:0:0:
154,228,138537,1,2,2:0:0:0:
161,267,138620,1,8,2:3:0:0:
182,300,138704,6,0,P|142:250|138:188,1,99.0000030212403,0|0,3:3|2:1,0:0:0:0:
261,16,139037,1,8,2:3:0:0:
368,190,139204,2,0,L|375:130,1,49.5000015106202,0|0,2:1|0:0,0:0:0:0:
340,97,139371,2,0,L|356:244,1,148.50000453186,6|0,2:0|0:0,0:0:0:0:
359,264,139704,1,8,2:3:0:0:
356,78,139871,1,0,2:0:0:0:
240,163,140037,6,0,L|187:171,3,49.5000015106202,2|2|2|2,3:2|2:2|2:3|2:2,0:0:0:0:
125,108,140371,2,0,L|76:100,3,49.5000015106202,8|2|2|2,2:3|2:2|2:3|2:2,0:0:0:0:
8,158,140704,5,6,2:0:0:0:
11,197,140787,1,0,0:0:0:0:
15,236,140870,1,2,3:3:0:0:
19,276,140954,1,2,2:2:0:0:
26,315,141037,6,0,L|74:322,1,49.5000015106202,8|2,2:3|2:2,0:0:0:0:
217,211,141204,2,0,L|168:218,1,49.5000015106202,2|8,2:0|2:3,0:0:0:0:
98,345,141371,6,0,L|195:329,1,99.0000030212403,0|0,3:3|2:1,0:0:0:0:
406,197,141704,2,0,L|309:181,1,99.0000030212403,8|0,2:3|2:1,0:0:0:0:
267,104,141954,1,0,0:0:0:0:
252,117,142037,2,0,P|224:188|280:263,1,148.50000453186,6|0,2:0|0:0,0:0:0:0:
271,259,142371,1,8,2:3:0:0:
144,151,142537,1,0,2:0:0:0:
36,271,142704,6,0,B|23:323|23:323|19:379,1,99.0000030212403,2|2,3:2|2:3,0:0:0:0:
164,167,143037,1,8,2:3:0:0:
120,338,143204,2,0,B|220:345|220:345|306:282,1,198.000006042481,2|2,2:3|3:3,0:0:0:0:
99,320,143704,1,8,2:3:0:0:
144,151,143871,1,2,2:0:0:0:
144,151,143954,1,8,2:3:0:0:
144,151,144037,6,0,L|165:268,1,99.0000030212403,0|0,3:3|2:1,0:0:0:0:
303,51,144371,2,0,L|285:148,1,99.0000030212403,8|0,2:3|2:1,0:0:0:0:
324,222,144621,2,0,L|315:173,1,49.5000015106202,0|6,0:0|2:0,0:0:0:0:
309,29,144871,1,2,3:3:0:0:
289,33,144954,1,0,0:0:0:0:
269,37,145037,2,0,L|191:31,1,49.5000015106202,8|0,2:3|0:0,0:0:0:0:
111,70,145204,1,0,2:0:0:0:
237,206,145371,5,2,3:2:0:0:
191,188,145454,1,2,2:2:0:0:
142,194,145537,1,2,2:3:0:0:
102,222,145621,1,2,2:2:0:0:
79,265,145704,2,0,L|72:333,1,49.5000015106202,8|2,2:3|2:2,0:0:0:0:
181,293,145871,1,2,2:3:0:0:
38,103,146037,6,0,L|29:46,2,49.5000015106202,6|0|2,2:0|0:0|3:3,0:0:0:0:
181,293,146371,2,0,L|230:295,1,49.5000015106202,8|2,2:3|2:2,0:0:0:0:
336,115,146537,2,0,L|250:120,1,49.5000015106202,2|8,2:0|2:3,0:0:0:0:
315,331,146704,6,0,P|315:263|278:217,1,99.0000030212403,4|0,3:3|2:1,0:0:0:0:
452,58,147037,2,0,P|432:102|437:151,1,99.0000030212403,8|0,2:3|2:1,0:0:0:0:
503,216,147287,1,0,0:0:0:0:
503,216,147371,2,0,P|455:177|359:212,1,148.50000453186,6|0,2:0|0:0,0:0:0:0:
363,209,147704,1,8,2:3:0:0:
468,51,147871,1,0,2:0:0:0:
298,136,148037,6,0,L|163:109,1,99.0000030212403,2|2,3:2|2:3,0:0:0:0:
119,164,148287,1,2,2:2:0:0:
121,183,148371,1,8,2:3:0:0:
123,203,148454,1,2,2:2:0:0:
126,222,148537,2,0,L|132:288,1,49.5000015106202,2|2,2:3|2:2,0:0:0:0:
235,312,148704,2,0,L|221:162,1,148.50000453186,6|2,2:0|2:2,0:0:0:0:
211,74,149037,1,8,2:3:0:0:
247,58,149121,1,2,2:2:0:0:
286,51,149204,1,2,2:0:0:0:
325,52,149287,1,8,2:3:0:0:
364,61,149371,6,0,P|395:115|409:171,1,99.0000030212403,0|0,3:3|2:1,0:0:0:0:
370,358,149704,1,8,2:3:0:0:
463,227,149871,1,0,2:1:0:0:
295,303,150037,2,0,P|215:294|127:273,1,148.50000453186,6|0,2:0|0:0,0:0:0:0:
130,271,150371,1,8,2:3:0:0:
72,161,150537,1,0,2:0:0:0:
218,253,150704,2,0,B|238:208|238:208|224:161|224:161|255:84,1,148.50000453186,2|2,3:2|2:2,0:0:0:0:
253,97,151037,1,8,2:3:0:0:
295,303,151204,5,2,2:3:0:0:
323,330,151287,1,2,2:2:0:0:
359,345,151371,1,6,2:0:0:0:
398,347,151454,2,0,P|431:338|463:318,1,49.5000015106202,0|2,0:0|3:3,0:0:0:0:
507,203,151621,1,2,2:2:0:0:
507,203,151704,2,0,L|514:265,1,49.5000015106202,8|2,2:3|2:2,0:0:0:0:
347,152,151871,2,0,L|352:102,1,49.5000015106202,2|8,2:0|2:3,0:0:0:0:
385,236,152037,6,0,L|371:109,1,99.0000030212403,0|0,3:3|2:1,0:0:0:0:
283,360,152371,1,8,2:3:0:0:
181,270,152537,1,0,2:1:0:0:
176,250,152621,1,0,0:0:0:0:
171,230,152704,2,0,L|185:103,1,99.0000030212403,6|2,2:0|3:3,0:0:0:0:
110,55,152954,1,0,0:0:0:0:
112,76,153037,2,0,L|122:174,1,99.0000030212403,8|0,2:3|2:0,0:0:0:0:
25,328,153371,6,0,P|76:310|128:305,1,99.0000030212403,2|2,3:2|2:3,0:0:0:0:
217,327,153621,1,2,2:2:0:0:
233,338,153704,2,0,P|284:356|336:361,1,99.0000030212403,8|2,2:3|2:3,0:0:0:0:
424,335,153954,1,2,2:2:0:0:
435,318,154037,2,0,P|445:286|448:255,1,49.5000015106202,6|0,2:0|0:0,0:0:0:0:
319,247,154204,2,0,P|341:271|367:289,1,49.5000015106202,2|2,3:3|2:2,0:0:0:0:
440,184,154371,2,0,P|407:191|378:204,1,49.5000015106202,8|2,2:3|2:2,0:0:0:0:
246,139,154537,1,2,2:0:0:0:
284,147,154620,1,0,0:0:0:0:
319,166,154704,6,0,P|298:173|210:180,1,99.0000030212403,0|0,3:3|2:1,0:0:0:0:
32,278,155037,2,0,P|81:280|129:293,1,99.0000030212403,8|0,2:3|2:1,0:0:0:0:
206,350,155287,1,0,0:0:0:0:
206,350,155371,1,6,2:0:0:0:
120,190,155537,1,2,3:3:0:0:
120,190,155621,1,0,0:0:0:0:
120,190,155704,2,0,L|131:120,1,49.5000015106202,8|0,2:3|0:0,0:0:0:0:
256,63,155871,2,0,L|263:111,1,49.5000015106202,0|0,2:0|0:0,0:0:0:0:
220,205,156037,5,2,3:2:0:0:
268,214,156121,1,2,2:2:0:0:
315,200,156204,1,2,2:3:0:0:
349,165,156287,1,2,2:2:0:0:
364,119,156371,2,0,L|356:70,3,49.5000015106202,8|2|2|2,2:3|2:2|2:3|2:2,0:0:0:0:
264,112,156704,5,6,2:0:0:0:
206,102,156787,1,0,0:0:0:0:
152,126,156871,1,2,3:3:0:0:
121,175,156954,1,2,2:2:0:0:
121,234,157037,1,8,2:3:0:0:
154,282,157121,1,2,2:2:0:0:
208,305,157204,1,2,2:0:0:0:
266,294,157287,1,8,2:3:0:0:
308,254,157371,6,0,L|302:137,1,99.0000030212403,4|0,3:3|2:1,0:0:0:0:
157,27,157704,2,0,L|151:125,1,99.0000030212403,8|0,2:3|2:1,0:0:0:0:
218,194,157954,1,0,0:0:0:0:
218,194,158037,2,0,P|135:221|72:179,1,148.50000453186,6|0,2:0|0:0,0:0:0:0:
72,179,158370,1,8,2:3:0:0:
139,40,158537,1,0,2:0:0:0:
147,258,158704,2,0,P|100:283|43:272,1,99.0000030212403,2|2,3:2|2:3,0:0:0:0:
188,101,159037,2,0,P|237:98|280:122,1,99.0000030212403,8|2,2:3|2:3,0:0:0:0:
349,28,159371,5,6,2:0:0:0:
376,56,159454,1,0,0:0:0:0:
392,92,159537,1,2,3:3:0:0:
395,131,159621,1,2,2:2:0:0:
385,169,159704,1,8,2:3:0:0:
363,202,159787,1,2,2:2:0:0:
332,226,159871,1,2,2:0:0:0:
294,238,159954,1,8,2:3:0:0:
255,236,160037,6,0,L|198:215,2,49.5000015106202,0|0|0,3:3|0:0|2:1,0:0:0:0:
462,313,160370,1,0,0:0:0:0:
344,333,160537,2,0,L|339:270,1,49.5000015106202,0|0,2:1|0:0,0:0:0:0:
364,203,160704,2,0,L|376:51,1,148.50000453186,6|0,2:0|0:0,0:0:0:0:
378,35,161037,1,8,2:3:0:0:
383,218,161204,1,0,2:0:0:0:
285,95,161370,6,0,L|280:144,3,49.5000015106202,0|2|2|2,0:0|2:2|2:3|2:2,0:0:0:0:
195,177,161704,2,0,L|190:127,3,49.5000015106202,8|2|2|2,2:3|2:2|2:3|2:2,0:0:0:0:
109,89,162037,5,6,2:0:0:0:
105,128,162121,1,0,0:0:0:0:
101,167,162204,1,2,3:3:0:0:
97,207,162287,1,2,2:2:0:0:
93,246,162371,6,0,P|70:256|32:264,1,49.5000015106202,8|2,2:3|2:2,0:0:0:0:
195,177,162537,2,0,P|218:183|241:193,1,49.5000015106202,2|8,2:0|2:3,0:0:0:0:
212,362,162704,6,0,P|191:317|182:269,1,99.0000030212403,0|0,3:3|2:1,0:0:0:0:
403,332,163037,2,0,P|424:287|433:239,1,99.0000030212403,0|0,0:0|2:1,0:0:0:0:
370,163,163287,1,0,0:0:0:0:
370,163,163370,2,0,B|430:207|430:207|493:168,1,148.50000453186,0|0,0:0|0:0,0:0:0:0:
509,158,163704,1,8,2:3:0:0:
325,264,163870,1,0,0:0:0:0:
434,118,164037,6,0,B|421:19,1,99.0000030212403,0|2,0:0|2:3,0:0:0:0:
306,245,164370,1,0,0:0:0:0:
316,76,164537,2,0,B|179:54|179:54|221:105,1,198.000006042481,0|2,0:0|3:3,0:0:0:0:
421,19,165037,1,0,0:0:0:0:
347,170,165204,1,2,2:0:0:0:
347,170,165287,1,0,0:0:0:0:
347,170,165370,6,0,B|353:223|353:223|371:287,1,99.0000030212403,0|0,3:3|2:1,0:0:0:0:
177,328,165704,2,0,B|189:284|189:284|195:231,1,99.0000030212403,8|0,2:3|2:1,0:0:0:0:
163,157,165954,2,0,L|168:206,1,49.5000015106202,0|6,0:0|2:0,0:0:0:0:
288,344,166204,1,2,3:3:0:0:
306,338,166287,1,0,0:0:0:0:
324,331,166370,2,0,L|417:339,1,49.5000015106202,8|0,2:3|0:0,0:0:0:0:
483,295,166537,1,0,2:0:0:0:
308,229,166704,5,2,3:2:0:0:
301,179,166787,1,2,2:2:0:0:
295,130,166870,1,2,2:3:0:0:
289,81,166954,1,2,2:2:0:0:
283,32,167037,2,0,L|224:24,1,49.5000015106202,8|2,2:3|2:2,0:0:0:0:
105,7,167204,1,2,2:3:0:0:
216,174,167370,6,0,L|209:115,2,49.5000015106202,6|0|2,2:0|0:0|3:3,0:0:0:0:
34,322,167704,2,0,L|83:315,1,49.5000015106202,8|2,2:3|2:2,0:0:0:0:
278,343,167871,2,0,L|228:349,1,49.5000015106202,2|8,2:0|2:3,0:0:0:0:
6,303,168037,6,0,L|113:287,1,99.0000030212403,4|0,3:3|2:1,0:0:0:0:
345,326,168371,2,0,L|238:310,1,99.0000030212403,8|0,2:3|2:1,0:0:0:0:
306,245,168620,1,0,0:0:0:0:
306,245,168704,2,0,P|381:243|433:323,1,148.50000453186,6|0,2:0|0:0,0:0:0:0:
434,312,169037,1,8,2:3:0:0:
462,154,169204,1,0,2:0:0:0:
289,263,169371,6,0,L|273:157,1,99.0000030212403,2|2,3:2|2:3,0:0:0:0:
322,83,169621,1,2,2:2:0:0:
324,63,169704,1,8,2:3:0:0:
327,43,169787,1,2,2:2:0:0:
330,24,169871,2,0,L|388:16,1,49.5000015106202,2|2,2:3|2:2,0:0:0:0:
242,83,170037,2,0,L|95:60,1,148.50000453186,6|2,2:0|2:2,0:0:0:0:
40,5,170370,1,8,2:3:0:0:
20,39,170454,1,2,2:2:0:0:
18,78,170537,1,2,2:0:0:0:
36,112,170620,1,8,2:3:0:0:
68,135,170704,6,0,L|142:147,2,49.5000015106202,0|0|0,3:3|0:0|2:1,0:0:0:0:
95,219,171037,2,0,L|146:227,2,40.4999987640381,8|0|0,2:3|0:0|2:1,0:0:0:0:
119,300,171371,2,0,L|150:304,2,31.4999990386963,6|0|2,2:0|0:0|3:3,0:0:0:0:
230,247,171704,1,8,2:3:0:0:
73,218,171870,1,0,2:0:0:0:
258,146,172037,2,0,P|312:183|329:281,1,148.50000453186,2|2,3:2|2:2,0:0:0:0:
329,279,172370,1,8,2:3:0:0:
178,178,172537,5,2,2:3:0:0:
172,138,172620,1,2,2:2:0:0:
184,100,172704,1,6,2:0:0:0:
212,73,172787,2,0,L|290:49,1,49.5000015106202,0|2,0:0|3:3,0:0:0:0:
409,114,172954,1,2,2:2:0:0:
409,114,173037,2,0,P|416:85|416:59,1,49.5000015106202,8|2,2:3|2:2,0:0:0:0:
319,192,173204,2,0,P|320:216|326:240,1,49.5000015106202,2|8,2:0|2:3,0:0:0:0:
460,324,173370,6,0,P|411:324|356:355,1,99.0000030212403,0|0,3:3|2:1,0:0:0:0:
138,289,173704,1,8,2:3:0:0:
217,192,173870,1,0,2:1:0:0:
197,185,173954,1,0,0:0:0:0:
178,178,174037,2,0,L|68:188,1,99.0000030212403,6|2,2:0|3:3,0:0:0:0:
122,73,174287,1,0,0:0:0:0:
141,74,174371,2,0,L|251:84,1,99.0000030212403,8|0,2:3|2:0,0:0:0:0:
359,38,174704,6,0,P|366:85|391:156,1,99.0000030212403,2|2,3:2|2:3,0:0:0:0:
441,212,174954,1,2,2:2:0:0:
448,230,175037,2,0,P|441:277|416:348,1,99.0000030212403,8|2,2:3|2:3,0:0:0:0:
297,261,175287,1,2,2:2:0:0:
317,259,175370,2,0,P|348:260|385:266,1,49.5000015106202,6|0,2:0|0:0,0:0:0:0:
248,329,175537,2,0,P|231:355|207:384,1,49.5000015106202,2|2,3:3|2:2,0:0:0:0:
222,235,175704,2,0,P|207:207|194:172,1,49.5000015106202,8|2,2:3|2:2,0:0:0:0:
171,53,175871,1,2,2:0:0:0:
171,53,175954,1,8,2:3:0:0:
171,53,176037,6,0,L|162:124,2,49.5000015106202,0|0|0,3:3|0:0|2:1,0:0:0:0:
341,53,176371,2,0,L|350:124,2,49.5000015106202,8|0|0,2:3|0:0|2:1,0:0:0:0:
256,99,176621,1,0,0:0:0:0:
259,118,176704,2,0,L|263:167,1,49.5000015106202,6|0,2:0|0:0,0:0:0:0:
349,241,176870,1,2,3:3:0:0:
368,237,176954,1,0,0:0:0:0:
387,233,177037,2,0,L|477:216,1,49.5000015106202,8|0,2:3|0:0,0:0:0:0:
319,332,177204,2,0,L|229:315,1,49.5000015106202,0|0,2:0|0:0,0:0:0:0:
145,347,177371,5,2,3:2:0:0:
174,307,177454,1,2,2:2:0:0:
180,259,177537,1,2,2:3:0:0:
160,214,177621,1,2,2:2:0:0:
121,185,177704,2,0,L|51:179,3,49.5000015106202,8|0|0|0,2:3|0:0|2:1|0:0,0:0:0:0:
28,92,178037,5,6,2:0:0:0:
87,97,178121,1,2,1:2:0:0:
146,103,178204,1,2,3:3:0:0:
205,109,178287,1,2,1:2:0:0:
264,113,178371,5,8,2:3:0:0:
235,62,178454,1,0,0:0:0:0:
175,56,178537,1,2,1:3:0:0:
116,50,178621,1,8,1:3:0:0:
57,44,178704,6,0,B|86:97|86:97|211:110,1,153.000002918243,6|10,3:3|1:3,0:0:0:0:
384,47,179371,2,0,L|307:54,1,76.5000014591217,2|2,1:3|3:3,0:0:0:0:
266,137,179704,1,10,1:3:0:0:
456,239,180037,6,0,P|390:197|320:217,1,153.000002918243,2|10,3:3|1:3,0:0:0:0:
367,364,180704,2,0,L|378:289,1,76.5000014591217,2|2,1:3|3:3,0:0:0:0:
393,197,181037,1,10,1:3:0:0:
260,99,181204,2,0,L|266:137,1,38.2500007295609,2|8,1:3|1:3,0:0:0:0:
283,214,181371,5,2,3:3:0:0:
277,230,181537,1,2,3:3:0:0:
243,84,181704,1,10,1:3:0:0:
28,239,182037,2,0,L|138:231,1,76.5000014591217,2|2,1:3|3:3,0:0:0:0:
185,276,182371,1,10,1:3:0:0:
63,158,182704,6,0,P|78:73|112:10,1,153.000002918243,2|10,1:3|1:3,0:0:0:0:
305,81,183371,1,2,1:2:0:0:
290,84,183454,2,0,L|225:77,1,38.2500007295609,10|2,1:3|1:3,0:0:0:0:
353,175,183704,1,8,1:3:0:0:
408,91,183871,2,0,L|404:47,1,38.2500007295609,2|8,1:3|1:3,0:0:0:0:
462,3,184037,6,0,L|449:166,1,153.000002918243,2|10,1:3|1:3,0:0:0:0:
286,294,184704,2,0,P|331:275|371:268,1,76.5000014591217,2|2,1:3|3:3,0:0:0:0:
447,290,185037,1,10,1:3:0:0:
246,366,185371,6,0,P|205:301|244:224,1,153.000002918243,2|0,3:3|0:0,0:0:0:0:
54,357,186037,2,0,L|45:277,1,76.5000014591217,2|2,1:3|3:3,0:0:0:0:
34,189,186371,1,10,1:3:0:0:
149,234,186537,2,0,L|87:224,1,38.2500007295609,2|8,1:3|1:3,0:0:0:0:
34,189,186704,6,0,L|184:162,1,153.000002918243,2|10,3:3|1:3,0:0:0:0:
125,30,187204,2,0,L|116:83,1,38.2500007295609,2|2,1:3|1:2,0:0:0:0:
102,144,187371,1,2,1:3:0:0:
230,234,187537,1,2,3:3:0:0:
211,85,187704,1,10,1:3:0:0:
102,316,188037,6,0,P|186:309|263:366,1,153.000002918243,2|0,3:3|0:0,0:0:0:0:
210,218,188537,1,0,0:0:0:0:
343,280,188704,2,8,P|367:259|376:243,1,38.2500007295609,0|0,0:0|0:0,0:0:0:0:
403,174,188871,1,0,0:0:0:0:
221,155,189037,1,0,0:0:0:0:
224,181,189121,1,0,0:0:0:0:
227,208,189204,1,0,0:0:0:0:
230,234,189287,1,0,0:0:0:0:
233,261,189371,6,0,P|192:248|149:243,1,76.5000014591217,4|0,3:3|2:1,0:0:0:0:
61,267,189705,1,8,2:3:0:0:
250,284,189871,1,0,2:1:0:0:
139,162,190037,2,0,L|128:86,1,76.5000014591217,6|2,2:0|3:3,0:0:0:0:
191,24,190287,1,2,1:2:0:0:
204,31,190370,2,0,L|214:106,1,76.5000014591217,8|0,2:3|2:0,0:0:0:0:
139,162,190704,6,0,P|197:197|287:165,1,153.000002918243,2|8,3:3|2:3,0:0:0:0:
90,283,191371,2,0,P|52:263|20:261,1,76.5000014591217,6|2,2:0|3:3,0:0:0:0:
165,358,191704,1,8,2:3:0:0:
174,346,191787,1,0,0:0:0:0:
184,334,191871,2,0,P|200:323|222:314,1,38.2500007295609,2|8,1:3|1:3,0:0:0:0:
324,266,192037,6,0,P|286:262|253:244,1,76.5000014591217,2|2,3:3|3:3,0:0:0:0:
205,99,192371,1,10,2:3:0:0:
239,229,192537,1,2,1:3:0:0:
319,124,192704,2,0,L|414:115,1,76.5000014591217,2|2,1:3|3:3,0:0:0:0:
456,168,192954,1,2,1:2:0:0:
441,173,193037,2,0,L|346:164,1,76.5000014591217,10|2,1:3|1:3,0:0:0:0:
269,56,193371,6,0,L|441:40,1,153.000002918243,2|8,3:3|2:3,0:0:0:0:
308,223,194037,1,6,2:0:0:0:
308,223,194120,1,2,1:2:0:0:
308,223,194204,1,2,3:3:0:0:
253,80,194371,1,8,2:3:0:0:
197,183,194537,2,0,L|144:188,1,38.2500007295609,2|8,1:3|1:3,0:0:0:0:
57,181,194704,6,0,L|133:174,1,76.5000014591217,4|0,3:3|2:1,0:0:0:0:
333,206,195037,1,8,2:3:0:0:
194,294,195203,1,0,2:1:0:0:
199,308,195287,1,2,1:2:0:0:
205,321,195370,2,0,L|294:332,1,76.5000014591217,6|2,2:0|3:3,0:0:0:0:
358,290,195620,1,2,1:2:0:0:
369,279,195704,2,0,L|444:269,1,76.5000014591217,8|0,2:3|2:0,0:0:0:0:
281,330,196037,6,0,P|277:258|356:202,1,153.000002918243,2|8,3:3|2:3,0:0:0:0:
127,145,196703,1,6,2:0:0:0:
127,145,196871,1,2,3:3:0:0:
127,145,197037,1,8,2:3:0:0:
230,21,197203,1,2,1:3:0:0:
230,21,197286,1,8,1:3:0:0:
230,21,197370,6,0,L|221:97,1,76.5000014591217,2|2,3:3|3:3,0:0:0:0:
196,286,197703,1,10,1:3:0:0:
112,204,197870,2,0,L|150:199,1,38.2500007295609,2|2,1:3|1:2,0:0:0:0:
271,185,198037,1,6,2:0:0:0:
271,185,198203,1,2,3:3:0:0:
386,114,198371,5,10,1:3:0:0:
397,138,198454,1,0,0:0:0:0:
404,163,198537,1,2,1:3:0:0:
405,190,198621,1,2,1:2:0:0:
403,217,198704,6,0,P|387:256|344:300,1,76.5000014591217,2|0,3:3|2:1,0:0:0:0:
285,314,198953,1,2,1:2:0:0:
285,314,199037,1,8,2:3:0:0:
125,295,199203,1,0,2:1:0:0:
125,295,199287,1,2,1:2:0:0:
125,295,199370,6,0,P|115:264|113:225,1,38.2500007295609,6|2,2:0|1:2,0:0:0:0:
204,154,199537,2,0,P|199:172|192:190,1,38.2500007295609,2|2,3:3|1:2,0:0:0:0:
105,84,199703,1,8,2:3:0:0:
122,63,199787,1,0,0:0:0:0:
144,48,199871,1,2,1:3:0:0:
168,37,199954,1,8,1:3:0:0:
199,31,200037,6,0,P|146:32|109:60,1,90,4|0,3:3|2:1,0:0:0:0:
61,225,200371,1,8,2:3:0:0:
61,225,200537,1,0,2:1:0:0:
61,225,200704,2,0,L|157:222,1,90,6|2,2:0|3:3,0:0:0:0:
293,156,201037,2,0,L|197:153,1,90,8|0,2:3|2:0,0:0:0:0:
109,298,201371,6,0,L|170:296,2,45,2|2|2,3:2|2:2|2:3,0:0:0:0:
321,235,201704,1,8,2:3:0:0:
303,234,201787,1,2,2:2:0:0:
285,233,201871,1,2,2:3:0:0:
267,233,201954,1,2,2:2:0:0:
249,232,202037,1,6,2:0:0:0:
376,332,202204,5,2,3:3:0:0:
381,315,202287,1,2,2:2:0:0:
388,298,202371,2,0,L|409:223,1,45,8|2,2:3|2:2,0:0:0:0:
384,166,202537,2,0,L|396:122,1,45,2|8,2:0|2:3,0:0:0:0:
376,34,202704,6,0,P|338:55|271:69,1,90,2|2,3:2|3:3,0:0:0:0:
130,49,203037,1,8,2:3:0:0:
215,147,203204,1,0,2:0:0:0:
112,64,203371,2,0,L|100:159,1,90,6|2,2:0|3:3,0:0:0:0:
76,335,203704,1,8,2:3:0:0:
98,179,203871,1,0,2:0:0:0:
162,264,204037,5,10,3:2:0:0:
162,264,204121,1,2,2:2:0:0:
162,264,204204,2,0,L|119:268,4,22.5,2|0|2|0|8,2:3|0:0|2:2|0:0|2:3,0:0:0:0:
265,310,204537,5,2,2:3:0:0:
283,311,204621,1,2,2:2:0:0:
300,312,204704,2,0,L|371:299,1,45,6|8,2:0|2:3,0:0:0:0:
421,234,204871,1,2,3:3:0:0:
407,222,204954,1,2,2:2:0:0:
391,213,205037,2,0,P|360:204|320:204,1,45,8|2,2:3|2:2,0:0:0:0:
244,220,205204,1,2,3:3:0:0:
244,202,205287,1,8,2:3:0:0:
246,183,205371,6,0,P|262:143|325:105,1,90,2|2,3:2|2:3,0:0:0:0:
371,319,205704,1,8,2:3:0:0:
264,283,205871,1,2,2:3:0:0:
348,203,206037,2,0,B|442:192,1,90,6|2,2:0|3:3,0:0:0:0:
250,110,206371,1,8,2:3:0:0:
333,220,206537,1,2,2:3:0:0:
207,212,206704,5,2,3:2:0:0:
207,212,206815,2,0,L|177:215,2,30,0|2|0,0:0|2:3|0:0,0:0:0:0:
57,260,207037,1,8,2:3:0:0:
57,260,207149,2,0,L|87:263,2,30,0|2|0,0:0|2:3|0:0,0:0:0:0:
169,314,207371,5,6,2:0:0:0:
194,304,207454,1,2,2:2:0:0:
220,300,207537,1,2,3:3:0:0:
247,302,207621,1,2,2:2:0:0:
271,314,207704,2,0,P|311:321|349:308,1,45,8|2,2:3|2:2,0:0:0:0:
409,287,207871,1,2,3:3:0:0:
415,260,207954,1,0,3:0:0:0:
421,234,208037,6,0,L|429:196,8,22.5,10|0|8|0|8|0|8|0|8,3:3|0:0|1:0|0:0|3:0|0:0|1:0|0:0|2:3,0:0:0:0:
342,231,208454,1,8,2:3:0:0:
342,231,208537,2,0,L|320:237,8,22.5,10|0|8|0|8|0|8|0|8,3:3|0:0|1:0|0:0|3:0|0:0|3:0|0:0|3:0,0:0:0:0:
367,156,208954,1,8,3:0:0:0:
367,156,209037,2,0,L|359:118,4,22.5,8|8|8|0|2,2:3|2:1|2:1|0:0|3:3,0:0:0:0:
426,212,209287,5,0,3:0:0:0:
441,189,209371,1,10,3:3:0:0:
449,163,209454,1,2,2:2:0:0:
447,136,209537,1,2,2:3:0:0:
437,110,209621,1,2,2:2:0:0:
417,90,209704,2,0,L|350:81,1,45,8|2,2:3|2:2,0:0:0:0:
266,67,209871,1,2,2:3:0:0:
137,216,210037,1,10,2:3:0:0:
243,199,210204,1,0,3:0:0:0:
377,345,210371,2,0,L|320:336,5,30,8|0|0|2|0|0,2:3|0:0|0:0|2:3|0:0|0:0,0:0:0:0:
332,338,210704,6,0,L|256:350,1,76.5000014591217,2|2,0:3|2:0,0:0:0:0:
43,327,211204,2,0,L|194:303,1,153.000002918243,2|2,2:0|2:0,0:0:0:0:
260,239,211704,1,2,0:3:0:0:
265,224,211871,1,2,2:0:0:0:
271,210,212037,2,0,P|271:103|225:24,2,180,2|0|0,0:3|0:0|0:0,0:0:0:0:
60,133,213376,6,0,L|75:52,1,76.5000014591217,2|2,0:3|2:0,0:0:0:0:
77,42,213876,1,2,2:0:0:0:
113,210,214042,1,2,0:3:0:0:
161,63,214209,1,2,2:0:0:0:
200,189,214375,1,2,0:3:0:0:
248,84,214542,1,2,2:0:0:0:
284,168,214709,6,0,P|324:132|339:91,1,76.5000014591217,2|2,0:3|2:0,0:0:0:0:
338,97,215209,1,2,2:0:0:0:
339,81,215292,1,0,0:0:0:0:
337,65,215376,2,0,P|378:39|419:31,1,76.5000014591217,2|2,0:3|2:0,0:0:0:0:
475,158,215709,2,0,P|438:146|407:125,1,76.5000014591217,2|2,0:3|2:0,0:0:0:0:
238,159,216042,6,0,L|247:84,1,76.5000014591217,2|2,3:3|2:0,0:0:0:0:
82,125,216542,2,0,L|101:276,1,153.000002918243,2|2,2:0|2:0,0:0:0:0:
172,334,217042,1,2,0:3:0:0:
172,334,217209,1,2,2:0:0:0:
172,334,217376,2,0,B|248:356|291:302|373:328,2,180,2|0|0,0:3|0:0|0:0,0:0:0:0:
172,334,218715,6,0,B|248:356|291:302|373:328,1,180,2|2,0:3|0:3,0:0:0:0:
340,50,220048,2,0,B|281:29|238:83|162:61,1,180,2|2,0:3|0:3,0:0:0:0:
114,51,221375,2,0,P|158:122|133:225,1,180,2|2,0:3|0:3,0:0:0:0:
256,192,222000,12,0,225875,0:0:0:0:
