osu file format v14

[General]
AudioFilename: Yume Nikki mega mix.mp3
AudioLeadIn: 0
PreviewTime: 135996
Countdown: 0
SampleSet: Normal
StackLeniency: 0.4
Mode: 0
LetterboxInBreaks: 0
WidescreenStoryboard: 0

[Editor]
Bookmarks: 24037,66704,109371,130704,136037,178704
DistanceSpacing: 2
BeatDivisor: 4
GridSize: 4
TimelineZoom: 2.2

[Metadata]
Title:Kono Hoshi de....
TitleUnicode:この星で・・・。
Artist:Camellia
ArtistUnicode:かめりあ
Creator:Krimek
Version:Extreme
Source:ゆめにっき
Tags:yume nikki 夢日記 窓付き dream diary madotsuki 窓付き windowed megamix mega mix かめるかめりあ cametek kamelcamellia electronic instrumental video game Yauxo Arbane -Famous-
BeatmapID:1087789
BeatmapSetID:511759

[Difficulty]
HPDrainRate:6
CircleSize:4.2
OverallDifficulty:8.5
ApproachRate:9.5
SliderMultiplier:2
SliderTickRate:1

[Events]
//Background and Video events
0,0,"bg.jpg",0,0
//Break Periods
//Storyboard Layer 0 (Background)
//Storyboard Layer 1 (Fail)
//Storyboard Layer 2 (Pass)
//Storyboard Layer 3 (Foreground)
//Storyboard Layer 4 (Overlay)
//Storyboard Sound Samples

[TimingPoints]
38,333.333333333333,4,1,1,50,1,0
2704,-100,4,1,1,50,0,0
9704,-133.333333333333,4,1,1,50,0,0
10037,-200,4,1,1,50,0,0
10371,-100,4,1,1,50,0,0
10704,-100,4,1,1,50,0,0
20371,-133.333333333333,4,1,1,50,0,0
20704,-200,4,1,1,50,0,0
21037,-100,4,1,1,50,0,0
23204,-100,4,1,1,60,0,0
44037,-100,4,1,1,50,0,0
45037,-100,4,1,1,55,0,0
45371,-100,4,1,1,60,0,0
66704,-133.333333333333,4,1,1,50,0,0
120037,-200,4,1,1,50,0,0
129371,-133.333333333333,4,1,1,50,0,0
130704,-100,4,1,1,50,0,0
132037,-400,4,1,1,50,0,0
133037,-100,4,1,1,50,0,0
135704,-400,4,1,1,60,0,0
136037,-80,4,1,1,70,0,1
178704,-100,4,1,1,60,0,0
210704,-133.333333333333,4,1,1,50,0,0
212037,446.428571428571,4,1,1,50,1,0
213376,333.333333333333,4,1,1,50,1,0
213376,-133.333333333333,4,1,1,50,0,0
216042,-200,4,1,1,40,0,0
217376,446.428571428571,3,1,1,40,1,0
217376,-151.515151515152,3,1,1,40,0,0
218715,494.641384995878,3,1,1,40,1,0
218715,-133.333333333333,3,1,1,40,0,0
219085,-133.333333333333,3,1,1,5,0,0
219209,368.098159509202,3,1,1,40,1,8
219209,-151.515151515152,3,1,1,40,0,8
219485,-151.515151515152,3,1,1,5,0,8
219577,471.698113207547,3,1,1,40,1,8
219577,-200,3,1,1,40,0,8
220048,500,3,1,1,40,1,0
220048,-133.333333333333,3,1,1,40,0,0
220548,413.793103448276,3,1,1,40,1,8
221375,500,3,1,1,40,1,0
221750,-100,3,1,1,5,0,0
221875,-100,3,1,1,40,0,0
222875,-200,4,1,1,35,0,0
223375,-200,4,1,1,30,0,0
223875,-200,4,1,1,25,0,0
224375,-200,4,1,1,20,0,0
224875,-200,4,1,1,15,0,0
225375,-200,4,1,1,10,0,0
225875,-200,4,1,1,5,0,0

[Colours]
Combo1 : 111,106,111
Combo2 : 189,79,112
Combo3 : 136,85,111

[HitObjects]
188,123,2704,6,0,P|142:143|92:143,1,100,2|2,0:3|2:0,0:0:0:0:
64,124,2954,1,0,0:0:0:0:
36,104,3037,1,2,0:3:0:0:
224,48,3204,2,0,P|245:59|263:77,1,50,2|0,2:0|0:0,0:0:0:0:
348,132,3371,2,0,L|484:112,1,100,2|2,0:3|2:0,0:0:0:0:
384,196,3621,2,0,P|338:176|288:176,1,100,0|0,2:0|0:0,0:0:0:0:
200,224,3871,1,2,2:0:0:0:
400,272,4037,5,2,0:3:0:0:
424,268,4120,1,0,0:0:0:0:
112,272,4371,1,2,0:3:0:0:
92,268,4454,1,0,0:0:0:0:
412,352,4704,5,2,0:3:0:0:
426,349,4787,1,0,0:0:0:0:
100,352,5037,2,0,L|1:337,1,100,2|0,0:3|0:0,0:0:0:0:
188,304,5371,6,0,P|240:296|272:264,1,100,2|2,0:3|2:0,0:0:0:0:
280,228,5621,1,0,0:0:0:0:
288,192,5704,1,2,0:3:0:0:
68,200,5871,2,0,P|46:211|28:229,1,50,2|0,2:0|0:0,0:0:0:0:
200,220,6037,2,0,L|222:122,1,100,2|2,0:3|2:0,0:0:0:0:
288,192,6287,2,0,P|293:241|318:284,1,100,0|0,2:0|0:0,0:0:0:0:
400,340,6537,5,2,2:0:0:0:
414,308,6620,1,0,0:0:0:0:
417,273,6703,1,10,0:2:0:0:
408,240,6786,1,0,0:0:0:0:
388,211,6871,1,2,2:0:0:0:
367,182,6955,1,0,0:0:0:0:
358,148,7038,1,2,0:3:0:0:
361,114,7121,1,0,0:0:0:0:
376,82,7204,1,2,2:0:0:0:
342,88,7288,1,0,0:0:0:0:
308,94,7371,1,2,0:3:0:0:
100,81,7537,2,0,P|146:64|194:76,1,100,2|2,2:0|0:3,0:0:0:0:
367,182,7871,1,2,2:0:0:0:
188,304,8037,6,0,L|165:206,1,100,2|2,0:3|2:0,0:0:0:0:
157,171,8287,1,0,0:0:0:0:
149,137,8370,1,2,0:3:0:0:
320,44,8537,1,2,2:0:0:0:
312,80,8620,1,0,2:0:0:0:
302,112,8704,2,0,P|279:156|238:184,1,100,2|2,0:3|2:0,0:0:0:0:
336,204,8954,2,0,P|385:201|429:223,1,100,0|0,0:0|0:0,0:0:0:0:
496,300,9204,1,2,2:0:0:0:
300,316,9371,6,0,L|288:263,1,50,2|0,0:3|2:0,0:0:0:0:
200,320,9537,1,2,2:0:0:0:
200,320,9621,1,0,2:0:0:0:
200,320,9704,2,0,L|188:267,1,37.5000014305115,2|0,0:3|2:0,0:0:0:0:
100,324,9871,5,2,2:0:0:0:
100,324,9955,1,0,2:0:0:0:
100,324,10038,2,0,L|93:297,1,25,2|0,0:3|2:0,0:0:0:0:
0,336,10204,1,2,2:0:0:0:
0,336,10287,1,0,2:0:0:0:
0,336,10371,2,0,P|45:354|95:351,1,100,2|2,0:3|2:0,0:0:0:0:
200,320,10621,1,0,2:0:0:0:
296,292,10704,6,0,L|272:176,1,100,2|2,0:3|2:0,0:0:0:0:
416,64,11037,2,0,L|395:161,1,100,2|2,0:3|2:0,0:0:0:0:
372,260,11287,1,0,2:0:0:0:
372,260,11371,2,0,P|421:260|464:236,1,100,2|2,0:3|2:0,0:0:0:0:
394,161,11621,2,0,P|344:160|301:184,1,100,0|0,0:0|0:0,0:0:0:0:
240,264,11871,5,2,2:0:0:0:
214,287,11954,1,0,0:0:0:0:
182,301,12037,1,10,0:2:0:0:
147,303,12121,1,0,2:0:0:0:
113,295,12204,1,0,2:0:0:0:
84,276,12287,1,0,2:0:0:0:
76,241,12370,1,2,0:3:0:0:
80,207,12453,1,0,2:0:0:0:
95,175,12537,1,0,2:0:0:0:
119,150,12620,1,0,2:0:0:0:
150,134,12704,6,0,L|218:144,1,50,2|0,0:3|2:0,0:0:0:0:
84,276,12871,2,0,L|34:283,1,50,2|0,2:0|2:0,0:0:0:0:
172,232,13037,1,2,0:3:0:0:
180,255,13120,1,0,2:0:0:0:
183,280,13203,1,2,2:0:0:0:
180,304,13287,1,0,2:0:0:0:
171,327,13371,6,0,L|270:312,1,100,2|2,0:3|2:0,0:0:0:0:
288,284,13621,1,0,0:0:0:0:
308,256,13704,1,2,0:3:0:0:
484,356,13871,2,0,L|435:348,1,50,2|0,2:0|0:0,0:0:0:0:
336,344,14037,2,0,L|435:329,1,100,2|2,0:3|2:0,0:0:0:0:
504,256,14287,2,0,P|460:231|411:232,1,100,0|0,2:0|0:0,0:0:0:0:
308,256,14537,1,2,2:0:0:0:
112,112,14704,5,2,0:3:0:0:
88,116,14787,1,0,0:0:0:0:
400,112,15038,1,2,0:3:0:0:
420,116,15121,1,0,0:0:0:0:
100,32,15371,5,2,0:3:0:0:
85,34,15454,1,0,0:0:0:0:
412,32,15704,2,0,L|511:47,1,100,2|0,0:3|0:0,0:0:0:0:
364,187,16037,6,0,P|318:207|268:207,1,100,2|2,0:3|2:0,0:0:0:0:
240,188,16287,1,0,0:0:0:0:
212,168,16370,1,2,0:3:0:0:
400,112,16537,2,0,P|421:123|439:141,1,50,2|0,2:0|0:0,0:0:0:0:
448,240,16704,2,0,P|423:283|417:332,1,100,2|2,0:3|2:0,0:0:0:0:
329,377,16954,2,0,P|303:335|263:305,1,100,0|0,2:0|0:0,0:0:0:0:
162,300,17204,5,2,2:0:0:0:
196,301,17287,1,0,0:0:0:0:
228,289,17370,1,10,0:2:0:0:
250,262,17453,1,0,0:0:0:0:
261,230,17537,1,2,2:0:0:0:
256,196,17621,1,0,0:0:0:0:
251,162,17704,1,2,0:3:0:0:
262,130,17788,1,0,0:0:0:0:
284,103,17871,1,2,2:0:0:0:
316,91,17954,1,0,0:0:0:0:
350,92,18037,1,2,0:3:0:0:
180,220,18204,2,0,L|81:205,1,100,2|2,2:0|0:3,0:0:0:0:
328,168,18537,1,2,2:0:0:0:
228,368,18704,6,0,L|129:353,1,100,2|2,0:3|2:0,0:0:0:0:
116,320,18954,1,0,0:0:0:0:
104,288,19037,1,2,0:3:0:0:
256,152,19204,1,2,2:0:0:0:
268,184,19287,1,0,2:0:0:0:
281,217,19371,2,0,P|316:232|380:232,1,100,2|2,0:3|2:0,0:0:0:0:
476,220,19621,2,0,P|441:205|377:205,1,100,0|0,0:0|0:0,0:0:0:0:
480,192,19871,1,2,2:0:0:0:
300,68,20037,6,0,L|288:121,1,50,2|0,0:3|2:0,0:0:0:0:
200,64,20204,1,2,2:0:0:0:
200,64,20287,1,0,2:0:0:0:
200,64,20371,2,0,L|188:117,1,37.5000014305115,2|0,0:3|2:0,0:0:0:0:
100,60,20537,5,2,2:0:0:0:
100,60,20621,1,0,2:0:0:0:
100,60,20704,2,0,L|93:87,1,25,2|0,0:3|2:0,0:0:0:0:
0,48,20870,1,2,2:0:0:0:
0,48,20953,1,0,2:0:0:0:
0,48,21037,2,0,P|64:48|96:32,1,100,2|2,0:3|2:0,0:0:0:0:
200,64,21287,1,0,2:0:0:0:
300,68,21370,5,10,0:2:0:0:
292,102,21453,1,0,0:0:0:0:
285,136,21537,1,2,2:0:0:0:
277,170,21620,1,0,0:0:0:0:
200,232,21704,2,0,L|224:348,1,100,2|2,0:3|2:0,0:0:0:0:
296,268,21954,1,0,2:0:0:0:
296,268,22037,2,0,P|344:240|412:244,1,100,2|2,0:3|2:0,0:0:0:0:
296,360,22287,1,0,0:0:0:0:
261,355,22371,2,0,P|238:344|219:329,1,50,2|0,0:3|0:0,0:0:0:0:
124,300,22537,2,0,P|115:276|112:251,1,50,2|0,2:0|0:0,0:0:0:0:
95,32,22704,6,0,P|119:128|40:148,1,200,6|6,0:2|0:2,0:0:0:0:
232,92,23204,1,0,3:0:0:0:
256,88,23287,1,0,3:0:0:0:
281,84,23371,1,8,3:3:0:0:
306,107,23454,1,8,3:3:0:0:
337,123,23537,1,0,3:0:0:0:
372,128,23621,1,8,3:3:0:0:
406,126,23704,1,8,3:3:0:0:
439,115,23787,1,8,3:3:0:0:
467,95,23870,1,8,3:3:0:0:
488,67,23954,1,8,3:3:0:0:
495,32,24037,6,0,P|504:56|506:80,1,50,4|0,3:3|0:0,0:0:0:0:
376,285,24204,2,0,P|384:261|387:237,1,50,0|0,2:1|0:0,0:0:0:0:
380,0,24371,1,8,2:3:0:0:
491,317,24537,1,0,2:1:0:0:
272,204,24704,2,0,L|151:224,1,100,6|2,2:0|3:3,0:0:0:0:
280,84,24954,1,0,0:0:0:0:
329,92,25037,2,0,L|379:100,1,50,8|0,2:3|0:0,0:0:0:0:
486,203,25204,2,0,L|424:212,1,50,0|0,2:0|0:0,0:0:0:0:
281,324,25371,5,2,3:2:0:0:
316,329,25454,1,2,2:2:0:0:
351,335,25537,2,0,L|373:323,2,25,2|0|2,2:3|0:0|2:2,0:0:0:0:
173,220,25704,1,8,2:3:0:0:
144,241,25787,1,2,2:2:0:0:
115,261,25871,2,0,P|107:285|105:309,1,50,2|2,2:3|2:2,0:0:0:0:
309,209,26037,2,0,L|288:112,1,100,6|2,2:0|3:3,0:0:0:0:
256,16,26287,1,2,2:2:0:0:
227,36,26371,2,0,L|216:86,1,50,8|2,2:3|2:2,0:0:0:0:
380,236,26537,2,0,L|390:187,1,50,2|8,2:0|2:3,0:0:0:0:
350,72,26704,6,0,P|360:94|377:114,1,50,2|0,3:2|0:0,0:0:0:0:
435,335,26871,2,0,P|415:319|392:308,1,50,2|0,3:3|0:0,0:0:0:0:
191,319,27037,1,8,2:3:0:0:
460,256,27204,1,0,2:0:0:0:
215,239,27371,2,0,P|166:240|126:269,1,100,6|2,2:0|3:3,0:0:0:0:
11,144,27621,1,0,2:0:0:0:
52,173,27704,2,0,P|76:176|101:175,1,50,8|0,2:3|0:0,0:0:0:0:
256,100,27871,1,0,2:0:0:0:
460,256,28037,5,10,3:2:0:0:
454,280,28120,1,2,2:2:0:0:
449,304,28203,1,2,2:3:0:0:
444,329,28286,1,2,2:2:0:0:
438,353,28371,2,0,B|420:324|420:324|432:252,1,100,8|2,2:3|2:3,0:0:0:0:
440,160,28621,1,2,2:2:0:0:
432,125,28704,1,6,2:0:0:0:
425,90,28787,2,0,P|416:67|401:45,1,50,8|2,2:3|3:3,0:0:0:0:
167,23,28954,1,2,2:2:0:0:
176,56,29037,2,0,P|194:71|218:82,1,50,8|2,2:3|2:2,0:0:0:0:
352,204,29204,2,0,P|327:206|303:215,1,50,2|8,3:3|2:3,0:0:0:0:
214,327,29371,6,0,P|189:324|165:315,1,50,2|0,3:2|0:0,0:0:0:0:
16,144,29537,2,0,P|40:146|64:155,1,50,2|0,2:3|0:0,0:0:0:0:
212,232,29704,1,8,2:3:0:0:
28,380,29871,1,2,2:3:0:0:
36,345,29954,1,0,2:0:0:0:
43,310,30037,2,0,P|67:266|108:240,1,100,6|2,2:0|3:3,0:0:0:0:
305,254,30287,1,0,2:0:0:0:
255,253,30371,2,0,P|231:245|211:231,1,50,8|0,2:3|0:0,0:0:0:0:
125,54,30537,2,0,P|141:74|151:97,1,50,2|0,2:3|0:0,0:0:0:0:
165,280,30704,5,2,3:2:0:0:
165,315,30787,1,2,2:2:0:0:
166,350,30870,2,0,L|181:369,2,25,2|0|2,2:3|0:0|2:2,0:0:0:0:
305,254,31037,1,8,2:3:0:0:
322,284,31120,1,2,2:2:0:0:
340,314,31203,2,0,P|364:330|394:337,1,50,2|2,2:3|2:2,0:0:0:0:
412,160,31371,1,6,2:0:0:0:
441,177,31454,1,2,2:2:0:0:
472,194,31537,2,0,P|488:174|498:151,1,50,2|2,3:3|2:2,0:0:0:0:
328,172,31704,2,0,P|280:172|232:208,1,100,8|2,2:3|3:3,0:0:0:0:
457,25,31954,1,0,3:0:0:0:
422,25,32037,6,0,P|406:45|396:68,1,50,2|0,3:2|0:0,0:0:0:0:
330,296,32204,2,0,P|319:273|304:253,1,50,2|0,2:3|0:0,0:0:0:0:
142,81,32371,1,8,2:3:0:0:
412,160,32537,1,2,2:3:0:0:
444,151,32620,1,8,2:3:0:0:
478,142,32704,2,0,P|483:153|488:164,2,25,6|0|0,3:2|0:0|0:0,0:0:0:0:
468,272,32871,2,0,P|465:296|455:319,1,50,2|0,3:3|2:0,0:0:0:0:
396,67,33037,2,0,P|400:55|404:43,2,25,8|2|2,2:3|2:2|2:2,0:0:0:0:
372,270,33204,2,0,P|352:285|329:294,1,50,2|0,2:3|2:0,0:0:0:0:
237,200,33371,5,10,3:2:0:0:
243,176,33454,1,2,2:2:0:0:
248,152,33537,1,2,2:3:0:0:
253,127,33620,1,2,2:2:0:0:
259,103,33705,2,0,P|296:152|316:199,1,100,8|2,2:3|2:3,0:0:0:0:
336,330,33954,1,2,2:2:0:0:
354,300,34037,1,6,2:2:0:0:
372,270,34121,2,0,P|391:254|414:245,1,50,8|0,2:3|3:0,0:0:0:0:
512,134,34287,1,2,2:2:0:0:
478,142,34371,2,0,P|453:139|430:129,1,50,8|2,2:3|1:2,0:0:0:0:
311,186,34537,5,2,2:3:0:0:
252,132,34621,5,2,1:2:0:0:
269,54,34704,6,0,P|244:52|220:58,1,50,6|0,3:3|0:0,0:0:0:0:
15,150,34871,2,0,P|39:156|63:154,1,50,2|0,2:3|0:0,0:0:0:0:
324,104,35037,1,8,2:3:0:0:
48,80,35204,1,0,3:0:0:0:
166,332,35371,2,0,P|181:283|189:228,1,100,6|0,2:2|3:0,0:0:0:0:
220,57,35621,2,0,P|227:106|242:153,1,100,8|0,2:3|3:0,0:0:0:0:
274,331,35871,2,0,P|282:308|285:283,1,50,8|0,2:3|3:0,0:0:0:0:
324,104,36037,5,6,3:2:0:0:
328,138,36120,1,2,2:2:0:0:
336,172,36204,2,0,L|360:178,2,25,2|2|2,2:3|2:2|2:2,0:0:0:0:
468,260,36371,1,8,2:3:0:0:
464,294,36454,1,2,2:2:0:0:
456,328,36537,2,0,P|431:334|407:331,1,50,2|2,2:3|2:2,0:0:0:0:
274,331,36704,2,0,P|284:280|328:228,1,100,6|2,2:0|3:3,0:0:0:0:
200,257,36954,1,2,2:2:0:0:
170,275,37037,2,0,P|148:262|132:243,1,50,8|2,2:3|2:2,0:0:0:0:
225,106,37204,2,0,P|236:128|242:153,1,50,10|8,2:3|2:3,0:0:0:0:
32,76,37371,6,0,P|37:51|48:29,1,50,2|0,3:2|0:0,0:0:0:0:
56,244,37537,2,0,P|61:268|72:290,1,50,2|0,3:3|0:0,0:0:0:0:
136,64,37704,1,8,2:3:0:0:
170,275,37871,1,2,2:3:0:0:
240,52,38037,2,0,P|286:31|358:39,1,100,6|2,2:0|3:3,0:0:0:0:
410,188,38287,1,0,2:0:0:0:
364,167,38371,2,0,P|339:165|314:168,1,50,8|0,2:3|0:0,0:0:0:0:
284,306,38537,1,2,2:3:0:0:
496,184,38704,5,10,3:2:0:0:
490,160,38787,1,2,2:2:0:0:
485,136,38870,1,2,2:3:0:0:
480,111,38953,1,2,2:2:0:0:
474,84,39037,2,0,P|428:105|356:97,1,100,8|2,2:3|2:3,0:0:0:0:
329,238,39287,1,2,2:2:0:0:
321,203,39370,1,6,2:0:0:0:
314,168,39454,2,0,P|301:146|285:127,1,50,8|2,2:3|3:3,0:0:0:0:
234,258,39621,1,2,2:2:0:0:
211,232,39704,2,0,P|189:219|165:211,1,50,8|2,2:3|2:2,0:0:0:0:
146,288,39871,5,2,3:3:0:0:
87,234,39955,5,0,0:0:0:0:
112,156,40037,6,0,P|134:143|158:135,1,50,2|0,3:2|0:0,0:0:0:0:
317,56,40204,2,0,P|292:51|268:52,1,50,2|0,2:3|0:0,0:0:0:0:
58,100,40371,1,8,2:3:0:0:
285,127,40537,1,2,2:3:0:0:
320,131,40620,1,0,2:0:0:0:
351,136,40704,2,0,P|391:106|401:58,1,100,6|2,2:0|3:3,0:0:0:0:
414,216,40954,1,0,0:0:0:0:
419,264,41037,2,0,P|434:284|455:297,1,50,8|0,2:3|0:0,0:0:0:0:
314,230,41204,2,0,P|292:216|268:210,1,50,2|0,2:3|0:0,0:0:0:0:
86,202,41371,5,2,3:2:0:0:
51,198,41454,1,2,2:2:0:0:
20,193,41537,2,0,L|28:220,2,25,2|0|2,2:3|0:0|2:2,0:0:0:0:
219,136,41704,1,8,2:3:0:0:
254,132,41787,1,0,0:0:0:0:
285,127,41870,2,0,L|268:184,1,50,2|2,2:3|2:2,0:0:0:0:
138,337,42037,1,6,2:0:0:0:
103,341,42120,1,2,2:2:0:0:
72,346,42203,2,0,L|89:289,1,50,2|2,3:3|2:2,0:0:0:0:
248,256,42371,2,0,P|296:256|344:220,1,100,8|2,2:3|3:3,0:0:0:0:
208,68,42621,1,0,3:0:0:0:
172,72,42704,6,0,P|156:91|147:115,1,50,2|0,3:2|0:0,0:0:0:0:
208,328,42871,2,0,P|199:304|184:285,1,50,0|0,2:0|0:0,0:0:0:0:
23,230,43037,1,8,2:3:0:0:
270,174,43204,1,2,3:2:0:0:
305,170,43287,1,8,2:3:0:0:
336,165,43371,2,0,L|344:137,2,25,6|0|0,3:2|0:0|0:0,0:0:0:0:
426,264,43537,2,0,P|439:285|457:303,1,50,2|0,3:2|0:0,0:0:0:0:
364,68,43704,2,0,L|372:40,2,25,8|0|0,2:3|0:0|0:0,0:0:0:0:
454,167,43871,2,0,P|478:172|503:172,1,50,2|0,2:2|0:0,0:0:0:0:
284,80,44037,5,0,3:3:0:0:
249,84,44120,1,0,3:3:0:0:
214,88,44204,2,0,L|200:131,2,33.3333333333333,0|0|0,3:3|0:0|0:0,0:0:0:0:
160,40,44371,5,8,1:3:0:0:
135,35,44454,1,8,1:3:0:0:
110,36,44537,1,8,1:3:0:0:
86,44,44621,1,8,1:3:0:0:
66,57,44704,1,8,3:3:0:0:
49,76,44787,1,8,3:3:0:0:
36,98,44871,2,0,L|50:141,2,33.3333333333333,10|0|0,3:3|0:0|0:0,0:0:0:0:
132,136,45037,5,8,3:1:0:0:
132,195,45120,1,8,3:1:0:0:
116,253,45203,1,8,3:1:0:0:
85,304,45287,1,8,3:1:0:0:
41,344,45371,6,0,P|62:355|87:362,1,50,4|0,3:3|0:0,0:0:0:0:
256,332,45537,1,0,2:1:0:0:
248,296,45621,1,0,0:0:0:0:
240,260,45704,2,0,P|218:248|193:241,1,50,8|0,2:3|0:0,0:0:0:0:
16,264,45871,1,0,2:1:0:0:
330,265,46037,2,0,P|344:217|347:167,1,100,6|2,2:0|3:3,0:0:0:0:
249,84,46287,1,0,0:0:0:0:
214,88,46371,2,0,P|216:137|231:185,1,100,8|0,2:3|2:0,0:0:0:0:
464,160,46704,5,2,3:2:0:0:
472,124,46788,1,2,2:2:0:0:
480,88,46871,2,0,L|458:76,2,25,2|0|2,2:3|0:0|2:2,0:0:0:0:
293,118,47037,1,8,2:3:0:0:
320,142,47121,1,2,2:2:0:0:
347,167,47204,2,0,P|368:153|386:135,1,50,2|2,2:3|2:2,0:0:0:0:
412,268,47371,2,0,P|414:317|429:365,1,100,6|2,2:0|3:3,0:0:0:0:
316,300,47621,1,2,2:2:0:0:
292,276,47704,2,0,P|270:264|245:257,1,50,8|2,2:3|2:2,0:0:0:0:
102,309,47871,2,0,P|79:321|56:328,1,50,2|8,2:0|2:3,0:0:0:0:
189,194,48037,6,0,P|212:182|236:176,1,50,2|0,3:2|0:0,0:0:0:0:
45,247,48204,2,0,P|22:240|0:228,1,50,2|0,3:3|0:0,0:0:0:0:
347,167,48371,1,8,2:3:0:0:
0,114,48537,1,0,2:0:0:0:
235,60,48704,2,0,P|201:96|159:123,1,100,6|2,2:0|3:3,0:0:0:0:
309,134,48954,1,0,2:0:0:0:
347,167,49037,2,0,P|370:176|394:182,1,50,8|0,2:3|0:0,0:0:0:0:
463,32,49204,2,0,P|438:37|415:47,1,50,0|0,2:0|0:0,0:0:0:0:
460,241,49371,5,10,3:2:0:0:
478,212,49454,1,2,2:2:0:0:
483,177,49537,1,2,2:3:0:0:
477,142,49621,1,2,2:2:0:0:
457,114,49704,2,0,P|414:137|393:182,1,100,8|2,2:3|2:3,0:0:0:0:
384,304,49954,1,2,2:2:0:0:
411,329,50037,2,0,P|434:338|458:344,1,50,6|8,2:0|2:3,0:0:0:0:
284,235,50204,1,2,3:3:0:0:
263,200,50287,1,2,2:2:0:0:
236,175,50370,2,0,P|212:165|188:159,1,50,8|2,2:3|2:2,0:0:0:0:
0,114,50537,2,0,P|24:108|47:98,1,50,2|8,3:3|2:3,0:0:0:0:
170,7,50704,6,0,L|173:56,1,50,2|0,3:2|0:0,0:0:0:0:
92,192,50871,1,2,2:3:0:0:
92,192,50954,1,0,0:0:0:0:
92,192,51037,2,0,L|88:241,1,50,8|0,2:3|0:0,0:0:0:0:
170,377,51204,2,0,L|166:328,1,50,2|0,2:3|2:0,0:0:0:0:
164,144,51371,2,0,P|119:110|70:105,1,100,6|2,2:0|3:3,0:0:0:0:
2,241,51621,1,0,2:0:0:0:
15,289,51704,2,0,P|59:322|108:327,1,100,8|2,2:3|2:3,0:0:0:0:
320,142,52037,5,2,3:2:0:0:
346,119,52120,1,2,2:2:0:0:
371,96,52204,2,0,P|394:87|419:86,1,50,2|2,2:3|2:2,0:0:0:0:
512,216,52371,1,8,2:3:0:0:
485,193,52454,1,2,2:2:0:0:
461,170,52538,2,0,P|437:161|412:160,1,50,2|2,2:3|2:2,0:0:0:0:
320,290,52704,1,6,2:0:0:0:
347,267,52787,1,2,2:2:0:0:
371,244,52871,2,0,P|394:235|419:234,1,50,2|2,3:3|2:2,0:0:0:0:
512,364,53037,2,0,P|488:355|463:354,1,50,8|2,2:3|2:2,0:0:0:0:
320,384,53204,2,0,P|295:382|271:374,1,50,2|0,3:3|3:0,0:0:0:0:
87,241,53371,6,0,P|78:216|76:184,1,50,2|0,3:2|0:0,0:0:0:0:
173,56,53537,2,0,P|170:80|161:104,1,50,2|0,2:3|0:0,0:0:0:0:
0,114,53704,2,0,B|52:104|52:104|93:125,1,100,8|2,2:3|2:3,0:0:0:0:
221,239,53954,1,8,2:3:0:0:
253,255,54037,2,0,L|275:266,2,25,6|0|0,3:2|0:0|0:0,0:0:0:0:
371,244,54204,2,0,P|394:235|419:234,1,50,2|0,3:3|2:0,0:0:0:0:
433,330,54371,2,0,L|411:319,2,25,8|2|2,2:3|2:2|2:2,0:0:0:0:
316,342,54538,2,0,P|292:351|268:352,1,50,2|0,2:3|2:0,0:0:0:0:
138,287,54704,5,10,3:2:0:0:
142,262,54787,1,2,2:2:0:0:
147,237,54870,1,2,2:3:0:0:
151,213,54954,1,2,2:2:0:0:
156,188,55037,2,0,P|139:201|108:212,1,50,8|2,2:3|2:2,0:0:0:0:
20,100,55204,1,2,2:3:0:0:
54,107,55287,1,2,2:2:0:0:
88,114,55371,5,10,2:3:0:0:
140,87,55454,1,8,2:3:0:0:
199,95,55537,1,0,3:0:0:0:
242,135,55621,1,2,2:2:0:0:
255,193,55704,1,8,2:3:0:0:
269,250,55787,1,2,1:2:0:0:
312,290,55871,1,2,2:3:0:0:
371,299,55954,1,2,1:2:0:0:
423,272,56037,6,0,P|438:250|448:219,1,50,6|0,3:3|0:0,0:0:0:0:
460,52,56204,2,0,P|433:49|402:56,1,50,2|0,2:3|0:0,0:0:0:0:
352,200,56371,1,8,2:3:0:0:
112,211,56537,2,0,P|129:198|160:187,1,50,0|0,3:0|0:0,0:0:0:0:
371,299,56704,2,0,P|320:296|276:264,1,100,6|0,2:2|3:0,0:0:0:0:
405,199,56954,1,8,2:3:0:0:
446,228,57037,2,0,P|468:273|463:327,1,100,0|8,3:0|2:3,0:0:0:0:
272,180,57371,5,2,3:2:0:0:
288,148,57454,1,2,2:2:0:0:
315,126,57538,2,0,L|340:120,2,25,2|2|2,2:3|2:2|2:2,0:0:0:0:
164,113,57704,1,8,2:3:0:0:
140,87,57787,1,2,2:2:0:0:
107,70,57871,2,0,P|83:66|58:70,1,50,2|2,2:3|2:2,0:0:0:0:
69,270,58037,2,0,P|124:264|168:244,1,100,6|2,2:0|3:3,0:0:0:0:
295,333,58287,1,2,2:2:0:0:
267,308,58371,2,0,P|244:297|219:295,1,50,8|2,2:3|2:2,0:0:0:0:
398,240,58537,2,0,P|422:237|445:227,1,50,10|8,2:3|2:3,0:0:0:0:
411,77,58704,6,0,L|408:28,1,50,2|0,3:2|0:0,0:0:0:0:
330,213,58871,1,2,3:3:0:0:
330,213,58954,1,0,0:0:0:0:
330,213,59037,2,0,L|326:262,1,50,8|0,2:3|0:0,0:0:0:0:
468,371,59204,2,0,P|468:344|464:322,1,50,2|0,2:3|0:0,0:0:0:0:
469,131,59371,2,0,P|448:176|445:226,1,100,6|2,2:0|3:3,0:0:0:0:
368,328,59621,1,0,2:0:0:0:
349,356,59704,2,0,P|346:306|325:262,1,100,8|2,2:3|2:3,0:0:0:0:
168,192,60037,5,10,3:2:0:0:
157,224,60120,1,2,2:2:0:0:
161,258,60203,1,2,2:3:0:0:
176,291,60287,1,2,2:2:0:0:
203,312,60370,2,0,P|238:278|247:229,1,100,8|2,2:3|2:3,0:0:0:0:
204,92,60621,1,2,2:2:0:0:
212,125,60704,2,0,P|189:114|164:110,1,50,6|8,2:0|2:3,0:0:0:0:
320,148,60871,1,2,3:3:0:0:
328,181,60954,1,2,2:2:0:0:
336,214,61037,2,0,P|358:224|383:228,1,50,8|2,2:3|2:2,0:0:0:0:
474,78,61204,5,2,3:3:0:0:
415,24,61288,5,8,2:3:0:0:
336,28,61371,6,0,P|321:48|313:71,1,50,2|0,3:2|0:0,0:0:0:0:
156,90,61537,2,0,P|159:114|170:136,1,50,2|0,2:3|0:0,0:0:0:0:
344,55,61704,2,0,P|320:98|319:147,1,100,8|2,2:3|2:3,0:0:0:0:
204,116,61954,1,0,2:0:0:0:
180,102,62037,2,0,P|183:126|194:148,1,50,6|0,2:0|0:0,0:0:0:0:
234,299,62204,2,0,P|248:279|257:256,1,50,2|0,3:3|0:0,0:0:0:0:
103,172,62371,2,0,P|129:214|172:240,1,100,8|2,2:3|2:3,0:0:0:0:
348,232,62704,5,2,3:2:0:0:
322,209,62787,1,2,2:2:0:0:
297,186,62871,2,0,P|274:177|249:176,1,50,2|2,2:3|2:2,0:0:0:0:
408,120,63037,1,8,2:3:0:0:
440,108,63120,1,0,0:0:0:0:
473,98,63204,2,0,P|492:82|505:61,1,50,2|2,2:3|2:2,0:0:0:0:
474,227,63371,1,6,2:0:0:0:
469,261,63454,1,2,2:2:0:0:
461,295,63538,2,0,P|464:319|476:341,1,50,2|2,3:3|2:2,0:0:0:0:
332,278,63704,2,0,P|343:255|347:231,1,50,8|2,2:3|2:2,0:0:0:0:
216,96,63871,1,2,3:3:0:0:
210,133,63954,1,0,3:0:0:0:
202,167,64038,6,0,P|205:191|217:213,1,50,2|0,3:2|0:0,0:0:0:0:
392,164,64204,2,0,P|368:155|343:154,1,50,2|0,2:3|0:0,0:0:0:0:
216,344,64371,1,8,2:3:0:0:
96,188,64537,1,2,2:3:0:0:
101,154,64620,1,8,2:3:0:0:
109,120,64704,2,0,L|105:95,2,25,6|0|0,2:0|0:0|0:0,0:0:0:0:
20,188,64871,2,0,P|23:212|35:234,1,50,2|0,3:3|0:0,0:0:0:0:
185,120,65037,2,0,L|181:95,2,25,8|0|0,2:3|0:0|0:0,0:0:0:0:
96,188,65204,2,0,P|99:212|111:234,1,50,2|8,2:3|2:3,0:0:0:0:
216,344,65371,5,0,3:3:0:0:
229,301,65454,1,0,3:3:0:0:
225,257,65537,1,0,3:3:0:0:
202,218,65620,1,0,3:3:0:0:
166,192,65704,1,8,1:3:0:0:
202,218,65787,1,8,1:3:0:0:
245,228,65870,1,8,1:3:0:0:
289,220,65953,1,0,0:0:0:0:
327,195,66037,1,8,3:3:0:0:
364,171,66121,1,8,3:3:0:0:
408,163,66204,1,8,3:3:0:0:
452,173,66287,1,8,3:3:0:0:
486,200,66371,1,10,3:3:0:0:
476,212,66704,6,0,P|407:179|343:211,1,150.000005722046,4|10,3:3|1:3,0:0:0:0:
256,332,67204,1,2,1:3:0:0:
437,326,67371,2,0,P|430:289|408:260,1,75.0000028610231,2|2,1:3|3:3,0:0:0:0:
196,229,67704,2,0,P|231:241|267:236,1,75.0000028610231,10|2,1:3|1:3,0:0:0:0:
248,104,68037,6,0,B|160:140|160:140|108:124,2,150.000005722046,2|10|2,3:3|1:3|1:3,0:0:0:0:
336,60,68871,1,2,3:3:0:0:
160,60,69037,2,0,L|88:38,1,75.0000028610231,10|2,1:3|1:3,0:0:0:0:
16,80,69287,1,8,1:3:0:0:
20,100,69371,6,0,L|36:173,1,75.0000028610231,2|2,3:3|3:3,0:0:0:0:
104,352,69704,2,0,B|116:306|116:306|112:246|112:246|121:204,1,150.000005722046,10|2,1:3|1:3,0:0:0:0:
160,60,70204,1,2,3:3:0:0:
272,264,70371,2,0,P|234:265|200:250,1,75.0000028610231,10|2,1:3|1:3,0:0:0:0:
344,208,70704,6,0,P|381:206|415:221,1,75.0000028610231,2|2,3:3|1:3,0:0:0:0:
479,348,71037,2,0,P|407:351|360:297,1,150.000005722046,10|2,1:3|1:3,0:0:0:0:
436,212,71454,1,8,1:3:0:0:
453,204,71537,2,0,P|455:242|440:276,1,75.0000028610231,2|10,3:3|1:3,0:0:0:0:
292,344,71871,1,2,3:3:0:0:
271,353,71954,1,8,1:3:0:0:
256,360,72037,6,0,B|244:324|268:288|268:288|288:256|276:216,1,150.000005722046,2|10,3:3|1:3,0:0:0:0:
194,42,72537,1,2,1:3:0:0:
356,200,72704,2,0,P|390:214|427:213,1,75.0000028610231,2|2,1:3|3:3,0:0:0:0:
296,140,73037,2,0,P|258:138|224:153,1,75.0000028610231,10|2,1:3|1:3,0:0:0:0:
38,40,73371,6,0,P|68:104|140:104,2,150.000005722046,2|0|2,3:3|0:0|1:3,0:0:0:0:
194,42,74204,1,2,3:3:0:0:
72,152,74371,2,0,L|88:225,1,75.0000028610231,10|2,1:3|3:3,0:0:0:0:
160,197,74621,1,8,1:3:0:0:
156,176,74705,6,0,L|140:103,1,75.0000028610231,2|2,3:3|1:3,0:0:0:0:
224,224,75037,2,0,L|193:363,1,112.500004291535,10|8,1:3|1:3,0:0:0:0:
130,383,75371,1,2,3:3:0:0:
293,174,75537,1,2,3:3:0:0:
501,336,75704,2,0,P|451:313|396:318,1,112.500004291535,10|0,1:3|0:0,0:0:0:0:
325,367,76037,6,0,P|344:312|344:256,1,112.500004291535,2|0,3:3|0:0,0:0:0:0:
289,153,76371,1,10,1:3:0:0:
92,244,76537,1,2,1:3:0:0:
198,333,76704,2,0,P|217:330|235:325,1,37.5000014305115,2|8,1:3|1:3,0:0:0:0:
100,264,76871,1,2,3:3:0:0:
293,246,77037,1,10,1:3:0:0:
318,252,77120,1,0,0:0:0:0:
344,258,77203,1,2,3:3:0:0:
369,264,77286,1,8,1:3:0:0:
395,270,77371,6,0,B|420:280|436:308|436:308|452:336|476:344|476:344|484:304,1,150.000005722046,6|10,3:3|1:3,0:0:0:0:
344,360,77871,1,2,1:3:0:0:
453,204,78037,2,0,P|455:166|440:132,1,75.0000028610231,2|2,1:3|3:3,0:0:0:0:
289,153,78371,2,0,P|320:173|357:177,1,75.0000028610231,10|2,1:3|1:3,0:0:0:0:
204,107,78704,6,0,B|168:95|132:119|132:119|100:139|60:127,2,150.000005722046,2|10|2,3:3|1:3|1:3,0:0:0:0:
356,177,79537,1,2,3:3:0:0:
204,294,79704,2,0,B|169:226|169:226|203:234,1,112.500004291535,10|8,1:3|1:3,0:0:0:0:
296,256,80037,5,2,3:3:0:0:
106,281,80204,1,2,3:3:0:0:
265,158,80371,2,0,P|301:152|337:164,1,75.0000028610231,10|2,1:3|1:3,0:0:0:0:
480,304,80704,2,0,P|443:309|407:297,1,75.0000028610231,2|2,1:3|3:3,0:0:0:0:
296,256,81037,2,0,L|328:323,1,75.0000028610231,10|2,1:3|1:3,0:0:0:0:
225,285,81371,5,2,3:3:0:0:
207,293,81454,1,2,3:2:0:0:
189,301,81537,2,0,P|153:312|116:307,1,75.0000028610231,10|10,1:3|1:3,0:0:0:0:
71,189,81871,1,2,0:2:0:0:
89,193,81954,1,10,1:3:0:0:
107,198,82037,1,2,0:2:0:0:
125,203,82120,1,10,1:3:0:0:
144,208,82204,1,2,3:3:0:0:
336,163,82371,1,8,1:3:0:0:
138,101,82537,1,2,3:3:0:0:
117,94,82620,1,8,1:3:0:0:
98,89,82704,6,0,P|60:83|24:93,1,75.0000028610231,2|2,3:3|1:3,0:0:0:0:
232,148,83037,2,0,L|249:70,1,75.0000028610231,10|2,1:3|1:3,0:0:0:0:
470,49,83371,2,0,P|429:107|358:101,1,150.000005722046,2|10,1:3|1:3,0:0:0:0:
144,208,83871,1,2,1:3:0:0:
269,81,84037,6,0,L|252:154,1,75.0000028610231,2|2,3:3|1:3,0:0:0:0:
464,221,84371,2,0,L|448:148,1,75.0000028610231,10|2,1:3|1:3,0:0:0:0:
400,40,84704,1,2,1:3:0:0:
299,262,84871,1,2,3:3:0:0:
157,63,85037,1,10,1:3:0:0:
331,149,85204,1,2,3:3:0:0:
327,167,85287,1,8,1:3:0:0:
323,186,85371,6,0,B|287:174|251:198|251:198|219:218|179:206,1,150.000005722046,2|10,3:3|1:3,0:0:0:0:
44,153,85871,1,2,3:3:0:0:
144,377,86037,1,2,3:3:0:0:
300,264,86204,1,2,3:3:0:0:
142,200,86371,2,0,P|161:200|179:206,1,37.5000014305115,10|0,1:3|0:0,0:0:0:0:
78,324,86537,2,0,P|61:329|42:330,1,37.5000014305115,2|2,1:3|3:3,0:0:0:0:
144,276,86704,6,0,B|176:328|144:376|144:376|180:324|232:320|232:320|264:360|316:364|352:348|376:312,1,375.000014305115,6|2,1:3|0:3,0:0:0:0:
300,264,87704,1,10,1:3:0:0:
79,324,87871,1,2,3:3:0:0:
228,208,88037,6,0,P|298:227|363:192,1,150.000005722046,4|8,3:3|2:3,0:0:0:0:
472,40,88537,1,0,2:1:0:0:
288,128,88704,2,0,P|272:117|254:112,1,37.5000014305115,6|2,2:0|1:2,0:0:0:0:
142,199,88871,1,2,3:3:0:0:
25,92,89037,2,0,P|63:98|99:88,1,75.0000028610231,8|0,2:3|2:0,0:0:0:0:
267,31,89371,6,0,P|198:52|172:120,1,150.000005722046,2|8,3:3|2:3,0:0:0:0:
232,320,89871,1,0,2:1:0:0:
310,157,90037,2,0,P|288:128|254:112,1,75.0000028610231,6|2,2:0|3:3,0:0:0:0:
148,212,90371,2,0,P|186:218|222:208,1,75.0000028610231,8|2,2:3|1:3,0:0:0:0:
292,248,90621,1,8,1:3:0:0:
300,264,90704,6,0,L|284:337,1,75.0000028610231,2|2,3:3|3:3,0:0:0:0:
366,201,91037,2,0,P|343:172|310:157,1,75.0000028610231,10|2,1:3|1:3,0:0:0:0:
372,320,91371,2,0,L|460:300,1,75.0000028610231,6|2,2:0|3:3,0:0:0:0:
500,184,91621,1,2,1:2:0:0:
512,168,91704,2,0,L|438:184,1,75.0000028610231,10|2,1:3|1:3,0:0:0:0:
234,97,92037,6,0,P|301:129|376:127,1,150.000005722046,2|8,3:3|2:3,0:0:0:0:
512,21,92537,1,0,2:1:0:0:
332,60,92704,2,0,P|313:58|295:51,1,37.5000014305115,6|2,2:0|1:2,0:0:0:0:
218,24,92871,2,0,L|234:97,1,75.0000028610231,2|8,3:3|2:3,0:0:0:0:
274,300,93204,1,2,1:3:0:0:
278,318,93287,1,8,1:3:0:0:
283,337,93371,6,0,L|299:264,1,75.0000028610231,4|0,3:3|2:1,0:0:0:0:
160,132,93704,2,0,P|182:161|216:176,1,75.0000028610231,8|0,2:3|2:1,0:0:0:0:
288,128,93954,1,2,1:2:0:0:
304,117,94037,2,0,P|340:113|375:127,1,75.0000028610231,6|2,2:0|3:3,0:0:0:0:
438,184,94287,1,2,1:2:0:0:
450,198,94371,2,0,P|471:228|476:265,1,75.0000028610231,8|0,2:3|2:0,0:0:0:0:
283,337,94704,6,0,B|328:316|344:272|344:272|402:256,1,150.000005722046,2|8,3:3|2:3,0:0:0:0:
244,236,95204,2,0,P|209:249|171:250,1,75.0000028610231,0|6,2:1|2:0,0:0:0:0:
44,153,95537,1,2,3:3:0:0:
232,136,95704,2,0,P|269:137|304:150,1,75.0000028610231,8|2,2:3|1:3,0:0:0:0:
388,240,95954,1,8,1:3:0:0:
400,256,96037,6,0,P|408:180|432:108,1,150.000005722046,2|10,3:3|1:3,0:0:0:0:
256,104,96537,1,2,1:3:0:0:
244,120,96621,1,2,1:2:0:0:
232,136,96704,2,0,P|197:149|159:150,1,75.0000028610231,6|2,2:0|3:3,0:0:0:0:
25,92,97037,1,10,1:3:0:0:
176,52,97204,1,2,1:3:0:0:
108,204,97371,6,0,B|112:256|112:256|136:304|136:304|140:348,1,150.000005722046,2|8,3:3|2:3,0:0:0:0:
244,236,97871,1,0,2:1:0:0:
256,220,97955,1,0,0:0:0:0:
268,204,98038,2,0,L|302:190,1,37.5000014305115,6|0,2:0|0:0,0:0:0:0:
435,269,98204,2,0,L|400:255,1,37.5000014305115,2|0,3:3|0:0,0:0:0:0:
240,316,98371,1,8,2:3:0:0:
214,309,98454,1,0,0:0:0:0:
192,296,98537,1,2,1:3:0:0:
175,276,98620,1,8,1:3:0:0:
164,252,98704,6,0,P|128:216|32:200,1,150.000005722046,4|8,3:3|2:3,0:0:0:0:
232,136,99204,1,0,2:1:0:0:
68,308,99371,2,0,P|68:348|84:392,1,75.0000028610231,6|2,2:0|3:3,0:0:0:0:
176,236,99704,2,0,P|151:208|118:189,1,75.0000028610231,8|0,2:3|2:0,0:0:0:0:
268,204,100037,6,0,P|352:216|432:192,1,150.000005722046,2|8,3:3|2:3,0:0:0:0:
176,52,100704,1,6,2:0:0:0:
372,84,100871,2,0,P|347:111|314:130,1,75.0000028610231,2|8,3:3|2:3,0:0:0:0:
184,220,101121,1,0,0:0:0:0:
176,235,101204,2,0,P|173:254|175:273,1,37.5000014305115,2|8,1:3|1:3,0:0:0:0:
321,306,101371,6,0,P|335:272|336:235,1,75.0000028610231,2|2,3:3|3:3,0:0:0:0:
256,44,101704,1,10,2:3:0:0:
256,252,101871,1,2,1:3:0:0:
371,83,102037,2,0,P|390:86|408:92,1,37.5000014305115,6|0,1:2|0:0,0:0:0:0:
292,131,102204,2,0,P|274:137|256:140,1,37.5000014305115,2|2,3:3|1:2,0:0:0:0:
144,120,102371,2,0,P|96:120|64:140,1,75.0000028610231,10|2,1:3|1:3,0:0:0:0:
92,332,102704,6,0,B|128:252|128:252|120:220|121:190,2,150.000005722046,2|8|6,3:3|2:3|2:0,0:0:0:0:
32,276,103454,1,2,1:2:0:0:
32,276,103537,2,0,L|56:236,1,37.5000014305115,2|2,3:3|1:2,0:0:0:0:
216,180,103704,2,0,L|196:212,1,37.5000014305115,8|0,2:3|0:0,0:0:0:0:
200,320,103871,1,2,1:3:0:0:
218,320,103954,1,8,1:3:0:0:
236,320,104037,6,0,P|276:312|312:292,1,75.0000028610231,4|0,3:3|2:1,0:0:0:0:
444,179,104371,1,8,2:3:0:0:
216,180,104537,1,0,2:1:0:0:
203,167,104620,1,2,1:2:0:0:
190,154,104704,2,0,P|167:120|156:80,1,75.0000028610231,6|2,2:0|3:3,0:0:0:0:
116,8,104954,1,2,1:2:0:0:
115,26,105037,2,0,P|103:65|80:99,1,75.0000028610231,8|0,2:3|2:0,0:0:0:0:
32,276,105371,6,0,P|51:307|61:343,1,75.0000028610231,2|0,3:3|2:1,0:0:0:0:
255,304,105704,2,0,P|200:313|146:300,1,112.500004291535,8|0,2:3|0:0,0:0:0:0:
51,243,106037,1,6,2:0:0:0:
256,140,106204,1,2,3:3:0:0:
115,26,106371,2,0,L|131:99,1,75.0000028610231,8|2,2:3|1:3,0:0:0:0:
159,207,106621,1,8,1:3:0:0:
162,226,106704,6,0,L|146:299,1,75.0000028610231,2|2,3:3|3:3,0:0:0:0:
256,220,107037,2,0,P|285:197|321:191,1,75.0000028610231,10|2,1:3|1:3,0:0:0:0:
424,248,107287,1,2,1:2:0:0:
440,260,107371,2,0,P|476:254|505:231,1,75.0000028610231,6|2,2:0|3:3,0:0:0:0:
256,140,107704,1,10,1:3:0:0:
320,268,107871,1,2,1:3:0:0:
323,287,107954,1,2,1:2:0:0:
326,306,108037,6,0,L|310:379,1,75.0000028610231,2|0,3:3|2:1,0:0:0:0:
456,272,108371,1,8,2:3:0:0:
230,310,108537,1,0,2:1:0:0:
204,313,108621,1,2,1:2:0:0:
178,310,108704,5,6,2:0:0:0:
161,281,108787,1,2,1:2:0:0:
153,248,108870,1,2,3:3:0:0:
155,215,108953,1,2,1:2:0:0:
166,183,109037,1,8,2:3:0:0:
177,151,109121,1,0,0:0:0:0:
179,117,109204,1,2,1:3:0:0:
171,85,109287,1,8,1:3:0:0:
154,56,109371,6,0,P|104:60|36:36,2,112.500004291535,6|2|2,3:3|1:2|1:3,0:0:0:0:
292,44,110037,1,6,1:2:0:0:
236,232,110204,1,2,3:3:0:0:
308,72,110371,2,0,P|268:60|212:72,1,75.0000028610231,10|2,1:3|1:3,0:0:0:0:
404,168,110704,6,0,L|444:160,3,37.5000014305115,2|2|2|2,3:2|2:2|2:3|2:2,0:0:0:0:
356,252,111037,2,0,L|316:244,1,37.5000014305115,8|2,2:3|2:2,0:0:0:0:
260,144,111204,2,0,L|223:151,1,37.5000014305115,2|2,3:3|2:2,0:0:0:0:
92,192,111371,2,0,P|127:203|164:201,1,75.0000028610231,2|8,2:0|2:3,0:0:0:0:
140,100,111621,1,2,2:2:0:0:
128,82,111704,2,0,L|91:89,1,37.5000014305115,2|2,3:3|2:2,0:0:0:0:
260,20,111871,2,0,L|296:27,1,37.5000014305115,2|8,3:3|2:3,0:0:0:0:
396,92,112037,6,0,P|436:80|492:92,1,75.0000028610231,2|2,3:3|1:3,0:0:0:0:
328,172,112371,1,10,1:3:0:0:
128,82,112537,1,2,1:3:0:0:
109,85,112620,1,2,1:2:0:0:
91,88,112704,2,0,P|54:80|23:60,1,75.0000028610231,6|2,1:2|3:3,0:0:0:0:
192,32,113037,2,0,P|203:67|201:104,1,75.0000028610231,10|2,1:3|1:3,0:0:0:0:
76,268,113371,6,0,L|68:308,3,37.5000014305115,2|2|2|2,3:2|2:2|2:3|2:2,0:0:0:0:
151,224,113704,2,0,L|144:188,1,37.5000014305115,8|2,2:3|2:2,0:0:0:0:
316,248,113871,2,0,L|308:284,1,37.5000014305115,2|8,3:3|2:3,0:0:0:0:
201,104,114037,2,0,P|189:68|191:31,1,75.0000028610231,6|2,2:0|3:3,0:0:0:0:
374,54,114371,1,2,3:3:0:0:
376,80,114454,1,2,2:2:0:0:
372,105,114537,1,8,2:3:0:0:
367,130,114620,1,2,3:3:0:0:
356,152,114704,6,0,L|272:164,1,75.0000028610231,2|2,3:3|1:3,0:0:0:0:
91,88,115037,1,10,1:3:0:0:
212,280,115204,1,2,3:3:0:0:
223,295,115287,1,2,1:2:0:0:
232,309,115371,2,0,P|249:318|267:323,1,37.5000014305115,6|2,1:2|1:2,0:0:0:0:
103,294,115537,2,0,P|87:303|72:320,1,37.5000014305115,10|2,1:3|1:2,0:0:0:0:
180,189,115704,2,0,P|176:152|156:120,1,75.0000028610231,10|2,1:3|3:3,0:0:0:0:
92,168,115954,1,2,1:2:0:0:
84,184,116037,6,0,L|77:220,3,37.5000014305115,2|2|2|2,3:2|2:2|2:3|2:2,0:0:0:0:
219,316,116371,2,0,L|212:280,1,37.5000014305115,8|2,2:3|2:2,0:0:0:0:
5,167,116537,2,0,L|12:131,1,37.5000014305115,2|2,3:3|2:2,0:0:0:0:
172,205,116704,1,6,2:0:0:0:
299,64,116871,2,0,P|336:52|373:53,1,75.0000028610231,8|2,2:3|3:3,0:0:0:0:
440,160,117121,2,0,L|477:165,2,37.5000014305115,2|2|8,2:2|3:3|2:3,0:0:0:0:
352,156,117371,6,0,P|356:192|376:224,1,75.0000028610231,2|2,3:3|1:3,0:0:0:0:
460,332,117704,1,10,1:3:0:0:
260,242,117870,1,2,1:3:0:0:
241,245,117953,1,2,1:2:0:0:
223,248,118037,2,0,P|186:240|155:220,1,75.0000028610231,6|2,1:2|3:3,0:0:0:0:
28,56,118371,1,10,1:3:0:0:
232,128,118704,6,0,L|224:156,2,25.0000009536744,10|8|8,3:3|1:0|1:0,0:0:0:0:
220,80,118871,5,8,3:0:0:0:
247,105,118954,1,8,1:0:0:0:
280,121,119037,1,8,2:3:0:0:
318,125,119120,1,8,2:3:0:0:
354,118,119204,2,0,L|382:110,2,25.0000009536744,10|8|8,3:3|1:0|1:0,0:0:0:0:
424,40,119371,5,8,3:0:0:0:
455,75,119454,1,8,3:0:0:0:
463,123,119537,1,8,3:0:0:0:
444,167,119620,1,8,3:0:0:0:
404,196,119704,1,8,2:3:0:0:
390,218,119787,1,8,2:1:0:0:
382,243,119870,1,2,3:3:0:0:
379,269,119953,1,0,3:0:0:0:
384,296,120037,6,0,L|431:310,1,50,14|0,3:3|0:0,0:0:0:0:
378,111,120371,2,0,L|330:125,1,50,10|0,3:3|0:0,0:0:0:0:
223,248,120704,2,0,L|270:262,1,50,2|0,0:3|0:0,0:0:0:0:
216,158,121037,2,0,L|169:173,1,50,2|0,3:3|0:0,0:0:0:0:
0,212,121371,6,0,P|56:208|112:228,1,100,2|2,0:3|3:3,0:0:0:0:
232,332,121871,1,0,0:0:0:0:
254,340,121954,1,0,0:0:0:0:
281,347,122037,2,0,L|378:318,1,100,2|2,0:3|3:3,0:0:0:0:
448,64,122704,6,0,B|400:44|352:72|352:72|320:168|320:168|328:204|328:204|312:268,1,300,2|2,0:3|3:3,0:0:0:0:
256,92,124037,2,0,P|212:67|163:58,1,100,2|2,0:3|3:3,0:0:0:0:
0,216,124537,1,0,0:0:0:0:
200,186,124704,2,0,P|223:197|248:200,1,50,2|0,0:3|0:0,0:0:0:0:
386,249,125037,6,0,L|298:265,1,75,6|0,3:2|0:0,0:0:0:0:
244,308,125371,6,0,B|168:296|168:296|144:304|144:304|84:292|84:292|48:312|-12:304|-12:304|4:332|20:336,1,300,0|2,0:0|3:3,0:0:0:0:
108,219,126704,2,0,P|157:210|200:185,1,100,2|2,0:3|3:3,0:0:0:0:
303,50,127204,1,2,0:3:0:0:
325,42,127287,1,2,0:3:0:0:
352,35,127370,2,0,L|449:63,1,100,2|2,0:3|3:3,0:0:0:0:
386,249,128037,6,0,B|336:188|340:124|340:124|296:220|176:220|176:220|196:180,1,375,2|0,0:3|0:0,0:0:0:0:
228,120,129371,1,2,3:3:0:0:
191,112,129454,1,8,3:3:0:0:
155,121,129537,1,0,0:0:0:0:
128,147,129620,1,0,0:0:0:0:
116,182,129704,1,0,0:0:0:0:
104,217,129788,1,0,3:3:0:0:
77,243,129871,1,8,3:3:0:0:
41,252,129954,1,0,3:3:0:0:
4,244,130037,2,0,P|0:227|0:208,1,37.5000014305115,0|0,3:3|3:3,0:0:0:0:
192,188,130204,6,0,L|180:224,2,25.0000009536744,8|8|8,1:3|1:3|1:3,0:0:0:0:
156,276,130371,2,0,L|168:312,2,25.0000009536744,0|0|0,3:3|0:0|0:0,0:0:0:0:
200,360,130537,2,0,L|192:383,2,25.0000009536744,8|8|8,1:3|1:3|1:3,0:0:0:0:
272,286,130704,6,0,P|279:264|259:252,1,50,0|0,2:2|0:0,0:0:0:0:
266,310,130871,2,0,P|303:265|229:246,1,150,0|0,2:2|0:0,0:0:0:0:
156,276,131204,1,0,2:2:0:0:
72,316,131371,2,0,P|127:365|200:359,2,150,0|0|0,2:2|2:2|2:2,0:0:0:0:
240,236,132037,6,0,B|272:228|304:256|304:256|336:284|368:280,1,137.5,0|0,0:0|0:0,0:0:0:0:
436,252,133037,6,0,P|412:220|348:204,1,100,0|0,2:2|2:2,0:0:0:0:
169,264,133371,2,0,P|193:296|257:312,1,100,0|0,2:2|2:2,0:0:0:0:
256,48,133871,1,0,2:2:0:0:
432,32,134037,2,0,B|386:56|338:44|338:44|338:72|322:94,2,150,0|0|0,2:2|2:2|2:2,0:0:0:0:
256,48,134704,6,0,B|220:104|256:156|292:168|292:168|316:176|344:168|344:168|300:192|280:236|280:236|260:288|289:358|289:358|368:332|356:260,1,550,0|0,0:0|0:0,0:0:0:0:
322,93,135704,6,0,L|316:98,6,6.25,4|0|0|0|0|0|0,1:1|0:0|0:0|0:0|0:0|0:0|0:0,0:0:0:0:
219,152,136037,6,0,P|186:151|156:140,1,62.5,4|0,3:3|0:0,0:0:0:0:
40,40,136204,1,0,2:1:0:0:
256,48,136371,2,0,L|234:171,1,125,8|0,2:3|2:1,0:0:0:0:
252,196,136621,1,0,0:0:0:0:
267,220,136704,2,0,P|295:205|326:203,1,62.5,6|0,2:0|0:0,0:0:0:0:
264,332,136871,2,0,P|233:330|205:315,1,62.5,2|0,3:3|0:0,0:0:0:0:
64,236,137037,1,8,2:3:0:0:
322,93,137204,1,0,2:0:0:0:
459,331,137371,6,0,P|470:271|451:212,1,125,2|2,3:2|2:3,0:0:0:0:
434,187,137621,1,2,2:2:0:0:
418,162,137704,2,0,P|399:186|371:201,1,62.5,8|2,2:3|2:2,0:0:0:0:
262,81,137871,2,0,P|293:80|321:92,1,62.5,2|2,2:3|2:2,0:0:0:0:
356,276,138037,1,6,2:0:0:0:
159,141,138204,1,2,3:3:0:0:
428,42,138371,2,0,B|476:44|508:84|508:84|512:56|504:44,1,125,8|2,2:3|2:0,0:0:0:0:
432,136,138621,1,8,2:3:0:0:
418,162,138704,6,0,L|430:232,1,62.5,0|0,3:3|0:0,0:0:0:0:
356,276,138871,2,0,L|367:337,1,62.5,0|0,2:1|0:0,0:0:0:0:
459,332,139037,2,0,B|420:332|384:304|384:304|392:356,1,125,8|0,2:3|2:1,0:0:0:0:
253,246,139287,1,0,0:0:0:0:
267,220,139370,2,0,P|213:246|129:246,1,125,6|2,2:0|3:3,0:0:0:0:
40,312,139621,2,0,P|102:315|158:342,1,125,0|0,0:0|0:0,0:0:0:0:
276,348,139871,1,0,2:0:0:0:
20,151,140037,5,2,3:2:0:0:
49,118,140120,1,2,2:2:0:0:
91,107,140203,1,2,2:3:0:0:
132,121,140287,1,2,2:2:0:0:
157,154,140371,2,0,P|152:124|163:91,1,62.5,8|2,2:3|2:2,0:0:0:0:
428,42,140537,2,0,P|410:67|379:82,1,62.5,2|2,2:3|2:2,0:0:0:0:
255,134,140704,1,6,2:0:0:0:
260,164,140787,1,0,0:0:0:0:
268,196,140870,1,2,3:3:0:0:
472,344,141037,1,8,2:3:0:0:
157,341,141204,1,2,2:0:0:0:
166,298,141287,1,8,2:3:0:0:
175,256,141371,6,0,P|180:226|169:193,1,62.5,0|0,3:3|0:0,0:0:0:0:
111,17,141537,1,0,2:1:0:0:
268,196,141704,2,0,P|310:242|369:260,1,125,8|0,2:3|2:1,0:0:0:0:
468,184,141954,1,0,0:0:0:0:
440,168,142037,2,0,B|398:157|358:169|358:169|368:147|384:135,1,125,6|2,2:0|3:3,0:0:0:0:
472,344,142371,1,8,2:3:0:0:
127,136,142537,1,0,2:0:0:0:
98,151,142620,1,0,0:0:0:0:
69,166,142704,6,0,B|27:176|-12:164|-12:164|-2:186|13:198,1,125,2|2,3:2|2:3,0:0:0:0:
84,280,142954,1,2,2:2:0:0:
106,304,143037,2,0,P|137:307|166:297,1,62.5,8|2,2:3|2:2,0:0:0:0:
216,136,143204,2,0,P|197:161|192:191,1,62.5,2|2,2:3|2:2,0:0:0:0:
368,259,143371,2,0,P|326:213|267:195,1,125,6|2,2:0|3:3,0:0:0:0:
367,337,143704,1,8,2:3:0:0:
398,347,143787,2,0,L|460:336,1,62.5,2|2,2:2|2:0,0:0:0:0:
260,290,143954,1,8,2:3:0:0:
228,279,144037,6,0,L|106:304,1,125,0|0,3:3|2:1,0:0:0:0:
264,48,144371,2,0,P|267:110|285:169,1,125,8|0,2:3|2:1,0:0:0:0:
337,249,144621,1,0,0:0:0:0:
368,259,144704,2,0,L|429:247,1,62.5,6|0,2:0|0:0,0:0:0:0:
197,190,144871,2,0,L|126:204,1,62.5,2|0,3:3|0:0,0:0:0:0:
398,347,145037,1,8,2:3:0:0:
264,48,145204,1,0,2:0:0:0:
106,304,145371,6,0,P|52:268|32:196,1,125,2|2,3:2|2:3,0:0:0:0:
152,48,145621,1,2,2:2:0:0:
164,80,145704,2,0,L|135:202,1,125,8|2,2:3|2:3,0:0:0:0:
219,271,145954,2,0,P|207:243|208:208,1,62.5,2|6,2:2|2:0,0:0:0:0:
264,48,146121,1,0,0:0:0:0:
276,80,146204,2,0,P|275:111|263:139,1,62.5,2|2,3:3|2:2,0:0:0:0:
292,220,146371,5,8,2:3:0:0:
364,196,146454,1,2,2:2:0:0:
443,225,146537,1,2,2:0:0:0:
487,292,146621,1,8,2:3:0:0:
478,371,146704,6,0,P|417:364|365:330,1,125,4|0,3:3|2:1,0:0:0:0:
180,140,147037,2,0,L|28:164,1,125,8|0,2:3|2:1,0:0:0:0:
240,72,147287,1,0,0:0:0:0:
264,48,147371,2,0,B|288:40|324:56|324:56|360:72|388:64,1,125,6|2,2:0|3:3,0:0:0:0:
277,317,147704,1,8,2:3:0:0:
140,16,147871,1,0,2:0:0:0:
463,47,148037,6,0,P|453:108|403:142,1,125,2|2,3:2|2:3,0:0:0:0:
289,188,148287,1,2,2:2:0:0:
261,200,148371,2,0,L|413:224,1,125,8|2,2:3|2:3,0:0:0:0:
484,292,148621,1,2,2:2:0:0:
512,304,148705,2,0,L|360:328,1,125,6|2,2:0|3:3,0:0:0:0:
151,248,149037,1,8,2:3:0:0:
385,64,149204,1,2,2:0:0:0:
415,68,149288,1,8,2:3:0:0:
446,73,149371,6,0,P|459:102|464:132,1,62.5,0|0,3:3|0:0,0:0:0:0:
289,188,149537,2,0,P|293:157|306:128,1,62.5,0|0,2:1|0:0,0:0:0:0:
470,219,149704,2,0,P|466:249|455:279,1,62.5,8|0,2:3|0:0,0:0:0:0:
355,60,149871,2,0,P|374:35|399:17,1,62.5,0|0,2:1|0:0,0:0:0:0:
417,356,150037,1,6,2:0:0:0:
374,366,150120,1,0,0:0:0:0:
332,357,150203,1,0,0:0:0:0:
297,332,150287,1,0,0:0:0:0:
276,294,150371,1,8,2:3:0:0:
254,256,150454,1,0,0:0:0:0:
219,230,150538,1,0,2:0:0:0:
177,222,150621,1,0,0:0:0:0:
135,231,150704,6,0,P|72:240|20:212,1,125,2|2,3:2|2:3,0:0:0:0:
24,12,150954,1,2,2:2:0:0:
51,25,151037,2,0,P|89:74|92:136,1,125,8|2,2:3|2:3,0:0:0:0:
68,280,151287,1,2,2:2:0:0:
59,311,151371,2,0,P|91:313|120:303,1,62.5,6|0,2:0|0:0,0:0:0:0:
242,173,151537,2,0,P|224:198|218:229,1,62.5,2|2,3:3|2:2,0:0:0:0:
332,357,151704,1,8,2:3:0:0:
364,155,151871,1,2,2:0:0:0:
357,125,151954,1,8,2:3:0:0:
341,99,152037,6,0,L|217:79,1,125,0|0,3:3|2:1,0:0:0:0:
492,20,152371,1,8,2:3:0:0:
478,281,152537,1,0,2:1:0:0:
471,311,152620,1,0,0:0:0:0:
455,337,152704,2,0,L|331:356,1,125,6|2,2:0|3:3,0:0:0:0:
60,176,153037,1,8,2:3:0:0:
384,272,153204,1,0,2:0:0:0:
217,79,153371,6,0,L|196:168,1,62.5,2|2,3:2|2:2,0:0:0:0:
308,202,153537,1,2,2:3:0:0:
338,206,153620,1,0,0:0:0:0:
369,211,153704,2,0,L|383:271,1,62.5,8|2,2:3|2:2,0:0:0:0:
234,332,153871,2,0,P|224:260|236:208,1,125,2|6,2:3|2:0,0:0:0:0:
316,116,154121,1,0,0:0:0:0:
341,99,154204,2,0,P|345:68|342:37,1,62.5,2|2,3:3|2:2,0:0:0:0:
300,272,154371,1,8,2:3:0:0:
52,144,154537,1,2,2:0:0:0:
44,113,154620,1,0,0:0:0:0:
37,83,154704,6,0,P|67:31|135:11,1,125,0|0,3:3|2:1,0:0:0:0:
440,140,155037,1,8,2:3:0:0:
136,239,155204,1,0,2:1:0:0:
129,269,155287,1,0,0:0:0:0:
121,300,155370,1,6,2:0:0:0:
308,40,155537,1,2,3:3:0:0:
308,360,155704,1,8,2:3:0:0:
120,101,155871,1,0,2:0:0:0:
113,131,155954,1,0,0:0:0:0:
104,160,156037,6,0,P|167:142|223:158,1,125,2|2,3:2|2:3,0:0:0:0:
284,248,156287,1,2,2:2:0:0:
299,271,156371,2,0,P|328:284|359:287,1,62.5,8|2,2:3|2:2,0:0:0:0:
455,201,156537,1,2,2:3:0:0:
447,170,156620,1,2,2:2:0:0:
440,140,156703,5,6,2:0:0:0:
418,190,156787,1,0,0:0:0:0:
367,209,156870,1,2,3:3:0:0:
318,184,156954,1,2,2:2:0:0:
300,132,157037,5,8,2:3:0:0:
241,78,157120,1,2,2:2:0:0:
162,63,157203,1,2,2:0:0:0:
86,89,157287,1,8,2:3:0:0:
32,152,157371,6,0,P|44:96|24:28,1,125,4|0,3:3|2:1,0:0:0:0:
185,136,157704,2,0,L|308:160,1,125,8|0,2:3|2:1,0:0:0:0:
160,208,157954,1,0,0:0:0:0:
131,199,158037,2,0,P|100:205|72:219,1,62.5,6|0,2:0|0:0,0:0:0:0:
187,303,158204,1,2,3:3:0:0:
207,279,158287,1,0,0:0:0:0:
228,256,158371,2,0,P|237:226|239:195,1,62.5,8|0,2:3|0:0,0:0:0:0:
212,8,158537,1,0,2:0:0:0:
358,287,158704,6,0,P|408:312|476:312,1,125,2|2,3:2|2:3,0:0:0:0:
228,100,159037,1,8,2:3:0:0:
98,286,159204,2,0,P|71:303|42:313,1,62.5,2|2,2:3|2:2,0:0:0:0:
20,188,159371,2,0,L|143:212,1,125,6|2,2:0|3:3,0:0:0:0:
370,211,159704,2,0,L|431:198,1,62.5,8|2,2:3|2:2,0:0:0:0:
279,135,159871,1,2,2:0:0:0:
253,117,159954,1,8,2:3:0:0:
227,99,160037,6,0,P|198:91|167:91,1,62.5,0|0,3:3|0:0,0:0:0:0:
184,280,160204,2,0,P|206:258|221:231,1,62.5,0|0,2:1|0:0,0:0:0:0:
50,135,160371,2,0,P|85:186|142:211,1,125,8|0,2:3|2:1,0:0:0:0:
456,112,160704,2,0,P|465:82|467:51,1,62.5,6|0,2:0|0:0,0:0:0:0:
370,211,160871,1,2,3:3:0:0:
377,241,160954,1,0,0:0:0:0:
385,272,161037,1,8,2:3:0:0:
256,32,161204,1,0,2:0:0:0:
98,286,161371,5,2,3:2:0:0:
67,255,161454,1,2,2:2:0:0:
55,213,161537,1,2,2:3:0:0:
65,171,161621,1,2,2:2:0:0:
94,139,161704,1,8,2:3:0:0:
135,125,161787,1,2,2:2:0:0:
177,132,161871,1,2,2:3:0:0:
211,160,161954,1,2,2:2:0:0:
260,226,162037,5,6,2:0:0:0:
286,241,162120,1,0,0:0:0:0:
316,250,162203,1,0,0:0:0:0:
348,249,162287,1,2,2:2:0:0:
377,241,162371,2,0,L|396:167,1,62.5,8|2,2:3|2:2,0:0:0:0:
317,16,162537,1,2,2:0:0:0:
286,24,162620,1,0,0:0:0:0:
256,32,162704,6,0,P|288:96|289:156,1,125,0|0,3:3|2:1,0:0:0:0:
212,348,163037,2,0,P|180:284|179:224,1,125,0|0,0:0|2:1,0:0:0:0:
352,284,163287,1,0,0:0:0:0:
321,292,163370,2,0,B|296:304|264:288|264:288|244:260|260:226,1,125,0|0,0:0|0:0,0:0:0:0:
317,16,163704,1,8,2:3:0:0:
86,104,163871,1,0,2:0:0:0:
116,96,163954,1,0,0:0:0:0:
146,88,164037,6,0,B|171:76|203:92|203:92|223:120|207:154,1,125,0|2,0:0|2:3,0:0:0:0:
95,237,164287,1,0,0:0:0:0:
77,261,164371,2,0,P|71:291|80:321,1,62.5,8|2,2:3|2:2,0:0:0:0:
228,156,164537,2,0,P|234:126|225:96,1,62.5,0|2,0:0|2:2,0:0:0:0:
147,288,164704,2,0,B|192:296|192:296|228:288|228:288|272:296,1,125,6|2,2:0|3:3,0:0:0:0:
460,332,164954,1,2,2:2:0:0:
429,322,165037,2,0,L|367:333,1,62.5,0|2,0:0|2:2,0:0:0:0:
222,269,165204,2,0,L|284:280,1,62.5,2|8,2:0|2:3,0:0:0:0:
429,216,165371,5,0,3:3:0:0:
374,225,165454,1,0,0:0:0:0:
325,201,165537,1,0,2:1:0:0:
300,152,165621,1,0,0:0:0:0:
307,96,165704,2,0,P|332:68|355:57,1,62.5,8|0,2:3|0:0,0:0:0:0:
445,125,165871,1,0,2:1:0:0:
414,130,165954,1,0,0:0:0:0:
384,136,166037,1,6,2:0:0:0:
146,88,166204,1,2,3:3:0:0:
97,326,166371,2,0,P|48:348|39:294,1,125,8|0,2:3|2:0,0:0:0:0:
104,228,166621,1,0,0:0:0:0:
136,228,166704,6,0,P|186:268|200:342,1,125,2|2,3:2|2:3,0:0:0:0:
14,204,166954,1,2,2:2:0:0:
0,180,167037,2,0,L|38:52,1,125,8|2,2:3|2:3,0:0:0:0:
146,88,167287,2,0,P|136:117|118:142,1,62.5,2|6,2:2|2:0,0:0:0:0:
26,319,167454,1,0,0:0:0:0:
39,294,167537,2,0,P|69:286|100:290,1,62.5,2|2,3:3|2:2,0:0:0:0:
172,324,167704,5,8,2:3:0:0:
244,348,167787,1,2,2:2:0:0:
323,319,167870,1,2,2:0:0:0:
367,252,167954,1,8,2:3:0:0:
356,172,168037,6,0,P|389:225|447:245,1,125,4|0,3:3|2:1,0:0:0:0:
175,108,168371,2,0,L|52:128,1,125,8|0,2:3|2:1,0:0:0:0:
304,132,168621,1,0,0:0:0:0:
330,152,168704,2,0,B|353:161|390:146|390:146|426:131|452:140,1,125,6|2,2:0|3:3,0:0:0:0:
336,56,168954,1,0,0:0:0:0:
304,46,169037,2,0,P|273:51|248:68,1,62.5,8|0,2:3|0:0,0:0:0:0:
136,228,169204,1,0,2:0:0:0:
385,316,169371,6,0,P|427:271|432:210,1,125,2|2,3:2|2:3,0:0:0:0:
262,200,169621,1,2,2:2:0:0:
288,220,169704,2,0,P|316:233|348:232,1,62.5,8|2,2:3|2:2,0:0:0:0:
464,48,169871,1,2,2:3:0:0:
207,132,170037,2,0,L|330:152,1,125,6|2,2:0|3:3,0:0:0:0:
184,32,170371,2,0,P|153:36|127:53,1,62.5,8|2,2:3|2:2,0:0:0:0:
129,198,170537,1,2,2:0:0:0:
136,228,170620,1,8,2:3:0:0:
143,258,170704,6,0,P|173:253|199:236,1,62.5,0|0,3:3|0:0,0:0:0:0:
48,156,170871,2,0,P|36:184|38:215,1,62.5,0|0,2:1|0:0,0:0:0:0:
260,184,171037,2,0,P|276:157|280:126,1,62.5,8|0,2:3|0:0,0:0:0:0:
64,292,171204,2,0,P|78:319|103:337,1,62.5,0|0,2:1|0:0,0:0:0:0:
315,240,171371,1,6,2:0:0:0:
278,262,171455,1,0,0:0:0:0:
235,260,171538,1,2,3:3:0:0:
199,236,171621,1,0,0:0:0:0:
184,196,171704,1,8,2:3:0:0:
165,158,171787,1,0,0:0:0:0:
128,134,171870,1,0,2:0:0:0:
85,133,171953,1,0,0:0:0:0:
48,156,172037,6,0,P|5:111|0:50,1,125,2|2,3:2|2:3,0:0:0:0:
108,212,172287,1,2,2:2:0:0:
120,240,172371,2,0,L|88:376,1,125,8|2,2:3|2:3,0:0:0:0:
196,324,172621,1,2,2:2:0:0:
184,296,172705,2,0,L|198:235,1,62.5,6|0,2:0|0:0,0:0:0:0:
274,123,172871,2,0,L|260:184,1,62.5,2|2,3:3|2:2,0:0:0:0:
260,380,173037,1,8,2:3:0:0:
338,179,173204,1,2,2:0:0:0:
345,149,173287,1,8,2:3:0:0:
352,119,173371,6,0,P|332:68|264:44,1,125,0|0,3:3|2:1,0:0:0:0:
48,156,173704,1,8,2:3:0:0:
284,252,173871,1,0,2:1:0:0:
314,259,173954,1,0,0:0:0:0:
344,266,174038,2,0,P|395:246|419:178,1,125,6|2,2:0|3:3,0:0:0:0:
5,92,174371,1,8,2:3:0:0:
338,179,174538,1,0,2:0:0:0:
16,265,174704,6,0,P|20:295|36:322,1,62.5,2|2,3:2|2:2,0:0:0:0:
196,324,174870,1,2,2:3:0:0:
177,300,174953,1,0,0:0:0:0:
157,275,175037,2,0,P|128:263|97:263,1,62.5,8|2,2:3|2:2,0:0:0:0:
214,348,175204,2,0,P|268:317|332:324,1,125,2|6,2:3|2:0,0:0:0:0:
401,272,175454,1,0,0:0:0:0:
381,247,175538,2,0,P|352:235|321:235,1,62.5,2|2,3:3|2:2,0:0:0:0:
116,348,175704,1,8,2:3:0:0:
387,382,175871,1,2,2:0:0:0:
415,366,175954,1,8,2:3:0:0:
441,350,176038,5,0,3:3:0:0:
479,310,176121,1,0,0:0:0:0:
483,255,176204,1,0,2:1:0:0:
452,209,176287,1,0,0:0:0:0:
420,163,176371,1,8,2:3:0:0:
425,108,176454,1,0,0:0:0:0:
463,68,176537,2,0,P|483:91|492:121,1,62.5,0|0,2:1|0:0,0:0:0:0:
401,272,176704,1,6,2:0:0:0:
357,268,176787,1,0,0:0:0:0:
318,286,176870,1,2,3:3:0:0:
291,320,176954,1,0,0:0:0:0:
284,363,177037,2,0,P|274:333|254:309,1,62.5,8|0,2:3|0:0,0:0:0:0:
36,344,177204,1,0,2:0:0:0:
64,360,177287,1,0,0:0:0:0:
90,376,177371,6,0,P|151:386|209:363,1,125,2|2,3:2|2:3,0:0:0:0:
240,232,177621,1,2,2:2:0:0:
212,247,177704,2,0,P|191:269|180:299,1,62.5,8|0,2:3|0:0,0:0:0:0:
284,363,177871,1,0,2:1:0:0:
274,333,177954,1,2,1:2:0:0:
254,309,178037,5,6,2:0:0:0:
301,281,178120,1,2,1:2:0:0:
319,229,178203,1,2,3:3:0:0:
299,177,178287,1,2,1:2:0:0:
251,150,178370,5,8,2:3:0:0:
173,144,178454,1,0,0:0:0:0:
138,75,178537,1,2,1:3:0:0:
178,8,178621,1,8,1:3:0:0:
256,8,178704,6,0,B|316:20|328:72|328:72|380:48|424:80,1,200,6|10,3:3|1:3,0:0:0:0:
512,192,179204,1,2,1:3:0:0:
320,150,179371,2,0,P|274:131|251:88,1,100,2|2,1:3|3:3,0:0:0:0:
482,39,179704,2,0,P|490:87|468:131,1,100,10|2,1:3|1:3,0:0:0:0:
249,205,180037,6,0,B|328:168|328:168|436:200,1,200,2|10,3:3|1:3,0:0:0:0:
240,284,180537,2,0,P|194:265|171:222,1,100,2|2,1:3|1:3,0:0:0:0:
328,72,180871,1,2,3:3:0:0:
332,252,181037,2,0,L|324:351,1,100,10|2,1:3|1:3,0:0:0:0:
408,316,181287,1,8,1:3:0:0:
428,299,181371,6,0,L|435:199,1,100,2|2,3:3|3:3,0:0:0:0:
249,205,181704,2,0,P|212:292|104:264,1,200,10|2,1:3|1:3,0:0:0:0:
48,43,182204,1,2,3:3:0:0:
178,122,182371,2,0,L|171:222,1,100,10|2,1:3|1:3,0:0:0:0:
68,344,182704,6,0,B|104:328|120:283|120:283|152:308|200:300,1,150,2|2,1:3|1:2,0:0:0:0:
244,252,183037,2,0,P|284:232|338:237,1,100,10|2,1:3|1:2,0:0:0:0:
364,384,183371,1,2,1:2:0:0:
342,372,183454,1,10,1:3:0:0:
323,355,183537,1,2,1:3:0:0:
311,333,183621,1,0,0:0:0:0:
304,309,183704,1,8,1:3:0:0:
401,170,183871,1,2,1:3:0:0:
415,191,183954,1,8,1:3:0:0:
422,215,184037,6,0,P|417:264|388:304,1,100,2|2,1:3|1:3,0:0:0:0:
112,272,184371,1,10,1:3:0:0:
336,236,184537,1,2,1:3:0:0:
24,292,184704,2,0,P|29:242|58:203,1,100,2|2,1:3|3:3,0:0:0:0:
267,133,185037,2,0,P|217:186|144:188,1,150,10|2,1:3|1:2,0:0:0:0:
88,120,185371,6,0,B|132:88|184:108|184:108|216:64|216:64|258:49,1,200,2|0,3:3|0:0,0:0:0:0:
405,0,185871,1,2,1:3:0:0:
445,147,186037,2,0,L|349:116,1,100,2|2,1:3|3:3,0:0:0:0:
143,187,186371,2,0,P|183:167|237:172,1,100,10|2,1:3|1:3,0:0:0:0:
298,284,186621,1,8,1:3:0:0:
304,309,186704,6,0,P|352:315|397:294,1,100,2|2,3:3|3:3,0:0:0:0:
204,252,187037,2,0,L|225:349,1,100,10|2,1:3|1:3,0:0:0:0:
104,312,187287,1,2,1:2:0:0:
79,300,187371,2,0,L|57:202,1,100,2|2,1:3|3:3,0:0:0:0:
152,20,187704,1,10,1:3:0:0:
143,187,187871,1,2,1:3:0:0:
293,112,188037,5,2,3:3:0:0:
313,125,188120,1,0,0:0:0:0:
337,132,188203,1,0,0:0:0:0:
362,133,188287,1,0,0:0:0:0:
384,124,188371,2,0,P|408:108|424:84,1,50,0|0,0:0|0:0,0:0:0:0:
337,0,188537,2,0,P|338:24|348:48,1,50,0|0,0:0|0:0,0:0:0:0:
456,167,188704,1,0,0:0:0:0:
224,64,188871,1,0,0:0:0:0:
392,220,189037,1,0,0:0:0:0:
397,254,189120,1,0,0:0:0:0:
402,289,189203,1,0,0:0:0:0:
407,323,189287,1,0,0:0:0:0:
412,358,189371,6,0,B|436:316|412:276|376:264|336:280|336:280|316:268|308:240,1,200,4|8,3:3|2:3,0:0:0:0:
348,48,189871,1,0,2:1:0:0:
202,180,190037,2,0,P|188:227|194:276,1,100,6|2,2:0|3:3,0:0:0:0:
292,132,190371,2,0,P|258:95|212:76,1,100,8|0,2:3|2:0,0:0:0:0:
5,188,190704,6,0,B|70:196|70:196|137:175|137:175|202:180,1,200,2|8,3:3|2:3,0:0:0:0:
397,190,191204,1,0,2:1:0:0:
234,297,191371,1,6,2:0:0:0:
302,114,191538,1,2,3:3:0:0:
354,302,191704,2,0,P|402:312|450:300,1,100,8|2,2:3|1:3,0:0:0:0:
308,220,191954,1,8,1:3:0:0:
281,212,192037,6,0,P|247:248|233:296,1,100,2|2,3:3|3:3,0:0:0:0:
212,76,192371,1,10,2:3:0:0:
397,190,192537,1,2,1:3:0:0:
174,208,192704,1,2,1:3:0:0:
148,230,192787,1,0,0:0:0:0:
130,260,192870,1,2,3:3:0:0:
123,294,192954,1,2,1:2:0:0:
128,328,193037,2,0,P|104:284|64:256,1,100,10|2,1:3|1:3,0:0:0:0:
233,296,193371,5,2,3:3:0:0:
23,360,193537,1,0,2:1:0:0:
72,146,193704,2,0,L|51:49,1,100,8|0,2:3|2:1,0:0:0:0:
185,160,194037,1,6,2:0:0:0:
179,184,194120,1,2,1:2:0:0:
174,208,194204,2,0,P|224:192|272:200,1,100,2|8,3:3|2:3,0:0:0:0:
297,220,194454,1,0,0:0:0:0:
330,231,194537,1,2,1:3:0:0:
365,228,194621,1,8,1:3:0:0:
396,213,194704,6,0,P|426:173|436:125,1,100,4|0,3:3|2:1,0:0:0:0:
284,53,195037,2,0,P|302:99|340:132,1,100,8|0,2:3|2:1,0:0:0:0:
508,62,195371,1,6,2:0:0:0:
481,40,195454,1,2,1:2:0:0:
448,29,195538,1,2,3:3:0:0:
414,31,195621,1,2,1:2:0:0:
381,44,195704,1,8,2:3:0:0:
185,160,195871,1,0,2:0:0:0:
436,125,196037,6,0,P|424:180|296:220,1,200,2|8,3:3|2:3,0:0:0:0:
69,97,196537,1,0,2:1:0:0:
283,52,196704,2,0,P|320:85|339:131,1,100,6|2,2:0|3:3,0:0:0:0:
261,313,197037,1,8,2:3:0:0:
185,160,197204,1,2,1:3:0:0:
190,135,197287,1,8,1:3:0:0:
193,111,197371,6,0,P|248:116|272:152,1,100,2|2,3:3|3:3,0:0:0:0:
145,250,197704,2,0,L|49:219,1,100,10|2,1:3|1:3,0:0:0:0:
141,336,197954,1,2,1:2:0:0:
165,344,198037,2,0,L|261:313,1,100,6|2,2:0|3:3,0:0:0:0:
476,244,198371,1,10,1:3:0:0:
194,111,198537,1,2,1:3:0:0:
188,136,198620,1,2,1:2:0:0:
184,159,198704,6,0,P|193:207|222:248,1,100,2|0,3:3|2:1,0:0:0:0:
437,180,199037,1,8,2:3:0:0:
281,100,199204,1,0,2:1:0:0:
276,125,199287,2,0,L|270:149,2,25,2|0|6,1:2|0:0|2:0,0:0:0:0:
308,238,199454,1,2,1:2:0:0:
305,272,199537,1,2,3:3:0:0:
288,303,199620,1,2,1:2:0:0:
260,324,199704,2,0,P|238:333|213:333,1,50,8|0,2:3|0:0,0:0:0:0:
117,328,199871,2,0,P|92:327|69:337,1,50,2|8,1:3|1:3,0:0:0:0:
203,315,200037,6,0,P|272:295|292:226,1,150,4|0,3:3|0:0,0:0:0:0:
199,143,200371,2,0,L|220:240,1,100,8|0,2:3|2:1,0:0:0:0:
384,288,200704,1,6,2:0:0:0:
276,124,200871,1,2,3:3:0:0:
152,260,201037,2,0,P|104:256|57:229,1,100,8|0,2:3|2:0,0:0:0:0:
148,88,201287,1,0,0:0:0:0:
164,105,201371,6,0,B|200:144|200:144|219:239,1,150,2|2,3:2|2:2,0:0:0:0:
203,315,201704,2,0,P|242:287|295:277,1,100,8|2,2:3|2:3,0:0:0:0:
476,299,202037,1,6,2:0:0:0:
276,124,202204,1,2,3:3:0:0:
471,45,202371,2,0,L|458:144,1,100,8|2,2:3|2:0,0:0:0:0:
380,260,202621,1,8,2:3:0:0:
384,284,202704,6,0,L|396:383,1,100,2|2,3:2|3:3,0:0:0:0:
328,196,203037,1,8,2:3:0:0:
202,315,203204,2,0,P|122:369|28:347,1,200,0|2,2:0|3:3,0:0:0:0:
219,218,203704,2,0,P|265:235|292:277,1,100,8|0,2:3|2:0,0:0:0:0:
100,248,204037,5,10,3:2:0:0:
236,121,204204,1,2,2:3:0:0:
96,328,204371,2,0,P|50:311|23:269,1,100,8|2,2:3|2:3,0:0:0:0:
100,248,204621,1,2,2:2:0:0:
118,218,204704,1,6,2:0:0:0:
124,184,204787,1,8,2:3:0:0:
117,149,204871,2,0,P|100:130|78:119,1,50,2|2,3:3|2:2,0:0:0:0:
219,218,205037,2,0,P|268:216|312:180,1,100,8|2,2:3|3:3,0:0:0:0:
260,48,205287,1,8,2:3:0:0:
253,23,205371,6,0,L|236:121,1,100,2|2,3:2|2:3,0:0:0:0:
361,349,205704,1,8,2:3:0:0:
324,180,205871,2,0,P|269:229|197:224,1,150,2|0,2:3|0:0,0:0:0:0:
124,184,206204,2,0,P|139:164|160:150,1,50,2|0,3:3|2:0,0:0:0:0:
243,146,206371,2,0,L|260:48,1,100,8|2,2:3|2:3,0:0:0:0:
404,302,206704,6,0,P|350:253|278:258,1,150,2|2,3:2|2:2,0:0:0:0:
140,320,207037,2,0,B|156:356|192:360|192:360|240:348|240:348|284:360|320:340,1,200,8|6,2:3|2:0,0:0:0:0:
490,265,207537,1,2,3:3:0:0:
264,72,207704,2,0,L|255:120,1,50,8|2,2:3|2:2,0:0:0:0:
208,284,207871,2,0,L|199:235,1,50,2|0,3:3|3:0,0:0:0:0:
144,104,208037,6,0,L|149:71,2,33.3333333333333,10|8|8,3:3|1:0|1:0,0:0:0:0:
160,150,208204,5,8,3:0:0:0:
131,128,208287,1,8,1:0:0:0:
96,115,208370,1,8,2:3:0:0:
58,114,208453,1,8,2:3:0:0:
23,124,208537,2,0,L|14:172,2,33.3333333333333,10|8|8,3:3|1:0|1:0,0:0:0:0:
84,203,208705,5,8,3:0:0:0:
119,234,208788,1,8,3:0:0:0:
167,242,208871,1,8,3:0:0:0:
211,223,208954,1,8,3:0:0:0:
240,183,209037,2,0,L|286:165,2,33.3333333333333,8|0|0,2:3|0:0|0:0,0:0:0:0:
288,255,209204,5,2,3:3:0:0:
310,269,209287,1,0,3:0:0:0:
335,277,209370,1,10,3:3:0:0:
361,280,209453,1,2,2:2:0:0:
388,275,209537,2,0,L|402:228,1,50,2|2,2:3|2:2,0:0:0:0:
456,35,209704,1,8,2:3:0:0:
146,103,209871,6,0,L|160:150,1,50,2|2,2:3|2:2,0:0:0:0:
214,343,210037,2,0,P|170:319|121:321,1,100,10|0,2:3|3:0,0:0:0:0:
288,255,210371,1,8,2:3:0:0:
361,280,210454,1,2,1:2:0:0:
431,251,210537,1,2,2:3:0:0:
463,182,210621,1,2,1:2:0:0:
441,110,210704,6,0,L|456:36,1,75.0000028610231,2|2,0:3|2:0,0:0:0:0:
448,11,211204,2,0,B|436:83|436:83|364:160,1,150.000005722046,2|2,2:0|2:0,0:0:0:0:
264,72,211704,2,0,P|295:52|332:46,1,75.0000028610231,2|2,0:3|2:0,0:0:0:0:
265,209,212037,6,0,B|216:224|172:192|172:192|128:160|76:175,2,200,2|0|0,0:3|0:0|0:0,0:0:0:0:
255,224,213376,6,0,P|218:226|182:217,1,75.0000028610231,2|2,0:3|2:0,0:0:0:0:
308,140,213876,2,0,P|340:184|336:280,1,150.000005722046,2|2,2:0|2:0,0:0:0:0:
121,321,214376,1,2,0:3:0:0:
256,224,214542,1,2,2:0:0:0:
312,379,214709,6,0,P|349:381|385:372,1,75.0000028610231,2|2,0:3|2:0,0:0:0:0:
420,304,215209,1,2,2:0:0:0:
408,328,215293,1,0,0:0:0:0:
394,350,215376,2,0,P|357:358|320:356,1,75.0000028610231,2|2,0:3|2:0,0:0:0:0:
220,324,215626,1,0,0:0:0:0:
194,314,215709,2,0,P|157:312|121:321,1,75.0000028610231,2|2,0:3|2:0,0:0:0:0:
298,253,216042,6,0,L|306:203,1,50,2|2,3:3|2:0,0:0:0:0:
305,133,216542,2,0,L|288:232,1,100,2|2,2:0|2:0,0:0:0:0:
220,324,217042,2,0,L|228:373,1,50,2|2,0:3|2:0,0:0:0:0:
174,219,217376,6,0,P|118:183|52:183,2,131.999999597168,2|0|0,0:3|0:0|0:0,0:0:0:0:
361,62,218715,6,0,P|308:47|254:60,1,112.500004291535,2|0,0:3|0:0,0:0:0:0:
238,65,219209,2,0,P|191:77|143:69,1,98.999999697876,2|0,0:3|0:0,0:0:0:0:
132,64,219577,1,2,0:3:0:0:
304,132,220048,6,0,P|332:199|292:259,1,150.000005722046,2|2,0:3|0:3,0:0:0:0:
219,259,221375,2,0,P|179:199|207:132,1,150.000005722046,2|0,0:3|0:0,0:0:0:0:
256,192,221875,5,2,0:3:0:0:
256,192,222000,12,0,225875,0:0:0:0:
