osu file format v14

[General]
AudioFilename: Yume Nikki mega mix.mp3
AudioLeadIn: 0
PreviewTime: 135996
Countdown: 0
SampleSet: Normal
StackLeniency: 0.1
Mode: 0
LetterboxInBreaks: 0
WidescreenStoryboard: 0

[Editor]
Bookmarks: 24037,66704,109371,130704,136037,178704
DistanceSpacing: 1.3
BeatDivisor: 12
GridSize: 32
TimelineZoom: 3.999998

[Metadata]
Title:Kono Hoshi de....
TitleUnicode:この星で・・・。
Artist:Camellia
ArtistUnicode:かめりあ
Creator:Krimek
Version:Awakening
Source:ゆめにっき
Tags:yume nikki 夢日記 窓付き dream diary madotsuki 窓付き windowed megamix mega mix かめるかめりあ cametek kamelcamellia electronic instrumental video game Yauxo Arbane -Famous-
BeatmapID:2954855
BeatmapSetID:511759

[Difficulty]
HPDrainRate:6
CircleSize:4.6
OverallDifficulty:9.2
ApproachRate:9.8
SliderMultiplier:2.5
SliderTickRate:1

[Events]
//Background and Video events
0,0,"bg.jpg",0,0
//Break Periods
//Storyboard Layer 0 (Background)
//Storyboard Layer 1 (Fail)
//Storyboard Layer 2 (Pass)
//Storyboard Layer 3 (Foreground)
//Storyboard Layer 4 (Overlay)
//Storyboard Sound Samples

[TimingPoints]
38,333.333333333333,4,1,1,50,1,0
2704,-100,4,1,1,50,0,0
3371,-133.333333333333,4,1,1,50,0,0
3621,-161.290322580645,4,1,1,50,0,0
3871,-100,4,1,1,50,0,0
4704,-200,4,1,1,50,0,0
5037,-133.333333333333,4,1,1,50,0,0
5371,-100,4,1,1,50,0,0
6037,-133.333333333333,4,1,1,50,0,0
6287,-161.290322580645,4,1,1,50,0,0
6537,-100,4,1,1,50,0,0
6704,-200,4,1,1,50,0,0
8037,-100,4,1,1,50,0,0
8704,-133.333333333333,4,1,1,50,0,0
8954,-161.290322580645,4,1,1,50,0,0
9204,-100,4,1,1,50,0,0
9704,-133.333333333333,4,1,1,50,0,0
10037,-200,4,1,1,50,0,0
10371,-100,4,1,1,50,0,0
11371,-133.333333333333,4,1,1,50,0,0
11621,-161.290322580645,4,1,1,50,0,0
11871,-100,4,1,1,50,0,0
14037,-133.333333333333,4,1,1,50,0,0
14287,-161.290322580645,4,1,1,50,0,0
14537,-100,4,1,1,50,0,0
15371,-200,4,1,1,50,0,0
15704,-133.333333333333,4,1,1,50,0,0
16037,-100,4,1,1,50,0,0
16704,-133.333333333333,4,1,1,50,0,0
16954,-161.290322580645,4,1,1,50,0,0
17204,-100,4,1,1,50,0,0
17371,-200,4,1,1,50,0,0
18704,-100,4,1,1,50,0,0
20371,-133.333333333333,4,1,1,50,0,0
20704,-200,4,1,1,50,0,0
21037,-100,4,1,1,50,0,0
22037,-133.333333333333,4,1,1,50,0,0
22287,-161.290322580645,4,1,1,50,0,0
22537,-100,4,1,1,50,0,0
23204,-100,4,1,1,60,0,0
24037,-100,4,1,1,60,0,0
24704,-66.6666666666667,4,1,1,60,0,0
25037,-80,4,1,1,60,0,0
25204,-100,4,1,1,60,0,0
25371,-200,4,1,1,60,0,0
25704,-100,4,1,1,60,0,0
25871,-200,4,1,1,60,0,0
26037,-100,4,1,1,60,0,0
27537,-66.6666666666667,4,1,1,60,0,0
27870,-80,4,1,1,60,0,0
28037,-100,4,1,1,60,0,0
28704,-133.333333333333,4,1,1,60,0,0
28871,-100,4,1,1,60,0,0
29037,-79.9999999999999,4,1,1,60,0,0
29371,-100,4,1,1,60,0,0
30037,-66.6666666666667,4,1,1,60,0,0
30370,-57.1428571428571,4,1,1,60,0,0
30537,-100,4,1,1,60,0,0
32704,-57.1428571428571,4,1,1,60,0,0
32787,-59.8802395209581,4,1,1,60,0,0
32871,-66.6666666666667,4,1,1,60,0,0
32954,-72.992700729927,4,1,1,60,0,0
33037,-57.1428571428571,4,1,1,60,0,0
33120,-59.8802395209581,4,1,1,60,0,0
33204,-66.6666666666667,4,1,1,60,0,0
33287,-72.992700729927,4,1,1,60,0,0
33371,-400,4,1,1,60,0,0
33871,-100,4,1,1,60,0,0
34038,-133.333333333333,4,1,1,60,0,0
34205,-100,4,1,1,60,0,0
34371,-79.9999999999999,4,1,1,60,0,0
34705,-66.6666666666667,4,1,1,60,0,0
36037,-200,4,1,1,60,0,0
36370,-100,4,1,1,60,0,0
36537,-200,4,1,1,60,0,0
36703,-100,4,1,1,60,0,0
38203,-66.6666666666667,4,1,1,60,0,0
38536,-80,4,1,1,60,0,0
38703,-100,4,1,1,60,0,0
39370,-133.333333333333,4,1,1,60,0,0
39537,-100,4,1,1,60,0,0
39703,-79.9999999999999,4,1,1,60,0,0
40037,-100,4,1,1,60,0,0
40703,-66.6666666666667,4,1,1,60,0,0
41036,-57.1428571428571,4,1,1,60,0,0
41203,-100,4,1,1,60,0,0
43370,-57.1428571428571,4,1,1,60,0,0
43453,-59.8802395209581,4,1,1,60,0,0
43537,-66.6666666666667,4,1,1,60,0,0
43620,-72.992700729927,4,1,1,60,0,0
43703,-57.1428571428571,4,1,1,60,0,0
43786,-59.8802395209581,4,1,1,60,0,0
43870,-66.6666666666667,4,1,1,60,0,0
43953,-72.992700729927,4,1,1,60,0,0
44037,-400,4,1,1,50,0,0
45037,-400,4,1,1,55,0,0
45371,-57.1428571428571,4,1,1,60,0,0
45704,-80,4,1,1,60,0,0
46704,-133.333333333333,4,1,1,60,0,0
47037,-80,4,1,1,60,0,0
47204,-200,4,1,1,60,0,0
47370,-100,4,1,1,60,0,0
47537,-133.333333333333,4,1,1,60,0,0
47704,-100,4,1,1,60,0,0
47871,-80,4,1,1,60,0,0
48037,-66.6666666666667,4,1,1,60,0,0
48704,-66.6666666666667,4,1,1,60,0,0
49037,-80,4,1,1,60,0,0
50704,-57.1428571428571,4,1,1,60,0,0
51037,-80,4,1,1,60,0,0
52037,-100,4,1,1,60,0,0
54037,-57.1428571428571,4,1,1,60,0,0
54120,-59.8802395209581,4,1,1,60,0,0
54204,-66.6666666666667,4,1,1,60,0,0
54287,-72.992700729927,4,1,1,60,0,0
54704,-57.1428571428571,4,1,1,60,0,0
54787,-59.8802395209581,4,1,1,60,0,0
54871,-66.6666666666667,4,1,1,60,0,0
54954,-72.992700729927,4,1,1,60,0,0
56037,-57.1428571428571,4,1,1,60,0,0
56370,-80,4,1,1,60,0,0
57371,-133.333333333333,4,1,1,60,0,0
57703,-80,4,1,1,60,0,0
57870,-200,4,1,1,60,0,0
58036,-100,4,1,1,60,0,0
58203,-133.333333333333,4,1,1,60,0,0
58370,-100,4,1,1,60,0,0
58537,-80,4,1,1,60,0,0
58703,-66.6666666666667,4,1,1,60,0,0
59370,-66.6666666666667,4,1,1,60,0,0
59703,-80,4,1,1,60,0,0
61370,-57.1428571428571,4,1,1,60,0,0
61703,-80,4,1,1,60,0,0
62703,-100,4,1,1,60,0,0
64703,-57.1428571428571,4,1,1,60,0,0
64786,-59.8802395209581,4,1,1,60,0,0
64870,-66.6666666666667,4,1,1,60,0,0
64953,-72.992700729927,4,1,1,60,0,0
65037,-57.1428571428571,4,1,1,60,0,0
65120,-59.8802395209581,4,1,1,60,0,0
65204,-66.6666666666667,4,1,1,60,0,0
65287,-72.992700729927,4,1,1,60,0,0
66704,-100,4,1,1,50,0,0
67204,-200,4,1,1,50,0,0
67704,-100,4,1,1,50,0,0
68537,-133.333333333333,4,1,1,50,0,0
69037,-100,4,1,1,50,0,0
73871,-200,4,1,1,50,0,0
74037,-149.253731343284,4,1,1,50,0,0
74204,-133.333333333333,4,1,1,50,0,0
74371,-100,4,1,1,50,0,0
77871,-200,4,1,1,50,0,0
78704,-100,4,1,1,50,0,0
79204,-133.333333333333,4,1,1,50,0,0
79704,-100,4,1,1,50,0,0
88037,-80,4,1,1,50,0,0
109371,-100,4,1,1,50,0,0
110704,-200,4,1,1,60,0,0
111037,-100,4,1,1,60,0,0
111204,-200,4,1,1,60,0,0
111370,-100,4,1,1,60,0,0
113371,-200,4,1,1,60,0,0
113704,-100,4,1,1,60,0,0
113871,-200,4,1,1,60,0,0
114037,-100,4,1,1,60,0,0
120037,-200,4,1,1,50,0,0
125037,-100,4,1,1,50,0,0
125371,-200,4,1,1,50,0,0
129371,-133.333333333333,4,1,1,50,0,0
130704,-100,4,1,1,50,0,0
131371,-133.333333333333,4,1,1,50,0,0
131621,-161.290322580645,4,1,1,50,0,0
131871,-100,4,1,1,50,0,0
133037,-100,4,1,1,50,0,0
134287,-133.333333333333,4,1,1,50,0,0
134537,-100,4,1,1,50,0,0
134704,-133.333333333333,4,1,1,50,0,0
135704,-400,4,1,1,60,0,0
136037,-66.6666666666667,4,1,1,70,0,1
136704,-57.1428571428571,4,1,1,70,0,1
137371,-50,4,1,1,70,0,1
138704,-66.6666666666667,4,1,1,70,0,1
140037,-100,4,1,1,70,0,1
140704,-66.6666666666667,4,1,1,70,0,1
141037,-50,4,1,1,70,0,1
141371,-66.6666666666667,4,1,1,70,0,1
142038,-57.1428571428571,4,1,1,70,0,1
142705,-50,4,1,1,70,0,1
144037,-66.6666666666667,4,1,1,70,0,1
144704,-57.1428571428571,4,1,1,70,0,1
145371,-61.7283950617284,4,1,1,70,0,1
146038,-66.6666666666667,4,1,1,70,0,1
146371,-100,4,1,1,70,0,1
146704,-66.6666666666667,4,1,1,70,0,1
147371,-57.1428571428571,4,1,1,70,0,1
148037,-50,4,1,1,70,0,1
149371,-66.6666666666667,4,1,1,70,0,1
150704,-100,4,1,1,70,0,1
151371,-66.6666666666667,4,1,1,70,0,1
151704,-50,4,1,1,70,0,1
152037,-66.6666666666667,4,1,1,70,0,1
152705,-57.1428571428571,4,1,1,70,0,1
153371,-50,4,1,1,70,0,1
154704,-66.6666666666667,4,1,1,70,0,1
155371,-57.1428571428571,4,1,1,70,0,1
156037,-61.7283950617284,4,1,1,70,0,1
156371,-66.6666666666667,4,1,1,70,0,1
156705,-66.6666666666667,4,1,1,70,0,1
157038,-100,4,1,1,70,0,1
157371,-66.6666666666667,4,1,1,70,0,1
158038,-57.1428571428571,4,1,1,70,0,1
158705,-50,4,1,1,70,0,1
160038,-66.6666666666667,4,1,1,70,0,1
161371,-100,4,1,1,70,0,1
162038,-66.6666666666667,4,1,1,70,0,1
162371,-50,4,1,1,70,0,1
162704,-66.6666666666667,4,1,1,70,0,1
163372,-57.1428571428571,4,1,1,70,0,1
164039,-50,4,1,1,70,0,1
165371,-57.1428571428571,4,1,1,70,0,1
165454,-59.8802395209581,4,1,1,70,0,1
165538,-66.6666666666667,4,1,1,70,0,1
165621,-72.992700729927,4,1,1,70,0,1
165704,-66.6666666666667,4,1,1,70,0,1
166704,-57.1428571428571,4,1,1,70,0,1
167372,-66.6666666666667,4,1,1,70,0,1
167705,-66.6666666666667,4,1,1,70,0,1
168038,-66.6666666666667,4,1,1,70,0,1
168704,-57.1428571428571,4,1,1,70,0,1
169371,-50,4,1,1,70,0,1
170705,-66.6666666666667,4,1,1,70,0,1
172705,-66.6666666666667,4,1,1,70,0,1
173038,-50,4,1,1,70,0,1
173371,-66.6666666666667,4,1,1,70,0,1
174039,-57.1428571428571,4,1,1,70,0,1
174704,-50,4,1,1,70,0,1
176038,-66.6666666666667,4,1,1,70,0,1
176705,-57.1428571428571,4,1,1,70,0,1
177371,-61.7283950617284,4,1,1,70,0,1
178039,-66.6666666666667,4,1,1,70,0,1
178372,-100,4,1,1,70,0,1
178704,-100,4,1,1,60,0,0
179204,-200,4,1,1,50,0,0
179704,-100,4,1,1,50,0,0
180537,-133.333333333333,4,1,1,50,0,0
181037,-100,4,1,1,50,0,0
185871,-200,4,1,1,50,0,0
186037,-149.253731343284,4,1,1,50,0,0
186204,-133.333333333333,4,1,1,50,0,0
186371,-100,4,1,1,50,0,0
189371,-80,4,1,1,60,0,0
201371,-200,4,1,1,60,0,0
201704,-100,4,1,1,60,0,0
201871,-200,4,1,1,60,0,0
202037,-100,4,1,1,60,0,0
202704,-80,4,1,1,60,0,0
204037,-200,4,1,1,60,0,0
204371,-100,4,1,1,60,0,0
204537,-200,4,1,1,60,0,0
204704,-100,4,1,1,60,0,0
205371,-80,4,1,1,60,0,0
206704,-100,4,1,1,60,0,0
208037,-100,4,1,1,60,0,0
210704,-200,4,1,1,50,0,0
212037,446.428571428571,4,1,1,50,1,0
212037,-200,4,1,1,50,0,0
213376,333.333333333333,4,1,1,50,1,0
213376,-200,4,1,1,50,0,0
216042,-200,4,1,1,40,0,0
217376,446.428571428571,3,1,1,40,1,0
217376,-200,3,1,1,40,0,0
218715,494.641384995878,3,1,1,40,1,0
218715,-200,3,1,1,40,0,0
219209,368.098159509202,3,1,1,40,1,8
219209,-200,3,1,1,40,0,8
219577,471.698113207547,3,1,1,40,1,8
219577,-200,3,1,1,40,0,8
220048,500,3,1,1,40,1,0
220048,-200,3,1,1,40,0,0
220548,413.793103448276,3,1,1,40,1,8
221375,500,3,1,1,40,1,0
221375,-200,3,1,1,40,0,0
222875,-200,4,1,1,35,0,0
223375,-200,4,1,1,30,0,0
223875,-200,4,1,1,25,0,0
224375,-200,4,1,1,20,0,0
224875,-200,4,1,1,15,0,0
225375,-200,4,1,1,10,0,0
225875,-200,4,1,1,5,0,0

[Colours]
Combo1 : 111,106,111
Combo2 : 189,79,112
Combo3 : 136,85,111

[HitObjects]
256,192,38,12,0,2537,0:0:0:0:
146,38,2704,6,0,B|151:69|151:69|131:130|131:130|136:168,1,125,2|2,0:3|2:0,0:0:0:0:
138,189,2954,1,0,0:0:0:0:
143,220,3037,1,2,0:3:0:0:
72,61,3204,1,2,2:0:0:0:
207,135,3371,6,0,P|222:180|223:227,1,93.7500035762788,2|2,0:3|2:0,0:0:0:0:
286,310,3621,2,0,P|300:273|304:235,1,77.4999969253541,0|0,2:0|0:0,0:0:0:0:
365,134,3871,2,0,P|378:170|382:207,1,62.5,2|0,2:0|0:0,0:0:0:0:
442,290,4037,5,2,0:3:0:0:
443,242,4121,1,0,0:0:0:0:
460,212,4204,1,0,0:0:0:0:
488,192,4287,1,0,0:0:0:0:
506,163,4371,1,2,0:3:0:0:
511,132,4454,1,0,0:0:0:0:
504,106,4537,1,0,0:0:0:0:
490,89,4621,1,0,0:0:0:0:
474,77,4704,6,0,L|443:71,1,31.25,2|0,0:3|0:0,0:0:0:0:
365,134,4871,2,0,L|334:139,1,31.25,0|0,0:0|0:0,0:0:0:0:
256,38,5037,2,0,L|208:29,1,46.8750017881394,2|0,0:3|0:0,0:0:0:0:
147,172,5204,2,0,L|99:181,1,46.8750017881394,0|0,0:0|0:0,0:0:0:0:
34,44,5371,6,0,L|165:68,1,125,2|2,0:3|2:0,0:0:0:0:
236,124,5621,1,0,0:0:0:0:
241,155,5704,1,2,0:3:0:0:
221,363,5871,1,2,2:0:0:0:
320,212,6037,6,0,L|443:235,1,93.7500035762788,2|2,0:3|2:0,0:0:0:0:
231,259,6287,2,0,L|311:274,1,77.4999969253541,0|0,2:0|0:0,0:0:0:0:
141,305,6537,2,0,L|221:320,1,62.5,2|0,2:0|0:0,0:0:0:0:
51,351,6704,5,10,0:2:0:0:
54,351,6787,1,0,0:0:0:0:
58,352,6871,1,2,2:0:0:0:
62,353,6954,1,0,0:0:0:0:
65,353,7037,1,2,0:3:0:0:
69,354,7121,1,0,0:0:0:0:
73,355,7204,1,2,2:0:0:0:
76,355,7287,1,0,0:0:0:0:
80,356,7371,5,2,0:3:0:0:
220,376,7537,1,2,2:0:0:0:
307,273,7704,1,2,0:3:0:0:
446,292,7871,1,2,2:0:0:0:
264,325,8037,6,0,P|240:265|320:209,1,125,2|2,0:3|2:0,0:0:0:0:
298,207,8287,1,0,0:0:0:0:
329,211,8371,1,2,0:3:0:0:
423,355,8537,1,2,2:0:0:0:
454,359,8621,1,0,2:0:0:0:
483,349,8704,6,0,P|512:313|510:267,1,93.7500035762788,2|2,0:3|2:0,0:0:0:0:
381,294,8954,2,0,P|397:336|438:358,1,77.4999969253541,0|0,0:0|0:0,0:0:0:0:
465,225,9204,2,0,P|442:223|406:236,1,62.5,2|0,2:0|0:0,0:0:0:0:
256,349,9371,5,2,0:3:0:0:
226,313,9454,1,0,2:0:0:0:
181,300,9537,1,2,2:0:0:0:
137,313,9621,1,0,2:0:0:0:
107,349,9704,5,2,0:3:0:0:
123,305,9787,1,0,2:0:0:0:
111,259,9871,1,2,2:0:0:0:
78,227,9954,1,0,2:0:0:0:
32,219,10037,5,2,0:3:0:0:
78,210,10121,1,0,2:0:0:0:
111,177,10204,1,2,2:0:0:0:
123,132,10287,1,0,2:0:0:0:
107,89,10371,5,2,0:3:0:0:
135,123,10454,1,0,2:0:0:0:
180,135,10537,1,2,2:0:0:0:
236,119,10621,1,0,2:0:0:0:
277,66,10704,6,0,P|331:36|391:49,1,125,2|2,0:3|2:0,0:0:0:0:
458,139,11037,2,0,P|398:152|345:123,1,125,2|2,0:3|2:0,0:0:0:0:
354,142,11287,1,0,2:0:0:0:
364,160,11371,2,0,L|347:284,1,93.7500035762788,2|2,0:3|2:0,0:0:0:0:
269,180,11621,2,0,L|257:267,1,77.4999969253541,0|0,0:0|0:0,0:0:0:0:
174,200,11871,2,0,L|162:287,1,62.5,2|0,2:0|0:0,0:0:0:0:
79,220,12037,5,10,0:2:0:0:
77,227,12121,1,0,2:0:0:0:
76,234,12204,1,0,2:0:0:0:
75,242,12287,1,0,2:0:0:0:
74,249,12371,1,2,0:3:0:0:
73,257,12454,1,0,2:0:0:0:
72,264,12537,1,0,2:0:0:0:
71,272,12621,1,0,2:0:0:0:
71,280,12704,5,2,0:3:0:0:
116,257,12787,1,0,2:0:0:0:
165,261,12871,1,2,2:0:0:0:
204,292,12954,1,0,2:0:0:0:
217,339,13037,1,2,0:3:0:0:
250,370,13121,1,0,2:0:0:0:
290,377,13204,1,2,2:0:0:0:
327,368,13287,1,0,2:0:0:0:
348,349,13371,6,0,L|368:200,1,125,2|2,0:3|2:0,0:0:0:0:
368,194,13621,1,0,0:0:0:0:
372,163,13704,1,2,0:3:0:0:
285,295,13871,1,2,2:0:0:0:
463,215,14037,6,0,P|462:262|442:304,1,93.7500035762788,2|2,0:3|2:0,0:0:0:0:
371,163,14287,2,0,P|335:175|296:175,1,77.4999969253541,0|0,2:0|0:0,0:0:0:0:
392,58,14537,2,0,P|372:33|361:5,1,62.5,2|0,2:0|0:0,0:0:0:0:
488,106,14704,5,2,0:3:0:0:
448,150,14787,1,0,0:0:0:0:
405,166,14870,1,0,0:0:0:0:
371,163,14954,1,0,0:0:0:0:
341,147,15037,1,2,0:3:0:0:
320,123,15120,1,0,0:0:0:0:
308,103,15204,1,0,0:0:0:0:
301,87,15287,1,0,0:0:0:0:
296,69,15371,6,0,P|294:51|298:31,1,31.25,2|0,0:3|0:0,0:0:0:0:
243,115,15537,2,0,P|232:100|225:81,1,31.25,0|0,0:0|0:0,0:0:0:0:
213,191,15704,2,0,P|192:180|176:163,1,46.8750017881394,2|0,0:3|0:0,0:0:0:0:
229,289,15871,2,0,P|205:290|183:283,1,46.8750017881394,0|0,0:0|0:0,0:0:0:0:
303,356,16037,6,0,P|250:388|189:382,1,125,2|2,0:3|2:0,0:0:0:0:
176,163,16371,2,0,P|123:131|62:137,1,125,2|2,0:3|2:0,0:0:0:0:
183,283,16704,6,0,P|122:268|85:223,1,93.7500035762788,2|2,0:3|2:0,0:0:0:0:
283,216,16954,2,0,P|301:249|306:287,1,77.4999969253541,0|0,2:0|0:0,0:0:0:0:
176,163,17204,2,0,P|194:137|219:118,1,62.5,2|0,2:0|0:0,0:0:0:0:
312,137,17371,5,10,0:2:0:0:
315,135,17454,1,0,0:0:0:0:
318,133,17537,1,2,2:0:0:0:
321,131,17621,1,0,0:0:0:0:
324,128,17704,1,2,0:3:0:0:
327,126,17787,1,0,0:0:0:0:
330,124,17871,1,2,2:0:0:0:
333,121,17954,1,0,0:0:0:0:
335,118,18037,5,2,0:3:0:0:
195,98,18204,1,2,2:0:0:0:
107,209,18371,1,2,0:3:0:0:
159,340,18537,1,2,2:0:0:0:
299,360,18704,6,0,P|328:302|253:239,1,125,2|2,0:3|2:0,0:0:0:0:
274,239,18954,1,0,0:0:0:0:
243,240,19037,1,2,0:3:0:0:
124,276,19204,1,2,2:0:0:0:
92,277,19287,1,0,2:0:0:0:
65,265,19371,6,0,P|39:226|45:180,1,93.7500035762788,2|0,0:3|0:0,0:0:0:0:
172,219,19621,2,0,P|152:259|109:277,1,62.5,0|2,0:0|0:3,0:0:0:0:
93,143,19871,2,0,P|116:143|150:159,1,62.5,2|0,2:0|0:0,0:0:0:0:
239,215,20037,5,2,0:3:0:0:
270,181,20121,1,0,2:0:0:0:
318,173,20204,1,2,2:0:0:0:
361,189,20287,1,0,2:0:0:0:
387,227,20371,1,2,0:3:0:0:
384,276,20454,1,0,2:0:0:0:
359,314,20537,1,2,2:0:0:0:
316,332,20621,1,0,2:0:0:0:
254,302,20704,5,2,0:3:0:0:
259,255,20787,1,0,2:0:0:0:
239,215,20871,1,2,2:0:0:0:
198,188,20954,1,0,2:0:0:0:
152,191,21037,1,2,0:3:0:0:
117,220,21121,1,0,2:0:0:0:
100,266,21204,1,2,2:0:0:0:
114,310,21287,1,0,2:0:0:0:
157,379,21371,6,0,P|192:329|182:269,1,125,10|2,0:2|2:0,0:0:0:0:
91,142,21704,2,0,P|81:82|116:33,1,125,2|2,0:3|2:0,0:0:0:0:
139,39,21954,1,0,2:0:0:0:
162,46,22037,2,0,L|178:170,1,93.7500035762788,2|2,0:3|2:0,0:0:0:0:
274,77,22287,2,0,L|285:172,1,77.4999969253541,0|0,0:0|0:0,0:0:0:0:
383,108,22537,2,0,L|394:194,1,62.5,2|0,2:0|0:0,0:0:0:0:
492,137,22704,5,6,0:2:0:0:
493,149,23037,1,6,0:2:0:0:
495,161,23204,6,0,L|502:224,1,62.5,0|0,3:0|3:0,0:0:0:0:
383,108,23371,5,8,3:3:0:0:
337,65,23454,1,8,3:3:0:0:
318,195,23621,5,8,3:3:0:0:
300,136,23704,1,8,3:3:0:0:
217,237,23871,5,8,3:3:0:0:
231,177,23954,1,8,3:3:0:0:
178,121,24037,6,0,P|204:104|235:101,1,62.5,4|0,3:3|0:0,0:0:0:0:
65,173,24204,2,0,P|91:189|122:192,1,62.5,0|0,2:1|0:0,0:0:0:0:
9,100,24371,1,8,2:3:0:0:
231,177,24537,5,0,2:1:0:0:
224,207,24621,1,0,0:0:0:0:
217,237,24704,2,0,P|259:258|305:257,1,93.7500035762788,6|0,2:0|0:0,0:0:0:0:
340,110,24871,5,2,3:3:0:0:
335,80,24954,1,0,0:0:0:0:
331,55,25037,2,0,P|364:36|402:32,1,78.125,8|0,2:3|0:0,0:0:0:0:
474,159,25204,2,0,L|463:229,1,62.5,0|0,2:0|0:0,0:0:0:0:
367,360,25371,6,0,P|367:352|368:344,1,15.625,2|0,3:2|0:0,0:0:0:0:
347,346,25454,2,0,P|351:339|356:333,1,15.625,2|0,2:2|0:0,0:0:0:0:
336,323,25537,2,0,P|342:319|350:316,1,15.625,2|0,2:3|0:0,0:0:0:0:
338,298,25621,2,0,P|345:298|353:299,1,15.625,2|0,2:2|0:0,0:0:0:0:
351,277,25704,2,0,P|363:248|384:225,1,62.5,8|2,2:3|2:2,0:0:0:0:
313,183,25871,6,0,P|305:183|297:185,1,15.625,2|0,2:3|0:0,0:0:0:0:
320,166,25954,2,0,P|312:162|305:160,1,15.625,2|0,2:2|0:0,0:0:0:0:
333,153,26037,2,0,P|361:139|392:137,1,62.5,6|0,2:0|0:0,0:0:0:0:
407,54,26204,6,0,P|436:64|459:84,1,62.5,2|2,3:3|2:2,0:0:0:0:
430,289,26371,1,8,2:3:0:0:
214,191,26537,1,2,2:0:0:0:
346,54,26704,6,0,P|407:51|459:84,1,125,2|2,3:2|3:3,0:0:0:0:
384,225,27037,1,8,2:3:0:0:
214,191,27204,1,0,2:0:0:0:
311,92,27371,5,6,2:0:0:0:
341,85,27454,1,0,0:0:0:0:
371,78,27537,2,0,P|399:115|400:162,1,93.7500035762788,2|0,3:3|2:0,0:0:0:0:
249,228,27704,5,8,2:3:0:0:
219,221,27787,1,0,0:0:0:0:
188,214,27871,2,0,P|168:248|165:287,1,78.125,0|0,2:0|0:0,0:0:0:0:
430,289,28037,5,10,3:2:0:0:
436,347,28121,1,2,2:2:0:0:
386,378,28204,1,2,2:3:0:0:
336,346,28287,1,2,2:2:0:0:
345,287,28371,1,8,2:3:0:0:
353,228,28454,1,2,2:2:0:0:
303,195,28537,1,2,2:3:0:0:
253,226,28621,1,2,2:2:0:0:
260,285,28704,6,0,L|197:282,1,46.8750017881394,6|8,2:0|2:3,0:0:0:0:
362,166,28871,2,0,L|425:163,1,62.5,2|2,3:3|2:2,0:0:0:0:
430,289,29037,6,0,P|471:299|508:292,1,78.125,8|2,2:3|2:2,0:0:0:0:
336,346,29204,1,2,3:3:0:0:
345,287,29287,1,8,2:3:0:0:
353,228,29371,2,0,L|362:166,1,62.5,2|0,3:2|0:0,0:0:0:0:
379,84,29537,2,0,L|388:22,1,62.5,2|0,2:3|0:0,0:0:0:0:
306,112,29704,6,0,L|247:135,1,62.5,8|0,2:3|0:0,0:0:0:0:
435,138,29871,1,2,2:3:0:0:
493,114,29954,1,0,2:0:0:0:
484,175,30037,2,0,B|467:293|467:293|539:262,1,187.5,6|2,2:0|3:3,0:0:0:0:
426,199,30287,5,0,2:0:0:0:
435,138,30371,2,0,P|451:88|452:20,1,109.375001043081,8|0,2:3|0:0,0:0:0:0:
383,53,30537,6,0,B|366:55|366:55|352:48,2,31.25,2|0|0,2:3|0:0|0:0,0:0:0:0:
291,117,30704,5,2,3:2:0:0:
276,123,30787,2,0,L|247:135,2,31.25,2|0|2,2:2|0:0|2:3,0:0:0:0:
192,74,30954,5,2,2:2:0:0:
176,68,31037,1,8,2:3:0:0:
160,62,31121,2,0,L|131:49,2,31.25,2|0|2,2:2|0:0|2:3,0:0:0:0:
99,127,31287,5,2,2:2:0:0:
84,132,31371,1,6,2:0:0:0:
69,137,31454,1,2,2:2:0:0:
54,143,31537,2,0,L|25:155,2,31.25,2|0|2,3:3|0:0|2:2,0:0:0:0:
198,188,31704,5,8,2:3:0:0:
257,203,31787,1,2,2:2:0:0:
295,251,31871,1,2,3:3:0:0:
294,313,31954,1,0,3:0:0:0:
255,360,32037,6,0,P|228:376|198:380,1,62.5,2|0,3:2|0:0,0:0:0:0:
203,282,32204,2,0,P|171:279|145:264,1,62.5,2|0,2:3|0:0,0:0:0:0:
198,188,32371,2,0,P|174:167|161:139,1,62.5,8|0,2:3|0:0,0:0:0:0:
249,109,32537,2,0,P|242:78|247:48,1,62.5,2|8,2:3|2:3,0:0:0:0:
377,107,32704,6,0,P|392:83|395:56,1,54.6875005215406,6|0,3:2|0:0,0:0:0:0:
377,106,32787,2,0,P|401:94|421:78,1,52.187498367548,0|0,0:0|0:0,0:0:0:0:
377,107,32871,2,0,P|401:110|424:109,1,46.8750017881394,2|0,3:3|0:0,0:0:0:0:
377,106,32954,2,0,P|391:121|410:131,1,42.8125012085438,0|0,2:0|0:0,0:0:0:0:
348,179,33037,6,0,P|351:206|366:229,1,54.6875005215406,8|2,2:3|2:2,0:0:0:0:
322,200,33121,2,0,P|342:217|366:229,1,52.187498367548,2|0,2:2|0:0,0:0:0:0:
319,231,33204,2,0,P|342:232|366:229,1,46.8750017881394,2|0,2:3|0:0,0:0:0:0:
332,255,33287,2,0,P|350:244|366:229,1,42.8125012085438,0|0,2:0|0:0,0:0:0:0:
395,309,33371,6,0,L|399:315,6,7.8125,10|2|2|0|2|0|2,3:2|2:2|2:2|0:0|2:3|0:0|2:2,0:0:0:0:
472,222,33704,5,8,2:3:0:0:
307,94,33871,2,0,P|279:109|249:109,1,62.5,2|2,2:3|2:2,0:0:0:0:
52,69,34037,5,6,2:2:0:0:
93,23,34121,1,8,2:3:0:0:
151,0,34204,1,0,3:0:0:0:
212,7,34287,1,2,2:2:0:0:
264,40,34371,5,8,2:3:0:0:
276,30,34454,1,2,1:2:0:0:
291,25,34537,1,2,2:3:0:0:
306,23,34621,1,2,1:2:0:0:
322,25,34704,6,0,B|362:46|389:37|419:26|456:57|456:57|412:98|353:97,1,234.375,6|0,3:3|0:0,0:0:0:0:
307,94,35037,1,8,2:3:0:0:
288,384,35204,1,0,3:0:0:0:
232,168,35371,5,6,2:2:0:0:
248,109,35454,1,0,0:0:0:0:
173,183,35621,5,8,2:3:0:0:
189,124,35704,1,0,3:0:0:0:
114,198,35871,5,8,2:3:0:0:
130,139,35954,1,0,3:0:0:0:
70,154,36037,6,0,P|72:161|75:169,1,15.625,6|0,3:2|0:0,0:0:0:0:
54,172,36121,2,0,P|59:177|66:182,1,15.625,2|0,2:2|0:0,0:0:0:0:
49,197,36204,2,0,P|55:199|64:200,1,15.625,2|2,2:3|2:2,0:0:0:0:
58,221,36287,2,0,P|64:219|72:216,1,15.625,2|2,2:2|2:2,0:0:0:0:
75,237,36371,2,0,P|103:252|134:250,1,62.5,8|2,2:3|2:2,0:0:0:0:
133,334,36537,6,0,P|129:340|123:346,1,15.625,2|0,2:3|0:0,0:0:0:0:
151,336,36621,2,0,P|150:344|148:351,1,15.625,2|0,2:2|0:0,0:0:0:0:
168,331,36704,2,0,P|194:313|211:287,1,62.5,6|0,2:0|0:0,0:0:0:0:
291,317,36871,6,0,P|296:286|291:256,1,62.5,2|2,3:3|2:2,0:0:0:0:
114,198,37037,2,0,P|108:167|113:137,1,62.5,8|2,2:3|2:2,0:0:0:0:
291,79,37204,2,0,P|296:48|291:18,1,62.5,10|8,2:3|2:3,0:0:0:0:
103,52,37371,6,0,B|157:56|157:56|169:47|169:47|226:51,1,125,2|2,3:2|3:3,0:0:0:0:
39,85,37704,1,8,2:3:0:0:
290,18,37871,1,2,2:3:0:0:
176,178,38037,5,6,2:0:0:0:
185,149,38121,1,0,0:0:0:0:
194,119,38204,2,0,L|321:123,1,93.7500035762788,2|0,3:3|2:0,0:0:0:0:
232,247,38371,5,8,2:3:0:0:
241,218,38454,1,0,0:0:0:0:
250,188,38537,2,0,L|377:192,1,78.125,2|0,2:3|0:0,0:0:0:0:
305,261,38704,5,10,3:2:0:0:
355,296,38787,1,2,2:2:0:0:
416,302,38871,1,2,2:3:0:0:
473,277,38954,1,2,2:2:0:0:
508,228,39037,1,8,2:3:0:0:
509,168,39121,1,2,2:2:0:0:
456,142,39204,1,2,2:3:0:0:
408,184,39287,1,2,2:2:0:0:
422,236,39371,6,0,L|359:233,1,46.8750017881394,6|0,2:0|0:0,0:0:0:0:
456,142,39537,2,0,L|393:139,1,62.5,2|2,3:3|2:2,0:0:0:0:
489,48,39704,2,0,L|391:42,1,78.125,8|2,2:3|2:2,0:0:0:0:
393,139,39871,5,2,3:3:0:0:
408,184,39954,1,8,2:3:0:0:
421,235,40037,2,0,P|444:262|475:279,1,62.5,2|0,3:2|0:0,0:0:0:0:
328,230,40204,2,0,P|294:236|264:254,1,62.5,2|0,2:3|0:0,0:0:0:0:
393,139,40371,6,0,P|404:106|403:71,1,62.5,8|0,2:3|0:0,0:0:0:0:
338,111,40537,1,2,2:3:0:0:
281,81,40621,5,0,2:0:0:0:
228,114,40704,2,0,L|395:7,1,187.500007152558,6|2,2:0|3:3,0:0:0:0:
338,111,40954,5,0,0:0:0:0:
284,143,41037,2,0,L|451:36,1,109.375001043081,8|0,2:3|0:0,0:0:0:0:
340,172,41204,6,0,L|399:133,1,62.5,2|0,2:3|0:0,0:0:0:0:
396,201,41371,5,2,3:2:0:0:
409,192,41454,2,0,L|433:172,2,31.25,2|0|2,2:2|0:0|2:3,0:0:0:0:
295,267,41621,5,2,2:2:0:0:
282,258,41704,1,8,2:3:0:0:
269,249,41787,2,0,L|244:229,2,31.25,0|0|2,0:0|0:0|2:3,0:0:0:0:
370,330,41954,5,2,2:2:0:0:
383,321,42037,1,6,2:0:0:0:
396,312,42121,1,2,2:2:0:0:
409,303,42204,2,0,L|433:283,2,31.25,2|0|2,3:3|0:0|2:2,0:0:0:0:
270,359,42371,5,8,2:3:0:0:
215,329,42454,1,2,2:2:0:0:
154,317,42537,1,2,3:3:0:0:
92,323,42621,1,0,3:0:0:0:
35,348,42704,6,0,P|51:322|76:302,1,62.5,2|0,3:2|0:0,0:0:0:0:
149,274,42871,2,0,P|179:266|210:270,1,62.5,0|0,2:0|0:0,0:0:0:0:
309,287,43037,2,0,P|375:344|476:305,1,187.5,8|8,2:3|2:3,0:0:0:0:
393,208,43371,6,0,P|419:201|441:185,1,54.6875005215406,6|0,3:2|0:0,0:0:0:0:
393,208,43454,2,0,P|417:216|443:218,1,52.187498367548,0|0,0:0|0:0,0:0:0:0:
393,208,43537,2,0,P|407:226|425:241,1,46.8750017881394,2|0,3:2|0:0,0:0:0:0:
393,208,43621,2,0,P|392:229|398:249,1,42.8125012085438,0|0,0:0|0:0,0:0:0:0:
337,160,43704,6,0,P|320:181|314:208,1,54.6875005215406,8|0,2:3|0:0,0:0:0:0:
303,157,43787,2,0,P|305:183|314:208,1,52.187498367548,0|0,0:0|0:0,0:0:0:0:
280,175,43871,2,0,P|295:193|314:208,1,46.8750017881394,2|0,2:2|0:0,0:0:0:0:
272,202,43954,2,0,P|292:208|314:208,1,42.8125012085438,0|0,0:0|0:0,0:0:0:0:
215,255,44037,5,0,3:3:0:0:
210,270,44121,1,0,3:3:0:0:
203,284,44204,1,0,3:3:0:0:
194,297,44287,1,0,3:3:0:0:
184,308,44371,1,8,1:3:0:0:
172,318,44454,1,8,1:3:0:0:
158,326,44537,1,8,1:3:0:0:
144,332,44621,1,8,1:3:0:0:
129,336,44704,5,8,3:3:0:0:
113,339,44787,1,8,3:3:0:0:
93,338,44871,1,10,3:3:0:0:
71,333,44954,1,10,3:3:0:0:
47,321,45037,1,8,3:1:0:0:
24,301,45121,1,8,3:1:0:0:
8,271,45204,1,8,3:1:0:0:
4,229,45287,1,8,3:1:0:0:
37,177,45371,6,0,B|69:198|85:223|85:223|104:175|83:139|83:139|63:102|46:71|62:15|92:-6|119:0,1,328.125003129244,4|0,3:3|0:0,0:0:0:0:
214,59,45704,2,0,P|176:53|140:69,1,78.125,8|0,2:3|0:0,0:0:0:0:
240,178,45871,6,0,P|215:149|179:135,1,78.125,0|0,2:1|0:0,0:0:0:0:
265,297,46037,2,0,P|229:312|204:341,1,78.125,6|0,2:0|0:0,0:0:0:0:
385,310,46204,2,0,P|388:348|408:381,1,78.125,2|0,3:3|0:0,0:0:0:0:
434,199,46371,2,0,P|471:207|509:198,1,78.125,8|0,2:3|0:0,0:0:0:0:
345,118,46537,2,0,P|365:84|367:46,1,78.125,0|0,2:0|0:0,0:0:0:0:
334,220,46704,6,0,L|324:241,1,23.4375008940697,2|0,3:2|0:0,0:0:0:0:
314,220,46787,2,0,L|304:241,1,23.4375008940697,2|0,2:2|0:0,0:0:0:0:
294,220,46871,2,0,L|284:241,1,23.4375008940697,2|0,2:3|0:0,0:0:0:0:
274,220,46954,2,0,L|264:241,1,23.4375008940697,2|0,2:2|0:0,0:0:0:0:
254,220,47037,2,0,L|140:220,1,78.125,8|2,2:3|2:2,0:0:0:0:
212,290,47204,6,0,L|206:304,1,15.625,2|0,2:3|0:0,0:0:0:0:
192,290,47287,2,0,L|186:304,1,15.625,2|0,2:2|0:0,0:0:0:0:
172,290,47371,2,0,L|99:289,1,62.5,6|0,2:0|0:0,0:0:0:0:
89,358,47537,6,0,L|43:358,1,46.8750017881394,2|2,3:3|2:2,0:0:0:0:
201,321,47704,2,0,L|122:320,1,62.5,8|2,2:3|2:2,0:0:0:0:
312,282,47871,2,0,L|233:281,1,78.125,2|8,2:0|2:3,0:0:0:0:
422,242,48037,6,0,P|376:247|332:233,1,93.7500035762788,2|0,3:2|0:0,0:0:0:0:
296,154,48204,2,0,P|314:111|349:80,1,93.7500035762788,2|0,3:3|0:0,0:0:0:0:
436,88,48371,2,0,P|463:125|473:171,1,93.7500035762788,8|0,2:3|0:0,0:0:0:0:
384,161,48537,1,0,2:0:0:0:
208,147,48704,5,6,2:0:0:0:
163,133,48787,1,0,0:0:0:0:
118,120,48871,2,0,L|140:211,1,93.7500035762788,2|0,3:3|2:0,0:0:0:0:
252,245,49037,5,8,2:3:0:0:
214,233,49121,1,0,0:0:0:0:
177,222,49204,2,0,L|198:313,1,78.125,0|0,2:0|0:0,0:0:0:0:
182,360,49371,5,10,3:2:0:0:
239,344,49454,1,2,2:2:0:0:
295,328,49537,1,2,2:3:0:0:
352,312,49621,1,2,2:2:0:0:
402,349,49704,1,8,2:3:0:0:
410,290,49787,1,2,2:2:0:0:
419,232,49870,1,2,2:3:0:0:
429,173,49954,1,2,2:2:0:0:
437,114,50037,6,0,L|452:27,1,78.125,6|8,2:0|2:3,0:0:0:0:
362,135,50204,2,0,L|377:48,1,78.125,2|2,3:3|2:2,0:0:0:0:
286,217,50371,6,0,L|272:293,1,78.125,8|2,2:3|2:2,0:0:0:0:
211,238,50537,2,0,L|197:314,1,78.125,2|8,3:3|2:3,0:0:0:0:
149,153,50704,6,0,B|160:45|101:9|40:4|-14:31|-15:94|6:131|41:137|59:117,1,328.125003129244,2|0,3:2|0:0,0:0:0:0:
211,237,51037,6,0,P|175:254|137:261,1,78.125,8|0,2:3|0:0,0:0:0:0:
296,154,51204,2,0,P|260:137|222:130,1,78.125,2|0,2:3|2:0,0:0:0:0:
345,269,51371,6,0,P|309:286|271:293,1,78.125,6|0,2:0|0:0,0:0:0:0:
430,122,51537,2,0,P|394:105|356:98,1,78.125,2|0,3:3|2:0,0:0:0:0:
479,301,51704,6,0,P|443:318|405:325,1,78.125,8|0,2:3|0:0,0:0:0:0:
512,88,51871,1,2,2:3:0:0:
452,216,52037,5,2,3:2:0:0:
437,210,52121,2,0,L|408:198,2,31.25,2|0|2,2:2|0:0|2:3,0:0:0:0:
340,220,52287,5,2,2:2:0:0:
324,214,52371,1,8,2:3:0:0:
308,210,52454,2,0,L|279:197,2,31.25,2|0|2,2:2|0:0|2:3,0:0:0:0:
208,216,52621,5,2,2:2:0:0:
193,211,52704,1,6,2:0:0:0:
178,206,52787,1,2,2:2:0:0:
163,200,52871,2,0,L|134:188,2,31.25,2|0|2,3:3|0:0|2:2,0:0:0:0:
196,108,53037,5,8,2:3:0:0:
227,160,53121,1,2,2:2:0:0:
220,221,53204,1,2,3:3:0:0:
175,264,53287,1,0,3:0:0:0:
114,269,53371,6,0,P|83:261|59:242,1,62.5,2|0,3:2|0:0,0:0:0:0:
56,113,53537,2,0,P|77:90|105:78,1,62.5,2|0,2:3|0:0,0:0:0:0:
220,140,53704,2,0,P|228:170|224:200,1,62.5,8|0,2:3|0:0,0:0:0:0:
132,172,53871,1,2,2:3:0:0:
212,24,54037,6,0,P|229:45|235:72,1,54.6875005215406,6|0,3:2|0:0,0:0:0:0:
276,36,54121,2,0,P|274:62|265:87,1,52.187498367548,0|0,0:0|0:0,0:0:0:0:
320,88,54204,2,0,P|305:106|286:121,1,46.8750017881394,2|0,3:3|0:0,0:0:0:0:
328,152,54287,2,0,P|308:158|286:158,1,42.8125012085438,0|0,2:0|0:0,0:0:0:0:
320,218,54371,2,0,P|240:217|220:140,1,171.250004834175,8|2,2:3|2:3,0:0:0:0:
389,198,54704,6,0,P|409:180|419:155,1,54.6875005215406,10|2,3:2|2:2,0:0:0:0:
390,230,54787,2,0,P|416:226|440:215,1,52.187498367548,2|0,2:2|0:0,0:0:0:0:
371,266,54871,2,0,P|392:275|416:279,1,46.8750017881394,2|0,2:3|0:0,0:0:0:0:
339,283,54954,2,0,P|350:302|366:317,1,42.8125012085438,2|0,2:2|0:0,0:0:0:0:
271,281,55037,2,0,P|286:242|320:217,1,85.6250024170876,8|2,2:3|2:2,0:0:0:0:
304,348,55204,2,0,P|262:355|224:337,1,85.6250024170876,2|2,2:3|2:2,0:0:0:0:
160,284,55371,5,10,2:3:0:0:
103,265,55454,1,8,2:3:0:0:
46,280,55537,1,0,3:0:0:0:
7,324,55621,1,2,2:2:0:0:
0,382,55704,5,8,2:3:0:0:
66,335,55787,1,2,1:2:0:0:
104,265,55871,1,2,2:3:0:0:
107,184,55954,1,2,1:2:0:0:
68,104,56037,6,0,B|56:56|4:24|4:24|56:56|108:40|108:40|160:24|220:56,1,328.125003129244,6|0,3:3|0:0,0:0:0:0:
303,55,56371,6,0,P|338:74|376:83,1,78.125,8|0,2:3|0:0,0:0:0:0:
260,116,56537,2,0,P|288:143|322:160,1,78.125,0|0,3:0|0:0,0:0:0:0:
392,228,56704,6,0,P|357:246|319:255,1,78.125,6|0,2:2|0:0,0:0:0:0:
435,288,56871,2,0,P|406:315|372:332,1,78.125,0|8,3:0|2:3,0:0:0:0:
256,356,57037,6,0,P|221:337|183:328,1,78.125,0|0,3:0|3:0,0:0:0:0:
72,383,57204,2,0,P|34:374|0:356,1,78.125,8|0,2:3|3:0,0:0:0:0:
61,312,57371,6,0,P|61:300|62:288,1,23.4375008940697,2|0,3:2|0:0,0:0:0:0:
40,292,57454,2,0,P|45:281|52:272,1,23.4375008940697,2|0,2:2|0:0,0:0:0:0:
31,263,57537,2,0,P|41:256|51:252,1,23.4375008940697,2|2,2:3|2:2,0:0:0:0:
37,234,57621,2,0,P|48:233|60:235,1,23.4375008940697,2|2,2:2|2:2,0:0:0:0:
56,210,57704,2,0,P|92:194|130:197,1,78.125,8|2,2:3|2:2,0:0:0:0:
152,128,57871,6,0,L|162:148,1,15.625,2|0,2:3|0:0,0:0:0:0:
181,133,57954,2,0,L|179:156,1,15.625,2|0,2:2|0:0,0:0:0:0:
203,152,58037,2,0,P|218:180|219:211,1,62.5,6|0,2:0|0:0,0:0:0:0:
260,298,58204,2,0,P|239:310|216:315,1,46.8750017881394,2|2,3:3|2:2,0:0:0:0:
146,270,58371,6,0,L|132:330,1,62.5,8|2,2:3|2:2,0:0:0:0:
130,197,58537,2,0,L|111:272,1,78.125,10|8,2:3|2:3,0:0:0:0:
114,124,58704,2,0,L|90:218,1,93.7500035762788,2|0,3:2|0:0,0:0:0:0:
98,51,58871,1,2,3:3:0:0:
162,343,59037,5,8,2:3:0:0:
172,182,59204,1,2,2:3:0:0:
383,142,59371,5,6,2:0:0:0:
423,169,59454,1,0,0:0:0:0:
473,169,59537,2,0,P|474:121|451:78,1,93.7500035762788,2|0,3:3|2:0,0:0:0:0:
275,183,59704,5,8,2:3:0:0:
277,222,59787,1,0,0:0:0:0:
300,258,59871,2,0,P|342:234|364:194,1,78.125,2|0,2:3|0:0,0:0:0:0:
214,85,60037,5,10,3:2:0:0:
204,138,60120,1,2,2:2:0:0:
172,182,60203,1,2,2:3:0:0:
125,208,60287,1,2,2:2:0:0:
71,212,60371,1,8,2:3:0:0:
54,159,60454,1,2,2:2:0:0:
61,105,60537,1,2,2:3:0:0:
90,60,60621,1,2,2:2:0:0:
136,33,60704,6,0,P|170:15|209:9,1,78.125,6|8,2:0|2:3,0:0:0:0:
371,53,60871,2,0,P|405:70|444:76,1,78.125,2|2,3:3|2:2,0:0:0:0:
197,99,61037,6,0,P|234:90|273:95,1,78.125,8|2,2:3|2:2,0:0:0:0:
383,142,61204,2,0,P|420:150|459:145,1,78.125,2|8,3:3|2:3,0:0:0:0:
238,178,61371,6,0,B|277:168|299:184|315:195|315:195|331:207|362:230|427:238|473:222|473:222|483:184|459:144,1,328.125003129244,2|0,3:2|0:0,0:0:0:0:
365,66,61704,6,0,P|369:105|383:142,1,78.125,8|0,2:3|0:0,0:0:0:0:
444,228,61871,2,0,P|466:259|496:284,1,78.125,2|0,2:3|2:0,0:0:0:0:
288,53,62037,6,0,P|281:91|285:130,1,78.125,6|0,2:0|0:0,0:0:0:0:
323,268,62204,2,0,P|336:304|359:336,1,78.125,2|0,3:3|0:0,0:0:0:0:
219,24,62371,6,0,P|203:59|196:98,1,78.125,8|0,2:3|0:0,0:0:0:0:
195,275,62537,2,0,P|199:313|212:350,1,78.125,2|0,2:3|0:0,0:0:0:0:
61,176,62704,5,2,3:2:0:0:
77,176,62787,2,0,L|108:176,2,31.25,2|0|2,2:2|0:0|2:3,0:0:0:0:
208,206,62954,5,2,2:2:0:0:
225,204,63037,1,8,2:3:0:0:
241,202,63121,2,0,L|272:199,2,31.25,0|0|2,0:0|0:0|2:3,0:0:0:0:
372,180,63287,5,2,2:2:0:0:
387,181,63371,1,6,2:0:0:0:
403,183,63454,1,2,2:2:0:0:
419,183,63537,2,0,L|455:186,2,31.25,2|0|2,3:3|0:0|2:2,0:0:0:0:
479,247,63704,5,8,2:3:0:0:
427,216,63787,1,2,2:2:0:0:
366,223,63871,1,2,3:3:0:0:
323,268,63954,1,0,3:0:0:0:
319,330,64037,6,0,L|331:391,1,62.5,2|0,3:2|0:0,0:0:0:0:
225,224,64204,2,0,L|237:285,1,62.5,2|0,2:3|0:0,0:0:0:0:
131,118,64371,2,0,L|143:179,1,62.5,8|0,2:3|0:0,0:0:0:0:
272,127,64537,1,2,2:3:0:0:
264,11,64704,6,0,P|281:32|287:59,1,54.6875005215406,6|0,2:0|0:0,0:0:0:0:
328,23,64787,2,0,P|326:49|317:74,1,52.187498367548,0|0,0:0|0:0,0:0:0:0:
372,75,64871,2,0,P|357:93|338:108,1,46.8750017881394,2|0,3:3|0:0,0:0:0:0:
380,139,64954,2,0,P|360:145|338:145,1,42.8125012085438,0|0,2:0|0:0,0:0:0:0:
349,187,65037,6,0,P|329:169|319:144,1,54.6875005215406,8|0,2:3|0:0,0:0:0:0:
348,219,65121,2,0,P|322:215|298:204,1,52.187498367548,0|0,0:0|0:0,0:0:0:0:
367,255,65204,2,0,P|346:264|322:268,1,46.8750017881394,2|0,2:3|0:0,0:0:0:0:
399,272,65287,2,0,P|388:291|372:306,1,42.8125012085438,8|0,2:3|0:0,0:0:0:0:
442,268,65371,5,0,3:3:0:0:
476,246,65454,1,0,3:3:0:0:
461,199,65537,1,0,3:3:0:0:
409,196,65621,1,0,3:3:0:0:
385,259,65704,5,8,1:3:0:0:
443,306,65787,1,8,1:3:0:0:
506,258,65871,1,8,1:3:0:0:
480,178,65954,1,8,1:3:0:0:
452,96,66037,5,8,3:3:0:0:
454,80,66121,1,8,3:3:0:0:
457,64,66204,1,8,3:3:0:0:
463,48,66287,1,8,3:3:0:0:
472,33,66371,2,0,B|425:21|392:44|389:48|385:52|351:73|307:61,1,171.250004834175,10|0,3:3|0:0,0:0:0:0:
256,192,66704,6,0,B|304:248|304:360|304:360|264:364|218:332,1,250,4|10,3:3|1:3,0:0:0:0:
103,263,67204,6,0,L|80:284,1,31.25,2|0,1:3|0:0,0:0:0:0:
190,222,67371,2,0,L|184:192,1,31.25,2|0,1:3|0:0,0:0:0:0:
182,317,67537,2,0,L|216:332,1,31.25,2|0,3:3|0:0,0:0:0:0:
52,149,67704,6,0,B|12:92|25:26|25:26|72:40|96:88,1,187.5,10|0,1:3|0:0,0:0:0:0:
136,116,68037,6,0,B|196:92|256:132|256:132|308:164|376:136,1,250,2|10,3:3|1:3,0:0:0:0:
504,88,68537,2,0,P|505:111|500:134,1,46.8750017881394,2|0,1:3|0:0,0:0:0:0:
378,230,68704,2,0,P|357:219|339:204,1,46.8750017881394,2|0,1:3|0:0,0:0:0:0:
318,55,68871,2,0,P|338:42|360:34,1,46.8750017881394,2|0,3:3|0:0,0:0:0:0:
444,188,69037,2,0,P|452:248|404:304,1,125,10|2,1:3|1:3,0:0:0:0:
352,348,69287,5,8,1:3:0:0:
332,357,69371,2,0,B|284:360|256:328|256:328|228:380|176:396|144:380|136:336|164:324,1,250,2|10,3:3|1:3,0:0:0:0:
320,276,69871,1,2,1:3:0:0:
502,216,70037,6,0,L|394:228,1,62.5,2|0,1:3|0:0,0:0:0:0:
378,230,70204,2,0,L|270:241,1,62.5,2|0,3:3|0:0,0:0:0:0:
257,245,70371,2,0,L|194:251,1,62.5,10|0,1:3|0:0,0:0:0:0:
134,259,70537,2,0,L|71:266,1,62.5,2|0,1:3|0:0,0:0:0:0:
38,340,70704,6,0,B|-5:320|-24:272|-13:217|36:194|36:194|1:115,2,250,2|10|2,3:3|1:3|1:3,0:0:0:0:
98,337,71454,1,8,1:3:0:0:
157,330,71537,1,2,3:3:0:0:
235,174,71704,1,10,1:3:0:0:
313,18,71871,5,2,3:3:0:0:
375,25,71954,1,8,1:3:0:0:
437,32,72037,2,0,B|424:108|424:108|444:105|444:105|423:114|423:114|404:121|404:121|422:119|422:119|402:246,1,250,2|10,3:3|1:3,0:0:0:0:
383,335,72537,1,2,1:3:0:0:
351,129,72704,6,0,L|362:68,1,62.5,2|0,1:3|0:0,0:0:0:0:
501,61,72871,2,0,L|512:0,1,62.5,2|0,3:3|0:0,0:0:0:0:
469,241,73037,2,0,L|459:303,1,62.5,10|0,1:3|0:0,0:0:0:0:
319,309,73204,2,0,L|309:371,1,62.5,2|0,1:3|0:0,0:0:0:0:
201,197,73371,6,0,B|171:141|101:125|50:140|40:179|31:215|51:246|95:250|117:209,1,250,2|0,3:3|0:0,0:0:0:0:
255,341,73871,2,0,P|252:356|246:370,1,31.25,2|0,1:3|0:0,0:0:0:0:
319,309,74037,2,0,P|325:328|324:349,1,41.8749980192185,2|0,1:3|0:0,0:0:0:0:
376,255,74204,2,0,P|390:273|397:295,1,46.8750017881394,2|0,3:3|0:0,0:0:0:0:
416,177,74371,2,0,P|435:189|459:240,1,62.5,10|0,1:3|0:0,0:0:0:0:
422,104,74537,5,2,3:3:0:0:
423,91,74621,1,8,1:3:0:0:
423,78,74704,2,0,B|375:75|347:107|347:107|340:84|340:84|348:173|295:237,1,250,2|10,3:3|1:3,0:0:0:0:
70,358,75204,5,2,1:3:0:0:
90,349,75287,2,0,B|138:346|166:378|166:378|195:328|266:342,1,187.5,8|2,1:3|3:3,0:0:0:0:
376,254,75704,2,0,B|372:238|394:212|394:212|414:239|410:273|408:286|408:286|406:298|401:329|412:353,1,187.5,10|0,1:3|0:0,0:0:0:0:
482,361,76037,6,0,B|458:306|487:260|487:260|476:260|476:260|491:254|491:254|507:249|507:249|494:249|494:249|523:205|512:163,1,250,2|10,3:3|1:3,0:0:0:0:
426,134,76537,2,0,P|418:163|425:193,1,62.5,2|0,1:3|0:0,0:0:0:0:
498,83,76704,1,2,1:3:0:0:
476,60,76787,1,8,1:3:0:0:
447,51,76871,1,2,3:3:0:0:
308,219,77037,5,10,1:3:0:0:
274,241,77121,1,0,0:0:0:0:
229,246,77204,1,2,3:3:0:0:
180,230,77287,1,8,1:3:0:0:
153,169,77371,2,0,B|139:136|143:103|143:103|161:94|161:94|144:96|144:96|151:66|170:23|170:23|114:41|116:57,1,250,6|10,3:3|1:3,0:0:0:0:
111,228,77871,6,0,P|110:244|113:260,1,31.25,2|2,1:3|1:2,0:0:0:0:
227,142,78037,2,0,P|227:157|224:173,1,31.25,2|2,1:3|1:2,0:0:0:0:
71,108,78204,6,0,P|70:123|73:139,1,31.25,2|2,3:3|1:2,0:0:0:0:
267,21,78371,2,0,P|267:36|264:52,1,31.25,10|0,1:3|0:0,0:0:0:0:
33,19,78537,5,2,1:3:0:0:
148,114,78704,6,0,B|161:177|111:229|111:229|70:275|86:346,1,250,2|10,3:3|1:3,0:0:0:0:
160,338,79204,2,0,P|155:315|156:291,1,46.8750017881394,2|2,1:3|1:2,0:0:0:0:
228,222,79371,2,0,P|242:203|260:189,1,46.8750017881394,2|2,1:3|1:2,0:0:0:0:
360,199,79537,2,0,P|383:198|406:203,1,46.8750017881394,2|2,3:3|1:2,0:0:0:0:
479,331,79704,2,0,P|405:309|367:245,1,125,10|2,1:3|1:3,0:0:0:0:
280,198,79954,5,8,1:3:0:0:
260,189,80037,2,0,B|251:210|229:222|229:222|206:232|183:225|183:225|189:178|171:135|121:127|87:160|89:192|111:206,1,250,2|10,3:3|1:3,0:0:0:0:
86,345,80537,1,2,1:3:0:0:
52,268,80704,6,0,P|83:261|114:267,1,62.5,2|0,1:3|0:0,0:0:0:0:
175,318,80871,2,0,P|204:323|235:316,1,62.5,2|2,3:3|1:2,0:0:0:0:
297,264,81037,2,0,P|328:256|359:263,1,62.5,10|0,1:3|0:0,0:0:0:0:
421,313,81204,2,0,P|450:318|481:311,1,62.5,2|2,1:3|1:2,0:0:0:0:
447,234,81371,5,2,3:3:0:0:
471,176,81454,1,2,3:2:0:0:
496,119,81537,1,10,1:3:0:0:
370,209,81704,1,10,1:3:0:0:
355,54,81871,5,2,0:2:0:0:
417,47,81954,1,10,1:3:0:0:
479,40,82037,1,2,0:2:0:0:
295,110,82204,5,2,3:3:0:0:
246,224,82371,1,8,1:3:0:0:
197,338,82537,5,2,3:3:0:0:
135,331,82621,1,8,1:3:0:0:
73,324,82704,2,0,B|86:248|86:248|66:251|66:251|87:242|87:242|106:235|106:235|88:237|88:237|108:110,1,250,2|10,3:3|1:3,0:0:0:0:
295,110,83204,1,2,1:3:0:0:
445,142,83371,6,0,P|413:148|382:142,1,62.5,2|2,1:3|1:2,0:0:0:0:
322,29,83537,2,0,P|292:23|261:30,1,62.5,2|2,3:3|1:2,0:0:0:0:
200,146,83704,2,0,P|168:153|137:146,1,62.5,10|0,1:3|0:0,0:0:0:0:
76,34,83871,2,0,P|46:28|15:35,1,62.5,2|2,1:3|1:2,0:0:0:0:
45,98,84037,6,0,B|15:275|15:275|97:247,1,250,2|10,3:3|1:3,0:0:0:0:
268,191,84537,1,2,1:3:0:0:
166,65,84704,5,2,1:3:0:0:
175,222,84871,1,2,3:3:0:0:
184,379,85037,1,10,1:3:0:0:
111,196,85204,5,2,3:3:0:0:
97,223,85287,1,8,1:3:0:0:
81,251,85371,2,0,P|52:263|21:266,1,62.5,2|2,3:3|1:2,0:0:0:0:
170,143,85537,2,0,P|141:131|110:128,1,62.5,2|2,1:3|1:2,0:0:0:0:
310,270,85704,2,0,P|282:282|251:285,1,62.5,10|0,1:3|0:0,0:0:0:0:
321,28,85871,2,0,P|352:31|381:43,1,62.5,2|8,3:3|1:3,0:0:0:0:
386,278,86037,6,0,P|373:306|353:330,1,62.5,2|2,3:3|1:2,0:0:0:0:
444,229,86204,2,0,P|455:257|458:288,1,62.5,2|2,3:3|1:2,0:0:0:0:
502,185,86371,5,10,1:3:0:0:
473,162,86454,1,0,0:0:0:0:
436,157,86537,1,2,1:3:0:0:
402,170,86621,1,2,3:3:0:0:
378,199,86704,2,0,B|372:166|380:135|380:135|340:197|248:226|170:188|144:110|182:44|251:44|270:68|279:92,1,437.5,6|0,1:3|0:0,0:0:0:0:
250,284,87371,1,2,1:3:0:0:
399,64,87704,5,10,1:3:0:0:
258,273,87871,1,2,3:3:0:0:
64,156,88037,6,0,B|126:170|172:129|172:129|224:79|280:92,1,234.375,4|2,3:3|1:2,0:0:0:0:
352,120,88371,2,0,P|387:135|425:131,1,78.125,8|0,2:3|0:0,0:0:0:0:
468,76,88537,2,0,P|464:37|440:6,1,78.125,0|2,2:1|1:2,0:0:0:0:
399,64,88704,6,0,L|368:280,1,156.25,6|2,2:0|3:3,0:0:0:0:
304,160,88954,5,2,1:2:0:0:
296,152,89037,2,0,L|276:304,1,78.125,8|0,2:3|0:0,0:0:0:0:
276,304,89204,2,0,L|265:381,1,78.125,0|2,2:0|1:2,0:0:0:0:
116,344,89371,6,0,B|109:277|109:277|96:272|96:272|107:263|107:263|100:200|100:192|100:192|100:184|108:156|144:132|192:144|216:184|204:224|184:244,2,312.5,2|8|6,3:3|2:3|2:0,0:0:0:0:
32,240,90204,1,2,3:3:0:0:
199,294,90371,2,0,P|236:304|275:304,1,78.125,8|0,2:3|0:0,0:0:0:0:
304,160,90537,5,2,1:3:0:0:
334,143,90621,1,8,1:3:0:0:
365,126,90704,2,0,B|394:106|428:103|428:103|434:123|434:123|436:102|436:102|475:100|509:111|509:111|506:84|485:61,1,234.375,2|2,3:3|1:2,0:0:0:0:
425,33,91037,2,0,P|386:38|347:55,1,78.125,10|0,1:3|0:0,0:0:0:0:
279,95,91204,2,0,P|242:109|204:115,1,78.125,2|2,1:3|1:2,0:0:0:0:
136,80,91371,6,0,B|127:119|127:119|139:154,1,78.125,6|0,2:0|0:0,0:0:0:0:
181,231,91537,5,2,3:3:0:0:
193,268,91579,2,0,L|185:306,1,39.0625,0|2,0:0|1:2,0:0:0:0:
63,85,91704,2,0,B|54:124|54:124|66:159,1,78.125,10|0,1:3|0:0,0:0:0:0:
108,236,91871,2,0,B|120:271|120:271|111:310,1,78.125,2|0,1:3|0:0,0:0:0:0:
49,276,92037,6,0,B|42:317|42:317|55:353|55:353|87:376|87:376|124:380|124:380|160:363|160:363|182:328,1,234.375,2|2,3:3|1:2,0:0:0:0:
185,306,92371,2,0,B|205:273|205:273|241:256|241:256|278:260|278:260|310:283|310:283|323:319|323:319|316:360,1,234.375,8|2,2:3|1:2,0:0:0:0:
253,327,92704,5,6,2:0:0:0:
310,285,92787,1,2,1:2:0:0:
380,301,92871,1,2,3:3:0:0:
176,229,93037,1,8,2:3:0:0:
362,231,93204,5,2,1:3:0:0:
432,247,93287,1,8,1:3:0:0:
489,205,93371,2,0,B|498:166|498:166|467:57|467:57|441:147,1,234.375,4|2,3:3|1:2,0:0:0:0:
432,247,93704,2,0,B|450:282|450:282|450:347,1,78.125,8|0,2:3|0:0,0:0:0:0:
310,285,93871,5,0,2:1:0:0:
294,254,93954,1,2,1:2:0:0:
278,223,94037,2,0,B|260:188|260:188|260:123,1,78.125,6|2,2:0|1:2,0:0:0:0:
315,85,94204,2,0,B|333:50|333:50|333:-15,1,78.125,2|0,3:3|0:0,0:0:0:0:
161,109,94371,6,0,B|143:144|143:144|143:209,1,78.125,8|0,2:3|0:0,0:0:0:0:
207,235,94537,2,0,B|225:270|225:270|225:335,1,78.125,0|2,2:0|1:2,0:0:0:0:
53,211,94704,6,0,B|30:177|34:137|34:137|65:116|78:87|78:39|53:15|31:28|9:15|-16:39|-16:86|1:118|17:125,2,312.5,2|8|6,3:3|2:3|2:0,0:0:0:0:
149,288,95537,1,2,3:3:0:0:
161,109,95704,6,0,B|143:144|143:209,1,78.125,8|0,2:3|0:0,0:0:0:0:
222,348,95871,5,2,1:3:0:0:
239,316,95954,1,8,1:3:0:0:
246,283,96037,2,0,B|248:247|222:221|222:221|254:213|254:213|233:209|233:209|207:179|223:140|223:140|250:135|272:143,1,234.375,2|2,3:3|1:2,0:0:0:0:
322,182,96371,2,0,L|408:152,1,78.125,10|0,1:3|0:0,0:0:0:0:
318,262,96537,2,0,L|404:232,1,78.125,2|2,1:3|1:2,0:0:0:0:
512,384,96704,6,0,L|412:365,1,78.125,6|0,2:0|0:0,0:0:0:0:
334,384,96871,2,0,L|234:365,1,78.125,2|0,3:3|0:0,0:0:0:0:
168,384,97037,6,0,L|268:365,1,78.125,10|0,1:3|0:0,0:0:0:0:
346,384,97204,2,0,L|446:365,1,78.125,2|0,1:3|0:0,0:0:0:0:
438,302,97371,5,2,3:3:0:0:
447,303,97454,1,0,0:0:0:0:
456,305,97537,1,0,2:1:0:0:
465,307,97621,1,2,1:2:0:0:
475,309,97704,1,8,2:3:0:0:
484,310,97787,1,0,0:0:0:0:
493,312,97871,1,0,2:1:0:0:
502,314,97954,1,2,1:2:0:0:
512,306,98037,5,6,2:0:0:0:
435,292,98121,1,2,1:2:0:0:
358,278,98204,2,0,P|323:257|261:271,1,78.125,2|0,3:3|0:0,0:0:0:0:
307,325,98371,5,8,2:3:0:0:
230,340,98454,1,0,0:0:0:0:
153,354,98537,1,2,1:3:0:0:
76,369,98621,1,8,1:3:0:0:
0,384,98704,6,0,B|-26:334|8:271|8:271|35:216|6:159,1,234.375,4|2,3:3|1:2,0:0:0:0:
91,143,99037,2,0,L|173:130,1,78.125,8|0,2:3|0:0,0:0:0:0:
137,1,99204,2,0,L|59:13,1,78.125,0|2,2:1|1:2,0:0:0:0:
37,84,99371,6,0,L|191:60,1,156.25,6|2,2:0|3:3,0:0:0:0:
248,109,99621,5,2,1:2:0:0:
240,117,99704,2,0,L|392:137,1,78.125,8|0,2:3|0:0,0:0:0:0:
392,137,99871,2,0,L|469:148,1,78.125,0|2,2:0|1:2,0:0:0:0:
340,239,100037,6,0,B|273:232|273:232|268:219|268:219|259:230|259:230|196:223|188:223|188:223|222:279|285:261|285:261|273:232,2,312.5,2|8|6,3:3|2:3|2:0,0:0:0:0:
512,258,100871,1,2,3:3:0:0:
344,323,101037,2,0,P|309:342|271:345,1,78.125,8|0,2:3|0:0,0:0:0:0:
166,302,101204,5,2,1:3:0:0:
136,285,101287,1,8,1:3:0:0:
103,275,101371,2,0,B|35:262|-4:308|-4:308|36:262|24:196,1,234.375,2|2,3:3|1:2,0:0:0:0:
20,104,101704,2,0,L|1:27,1,78.125,10|0,2:3|0:0,0:0:0:0:
92,120,101871,2,0,L|73:43,1,78.125,2|2,1:3|1:2,0:0:0:0:
160,87,102037,6,0,B|169:126|156:164,1,78.125,6|0,1:2|0:0,0:0:0:0:
115,238,102204,5,2,3:3:0:0:
103,274,102246,2,0,P|103:294|110:312,1,39.0625,0|2,0:0|1:2,0:0:0:0:
233,92,102371,6,0,B|242:131|229:169,1,78.125,10|0,1:3|0:0,0:0:0:0:
188,242,102537,2,0,P|180:280|190:318,1,78.125,2|2,1:3|1:2,0:0:0:0:
252,384,102704,6,0,B|438:353|438:353|463:315,1,234.375,2|2,3:3|1:2,0:0:0:0:
476,296,103037,2,0,B|289:265|289:265|264:227,1,234.375,8|2,2:3|1:2,0:0:0:0:
336,204,103371,5,6,2:0:0:0:
413,216,103454,1,2,1:2:0:0:
490,228,103537,1,2,3:3:0:0:
276,156,103704,1,8,2:3:0:0:
252,300,103871,5,2,1:3:0:0:
174,312,103954,1,8,1:3:0:0:
97,324,104037,2,0,B|112:256|112:256|99:259|99:259|108:225|108:225|121:222|121:222|142:135|142:135|130:137,1,234.375,4|2,3:3|1:2,0:0:0:0:
30,255,104371,2,0,L|48:179,1,78.125,8|0,2:3|0:0,0:0:0:0:
122,171,104537,5,0,2:1:0:0:
130,137,104621,1,2,1:2:0:0:
138,103,104704,2,0,L|156:27,1,78.125,6|2,2:0|1:2,0:0:0:0:
189,239,104871,2,0,L|207:163,1,78.125,2|0,3:3|0:0,0:0:0:0:
297,87,105037,6,0,L|315:11,1,78.125,8|0,2:3|0:0,0:0:0:0:
356,205,105204,2,0,L|374:129,1,78.125,0|2,2:0|1:2,0:0:0:0:
456,71,105371,6,0,B|436:42|441:11|479:10|485:35|478:51|475:60|475:60|472:67|429:147|471:205|471:205|480:170|469:143,2,312.5,2|8|6,3:3|2:3|2:0,0:0:0:0:
280,184,106204,1,2,3:3:0:0:
455,351,106371,6,0,B|473:316|473:251,1,78.125,8|0,2:3|0:0,0:0:0:0:
396,101,106537,5,2,1:3:0:0:
379,133,106621,1,8,1:3:0:0:
372,166,106704,2,0,B|377:202|401:216|401:216|378:217|364:236|364:236|394:262|395:309|395:309|368:307|351:286,1,234.375,2|2,3:3|1:2,0:0:0:0:
295,249,107037,2,0,L|213:273,1,78.125,10|0,1:3|0:0,0:0:0:0:
294,324,107204,5,2,1:3:0:0:
261,333,107287,1,2,1:2:0:0:
228,343,107371,2,0,L|146:367,1,78.125,6|0,2:0|0:0,0:0:0:0:
74,170,107537,2,0,L|156:194,1,78.125,2|2,3:3|1:2,0:0:0:0:
149,266,107704,6,0,L|75:245,1,78.125,10|0,1:3|0:0,0:0:0:0:
221,117,107871,2,0,L|296:96,1,78.125,2|0,1:3|0:0,0:0:0:0:
445,128,108037,6,0,L|220:192,1,234.375,2|2,3:3|1:2,0:0:0:0:
401,216,108371,2,0,P|439:221|473:240,1,78.125,8|0,2:3|0:0,0:0:0:0:
458,307,108537,1,0,2:1:0:0:
451,341,108621,1,2,1:2:0:0:
443,374,108704,5,6,2:0:0:0:
369,369,108787,1,2,1:2:0:0:
336,302,108871,1,2,3:3:0:0:
377,239,108954,1,2,1:2:0:0:
452,244,109037,5,8,2:3:0:0:
401,216,109121,1,0,0:0:0:0:
380,160,109204,1,2,1:3:0:0:
400,105,109287,1,8,1:3:0:0:
456,80,109371,6,0,B|469:19|469:19|346:46,1,187.5,6|2,3:3|1:2,0:0:0:0:
266,98,109704,6,0,L|327:112,1,62.5,10|0,1:3|0:0,0:0:0:0:
452,151,109871,2,0,L|512:164,1,62.5,2|2,1:3|1:2,0:0:0:0:
306,181,110037,6,0,B|246:157|186:197|186:197|134:229|66:201,1,250,6|10,1:2|1:3,0:0:0:0:
149,367,110537,1,2,1:3:0:0:
322,315,110704,6,0,P|322:307|321:299,1,15.625,2|0,3:2|0:0,0:0:0:0:
342,301,110787,2,0,P|338:294|333:288,1,15.625,2|0,2:2|0:0,0:0:0:0:
353,278,110871,2,0,P|347:274|339:271,1,15.625,2|0,2:3|0:0,0:0:0:0:
351,253,110954,2,0,P|344:253|336:254,1,15.625,2|0,2:2|0:0,0:0:0:0:
338,232,111037,2,0,P|326:203|305:180,1,62.5,8|2,2:3|2:2,0:0:0:0:
385,139,111204,6,0,P|393:139|401:141,1,15.625,2|0,3:3|0:0,0:0:0:0:
370,120,111287,2,0,P|378:116|385:114,1,15.625,2|0,2:2|0:0,0:0:0:0:
356,108,111371,2,0,P|328:94|297:92,1,62.5,2|2,2:0|2:2,0:0:0:0:
282,9,111537,6,0,P|253:19|230:39,1,62.5,8|2,2:3|2:2,0:0:0:0:
187,196,111704,1,2,3:3:0:0:
193,236,111787,1,2,2:2:0:0:
200,277,111871,1,2,3:3:0:0:
206,318,111954,1,8,2:3:0:0:
213,358,112037,6,0,L|313:394,1,62.5,2|0,3:3|0:0,0:0:0:0:
259,206,112204,2,0,L|240:100,1,62.5,2|2,1:3|1:2,0:0:0:0:
100,239,112371,2,0,L|18:307,1,62.5,10|0,1:3|0:0,0:0:0:0:
143,371,112537,1,2,1:3:0:0:
174,344,112621,1,2,1:2:0:0:
206,318,112704,1,6,1:2:0:0:
238,292,112787,1,2,1:2:0:0:
270,267,112871,6,0,L|251:161,1,62.5,2|0,3:3|0:0,0:0:0:0:
247,144,113037,2,0,L|228:38,1,62.5,10|0,1:3|0:0,0:0:0:0:
223,20,113204,1,2,1:3:0:0:
322,166,113371,6,0,L|344:171,1,15.625,2|0,3:2|0:0,0:0:0:0:
326,185,113454,2,0,L|348:190,1,15.625,2|0,2:2|0:0,0:0:0:0:
330,204,113537,2,0,L|352:209,1,15.625,2|0,2:3|0:0,0:0:0:0:
335,223,113621,2,0,L|357:228,1,15.625,2|0,2:2|0:0,0:0:0:0:
339,243,113704,2,0,L|353:305,1,62.5,8|2,2:3|2:2,0:0:0:0:
417,268,113871,6,0,L|431:270,1,15.625,2|0,3:3|0:0,0:0:0:0:
421,288,113954,2,0,L|435:290,1,15.625,8|0,2:3|0:0,0:0:0:0:
426,307,114037,2,0,L|441:378,1,62.5,6|2,2:0|2:2,0:0:0:0:
293,382,114204,6,0,L|278:319,1,62.5,2|2,3:3|2:2,0:0:0:0:
207,317,114371,2,0,L|192:254,1,62.5,2|2,3:3|2:2,0:0:0:0:
120,253,114537,2,0,L|104:181,1,62.5,8|2,2:3|3:3,0:0:0:0:
33,189,114704,6,0,B|1:42|1:42|71:99,1,187.5,2|2,3:3|1:2,0:0:0:0:
91,118,115037,1,10,1:3:0:0:
317,258,115204,5,2,3:3:0:0:
346,273,115287,1,2,1:2:0:0:
375,288,115371,2,0,B|351:228|391:168|391:168|423:116|395:50,1,250,6|10,1:2|1:3,0:0:0:0:
308,108,115871,1,2,3:3:0:0:
192,52,116037,5,2,3:2:0:0:
186,37,116121,2,0,L|174:8,2,31.25,2|0|2,2:2|0:0|2:3,0:0:0:0:
178,188,116287,5,2,2:2:0:0:
172,172,116371,2,0,L|159:143,2,31.25,8|0|2,2:3|0:0|2:2,0:0:0:0:
179,369,116537,5,2,3:3:0:0:
174,354,116621,1,2,2:2:0:0:
169,339,116704,1,6,2:0:0:0:
164,324,116787,1,2,2:2:0:0:
158,309,116871,2,0,L|146:280,2,31.25,8|0|2,2:3|0:0|2:2,0:0:0:0:
271,184,117037,5,2,3:3:0:0:
256,243,117121,1,2,2:2:0:0:
207,281,117204,1,2,3:3:0:0:
146,280,117287,1,8,2:3:0:0:
99,241,117371,6,0,P|83:214|79:184,1,62.5,2|0,3:3|0:0,0:0:0:0:
12,164,117537,2,0,P|27:136|51:118,1,62.5,2|2,1:3|1:2,0:0:0:0:
232,90,117704,6,0,P|216:117|192:135,1,62.5,10|0,1:3|0:0,0:0:0:0:
209,203,117871,2,0,P|177:203|149:191,1,62.5,2|2,1:3|1:2,0:0:0:0:
34,50,118037,6,0,P|65:49|93:61,1,62.5,6|2,1:2|1:2,0:0:0:0:
144,13,118204,1,2,3:3:0:0:
159,39,118287,1,2,1:2:0:0:
163,70,118371,1,10,1:3:0:0:
135,312,118704,5,10,3:3:0:0:
129,328,118787,2,0,L|108:376,2,41.6666666666667,8|0|0,1:0|0:0|0:0,0:0:0:0:
80,288,118954,5,8,1:0:0:0:
141,299,119037,1,8,2:3:0:0:
202,311,119121,1,8,2:3:0:0:
264,323,119204,2,0,L|282:281,2,41.6666666666667,10|8|8,3:3|1:0|1:0,0:0:0:0:
328,340,119371,5,8,3:0:0:0:
288,271,119454,1,8,3:0:0:0:
305,193,119537,1,8,3:0:0:0:
369,147,119621,1,8,3:0:0:0:
448,140,119704,5,8,2:3:0:0:
471,119,119787,1,8,2:1:0:0:
488,93,119871,1,2,3:3:0:0:
496,63,119954,1,0,3:0:0:0:
496,32,120037,6,0,L|376:56,1,93.75,14|0,3:3|0:0,0:0:0:0:
277,128,120371,2,0,L|397:152,1,93.75,10|0,3:3|0:0,0:0:0:0:
495,224,120704,2,0,L|403:242,1,93.75,2|0,0:3|0:0,0:0:0:0:
277,320,121037,2,0,L|368:338,1,93.75,2|0,3:3|0:0,0:0:0:0:
439,352,121371,5,2,0:3:0:0:
256,315,121704,1,2,3:3:0:0:
73,352,121871,1,0,0:0:0:0:
80,321,121954,1,0,0:0:0:0:
88,291,122037,2,0,B|101:245|101:245|89:202,1,93.75,2|0,0:3|0:0,0:0:0:0:
64,41,122371,2,0,B|51:87|51:87|64:132,1,93.75,2|0,3:3|0:0,0:0:0:0:
198,138,122704,6,0,P|172:101|127:88,1,93.75,2|0,0:3|0:0,0:0:0:0:
252,188,123037,2,0,P|271:146|260:101,1,93.75,2|0,3:3|0:0,0:0:0:0:
235,258,123371,2,0,P|280:253|314:222,1,93.75,2|0,0:3|0:0,0:0:0:0:
165,278,123704,2,0,P|191:315|235:328,1,93.75,2|0,3:3|0:0,0:0:0:0:
113,227,124037,2,0,P|93:268|104:312,1,93.75,2|0,0:3|0:0,0:0:0:0:
184,208,124371,1,2,3:3:0:0:
314,221,124537,5,0,0:0:0:0:
127,87,124704,1,2,0:3:0:0:
105,313,124871,1,0,0:0:0:0:
195,194,125037,6,0,P|209:110|127:87,1,187.5,6|0,3:2|0:0,0:0:0:0:
114,219,125371,6,0,L|104:312,1,93.75,0|0,0:0|0:0,0:0:0:0:
204,364,125704,2,0,L|194:270,1,93.75,2|0,3:3|0:0,0:0:0:0:
275,218,126037,2,0,L|284:311,1,93.75,2|0,0:3|0:0,0:0:0:0:
364,364,126371,2,0,L|374:271,1,93.75,2|0,3:3|0:0,0:0:0:0:
453,218,126704,6,0,L|444:312,1,93.75,2|0,0:3|0:0,0:0:0:0:
440,336,127037,1,2,3:3:0:0:
456,200,127204,5,2,0:3:0:0:
458,167,127287,1,2,0:3:0:0:
461,136,127371,2,0,P|456:90|420:62,1,93.75,2|0,0:3|0:0,0:0:0:0:
340,104,127704,2,0,P|345:149|381:177,1,93.75,2|0,3:3|0:0,0:0:0:0:
480,272,128037,6,0,B|412:260|412:260|427:282,1,93.75,2|0,0:3|0:0,0:0:0:0:
368,336,128371,2,0,B|300:348|300:348|315:325,1,93.75,2|0,3:3|0:0,0:0:0:0:
256,272,128704,2,0,B|188:260|188:260|203:282,1,93.75,2|0,0:3|0:0,0:0:0:0:
144,336,129037,2,0,B|76:348|76:348|91:325,1,93.75,2|0,3:3|0:0,0:0:0:0:
132,264,129371,5,2,3:3:0:0:
158,184,129454,1,8,3:3:0:0:
95,136,129537,1,0,0:0:0:0:
37,183,129621,1,0,0:0:0:0:
61,246,129704,5,0,0:0:0:0:
113,243,129787,1,0,0:0:0:0:
128,196,129871,1,8,3:3:0:0:
94,174,129954,1,0,3:3:0:0:
72,199,130037,6,0,B|76:223|76:223|100:212,1,46.8750017881394,0|0,3:3|3:3,0:0:0:0:
225,165,130204,6,0,L|221:130,2,31.2500011920929,8|8|8,1:3|1:3|1:3,0:0:0:0:
227,193,130371,5,0,3:3:0:0:
296,204,130454,1,8,1:3:0:0:
365,216,130537,1,8,1:3:0:0:
434,228,130621,1,8,1:3:0:0:
504,240,130704,1,0,2:2:0:0:
404,147,130871,6,0,B|393:193|435:228|435:228|470:258|464:315,1,187.5,0|0,2:2|0:0,0:0:0:0:
380,294,131204,1,0,2:2:0:0:
311,113,131371,6,0,P|297:157|295:203,1,93.7500035762788,0|0,2:2|0:0,0:0:0:0:
244,252,131621,2,0,P|230:215|226:177,1,77.4999969253541,0|0,2:2|0:0,0:0:0:0:
173,126,131871,2,0,P|161:156|156:186,1,62.5,0|0,2:2|0:0,0:0:0:0:
23,348,132037,6,0,B|40:308|59:294|59:294|76:283|76:283|59:294|59:294|3:245|13:191|13:191|-4:202|-4:202|13:191|13:191|0:161|0:161|69:176|138:144|183:27|90:-49|-16:-10|-31:43|-16:86|3:97|22:98|34:87,1,656.25,0|0,0:0|0:0,0:0:0:0:
133,218,133037,2,0,B|170:180|170:180|242:185,1,125,0|0,2:2|2:2,0:0:0:0:
428,201,133371,1,0,2:2:0:0:
244,252,133537,6,0,B|198:249|198:249|134:318|134:318|77:315,1,187.5,0|0,2:2|0:0,0:0:0:0:
229,320,133871,2,0,L|291:322,1,62.5,0|0,2:2|0:0,0:0:0:0:
481,272,134037,6,0,L|344:277,1,125,0|0,2:2|0:0,0:0:0:0:
437,256,134287,2,0,L|343:259,1,93.7500035762788,0|0,2:2|0:0,0:0:0:0:
391,240,134537,2,0,L|297:243,1,62.5,0|0,2:2|0:0,0:0:0:0:
256,236,134704,6,0,B|304:16|304:16|208:16|208:16|256:236,1,515.625019669533,0|0,0:0|0:0,0:0:0:0:
256,320,135704,6,0,L|256:332,6,7.8125,4|0|0|0|0|0|0,1:1|0:0|0:0|0:0|0:0|0:0|0:0,0:0:0:0:
319,272,136037,6,0,P|359:249|406:249,1,93.7500035762788,4|0,3:3|0:0,0:0:0:0:
192,272,136204,1,0,2:1:0:0:
172,285,136287,1,0,0:0:0:0:
150,294,136371,2,0,P|103:297|61:277,1,93.7500035762788,8|0,2:3|0:0,0:0:0:0:
160,188,136537,2,0,P|206:185|249:204,1,93.7500035762788,0|0,2:1|0:0,0:0:0:0:
81,94,136704,6,0,B|100:68|140:64|140:64|164:128|120:208,1,218.750002086163,6|2,2:0|3:3,0:0:0:0:
26,196,136954,1,0,0:0:0:0:
14,176,137037,2,0,L|122:161,1,109.375001043081,8|0,2:3|0:0,0:0:0:0:
230,146,137204,2,0,L|338:131,1,109.375001043081,0|0,2:0|0:0,0:0:0:0:
452,120,137371,6,0,B|464:76|428:36|360:36|332:84|332:140|380:188|388:196|388:196|396:204|440:248|408:304,1,375,2|2,3:2|2:2,0:0:0:0:
406,310,137704,6,0,B|389:335|389:363|405:379|429:379|445:367|449:339|443:331,1,125,8|2,2:3|2:2,0:0:0:0:
314,317,137871,2,0,B|283:314|259:328|253:350|265:371|284:379|310:368|314:359,1,125,2|2,2:3|2:2,0:0:0:0:
261,240,138038,2,0,B|247:212|223:198|201:204|189:225|192:245|214:262|224:261,1,125,6|0,2:0|0:0,0:0:0:0:
512,348,138204,5,2,3:3:0:0:
402,184,138371,1,8,2:3:0:0:
314,361,138537,1,2,2:0:0:0:
328,156,138704,6,0,B|348:121|380:110|380:110|359:103,1,93.7500035762788,0|0,3:3|0:0,0:0:0:0:
187,118,138871,2,0,B|150:134|117:123|117:123|130:141,1,93.7500035762788,0|0,2:1|0:0,0:0:0:0:
279,232,139037,2,0,B|318:240|338:268|338:268|338:245,1,93.7500035762788,8|0,2:3|0:0,0:0:0:0:
271,86,139204,2,0,B|244:55|243:21|243:21|231:39,1,93.7500035762788,0|0,2:1|0:0,0:0:0:0:
191,208,139371,5,6,2:0:0:0:
206,270,139454,1,0,0:0:0:0:
182,329,139537,1,2,3:3:0:0:
126,362,139621,1,0,0:0:0:0:
62,355,139704,2,0,P|81:313|124:296,1,93.7500035762788,8|0,2:3|0:0,0:0:0:0:
301,303,139871,2,0,P|281:344|238:361,1,93.7500035762788,0|0,2:0|0:0,0:0:0:0:
197,110,140037,6,0,L|207:48,1,62.5,2|2,3:2|2:2,0:0:0:0:
169,297,140204,2,0,L|158:358,1,62.5,2|2,2:3|2:2,0:0:0:0:
103,107,140371,6,0,L|113:45,1,62.5,8|2,2:3|2:2,0:0:0:0:
73,293,140537,2,0,L|62:354,1,62.5,2|2,2:3|2:2,0:0:0:0:
12,216,140704,5,6,2:0:0:0:
52,192,140787,1,0,0:0:0:0:
104,184,140871,1,2,3:3:0:0:
160,200,140954,1,2,2:2:0:0:
201,234,141037,1,8,2:3:0:0:
257,260,141121,1,2,2:2:0:0:
330,258,141204,1,2,2:0:0:0:
395,217,141287,1,8,2:3:0:0:
430,142,141371,6,0,P|444:98|437:52,1,93.7500035762788,0|0,3:3|0:0,0:0:0:0:
420,238,141537,1,0,2:1:0:0:
426,262,141621,1,0,0:0:0:0:
437,284,141704,2,0,P|468:319|512:336,1,93.7500035762788,8|0,2:3|0:0,0:0:0:0:
309,219,141871,2,0,P|263:228|227:257,1,93.7500035762788,0|0,2:1|0:0,0:0:0:0:
376,308,142037,6,0,P|327:235|241:256,1,187.500007152558,6|2,2:0|3:3,0:0:0:0:
266,358,142287,1,0,0:0:0:0:
286,370,142371,2,0,B|311:357|321:325|321:286|288:281|288:317,1,109.375001043081,8|0,2:3|0:0,0:0:0:0:
206,300,142537,2,0,B|202:272|175:251|139:238|123:267|156:279,1,109.375001043081,0|0,2:0|0:0,0:0:0:0:
112,351,142704,5,2,3:2:0:0:
27,265,142871,6,0,L|7:141,1,125,2|2,2:3|2:2,0:0:0:0:
149,158,143037,2,0,L|168:281,1,125,8|2,2:3|2:2,0:0:0:0:
109,335,143204,2,0,L|70:87,1,250,2|6,2:3|2:0,0:0:0:0:
33,31,143454,5,0,0:0:0:0:
55,1,143537,1,2,3:3:0:0:
84,23,143621,1,2,2:2:0:0:
63,51,143704,1,8,2:3:0:0:
116,163,143871,5,2,2:0:0:0:
122,187,143954,1,8,2:3:0:0:
132,208,144037,2,0,P|177:221|223:213,1,93.7500035762788,0|0,3:3|0:0,0:0:0:0:
345,105,144204,2,0,P|302:122|269:155,1,93.7500035762788,0|0,2:1|0:0,0:0:0:0:
234,314,144371,2,0,P|259:275|266:229,1,93.7500035762788,8|0,2:3|0:0,0:0:0:0:
201,80,144537,2,0,P|204:126|225:167,1,93.7500035762788,0|0,2:1|0:0,0:0:0:0:
402,279,144704,6,0,P|386:227|346:191,1,109.375001043081,6|0,2:0|0:0,0:0:0:0:
86,207,144871,2,0,P|129:240|183:245,1,109.375001043081,2|0,3:3|0:0,0:0:0:0:
384,80,145037,2,0,P|330:78|283:105,1,109.375001043081,8|0,2:3|0:0,0:0:0:0:
218,356,145204,2,0,P|262:326|284:276,1,109.375001043081,0|0,2:0|0:0,0:0:0:0:
144,64,145371,6,0,B|124:134|171:198|237:193|256:192|256:192|276:190|339:184|388:253|367:321,2,405.000009887696,2|8|6,3:2|2:3|2:0,0:0:0:0:
236,92,146121,5,0,0:0:0:0:
240,112,146204,1,2,3:3:0:0:
276,292,146371,5,8,2:3:0:0:
207,301,146454,1,2,2:2:0:0:
139,311,146537,1,2,2:0:0:0:
71,320,146621,1,8,2:3:0:0:
3,330,146704,6,0,B|12:284|12:284|52:248,1,93.7500035762788,4|0,3:3|0:0,0:0:0:0:
139,311,146871,2,0,B|148:265|148:265|188:229,1,93.7500035762788,0|0,2:1|0:0,0:0:0:0:
256,180,147037,6,0,B|247:134|247:134|212:102,1,93.7500035762788,8|0,2:3|0:0,0:0:0:0:
120,161,147204,2,0,B|111:115|111:115|71:79,1,93.7500035762788,0|0,2:1|0:0,0:0:0:0:
264,268,147371,5,6,2:0:0:0:
314,249,147454,1,0,0:0:0:0:
345,205,147537,1,2,3:3:0:0:
345,151,147621,1,0,0:0:0:0:
310,104,147704,6,0,B|292:73|305:29|305:29|276:40|270:73,1,109.375001043081,8|0,2:3|0:0,0:0:0:0:
417,109,147871,2,0,B|435:140|422:184|422:184|451:173|457:140,1,109.375001043081,0|0,2:0|0:0,0:0:0:0:
196,251,148037,6,0,B|165:247|137:264|137:264|126:271|109:284|117:295|124:305|148:290,1,125,2|2,3:2|2:2,0:0:0:0:
256,107,148204,2,0,B|280:88|288:56|288:56|290:44|293:23|281:20|268:18|262:46,1,125,2|2,2:3|2:2,0:0:0:0:
315,251,148371,2,0,B|311:282|328:310|328:310|335:321|348:338|359:330|369:323|354:299,1,125,8|2,2:3|2:2,0:0:0:0:
171,191,148537,2,0,B|152:167|120:159|120:159|108:157|87:154|84:166|82:179|110:185,1,125,2|2,2:3|2:2,0:0:0:0:
315,132,148704,6,0,B|346:136|374:119|374:119|385:112|402:99|394:88|387:78|363:93,1,125,6|0,2:0|0:0,0:0:0:0:
255,276,148871,2,0,B|231:295|223:327|223:327|221:339|218:360|230:363|243:365|249:337,1,125,2|2,3:3|2:2,0:0:0:0:
196,132,149037,2,0,B|200:101|183:73|183:73|176:62|163:45|152:53|142:60|157:84,1,125,8|2,2:3|2:2,0:0:0:0:
340,192,149204,2,0,B|359:216|391:224|391:224|403:226|424:229|427:217|429:204|401:198,1,125,2|8,2:0|2:3,0:0:0:0:
453,57,149371,5,0,3:3:0:0:
409,62,149454,1,0,0:0:0:0:
367,89,149537,1,0,2:1:0:0:
340,136,149621,1,0,0:0:0:0:
340,192,149704,1,8,2:3:0:0:
318,250,149787,1,0,0:0:0:0:
271,299,149871,1,0,2:1:0:0:
205,328,149954,1,0,0:0:0:0:
132,323,150037,6,0,P|88:310|55:278,1,93.7500035762788,6|0,2:0|0:0,0:0:0:0:
212,36,150204,2,0,P|257:50|290:82,1,93.7500035762788,2|0,3:3|0:0,0:0:0:0:
30,140,150371,2,0,P|42:95|75:61,1,93.7500035762788,8|0,2:3|0:0,0:0:0:0:
316,221,150537,2,0,P|303:265|271:299,1,93.7500035762788,0|0,2:0|0:0,0:0:0:0:
162,182,150704,5,2,3:2:0:0:
197,154,150787,1,2,2:2:0:0:
244,173,150871,1,2,2:3:0:0:
243,229,150954,1,2,2:2:0:0:
194,258,151037,1,8,2:3:0:0:
133,252,151121,1,2,2:2:0:0:
90,199,151204,1,2,2:3:0:0:
102,129,151287,1,2,2:2:0:0:
166,93,151371,6,0,P|211:85|251:107,1,93.7500035762788,6|0,2:0|0:0,0:0:0:0:
396,188,151537,2,0,P|436:210|482:203,1,93.7500035762788,2|2,3:3|2:2,0:0:0:0:
312,74,151704,5,8,2:3:0:0:
324,148,151787,1,2,2:2:0:0:
336,222,151871,1,2,2:0:0:0:
347,296,151954,1,8,2:3:0:0:
358,370,152037,6,0,B|421:383|421:383|418:320,1,93.7500035762788,0|0,3:3|0:0,0:0:0:0:
312,74,152204,2,0,B|249:61|249:61|252:124,1,93.7500035762788,0|0,2:1|0:0,0:0:0:0:
481,203,152371,2,0,B|494:140|494:140|431:143,1,93.7500035762788,8|0,2:3|0:0,0:0:0:0:
188,246,152537,2,0,B|175:309|175:309|238:306,1,93.7500035762788,0|0,2:1|0:0,0:0:0:0:
347,296,152704,6,0,B|372:169|372:169|298:177,1,187.500007152558,6|2,2:0|3:3,0:0:0:0:
259,270,152954,1,0,0:0:0:0:
276,300,153037,2,0,B|289:237|289:237|223:246,1,109.375001043081,8|0,2:3|0:0,0:0:0:0:
135,255,153204,2,0,L|26:267,1,109.375001043081,0|0,2:0|0:0,0:0:0:0:
13,105,153371,6,0,B|0:84|7:52|42:29|86:31|118:73|119:139|72:183,1,250,2|2,3:2|2:3,0:0:0:0:
61,192,153621,1,2,2:2:0:0:
47,199,153704,2,0,B|140:188|140:188|189:149|189:149|286:137,1,250,8|2,2:3|2:3,0:0:0:0:
356,160,153954,1,2,2:2:0:0:
371,163,154037,5,6,2:0:0:0:
395,217,154121,1,0,0:0:0:0:
377,274,154204,1,2,3:3:0:0:
332,323,154287,1,2,2:2:0:0:
265,344,154371,1,8,2:3:0:0:
190,326,154454,1,2,2:2:0:0:
133,266,154537,1,2,2:0:0:0:
120,192,154621,1,8,2:3:0:0:
150,116,154704,6,0,P|167:72|154:28,1,93.7500035762788,0|0,3:3|0:0,0:0:0:0:
361,116,154871,2,0,P|344:72|357:28,1,93.7500035762788,0|0,2:1|0:0,0:0:0:0:
144,71,155037,6,0,P|124:29|84:6,1,93.7500035762788,8|0,2:3|0:0,0:0:0:0:
368,71,155204,2,0,P|387:29|427:6,1,93.7500035762788,0|0,2:1|0:0,0:0:0:0:
106,43,155371,6,0,P|55:27|6:49,1,109.375001043081,6|0,2:0|0:0,0:0:0:0:
405,43,155537,2,0,P|456:27|505:49,1,109.375001043081,2|0,3:3|0:0,0:0:0:0:
256,64,155704,6,0,B|268:144|268:144|244:196|244:196|255:275,1,218.750002086163,8|0,2:3|2:0,0:0:0:0:
258,295,155926,1,0,0:0:0:0:
261,315,155982,1,0,0:0:0:0:
264,337,156037,6,0,L|381:354,1,101.250002471924,2|2,3:2|2:2,0:0:0:0:
133,266,156204,2,0,L|24:250,1,101.250002471924,2|2,2:3|2:2,0:0:0:0:
322,207,156371,6,0,L|439:224,1,93.7500035762788,8|2,2:3|2:2,0:0:0:0:
191,136,156537,2,0,L|82:120,1,93.7500035762788,2|2,2:3|2:2,0:0:0:0:
380,80,156704,5,6,2:0:0:0:
430,87,156787,1,0,0:0:0:0:
481,95,156871,1,2,3:3:0:0:
462,47,156954,1,2,2:2:0:0:
443,0,157037,5,8,2:3:0:0:
380,80,157121,1,2,2:2:0:0:
385,172,157204,1,2,2:0:0:0:
439,235,157287,1,8,2:3:0:0:
504,264,157371,6,0,B|492:308|492:308|504:353,1,93.7500035762788,4|0,3:3|0:0,0:0:0:0:
416,309,157537,1,0,2:1:0:0:
399,292,157621,1,0,0:0:0:0:
381,277,157704,2,0,B|348:244|348:244|302:232,1,93.7500035762788,8|0,2:3|0:0,0:0:0:0:
431,163,157871,2,0,B|475:150|475:150|508:117,1,93.7500035762788,0|0,2:1|0:0,0:0:0:0:
315,142,158037,6,0,B|346:112|346:112|440:90|440:90|473:57,1,187.500007152558,6|2,2:0|3:3,0:0:0:0:
384,34,158287,1,0,0:0:0:0:
365,37,158371,2,0,B|311:49|311:49|261:102,1,109.375001043081,8|0,2:3|0:0,0:0:0:0:
227,174,158537,2,0,B|189:213|189:213|135:225,1,109.375001043081,0|0,2:0|0:0,0:0:0:0:
84,92,158704,6,0,B|71:50|101:2|101:2|161:21|194:83|154:151|154:151|100:163,1,328.125003129244,2|2,3:2|2:2,0:0:0:0:
84,166,159037,6,0,B|6:181|6:181|35:146,1,125,8|2,2:3|2:2,0:0:0:0:
184,245,159204,2,0,B|106:260|106:260|135:225,1,125,2|2,2:3|2:2,0:0:0:0:
284,324,159371,2,0,B|206:339|206:339|235:304,1,125,6|0,2:0|0:0,0:0:0:0:
45,229,159537,5,2,3:3:0:0:
227,174,159704,1,8,2:3:0:0:
409,119,159871,1,2,2:0:0:0:
214,254,160037,5,0,3:3:0:0:
184,245,160121,1,0,0:0:0:0:
154,236,160204,1,0,2:1:0:0:
125,227,160287,1,0,0:0:0:0:
44,228,160371,5,8,2:3:0:0:
56,184,160454,1,0,0:0:0:0:
90,152,160537,1,0,2:1:0:0:
136,144,160621,1,0,0:0:0:0:
227,174,160704,5,6,2:0:0:0:
294,189,160787,1,0,0:0:0:0:
361,168,160871,1,2,3:3:0:0:
408,117,160954,1,0,0:0:0:0:
398,16,161037,6,0,B|326:8|326:8|341:23,1,93.7500035762788,8|0,2:3|0:0,0:0:0:0:
244,20,161204,2,0,B|259:35|259:35|187:27,1,93.7500035762788,0|0,2:0|0:0,0:0:0:0:
297,94,161371,6,0,L|359:104,1,62.5,2|2,3:2|2:2,0:0:0:0:
110,66,161537,2,0,L|49:55,1,62.5,2|2,2:3|2:2,0:0:0:0:
294,189,161704,6,0,L|356:199,1,62.5,8|2,2:3|2:2,0:0:0:0:
108,159,161871,2,0,L|47:148,1,62.5,2|2,2:3|2:2,0:0:0:0:
147,5,162037,5,6,2:0:0:0:
187,27,162121,1,0,0:0:0:0:
220,68,162204,1,2,3:3:0:0:
234,124,162287,1,2,2:2:0:0:
227,178,162371,1,8,2:3:0:0:
236,238,162454,1,2,2:2:0:0:
283,295,162537,1,2,2:0:0:0:
359,316,162621,1,8,2:3:0:0:
439,297,162704,6,0,P|463:253|459:168,1,93.7500035762788,0|0,3:3|0:0,0:0:0:0:
419,83,162871,1,0,2:1:0:0:
400,96,162954,1,0,0:0:0:0:
384,112,163037,2,0,P|361:153|354:199,1,93.7500035762788,8|0,0:0|0:0,0:0:0:0:
283,295,163204,2,0,P|305:335|312:381,1,93.7500035762788,0|0,2:1|0:0,0:0:0:0:
121,279,163371,6,0,P|211:266|280:325,1,187.500007152558,6|2,2:0|3:3,0:0:0:0:
161,378,163621,1,0,0:0:0:0:
139,383,163704,2,0,B|83:382|83:382|103:332,1,109.375001043081,8|0,2:3|0:0,0:0:0:0:
137,225,163871,2,0,B|158:175|158:175|102:174,1,109.375001043081,0|0,2:0|0:0,0:0:0:0:
41,235,164037,5,0,0:0:0:0:
17,324,164204,6,0,P|77:322|120:278,1,125,2|2,2:3|2:2,0:0:0:0:
219,201,164371,2,0,P|158:202|115:246,1,125,8|2,2:3|2:2,0:0:0:0:
15,307,164537,6,0,B|81:332|112:274|117:263|117:263|121:252|156:193|222:218,1,250,0|6,0:0|2:0,0:0:0:0:
298,231,164787,5,0,0:0:0:0:
322,257,164871,1,2,3:3:0:0:
348,231,164954,1,2,2:2:0:0:
323,206,165037,1,8,0:0:0:0:
448,352,165204,5,2,2:0:0:0:
472,358,165287,1,0,0:0:0:0:
496,364,165371,2,0,P|487:338|492:304,1,54.6875005215406,0|0,3:3|0:0,0:0:0:0:
439,328,165454,2,0,P|449:304|466:283,1,52.187498367548,0|0,0:0|0:0,0:0:0:0:
414,266,165537,2,0,P|436:251|462:245,1,52.187498367548,0|0,2:1|0:0,0:0:0:0:
429,202,165621,2,0,P|449:203|470:210,1,42.8125012085438,0|0,0:0|0:0,0:0:0:0:
458,143,165704,5,8,2:3:0:0:
485,89,165787,1,0,0:0:0:0:
467,31,165871,1,0,2:1:0:0:
414,1,165954,1,0,0:0:0:0:
356,17,166037,2,0,P|329:56|324:102,1,93.7500035762788,6|0,2:0|0:0,0:0:0:0:
324,281,166204,2,0,P|329:327|356:366,1,93.7500035762788,2|0,3:3|0:0,0:0:0:0:
155,366,166371,2,0,P|182:327|187:281,1,93.7500035762788,8|0,2:3|0:0,0:0:0:0:
187,102,166537,2,0,P|182:56|155:17,1,93.7500035762788,0|0,2:0|0:0,0:0:0:0:
95,252,166704,6,0,B|111:178|111:178|399:207|399:207|416:137,2,437.500004172325,2|8|6,3:2|2:3|2:0,0:0:0:0:
160,275,167454,5,0,0:0:0:0:
164,256,167537,1,2,3:3:0:0:
348,128,167704,5,8,2:3:0:0:
279,122,167787,1,2,2:2:0:0:
209,115,167871,1,2,2:0:0:0:
139,108,167954,1,8,2:3:0:0:
68,100,168037,6,0,P|42:140|35:186,1,93.7500035762788,4|0,3:3|0:0,0:0:0:0:
244,207,168204,2,0,P|269:167|277:121,1,93.7500035762788,0|0,2:1|0:0,0:0:0:0:
153,292,168371,6,0,P|174:334|210:363,1,93.7500035762788,8|0,2:3|0:0,0:0:0:0:
335,193,168537,2,0,P|313:152|278:122,1,93.7500035762788,0|0,2:1|0:0,0:0:0:0:
361,314,168704,6,0,P|407:316|484:244,1,109.375001043081,6|0,2:0|0:0,0:0:0:0:
378,94,168871,2,0,P|324:93|278:121,1,109.375001043081,2|0,3:3|0:0,0:0:0:0:
485,142,169037,6,0,P|510:103|487:0,1,109.375001043081,8|0,2:3|0:0,0:0:0:0:
304,20,169204,2,0,P|276:67|277:121,1,109.375001043081,0|0,2:0|0:0,0:0:0:0:
361,314,169371,6,0,B|374:275|367:236|366:228|366:228|364:217|356:179|326:152|266:177|266:215|279:241,1,250,2|2,3:2|2:3,0:0:0:0:
283,314,169621,1,2,2:2:0:0:
289,329,169704,2,0,L|155:306,1,125,8|2,2:3|2:2,0:0:0:0:
49,299,169871,2,0,L|183:322,1,125,2|2,2:3|2:2,0:0:0:0:
273,226,170037,2,0,L|139:203,1,125,6|0,2:0|0:0,0:0:0:0:
33,196,170204,2,0,L|167:219,1,125,2|2,3:3|2:2,0:0:0:0:
214,141,170371,5,8,2:3:0:0:
271,138,170454,1,2,2:2:0:0:
307,92,170537,1,2,2:0:0:0:
294,36,170621,1,8,2:3:0:0:
242,9,170704,5,0,3:3:0:0:
238,76,170787,1,0,0:0:0:0:
271,138,170871,1,0,2:1:0:0:
329,175,170954,1,0,0:0:0:0:
414,218,171037,5,8,2:3:0:0:
441,256,171121,1,0,0:0:0:0:
443,303,171204,1,0,2:1:0:0:
420,343,171287,1,0,0:0:0:0:
337,363,171371,5,6,2:0:0:0:
307,369,171454,1,0,0:0:0:0:
276,377,171537,1,2,3:3:0:0:
246,384,171621,1,0,0:0:0:0:
163,364,171704,5,8,2:3:0:0:
133,358,171787,1,0,0:0:0:0:
102,350,171871,1,0,2:0:0:0:
72,343,171954,1,0,0:0:0:0:
0,384,172037,5,2,3:2:0:0:
48,333,172121,1,2,2:2:0:0:
69,267,172204,1,2,2:3:0:0:
60,198,172287,1,2,2:2:0:0:
20,141,172371,1,8,2:3:0:0:
28,73,172454,1,2,2:2:0:0:
78,26,172537,1,2,2:3:0:0:
147,24,172621,1,2,2:2:0:0:
196,76,172704,6,0,B|172:116|172:116|196:156,1,93.7500035762788,6|0,2:0|0:0,0:0:0:0:
316,156,172871,2,0,B|340:116|340:116|316:76,1,93.7500035762788,2|2,3:3|2:2,0:0:0:0:
256,42,173037,5,8,2:3:0:0:
256,117,173121,1,2,2:2:0:0:
256,192,173204,1,2,2:0:0:0:
256,267,173287,1,8,2:3:0:0:
255,341,173371,6,0,P|300:329|325:290,1,93.7500035762788,0|0,3:3|0:0,0:0:0:0:
256,42,173537,2,0,P|211:54|186:93,1,93.7500035762788,0|0,2:1|0:0,0:0:0:0:
186,290,173704,6,0,P|211:329|256:341,1,93.7500035762788,8|0,2:3|0:0,0:0:0:0:
325,93,173871,2,0,P|300:54|255:42,1,93.7500035762788,0|0,2:1|0:0,0:0:0:0:
116,109,174037,6,0,P|183:165|255:117,1,187.500007152558,6|2,2:0|3:3,0:0:0:0:
395,109,174287,5,0,0:0:0:0:
378,142,174371,2,0,P|330:165|280:148,1,109.375001043081,8|0,2:3|0:0,0:0:0:0:
132,12,174537,2,0,P|176:42|185:94,1,109.375001043081,0|0,2:0|0:0,0:0:0:0:
88,300,174704,6,0,P|97:201|163:274,1,250,2|2,3:2|2:3,0:0:0:0:
170,290,174954,1,2,2:2:0:0:
177,304,175037,2,0,B|203:230|151:190|151:190|99:150|119:78,1,250,8|2,2:3|2:3,0:0:0:0:
128,12,175287,1,2,2:2:0:0:
140,0,175371,5,6,2:0:0:0:
201,9,175454,1,0,0:0:0:0:
269,19,175537,1,2,3:3:0:0:
341,30,175621,1,2,2:2:0:0:
418,43,175704,5,8,2:3:0:0:
336,55,175787,1,2,2:2:0:0:
305,132,175871,1,2,2:0:0:0:
356,197,175954,1,8,2:3:0:0:
407,262,176037,5,0,3:3:0:0:
436,253,176121,1,0,0:0:0:0:
466,244,176204,1,0,2:1:0:0:
496,235,176287,1,0,0:0:0:0:
401,182,176371,5,8,2:3:0:0:
356,197,176454,1,0,0:0:0:0:
329,234,176537,1,0,2:1:0:0:
324,279,176621,1,0,0:0:0:0:
260,332,176704,5,6,2:0:0:0:
193,347,176787,1,0,0:0:0:0:
126,326,176871,1,2,3:3:0:0:
79,275,176954,1,0,0:0:0:0:
150,187,177037,6,0,B|230:175|230:175|282:199|282:199|361:188,1,218.750002086163,8|0,2:3|2:0,0:0:0:0:
381,185,177260,1,0,0:0:0:0:
401,182,177315,1,0,0:0:0:0:
424,178,177371,6,0,P|480:160|505:126,1,101.250002471924,2|2,3:2|2:2,0:0:0:0:
214,253,177537,2,0,P|188:296|193:346,1,101.250002471924,2|2,2:3|2:2,0:0:0:0:
297,130,177704,6,0,P|323:87|319:38,1,101.250002471924,8|0,2:3|0:0,0:0:0:0:
86,195,177871,2,0,P|38:208|6:246,1,101.250002471924,0|0,2:1|0:0,0:0:0:0:
267,316,178037,5,6,2:0:0:0:
309,340,178121,1,2,1:2:0:0:
360,342,178204,1,2,3:3:0:0:
406,322,178287,1,2,1:2:0:0:
434,283,178371,5,8,2:3:0:0:
344,320,178454,1,0,0:0:0:0:
261,270,178537,1,2,1:3:0:0:
248,173,178621,1,8,1:3:0:0:
318,105,178704,6,0,B|397:95|474:131|474:131|435:97|422:39,1,250,6|10,3:3|1:3,0:0:0:0:
261,270,179204,6,0,L|239:292,1,31.25,2|2,1:3|1:2,0:0:0:0:
344,320,179371,2,0,L|373:330,1,31.25,2|2,1:3|1:2,0:0:0:0:
345,221,179537,2,0,L|336:191,1,31.25,2|2,3:3|1:2,0:0:0:0:
340,336,179704,6,0,B|460:368|460:368|440:300,1,187.5,10|2,1:3|1:2,0:0:0:0:
272,256,180037,2,0,B|103:302|103:302|139:234,1,250,2|10,3:3|1:3,0:0:0:0:
248,188,180537,6,0,L|224:116,1,46.8750017881394,2|2,1:3|1:2,0:0:0:0:
296,324,180704,2,0,L|224:348,1,46.8750017881394,2|2,1:3|1:2,0:0:0:0:
432,276,180871,2,0,L|456:348,1,46.8750017881394,2|2,3:3|1:2,0:0:0:0:
384,140,181038,2,0,L|504:104,1,125,10|2,1:3|1:3,0:0:0:0:
364,72,181287,5,8,1:3:0:0:
356,52,181371,2,0,B|312:28|268:56|268:56|252:0|180:0|180:0|180:28|200:40,1,250,2|10,3:3|1:3,0:0:0:0:
316,128,181871,1,2,1:3:0:0:
392,216,182037,6,0,L|320:192,1,62.5,2|0,1:3|0:0,0:0:0:0:
335,271,182204,2,0,L|263:247,1,62.5,2|2,3:3|1:2,0:0:0:0:
260,184,182371,2,0,L|188:208,1,62.5,10|0,1:3|0:0,0:0:0:0:
204,128,182538,2,0,L|132:152,1,62.5,2|0,1:3|0:0,0:0:0:0:
124,216,182705,6,0,B|64:196|64:196|92:76|92:76|20:52,2,250,2|0|0,1:3|0:0|0:0,0:0:0:0:
182,236,183454,1,10,1:3:0:0:
241,257,183537,1,2,1:3:0:0:
418,318,183704,1,8,1:3:0:0:
434,87,183871,5,2,1:3:0:0:
375,107,183954,1,8,1:3:0:0:
316,128,184037,2,0,B|329:204|329:204|309:201|309:201|330:210|330:210|349:217|349:217|331:215|331:215|351:342,1,250,2|10,1:3|1:3,0:0:0:0:
490,330,184537,1,2,1:3:0:0:
494,88,184704,6,0,P|464:80|434:87,1,62.5,2|2,1:3|1:2,0:0:0:0:
316,128,184871,2,0,P|285:134|255:126,1,62.5,2|0,3:3|0:0,0:0:0:0:
488,162,185037,6,0,P|457:154|427:160,1,62.5,10|0,1:3|0:0,0:0:0:0:
309,201,185204,2,0,P|278:207|248:199,1,62.5,2|2,1:3|1:2,0:0:0:0:
95,102,185371,6,0,B|87:93|49:89|29:120|38:156|48:195|99:210|169:194|187:156,1,250,2|0,3:3|0:0,0:0:0:0:
300,60,185871,2,0,P|309:48|316:34,1,31.25,2|0,1:3|0:0,0:0:0:0:
316,128,186037,2,0,P|334:120|349:106,1,41.8749980192185,2|2,1:3|1:2,0:0:0:0:
309,201,186204,2,0,P|331:200|353:191,1,46.8750017881394,2|2,3:3|1:2,0:0:0:0:
277,274,186371,2,0,P|298:280|352:266,1,62.5,10|0,1:3|0:0,0:0:0:0:
224,338,186537,5,2,1:3:0:0:
234,344,186621,1,8,1:3:0:0:
246,349,186704,2,0,B|304:374|367:349|367:349|397:309|397:309|413:383,1,250,2|10,3:3|1:3,0:0:0:0:
431,148,187288,5,2,1:2:0:0:
436,170,187371,2,0,L|477:361,1,187.5,2|2,1:3|1:2,0:0:0:0:
309,201,187704,2,0,L|350:9,1,187.5,10|2,1:3|1:2,0:0:0:0:
254,124,188037,6,0,B|233:229|233:229|244:229|244:229|229:235|229:235|213:240|213:240|226:240|226:240|197:279|208:326,1,250,2|0,3:3|0:0,0:0:0:0:
283,350,188537,2,0,P|291:321|284:291,1,62.5,0|0,0:0|0:0,0:0:0:0:
168,188,188704,1,0,0:0:0:0:
148,213,188787,1,0,0:0:0:0:
145,244,188871,1,0,0:0:0:0:
309,201,189037,5,0,0:0:0:0:
345,178,189121,1,0,0:0:0:0:
391,173,189204,1,0,0:0:0:0:
439,191,189287,1,0,0:0:0:0:
464,251,189371,2,0,B|478:284|474:321|474:321|489:341|489:341|473:327|473:327|469:356|453:387|453:387|381:351|385:281,1,312.5,4|8,3:3|2:3,0:0:0:0:
336,204,189871,6,0,P|371:189|409:193,1,78.125,0|2,2:1|1:2,0:0:0:0:
290,286,190037,2,0,L|135:308,1,156.25,6|2,2:0|3:3,0:0:0:0:
17,182,190287,5,2,1:2:0:0:
11,171,190370,2,0,L|162:193,1,78.125,8|0,2:3|0:0,0:0:0:0:
163,194,190537,2,0,L|240:204,1,78.125,0|2,2:0|1:2,0:0:0:0:
336,204,190704,6,0,B|343:137|343:137|356:132|356:132|345:123|345:123|352:52|352:52|256:42|256:42|250:92,2,312.5,2|8|6,3:3|2:3|2:0,0:0:0:0:
290,286,191537,1,2,3:3:0:0:
409,175,191704,2,0,P|424:139|418:101,1,78.125,8|0,2:3|0:0,0:0:0:0:
250,90,191870,5,2,1:3:0:0:
235,125,191953,1,8,1:3:0:0:
240,163,192037,2,0,P|319:175|294:52,1,234.375,2|2,3:3|1:2,0:0:0:0:
253,18,192371,2,0,L|161:30,1,78.125,10|0,2:3|0:0,0:0:0:0:
250,90,192537,2,0,L|158:102,1,78.125,2|2,1:3|1:2,0:0:0:0:
376,80,192704,6,0,P|384:119|373:154,1,78.125,2|0,1:3|0:0,0:0:0:0:
331,231,192870,5,2,3:3:0:0:
322,270,192912,2,0,P|321:289|325:308,1,39.0625,0|2,0:0|1:2,0:0:0:0:
449,85,193037,6,0,P|454:127|443:167,1,78.125,10|0,1:3|0:0,0:0:0:0:
404,236,193204,2,0,P|392:272|400:310,1,78.125,2|2,1:3|1:2,0:0:0:0:
463,276,193371,2,0,P|421:377|332:332,1,234.375,2|2,3:3|1:2,0:0:0:0:
325,308,193704,2,0,P|229:266|194:364,1,234.375,8|2,2:3|1:2,0:0:0:0:
257,331,194037,5,6,2:0:0:0:
200,289,194120,1,2,1:2:0:0:
130,305,194204,1,2,3:3:0:0:
331,231,194370,1,8,2:3:0:0:
151,234,194537,5,2,1:3:0:0:
81,250,194620,1,8,1:3:0:0:
24,208,194704,2,0,B|0:169|1:109|46:60|46:60|78:89|79:124,1,234.375,4|2,3:3|1:2,0:0:0:0:
155,81,195037,2,0,P|165:119|157:157,1,78.125,8|0,2:3|0:0,0:0:0:0:
255,237,195204,5,0,2:1:0:0:
221,256,195287,1,2,1:2:0:0:
199,288,195371,2,0,P|191:326|201:364,1,78.125,6|2,2:0|1:2,0:0:0:0:
311,364,195537,2,0,P|320:326|312:288,1,78.125,2|2,3:3|1:2,0:0:0:0:
354,157,195704,2,0,P|346:118|355:81,1,78.125,8|0,2:3|0:0,0:0:0:0:
465,82,195870,2,0,P|474:119|466:157,1,78.125,0|2,2:0|1:2,0:0:0:0:
362,167,196037,6,0,P|451:189|396:50,2,312.5,2|8|6,3:3|2:3|2:0,0:0:0:0:
420,121,196870,1,2,3:3:0:0:
446,273,197037,2,0,B|464:373,1,78.125,8|0,2:3|0:0,0:0:0:0:
279,359,197204,5,2,1:3:0:0:
272,321,197287,1,8,1:3:0:0:
266,283,197371,2,0,B|252:206|252:206|279:209|279:209|261:114|261:114|236:142,1,234.375,2|2,3:3|1:2,0:0:0:0:
188,182,197704,2,0,L|102:152,1,78.125,10|0,1:3|0:0,0:0:0:0:
192,262,197870,2,0,L|106:232,1,78.125,2|2,1:3|1:2,0:0:0:0:
0,384,198037,6,0,L|100:365,1,78.125,6|0,2:0|0:0,0:0:0:0:
178,384,198204,2,0,L|278:365,1,78.125,2|2,3:3|1:2,0:0:0:0:
344,384,198370,6,0,L|244:365,1,78.125,10|0,1:3|0:0,0:0:0:0:
166,384,198537,2,0,L|66:365,1,78.125,2|2,1:3|1:2,0:0:0:0:
74,302,198704,5,2,3:3:0:0:
65,303,198787,1,0,0:0:0:0:
56,305,198870,1,0,2:1:0:0:
47,307,198954,1,2,1:2:0:0:
37,309,199037,1,8,2:3:0:0:
28,310,199120,1,0,0:0:0:0:
19,312,199204,1,0,2:1:0:0:
10,314,199287,1,2,1:2:0:0:
0,306,199370,5,6,2:0:0:0:
77,292,199454,1,2,1:2:0:0:
154,278,199537,2,0,P|189:257|251:271,1,78.125,2|2,3:3|1:2,0:0:0:0:
205,325,199704,5,8,2:3:0:0:
282,340,199787,1,0,0:0:0:0:
358,354,199870,1,2,1:3:0:0:
436,369,199954,1,8,1:3:0:0:
512,384,200037,6,0,B|538:334|504:271|504:271|477:216|506:159,1,234.375,4|0,3:3|0:0,0:0:0:0:
495,87,200371,6,0,P|452:115|436:158,1,78.125,8|0,2:3|0:0,0:0:0:0:
369,98,200537,2,0,P|358:148|377:189,1,78.125,0|0,2:1|0:0,0:0:0:0:
390,248,200704,6,0,L|473:269,1,78.125,6|0,2:0|0:0,0:0:0:0:
312,231,200871,2,0,L|236:211,1,78.125,2|0,3:3|0:0,0:0:0:0:
415,324,201037,6,0,L|498:345,1,78.125,8|0,2:3|0:0,0:0:0:0:
337,307,201204,2,0,L|261:287,1,78.125,0|0,2:0|0:0,0:0:0:0:
306,384,201371,6,0,L|301:361,1,15.625,2|0,3:2|0:0,0:0:0:0:
287,379,201454,2,0,L|282:356,1,15.625,2|0,2:2|0:0,0:0:0:0:
268,375,201537,2,0,L|263:352,1,15.625,2|0,2:3|0:0,0:0:0:0:
249,370,201621,2,0,L|244:347,1,15.625,2|0,2:2|0:0,0:0:0:0:
229,365,201704,2,0,L|167:349,1,62.5,8|2,2:3|2:2,0:0:0:0:
191,282,201871,6,0,L|189:267,1,15.625,2|0,2:3|0:0,0:0:0:0:
171,277,201954,2,0,L|169:262,1,15.625,2|0,2:2|0:0,0:0:0:0:
152,272,202037,2,0,L|81:255,1,62.5,6|0,2:0|0:0,0:0:0:0:
75,179,202204,2,0,L|14:165,1,62.5,2|2,3:3|2:2,0:0:0:0:
139,128,202371,5,8,2:3:0:0:
169,121,202454,1,2,2:2:0:0:
199,114,202537,1,2,2:0:0:0:
230,107,202621,1,8,2:3:0:0:
260,100,202704,2,0,P|280:67|280:28,1,78.125,2|0,3:2|0:0,0:0:0:0:
276,242,202871,2,0,P|256:208|256:170,1,78.125,2|0,3:3|0:0,0:0:0:0:
261,384,203037,2,0,P|280:350|280:312,1,78.125,8|0,2:3|0:0,0:0:0:0:
212,332,203204,6,0,L|138:305,1,78.125,0|0,2:0|0:0,0:0:0:0:
325,190,203371,2,0,L|399:163,1,78.125,6|0,2:0|0:0,0:0:0:0:
212,48,203538,2,0,L|138:21,1,78.125,2|0,3:3|2:0,0:0:0:0:
274,117,203704,2,0,B|373:80|373:80|313:57,1,156.25,8|0,2:3|2:0,0:0:0:0:
212,48,204037,6,0,P|212:56|213:64,1,15.625,10|0,3:2|0:0,0:0:0:0:
192,62,204120,2,0,P|196:69|201:75,1,15.625,2|0,2:2|0:0,0:0:0:0:
181,85,204204,2,0,P|187:89|195:92,1,15.625,2|0,2:3|0:0,0:0:0:0:
183,110,204287,2,0,P|190:110|198:109,1,15.625,2|0,2:2|0:0,0:0:0:0:
196,131,204371,2,0,P|208:160|229:183,1,62.5,8|2,2:3|2:2,0:0:0:0:
149,222,204537,6,0,P|141:222|133:220,1,15.625,2|0,2:3|0:0,0:0:0:0:
164,241,204620,2,0,P|156:245|149:247,1,15.625,2|0,2:2|0:0,0:0:0:0:
178,253,204704,2,0,P|206:267|239:268,1,62.5,6|8,2:0|2:3,0:0:0:0:
252,352,204870,6,0,P|281:342|304:322,1,62.5,2|2,3:3|2:2,0:0:0:0:
411,244,205037,1,8,2:3:0:0:
405,204,205120,1,2,2:2:0:0:
398,163,205204,1,2,3:3:0:0:
392,122,205287,1,8,2:3:0:0:
386,82,205371,6,0,P|348:73|310:81,1,78.125,2|0,3:2|0:0,0:0:0:0:
282,0,205537,2,0,P|249:20|228:53,1,78.125,2|0,2:3|0:0,0:0:0:0:
150,15,205704,2,0,P|141:52|149:90,1,78.125,8|0,2:3|0:0,0:0:0:0:
67,118,205871,2,0,P|87:150|120:171,1,78.125,2|0,2:3|2:0,0:0:0:0:
82,250,206037,2,0,P|119:258|157:250,1,78.125,6|0,2:0|0:0,0:0:0:0:
185,332,206203,2,0,P|217:311|238:278,1,78.125,2|0,3:3|2:0,0:0:0:0:
318,323,206371,2,0,B|343:273|305:213|305:213|271:161|295:101,1,234.375,8|0,2:3|0:0,0:0:0:0:
438,143,206704,5,2,3:2:0:0:
423,149,206788,2,0,L|394:161,2,31.25,2|0|2,2:2|0:0|2:3,0:0:0:0:
327,110,206954,5,2,2:2:0:0:
311,104,207038,1,8,2:3:0:0:
295,100,207121,2,0,L|266:87,2,31.25,2|0|2,2:2|0:0|2:3,0:0:0:0:
194,143,207288,5,2,2:2:0:0:
179,148,207371,1,6,2:0:0:0:
164,153,207454,1,2,2:2:0:0:
149,159,207538,2,0,L|120:171,2,31.25,2|0|2,3:3|0:0|2:2,0:0:0:0:
182,251,207704,5,8,2:3:0:0:
213,199,207788,1,2,2:2:0:0:
206,138,207871,1,2,3:3:0:0:
161,95,207954,1,0,3:0:0:0:
100,90,208037,5,10,3:3:0:0:
94,74,208121,2,0,L|73:26,2,41.6666666666667,8|0|0,1:0|0:0|0:0,0:0:0:0:
146,29,208287,5,8,1:0:0:0:
207,40,208370,1,8,2:3:0:0:
268,52,208454,1,8,2:3:0:0:
330,64,208537,2,0,L|348:22,2,41.6666666666667,10|8|8,3:3|1:0|1:0,0:0:0:0:
251,139,208704,5,8,3:0:0:0:
312,128,208787,1,8,3:0:0:0:
373,117,208870,1,8,3:0:0:0:
434,105,208954,1,8,3:0:0:0:
496,93,209037,2,0,L|514:135,2,41.6666666666667,8|0|0,2:3|0:0|0:0,0:0:0:0:
456,173,209204,5,2,3:3:0:0:
479,194,209287,1,0,3:0:0:0:
496,220,209371,1,10,3:3:0:0:
504,250,209454,1,2,2:2:0:0:
504,281,209537,6,0,L|384:257,1,62.5,2|2,2:3|2:2,0:0:0:0:
373,253,209704,2,0,L|253:229,1,62.5,8|2,2:3|2:2,0:0:0:0:
458,342,209871,6,0,L|338:318,1,62.5,2|2,2:3|2:2,0:0:0:0:
327,314,210038,2,0,L|207:290,1,62.5,10|8,2:3|2:3,0:0:0:0:
170,339,210204,2,0,P|189:314|195:284,1,62.5,0|2,3:0|2:2,0:0:0:0:
243,231,210371,5,8,2:3:0:0:
220,210,210454,1,2,1:2:0:0:
203,184,210538,1,2,2:3:0:0:
195,154,210621,1,2,1:2:0:0:
195,123,210704,6,0,L|256:135,1,62.5,2|2,0:3|2:0,0:0:0:0:
381,109,211204,2,0,B|318:95|318:95|258:123|258:123|202:110,1,187.5,2|2,2:0|0:3,0:0:0:0:
123,89,211871,1,2,2:0:0:0:
131,17,212037,6,0,L|252:49,2,125,2|0|0,0:3|0:0|0:0,0:0:0:0:
400,84,213376,6,0,P|402:130|385:168,1,62.5,2|2,0:3|2:0,0:0:0:0:
204,156,213876,1,0,0:0:0:0:
282,47,214042,1,0,0:0:0:0:
282,181,214209,1,0,0:0:0:0:
204,73,214376,1,0,0:0:0:0:
331,114,214542,1,0,0:0:0:0:
324,252,214709,6,0,P|322:298|339:336,1,62.5,2|2,0:3|2:0,0:0:0:0:
456,127,215209,1,0,0:0:0:0:
425,130,215293,1,0,0:0:0:0:
398,146,215376,1,2,2:0:0:0:
507,227,215542,1,0,0:0:0:0:
482,207,215626,1,0,0:0:0:0:
452,199,215709,1,2,2:0:0:0:
445,339,216042,6,0,P|451:308|446:278,1,62.5,2|2,3:3|2:0,0:0:0:0:
200,308,216542,2,0,B|256:321|256:321|316:293|316:293|379:307,1,187.5,2|2,2:0|0:3,0:0:0:0:
250,249,217209,1,2,2:0:0:0:
325,365,217376,6,0,B|408:383|408:383|389:332,2,125,2|0|0,0:3|0:0|0:0,0:0:0:0:
183,249,218715,2,0,B|100:267|100:267|119:216,2,125,2|2|0,0:3|0:3|0:0,0:0:0:0:
325,133,220048,6,0,B|408:151|408:151|389:100,1,125,2|2,0:3|0:3,0:0:0:0:
185,19,221375,2,0,B|102:37|102:37|121:-14,1,125,2|2,0:3|0:3,0:0:0:0:
256,192,222000,12,0,225875,0:0:0:0:
