osu file format v14

[General]
AudioFilename: Yume Nikki mega mix.mp3
AudioLeadIn: 0
PreviewTime: 135996
Countdown: 0
SampleSet: Normal
StackLeniency: 0.7
Mode: 0
LetterboxInBreaks: 0
WidescreenStoryboard: 0

[Editor]
Bookmarks: 2704,24037,45371,66704,88037,109371,130704,136037,157371,178704,200037,221375
DistanceSpacing: 1
BeatDivisor: 4
GridSize: 4
TimelineZoom: 2.2

[Metadata]
Title:Kono Hoshi de....
TitleUnicode:この星で・・・。
Artist:Camellia
ArtistUnicode:かめりあ
Creator:Krimek
Version:Arbane's Extra
Source:ゆめにっき
Tags:yume nikki 夢日記 窓付き dream diary madotsuki 窓付き windowed megamix mega mix かめるかめりあ cametek kamelcamellia electronic instrumental video game Yauxo Arbane -Famous-
BeatmapID:1116417
BeatmapSetID:511759

[Difficulty]
HPDrainRate:6
CircleSize:4.3
OverallDifficulty:8.3
ApproachRate:9.3
SliderMultiplier:1.85
SliderTickRate:1

[Events]
//Background and Video events
0,0,"bg.jpg",0,0
//Break Periods
//Storyboard Layer 0 (Background)
//Storyboard Layer 1 (Fail)
//Storyboard Layer 2 (Pass)
//Storyboard Layer 3 (Foreground)
//Storyboard Layer 4 (Overlay)
//Storyboard Sound Samples

[TimingPoints]
38,333.333333333333,4,1,1,50,1,0
2704,-117.647058823529,4,1,1,35,0,0
13371,-100,4,1,1,40,0,0
23204,-76.9230769230769,4,1,1,60,0,0
24037,-76.9230769230769,4,1,1,60,0,0
25371,-100,4,1,1,60,0,0
26704,-76.9230769230769,4,1,1,60,0,0
28037,-100,4,1,1,60,0,0
29371,-76.9230769230769,4,1,1,60,0,0
30704,-100,4,1,1,60,0,0
32037,-76.9230769230769,4,1,1,60,0,0
33371,-100,4,1,1,60,0,0
34704,-76.9230769230769,4,1,1,60,0,0
35371,-100,4,1,1,60,0,0
37371,-76.9230769230769,4,1,1,60,0,0
38704,-100,4,1,1,60,0,0
40037,-76.9230769230769,4,1,1,60,0,0
41371,-100,4,1,1,60,0,0
42704,-76.9230769230769,4,1,1,60,0,0
43204,-100,4,1,1,60,0,0
44037,-100,4,1,1,50,0,0
45037,-100,4,1,1,55,0,0
45371,-76.9230769230769,4,1,1,60,0,0
46704,-100,4,1,1,60,0,0
48037,-76.9230769230769,4,1,1,60,0,0
49371,-100,4,1,1,60,0,0
50704,-76.9230769230769,4,1,1,60,0,0
52037,-100,4,1,1,60,0,0
53371,-76.9230769230769,4,1,1,60,0,0
54704,-100,4,1,1,60,0,0
56037,-76.9230769230769,4,1,1,60,0,0
57371,-100,4,1,1,60,0,0
58704,-76.9230769230769,4,1,1,60,0,0
60037,-100,4,1,1,60,0,0
61371,-76.9230769230769,4,1,1,60,0,0
62704,-100,4,1,1,60,0,0
64037,-76.9230769230769,4,1,1,60,0,0
64537,-100,4,1,1,60,0,0
66704,-100,4,1,1,40,0,0
85871,-76.9230769230769,4,1,1,40,0,0
86037,-100,4,1,1,40,0,0
86704,-133.333333333333,4,1,1,40,0,0
88037,-90.9090909090909,4,1,1,55,0,0
109371,-111.111111111111,4,1,1,45,0,0
120704,-83.3333333333333,4,1,1,45,0,0
120954,-111.111111111111,4,1,1,45,0,0
121371,-200,4,1,1,30,0,0
129371,-100,4,1,1,30,0,0
130704,-100,4,1,1,35,0,0
132037,-200,4,1,1,15,0,0
132954,-200,4,1,1,5,0,0
133037,-100,4,1,1,35,0,0
136037,-76.9230769230769,4,1,1,60,0,1
139371,-83.3333333333333,4,1,1,60,0,1
139537,-90.9090909090909,4,1,1,60,0,1
139704,-100,4,1,1,60,0,1
139871,-111.111111111111,4,1,1,60,0,1
140037,-76.9230769230769,4,1,1,60,0,1
178704,-100,4,1,1,40,0,0
189371,-90.9090909090909,4,1,1,45,0,0
200037,-100,4,1,1,45,0,0
210704,-200,4,1,1,40,0,0
212037,446.428571428571,4,1,1,50,1,0
212037,-200,4,1,1,50,0,0
213376,333.333333333333,4,1,1,50,1,0
213376,-200,4,1,1,50,0,0
216042,-200,4,1,1,30,0,0
216542,-200,4,1,1,20,0,0
217376,446.428571428571,3,1,1,40,1,0
217376,-200,3,1,1,40,0,0
218715,494.641384995878,3,1,1,40,1,0
218715,-133.333333333333,3,1,1,40,0,0
219085,-133.333333333333,3,1,1,5,0,0
219209,368.098159509202,3,1,1,40,1,8
219209,-200,3,1,1,40,0,8
219485,-200,3,1,1,5,0,8
219577,471.698113207547,3,1,1,40,1,8
219577,-200,3,1,1,40,0,8
219923,-200,3,1,1,5,0,8
220048,500,3,1,1,40,1,0
220048,-133.333333333333,3,1,1,40,0,0
220423,-133.333333333333,3,1,1,5,0,0
220548,413.793103448276,3,1,1,40,1,8
220548,-161.290322580645,3,1,1,40,0,8
221272,-161.290322580645,3,1,1,5,0,8
221375,500,3,1,1,40,1,0
221375,-133.333333333333,3,1,1,40,0,0
221750,-133.333333333333,3,1,1,5,0,0
221875,-153.846153846154,4,1,1,5,0,0

[Colours]
Combo1 : 111,106,111
Combo2 : 189,79,112
Combo3 : 136,85,111

[HitObjects]
228,248,2704,6,0,L|336:235,2,78.6250014996529,2|2|2,0:3|2:0|0:3,0:0:0:0:
255,153,3204,1,2,2:0:0:0:
381,214,3371,2,0,P|385:241|359:296,1,78.6250014996529,2|2,0:3|2:0,0:0:0:0:
455,188,3621,2,0,P|442:163|389:133,1,78.6250014996529,0|0,2:0|0:0,0:0:0:0:
457,268,3871,1,2,2:0:0:0:
461,46,5037,6,0,L|465:106,1,39.3125007498264,2|0,0:3|0:0,0:0:0:0:
387,114,5204,2,0,L|391:54,1,39.3125007498264,0|0,0:0|0:0,0:0:0:0:
281,89,5371,2,0,L|173:102,2,78.6250014996529,2|2|2,0:3|2:0|0:3,0:0:0:0:
254,184,5871,1,2,2:0:0:0:
128,123,6038,2,0,P|124:96|150:41,1,78.6250014996529,2|2,0:3|2:0,0:0:0:0:
54,149,6288,2,0,P|66:173|119:203,1,78.6250014996529,0|0,2:0|0:0,0:0:0:0:
52,69,6538,1,2,2:0:0:0:
288,254,7537,6,0,L|225:245,1,39.3125007498264,2|0,2:0|0:0,0:0:0:0:
177,219,7704,2,0,L|216:168,1,39.3125007498264,2|0,0:3|0:0,0:0:0:0:
263,139,7871,2,0,L|286:198,1,39.3125007498264,2|0,2:0|0:0,0:0:0:0:
102,250,8037,2,0,P|98:205|121:158,2,78.6250014996529,2|2|2,0:3|2:0|0:3,0:0:0:0:
154,335,8537,1,2,2:0:0:0:
185,330,8621,1,0,2:0:0:0:
215,325,8704,2,0,B|242:327|242:327|263:321|263:321|303:324,1,78.6250014996529,2|2,0:3|2:0,0:0:0:0:
357,249,8954,2,0,B|329:251|329:251|308:245|308:245|268:248,1,78.6250014996529,0|0,0:0|0:0,0:0:0:0:
372,327,9204,1,2,2:0:0:0:
372,327,10537,5,2,2:0:0:0:
372,327,10621,1,0,2:0:0:0:
372,327,10704,2,0,L|378:235,1,78.6250014996529,2|2,0:3|2:0,0:0:0:0:
281,112,11037,2,0,L|287:176,1,39.3125007498264,2|0,0:3|0:0,0:0:0:0:
256,316,11204,1,2,2:0:0:0:
221,334,11287,1,0,2:0:0:0:
181,332,11371,2,0,B|165:301|165:301|172:233,1,78.6250014996529,2|2,0:3|2:0,0:0:0:0:
75,209,11621,2,0,B|59:240|59:240|66:308,1,78.6250014996529,0|0,0:0|0:0,0:0:0:0:
158,164,11871,1,2,2:0:0:0:
125,77,12704,6,0,L|229:86,1,78.6250014996529,2|2,0:3|2:0,0:0:0:0:
242,87,12954,1,0,2:0:0:0:
206,103,13037,1,2,0:3:0:0:
183,135,13121,1,0,2:0:0:0:
179,173,13204,2,0,L|188:243,1,39.3125007498264,2|0,2:0|2:0,0:0:0:0:
338,280,13371,6,0,L|344:169,2,92.5,2|2|2,0:3|2:0|0:3,0:0:0:0:
371,362,13871,1,2,2:0:0:0:
183,276,14037,2,0,P|127:282|75:316,1,92.5,2|2,0:3|2:0,0:0:0:0:
230,264,14287,2,0,P|176:245|115:254,1,92.5,0|0,2:0|0:0,0:0:0:0:
248,340,14537,2,0,P|272:331|296:307,1,46.25,2|0,2:0|0:0,0:0:0:0:
298,207,15704,6,0,L|235:204,1,46.25,2|0,0:3|0:0,0:0:0:0:
209,122,15871,2,0,L|255:119,1,46.25,0|0,0:0|0:0,0:0:0:0:
369,51,16037,2,0,L|269:39,2,92.5,2|2|2,0:3|2:0|0:3,0:0:0:0:
457,33,16537,1,2,2:0:0:0:
357,233,16704,2,0,P|334:182|345:129,1,92.5,2|2,0:3|2:0,0:0:0:0:
438,209,16954,2,0,P|439:254|418:295,1,92.5,0|0,2:0|0:0,0:0:0:0:
414,135,17204,1,2,2:0:0:0:
213,248,18204,6,0,L|274:238,1,46.25,2|0,2:0|0:0,0:0:0:0:
221,139,18371,2,0,L|175:131,1,46.25,2|0,0:3|0:0,0:0:0:0:
174,319,18537,2,0,L|219:326,1,46.25,2|0,2:0|0:0,0:0:0:0:
61,179,18704,2,0,P|38:210|40:282,2,92.5,2|2|2,0:3|2:0|0:3,0:0:0:0:
168,136,19204,2,0,L|173:198,1,46.25,2|0,2:0|2:0,0:0:0:0:
98,92,19371,2,0,L|106:-10,1,92.5,2|2,0:3|2:0,0:0:0:0:
156,161,19621,2,0,L|148:253,1,92.5,0|0,0:0|0:0,0:0:0:0:
53,200,19871,1,2,2:0:0:0:
228,106,21204,5,2,2:0:0:0:
228,106,21287,1,0,2:0:0:0:
228,106,21371,2,0,P|282:89|333:102,1,92.5,10|2,0:2|2:0,0:0:0:0:
343,278,21704,2,0,P|324:248|322:216,1,46.25,2|0,0:3|0:0,0:0:0:0:
473,125,21871,1,2,2:0:0:0:
478,170,21954,1,0,2:0:0:0:
484,215,22037,2,0,L|473:329,1,92.5,2|2,0:3|2:0,0:0:0:0:
328,363,22287,2,0,L|317:249,1,92.5,0|0,0:0|0:0,0:0:0:0:
391,180,22537,2,0,L|391:240,1,46.25,2|0,2:0|0:0,0:0:0:0:
184,195,22704,5,6,0:2:0:0:
184,195,23037,1,6,0:2:0:0:
254,255,23204,6,0,P|288:249|326:248,1,60.1249972476961,0|0,3:0|3:0,0:0:0:0:
288,56,23371,1,8,3:3:0:0:
288,56,23454,2,0,P|272:79|268:128,1,60.1249972476961,8|0,3:3|3:0,0:0:0:0:
383,263,23621,1,8,3:3:0:0:
383,263,23704,2,0,P|382:234|348:184,1,60.1249972476961,8|8,3:3|3:3,0:0:0:0:
165,331,23871,1,8,3:3:0:0:
219,338,23954,1,8,3:3:0:0:
273,345,24037,6,0,L|337:338,1,60.1249972476961,4|0,3:3|0:0,0:0:0:0:
370,155,24204,2,0,L|306:148,1,60.1249972476961,0|0,2:1|0:0,0:0:0:0:
404,373,24371,1,8,2:3:0:0:
480,264,24537,2,0,L|474:198,1,60.1249972476961,0|0,2:1|0:0,0:0:0:0:
217,286,24704,6,0,P|259:333|331:330,1,120.249994495392,6|2,2:0|3:3,0:0:0:0:
377,292,24954,1,0,0:0:0:0:
377,292,25037,2,0,P|351:268|314:260,1,60.1249972476961,8|0,2:3|0:0,0:0:0:0:
135,342,25204,1,0,2:0:0:0:
199,212,25371,5,2,3:2:0:0:
208,167,25454,1,2,2:2:0:0:
193,123,25537,2,0,P|162:97|124:91,1,46.25,2|2,2:3|2:2,0:0:0:0:
124,170,25704,2,0,P|83:166|49:183,1,46.25,8|2,2:3|2:2,0:0:0:0:
94,248,25871,1,2,2:3:0:0:
70,287,25954,1,2,2:2:0:0:
71,333,26037,2,0,P|94:342|134:335,1,46.25,6|0,2:0|0:0,0:0:0:0:
251,241,26204,5,2,3:3:0:0:
251,241,26287,1,2,2:2:0:0:
251,241,26371,2,0,L|243:182,1,46.25,8|2,2:3|2:2,0:0:0:0:
308,338,26537,2,0,L|300:397,1,46.25,2|8,2:0|2:3,0:0:0:0:
357,148,26704,6,0,P|385:135|432:140,1,60.1249972476961,2|0,3:2|0:0,0:0:0:0:
478,351,26871,2,0,P|448:350|421:337,1,60.1249972476961,2|0,3:3|0:0,0:0:0:0:
490,95,27037,1,8,2:3:0:0:
391,219,27204,2,0,P|361:226|315:213,1,60.1249972476961,0|0,2:0|0:0,0:0:0:0:
340,2,27371,6,0,B|366:43|366:43|355:148,1,120.249994495392,6|2,2:0|3:3,0:0:0:0:
292,157,27621,1,0,2:0:0:0:
292,157,27704,2,0,L|232:149,1,60.1249972476961,8|0,2:3|0:0,0:0:0:0:
444,88,27871,1,0,2:0:0:0:
425,233,28037,5,10,3:2:0:0:
425,233,28204,2,0,L|366:235,1,46.25,2|2,2:3|2:2,0:0:0:0:
278,220,28371,1,8,2:3:0:0:
247,185,28454,1,2,2:2:0:0:
245,138,28537,1,2,2:3:0:0:
274,101,28621,1,2,2:2:0:0:
319,95,28704,5,6,2:0:0:0:
272,125,28787,1,8,2:3:0:0:
216,118,28871,1,2,3:3:0:0:
172,84,28954,1,2,2:2:0:0:
156,31,29037,2,0,L|221:24,1,46.25,8|2,2:3|2:2,0:0:0:0:
383,32,29204,1,2,3:3:0:0:
424,68,29287,1,8,2:3:0:0:
429,123,29371,6,0,L|419:208,1,60.1249972476961,2|0,3:2|0:0,0:0:0:0:
204,239,29537,2,0,L|194:154,1,60.1249972476961,2|0,2:3|0:0,0:0:0:0:
260,0,29704,1,8,2:3:0:0:
336,80,29871,2,0,L|326:165,1,60.1249972476961,2|0,2:3|2:0,0:0:0:0:
85,98,30037,6,0,B|124:94|124:94|161:103|161:103|213:98,1,120.249994495392,6|2,2:0|3:3,0:0:0:0:
265,40,30287,1,0,2:0:0:0:
265,40,30371,2,0,P|224:18|183:20,1,60.1249972476961,8|0,2:3|0:0,0:0:0:0:
325,117,30537,2,0,P|354:117|383:108,1,60.1249972476961,2|0,2:3|0:0,0:0:0:0:
191,177,30704,5,2,3:2:0:0:
173,219,30787,1,2,2:2:0:0:
176,265,30871,1,2,2:3:0:0:
201,303,30954,1,2,2:2:0:0:
243,320,31037,2,0,L|315:313,1,46.25,8|2,2:3|2:2,0:0:0:0:
323,239,31204,2,0,L|276:234,1,46.25,2|2,2:3|2:2,0:0:0:0:
391,371,31371,5,6,2:0:0:0:
391,371,31454,1,2,2:2:0:0:
391,371,31537,2,0,P|400:346|395:305,1,46.25,2|2,3:3|2:2,0:0:0:0:
245,219,31704,2,0,P|244:242|250:264,1,46.25,8|2,2:3|2:2,0:0:0:0:
469,136,31871,1,2,3:3:0:0:
429,97,31954,1,0,3:0:0:0:
373,95,32037,6,0,P|344:105|318:132,1,60.1249972476961,2|0,3:2|0:0,0:0:0:0:
405,303,32204,2,0,P|423:278|428:241,1,60.1249972476961,2|0,2:3|0:0,0:0:0:0:
178,177,32371,2,0,B|138:180|138:180|105:171|105:171|49:176,1,120.249994495392,8|2,2:3|2:3,0:0:0:0:
147,101,32621,1,8,2:3:0:0:
147,101,32704,2,0,P|162:68|157:28,1,60.1249972476961,6|0,3:2|0:0,0:0:0:0:
194,260,32871,5,2,3:3:0:0:
216,309,32954,1,0,2:0:0:0:
263,334,33037,2,0,P|300:334|341:315,1,60.1249972476961,8|2,2:3|2:2,0:0:0:0:
413,212,33205,5,2,2:3:0:0:
391,240,33288,1,0,2:0:0:0:
385,276,33371,2,0,P|397:310|416:330,1,46.25,10|2,3:2|2:2,0:0:0:0:
500,153,33537,1,2,2:3:0:0:
500,153,33621,1,2,2:2:0:0:
500,153,33704,2,0,P|502:130|498:107,1,46.25,8|2,2:3|2:2,0:0:0:0:
306,30,33871,5,2,2:3:0:0:
306,30,33954,1,2,2:2:0:0:
306,30,34037,1,6,2:2:0:0:
286,72,34121,1,8,2:3:0:0:
283,118,34204,1,0,3:0:0:0:
305,158,34287,1,2,2:2:0:0:
344,182,34371,1,8,2:3:0:0:
367,221,34454,1,2,1:2:0:0:
368,267,34537,1,2,2:3:0:0:
346,308,34621,1,2,1:2:0:0:
304,327,34704,6,0,L|233:318,1,60.1249972476961,6|0,3:3|0:0,0:0:0:0:
189,115,34871,2,0,L|248:107,1,60.1249972476961,2|0,2:3|0:0,0:0:0:0:
177,365,35037,1,8,2:3:0:0:
119,250,35204,2,0,P|112:212|125:161,1,60.1249972476961,0|0,3:0|0:0,0:0:0:0:
326,168,35371,6,0,L|320:227,1,46.25,6|0,2:2|0:0,0:0:0:0:
212,258,35537,1,0,3:0:0:0:
212,258,35621,2,0,L|206:199,1,46.25,8|0,2:3|3:0,0:0:0:0:
415,207,35787,1,0,3:0:0:0:
415,207,35871,2,0,L|409:266,1,46.25,8|0,2:3|3:0,0:0:0:0:
268,90,36037,5,6,3:2:0:0:
297,53,36121,1,2,2:2:0:0:
342,43,36204,2,0,L|424:53,1,46.25,2|2,2:3|2:2,0:0:0:0:
350,163,36371,2,0,L|305:170,1,46.25,8|2,2:3|2:2,0:0:0:0:
470,113,36537,1,2,2:3:0:0:
490,154,36621,1,2,2:2:0:0:
490,200,36704,2,0,L|476:268,1,46.25,6|0,2:0|0:0,0:0:0:0:
329,364,36871,5,2,3:3:0:0:
329,364,36954,1,2,2:2:0:0:
329,364,37037,2,0,L|325:292,1,46.25,8|2,2:3|2:2,0:0:0:0:
257,203,37204,2,0,L|253:275,1,46.25,10|8,2:3|2:3,0:0:0:0:
196,380,37371,6,0,P|158:380|120:362,1,60.1249972476961,2|0,3:2|0:0,0:0:0:0:
146,154,37537,2,0,P|168:174|182:200,1,60.1249972476961,2|0,3:3|0:0,0:0:0:0:
65,384,37704,1,8,2:3:0:0:
18,279,37871,2,0,L|24:209,1,60.1249972476961,2|0,2:3|0:0,0:0:0:0:
255,215,38037,6,0,P|224:255|153:260,1,120.249994495392,6|2,2:0|3:3,0:0:0:0:
97,211,38287,1,0,2:0:0:0:
97,211,38371,2,0,P|128:186|157:181,1,60.1249972476961,8|0,2:3|0:0,0:0:0:0:
311,279,38537,1,2,2:3:0:0:
271,135,38704,5,10,3:2:0:0:
271,135,38871,2,0,L|277:65,1,46.25,2|2,2:3|2:2,0:0:0:0:
320,207,39037,1,8,2:3:0:0:
305,251,39121,1,2,2:2:0:0:
271,282,39204,1,2,2:3:0:0:
225,291,39287,1,2,2:2:0:0:
181,273,39371,5,6,2:0:0:0:
235,266,39454,1,8,2:3:0:0:
258,316,39538,1,2,3:3:0:0:
218,353,39621,1,2,2:2:0:0:
169,326,39704,2,0,P|142:312|100:312,1,46.25,8|2,2:3|2:2,0:0:0:0:
30,333,39871,1,2,3:3:0:0:
26,277,39954,1,8,2:3:0:0:
23,221,40037,6,0,L|33:143,1,60.1249972476961,2|0,3:2|0:0,0:0:0:0:
288,86,40204,2,0,L|298:164,1,60.1249972476961,2|0,2:3|0:0,0:0:0:0:
106,244,40371,1,8,2:3:0:0:
102,125,40537,1,2,2:3:0:0:
102,125,40621,1,0,2:0:0:0:
102,125,40704,6,0,B|163:104|155:151|226:125,1,120.249994495392,6|2,2:0|3:3,0:0:0:0:
210,7,40954,1,0,0:0:0:0:
210,7,41037,2,0,P|192:36|190:75,1,60.1249972476961,8|0,2:3|0:0,0:0:0:0:
393,84,41204,1,2,2:3:0:0:
289,174,41371,5,2,3:2:0:0:
278,218,41454,1,2,2:2:0:0:
289,262,41537,1,2,2:3:0:0:
323,293,41621,1,2,2:2:0:0:
367,302,41704,2,0,L|371:237,1,46.25,8|0,2:3|0:0,0:0:0:0:
248,335,41871,2,0,L|252:400,1,46.25,2|2,2:3|2:2,0:0:0:0:
327,180,42037,5,6,2:0:0:0:
327,180,42121,1,2,2:2:0:0:
327,180,42204,2,0,L|323:115,1,46.25,2|2,3:3|2:2,0:0:0:0:
168,305,42371,2,0,L|164:370,1,46.25,8|2,2:3|2:2,0:0:0:0:
232,109,42537,1,2,3:3:0:0:
199,63,42621,1,0,3:0:0:0:
144,53,42704,6,0,L|71:59,1,60.1249972476961,2|0,3:2|0:0,0:0:0:0:
192,216,42871,2,0,L|251:220,1,60.1249972476961,0|0,2:0|0:0,0:0:0:0:
233,0,43037,1,8,2:3:0:0:
121,176,43204,5,2,3:2:0:0:
112,230,43287,1,8,2:3:0:0:
140,277,43371,2,0,P|172:293|212:290,1,46.25,6|0,3:2|0:0,0:0:0:0:
310,155,43537,1,2,3:2:0:0:
256,146,43620,1,0,0:0:0:0:
209,174,43704,2,0,P|192:206|195:246,1,46.25,8|0,2:3|0:0,0:0:0:0:
336,307,43871,2,0,P|336:283|329:261,1,46.25,2|0,2:2|0:0,0:0:0:0:
109,328,44037,5,0,3:3:0:0:
126,350,44121,1,0,3:3:0:0:
150,362,44204,1,0,3:3:0:0:
177,365,44287,1,0,3:3:0:0:
203,355,44371,1,8,1:3:0:0:
228,328,44454,1,8,1:3:0:0:
232,291,44537,1,8,1:3:0:0:
249,258,44621,1,8,1:3:0:0:
282,242,44704,1,8,3:3:0:0:
327,245,44787,1,8,3:3:0:0:
361,276,44871,1,10,3:3:0:0:
366,321,44954,1,10,3:3:0:0:
339,359,45037,2,0,L|282:366,1,46.25,8|8,3:1|3:1,0:0:0:0:
249,116,45204,2,0,L|294:121,1,46.25,8|8,3:1|3:1,0:0:0:0:
42,331,45371,6,0,B|21:287|21:287|33:185,1,120.249994495392,4|0,3:3|2:1,0:0:0:0:
42,138,45621,1,0,0:0:0:0:
42,138,45704,1,8,2:3:0:0:
179,214,45871,2,0,P|214:214|257:192,1,60.1249972476961,0|0,2:1|0:0,0:0:0:0:
206,2,46037,6,0,B|186:44|186:44|197:124,1,120.249994495392,6|2,2:0|3:3,0:0:0:0:
317,84,46287,1,0,0:0:0:0:
317,84,46371,2,0,P|288:63|240:57,1,60.1249972476961,8|0,2:3|0:0,0:0:0:0:
312,275,46537,1,0,2:0:0:0:
424,217,46704,5,2,3:2:0:0:
436,172,46787,1,2,2:2:0:0:
421,127,46871,2,0,L|361:133,1,46.25,2|2,2:3|2:2,0:0:0:0:
303,173,47037,2,0,L|243:167,1,46.25,8|2,2:3|2:2,0:0:0:0:
174,155,47204,1,2,2:3:0:0:
129,168,47287,1,2,2:2:0:0:
104,207,47371,2,0,L|110:268,1,46.25,6|0,2:0|0:0,0:0:0:0:
219,373,47537,5,2,3:3:0:0:
219,373,47621,1,2,2:2:0:0:
219,373,47704,2,0,L|225:312,1,46.25,8|2,2:3|2:2,0:0:0:0:
303,294,47871,2,0,L|309:355,1,46.25,2|8,2:0|2:3,0:0:0:0:
110,281,48037,6,0,P|143:261|183:265,1,60.1249972476961,2|0,3:2|0:0,0:0:0:0:
363,353,48204,2,0,P|324:350|294:324,1,60.1249972476961,2|0,3:3|0:0,0:0:0:0:
248,104,48371,1,8,2:3:0:0:
306,204,48537,2,0,L|302:270,1,60.1249972476961,0|0,2:0|0:0,0:0:0:0:
116,373,48704,6,0,B|95:334|95:334|100:258,1,120.249994495392,6|2,2:0|3:3,0:0:0:0:
114,180,48954,1,0,2:0:0:0:
114,180,49037,2,0,P|158:202|172:233,1,60.1249972476961,8|0,2:3|0:0,0:0:0:0:
34,384,49204,1,0,2:0:0:0:
4,249,49371,5,10,3:2:0:0:
4,249,49537,2,0,L|8:180,1,46.25,2|2,2:3|2:2,0:0:0:0:
12,107,49704,1,8,2:3:0:0:
40,70,49787,1,2,2:2:0:0:
85,57,49871,1,2,2:3:0:0:
129,69,49954,1,2,2:2:0:0:
159,103,50037,5,6,2:0:0:0:
169,48,50121,1,8,2:3:0:0:
210,11,50204,1,2,3:3:0:0:
265,7,50287,1,2,2:2:0:0:
313,34,50371,2,0,L|319:92,1,46.25,8|2,2:3|2:2,0:0:0:0:
299,228,50537,1,2,3:3:0:0:
251,197,50621,1,8,2:3:0:0:
236,143,50704,6,0,P|234:113|244:84,1,60.1249972476961,2|0,3:2|0:0,0:0:0:0:
428,196,50871,2,0,P|437:224|436:254,1,60.1249972476961,2|0,2:3|0:0,0:0:0:0:
181,235,51037,1,8,2:3:0:0:
316,149,51204,1,2,2:3:0:0:
316,149,51287,1,0,2:0:0:0:
316,149,51371,6,0,B|345:190|345:190|340:268,1,120.249994495392,6|2,2:0|3:3,0:0:0:0:
218,238,51621,1,0,2:0:0:0:
218,238,51704,2,0,P|245:218|293:213,1,60.1249972476961,8|0,2:3|0:0,0:0:0:0:
453,251,51871,1,2,2:3:0:0:
366,338,52037,5,2,3:2:0:0:
320,339,52120,1,2,2:2:0:0:
281,315,52203,1,0,0:0:0:0:
260,275,52287,1,2,2:2:0:0:
263,229,52371,2,0,L|315:233,1,46.25,8|2,2:3|2:2,0:0:0:0:
153,277,52537,2,0,L|101:273,1,46.25,2|2,2:3|2:2,0:0:0:0:
227,157,52704,5,6,2:0:0:0:
227,157,52787,1,2,2:2:0:0:
227,157,52871,2,0,P|234:135|228:98,1,46.25,2|2,3:3|2:2,0:0:0:0:
65,76,53037,2,0,P|63:98|70:120,1,46.25,8|2,2:3|2:2,0:0:0:0:
304,83,53204,1,2,3:3:0:0:
267,41,53287,1,0,3:0:0:0:
211,37,53371,6,0,P|181:52|161:79,1,60.1249972476961,2|0,3:2|0:0,0:0:0:0:
274,242,53537,2,0,P|286:214|286:184,1,60.1249972476961,2|0,2:3|0:0,0:0:0:0:
67,178,53704,2,0,B|48:243|95:231|78:305,1,120.249994495392,8|2,2:3|2:3,0:0:0:0:
138,202,53954,1,8,2:3:0:0:
138,202,54037,2,0,P|138:158|116:124,1,60.1249972476961,6|0,3:2|0:0,0:0:0:0:
11,330,54204,5,2,3:3:0:0:
48,366,54287,1,0,2:0:0:0:
101,369,54371,2,0,L|188:361,1,60.1249972476961,8|2,2:3|2:2,0:0:0:0:
257,283,54537,5,2,2:3:0:0:
258,319,54621,1,0,2:0:0:0:
277,349,54704,2,0,P|306:363|345:361,1,46.25,10|2,3:2|2:2,0:0:0:0:
376,215,54871,1,2,2:3:0:0:
376,215,54954,1,2,2:2:0:0:
376,215,55037,2,0,P|354:223|336:237,1,46.25,8|2,2:3|2:2,0:0:0:0:
477,344,55204,1,2,2:3:0:0:
477,344,55287,1,2,2:2:0:0:
477,344,55371,1,10,2:3:0:0:
483,330,55454,5,8,2:3:0:0:
472,321,55538,1,0,3:0:0:0:
460,327,55621,1,2,2:2:0:0:
462,341,55704,5,8,2:3:0:0:
490,341,55788,1,2,1:2:0:0:
498,314,55871,1,2,2:3:0:0:
475,297,55954,1,2,1:2:0:0:
453,314,56037,6,0,P|423:324|371:313,1,60.1249972476961,6|0,3:3|0:0,0:0:0:0:
275,228,56204,2,0,P|265:198|276:146,1,60.1249972476961,2|0,2:3|0:0,0:0:0:0:
200,384,56371,1,8,2:3:0:0:
132,258,56537,1,0,3:0:0:0:
101,238,56621,1,0,0:0:0:0:
65,237,56704,6,0,B|39:274|39:274|47:357,1,120.249994495392,6|0,2:2|3:0,0:0:0:0:
117,381,56954,1,8,2:3:0:0:
117,381,57037,2,0,P|122:346|116:317,1,60.1249972476961,0|0,3:0|3:0,0:0:0:0:
51,149,57204,1,8,2:3:0:0:
179,204,57371,5,2,3:2:0:0:
224,198,57454,1,2,2:2:0:0:
256,164,57537,2,0,L|262:102,1,46.25,2|2,2:3|2:2,0:0:0:0:
293,249,57704,2,0,L|299:311,1,46.25,8|2,2:3|2:2,0:0:0:0:
364,148,57871,5,2,2:3:0:0:
399,118,57954,1,2,2:2:0:0:
444,114,58037,2,0,P|473:121|499:141,1,46.25,6|0,2:0|0:0,0:0:0:0:
438,262,58204,1,2,3:3:0:0:
438,262,58287,1,2,2:2:0:0:
438,262,58371,2,0,P|429:233|433:200,1,46.25,8|2,2:3|2:2,0:0:0:0:
505,324,58537,2,0,P|504:347|496:368,1,46.25,10|8,2:3|2:3,0:0:0:0:
374,164,58704,6,0,P|404:144|440:141,1,60.1249972476961,2|0,3:2|0:0,0:0:0:0:
407,372,58871,2,0,P|377:378|348:372,1,60.1249972476961,2|0,3:3|0:0,0:0:0:0:
293,127,59037,1,8,2:3:0:0:
237,254,59204,2,0,L|162:260,1,60.1249972476961,2|0,2:3|0:0,0:0:0:0:
0,209,59371,6,0,B|39:212|39:212|77:199|77:199|117:203,1,120.249994495392,6|2,2:0|3:3,0:0:0:0:
145,276,59621,1,0,2:0:0:0:
145,276,59704,2,0,L|85:271,1,60.1249972476961,8|0,2:3|0:0,0:0:0:0:
137,46,59871,1,2,2:3:0:0:
215,167,60037,5,10,3:2:0:0:
215,167,60204,2,0,L|210:226,1,46.25,2|2,2:3|2:2,0:0:0:0:
146,82,60371,1,8,2:3:0:0:
171,43,60454,1,2,2:2:0:0:
214,29,60537,1,2,2:3:0:0:
259,38,60621,1,2,2:2:0:0:
291,71,60704,5,6,2:0:0:0:
278,124,60787,1,8,2:3:0:0:
301,174,60871,1,2,3:3:0:0:
353,192,60954,1,2,2:2:0:0:
405,174,61037,2,0,P|430:163|472:169,1,46.25,8|2,2:3|2:2,0:0:0:0:
445,247,61204,1,2,3:3:0:0:
419,296,61287,1,8,2:3:0:0:
430,350,61371,6,0,L|509:356,1,60.1249972476961,2|0,3:2|0:0,0:0:0:0:
296,262,61537,2,0,L|236:266,1,60.1249972476961,2|0,2:3|0:0,0:0:0:0:
512,203,61704,1,8,2:3:0:0:
401,141,61871,1,2,2:3:0:0:
401,141,61954,1,0,2:0:0:0:
401,141,62037,6,0,B|376:177|376:177|383:253,1,120.249994495392,6|2,2:0|3:3,0:0:0:0:
422,322,62287,1,0,0:0:0:0:
422,322,62371,2,0,P|454:287|457:249,1,60.1249972476961,8|0,2:3|0:0,0:0:0:0:
235,235,62537,1,2,2:3:0:0:
333,163,62704,5,2,3:2:0:0:
354,122,62787,1,2,2:2:0:0:
351,75,62871,1,2,2:3:0:0:
321,39,62954,1,2,2:2:0:0:
277,24,63037,2,0,L|211:36,1,46.25,8|0,2:3|0:0,0:0:0:0:
190,129,63204,2,0,L|235:137,1,46.25,2|2,2:3|2:2,0:0:0:0:
149,9,63371,5,6,2:0:0:0:
149,9,63454,1,2,2:2:0:0:
149,9,63537,2,0,P|145:35|154:66,1,46.25,2|2,3:3|2:2,0:0:0:0:
189,128,63704,2,0,P|194:151|190:174,1,46.25,8|2,2:3|2:2,0:0:0:0:
153,301,63871,1,2,3:3:0:0:
105,328,63954,1,0,3:0:0:0:
49,323,64037,6,0,P|19:308|-6:274,1,60.1249972476961,2|0,3:2|0:0,0:0:0:0:
136,136,64204,2,0,P|149:166|146:208,1,60.1249972476961,2|0,2:3|0:0,0:0:0:0:
101,384,64371,1,8,2:3:0:0:
196,277,64537,5,2,2:3:0:0:
251,269,64621,1,8,2:3:0:0:
299,294,64704,2,0,P|319:318|327:357,1,46.25,6|0,2:0|0:0,0:0:0:0:
117,336,64871,1,2,3:3:0:0:
95,284,64955,1,0,0:0:0:0:
106,232,65038,2,0,P|124:206|159:188,1,46.25,8|0,2:3|0:0,0:0:0:0:
255,362,65204,2,0,P|232:368|209:366,1,46.25,2|8,2:3|2:3,0:0:0:0:
241,167,65371,5,0,3:3:0:0:
269,190,65454,1,0,3:3:0:0:
285,222,65537,1,0,3:3:0:0:
289,259,65621,1,0,3:3:0:0:
282,295,65704,1,8,1:3:0:0:
293,339,65787,1,8,1:3:0:0:
327,370,65871,1,8,1:3:0:0:
373,369,65954,1,8,1:3:0:0:
408,340,66037,1,8,3:3:0:0:
416,284,66121,1,8,3:3:0:0:
382,240,66204,1,8,3:3:0:0:
373,185,66287,1,8,3:3:0:0:
395,133,66371,1,10,3:3:0:0:
482,196,66704,6,0,B|393:151|393:240|294:196,1,185,4|10,3:3|1:3,0:0:0:0:
304,200,67371,2,0,P|321:241|292:313,1,92.5,2|2,1:3|3:3,0:0:0:0:
91,264,67704,2,0,P|120:237|230:241,1,138.75,10|0,1:3|0:0,0:0:0:0:
236,248,68037,2,0,B|207:194|241:144|241:144|216:111|162:127,1,185,2|10,3:3|1:3,0:0:0:0:
173,124,68704,2,0,P|229:93|246:44,1,92.5,2|2,1:3|3:3,0:0:0:0:
23,24,69037,1,10,1:3:0:0:
61,154,69204,1,2,1:3:0:0:
58,181,69287,1,8,1:3:0:0:
55,208,69371,6,0,B|88:214|118:196|118:196|170:220|170:220|208:201|249:206,1,185,2|10,3:3|1:3,0:0:0:0:
230,205,70037,2,0,B|211:240|211:240|222:312,1,92.5,2|2,1:3|3:3,0:0:0:0:
361,193,70371,2,0,B|348:86|348:86|306:131,1,138.75,10|0,1:3|0:0,0:0:0:0:
312,132,70704,2,0,P|263:157|166:75,1,185,2|10,3:3|1:3,0:0:0:0:
167,89,71371,2,0,P|176:114|173:159,1,46.25,2|8,1:3|1:3,0:0:0:0:
164,206,71537,1,2,3:3:0:0:
315,145,71704,2,0,P|360:141|402:188,1,92.5,10|2,1:3|3:3,0:0:0:0:
383,243,71954,5,8,1:3:0:0:
357,233,72037,2,0,B|229:242|229:242|292:303,1,185,2|10,3:3|1:3,0:0:0:0:
269,281,72704,2,0,P|288:232|267:172,1,92.5,2|2,1:3|3:3,0:0:0:0:
40,209,73037,2,0,B|80:237|80:237|185:229,1,138.75,10|0,1:3|0:0,0:0:0:0:
197,227,73371,2,0,P|142:272|179:380,1,185,2|0,3:3|0:0,0:0:0:0:
166,372,74037,2,0,L|173:265,1,92.5,2|2,1:3|3:3,0:0:0:0:
381,362,74371,1,10,1:3:0:0:
310,259,74537,1,2,3:3:0:0:
301,231,74621,1,8,1:3:0:0:
304,203,74704,6,0,B|344:201|363:170|363:170|363:241|420:278,1,185,2|10,3:3|1:3,0:0:0:0:
496,180,75204,1,2,1:3:0:0:
496,180,75287,1,8,1:3:0:0:
496,180,75371,2,0,L|492:78,1,92.5,2|2,3:3|3:3,0:0:0:0:
363,170,75704,2,0,L|356:329,1,138.75,10|0,1:3|0:0,0:0:0:0:
366,334,76037,2,0,P|330:277|217:282,1,185,2|10,3:3|1:3,0:0:0:0:
221,278,76704,6,0,P|195:292|150:289,1,46.25,2|8,1:3|1:3,0:0:0:0:
104,286,76871,1,2,3:3:0:0:
189,87,77037,1,10,1:3:0:0:
209,117,77121,1,0,0:0:0:0:
213,153,77204,1,2,3:3:0:0:
202,188,77287,1,8,1:3:0:0:
173,212,77371,6,0,B|35:202|35:202|93:167,1,185,6|10,3:3|1:3,0:0:0:0:
74,177,78037,2,0,P|90:213|74:294,1,92.5,2|2,1:3|3:3,0:0:0:0:
193,384,78371,2,0,B|240:356|240:356|329:367,1,138.75,10|2,1:3|1:2,0:0:0:0:
350,372,78704,2,0,P|414:343|399:217,1,185,2|10,3:3|1:3,0:0:0:0:
420,238,79371,2,0,L|520:254,1,92.5,2|2,1:3|3:3,0:0:0:0:
280,320,79704,1,10,1:3:0:0:
232,213,79871,1,2,1:3:0:0:
235,185,79954,1,8,1:3:0:0:
239,157,80037,6,0,B|294:152|294:152|361:178|361:178|425:172,1,185,2|10,3:3|1:3,0:0:0:0:
418,173,80704,2,0,L|310:164,1,92.5,2|2,1:3|3:3,0:0:0:0:
408,378,81037,2,0,B|443:336|443:336|430:233,1,138.75,10|2,1:3|1:2,0:0:0:0:
357,308,81371,1,2,3:3:0:0:
320,313,81454,1,2,3:2:0:0:
285,300,81537,1,10,1:3:0:0:
416,147,81704,1,10,1:3:0:0:
306,212,81871,5,2,0:2:0:0:
278,209,81954,1,10,1:3:0:0:
214,171,82037,1,2,0:2:0:0:
186,174,82120,1,10,1:3:0:0:
112,185,82204,1,2,3:3:0:0:
191,0,82371,1,8,1:3:0:0:
301,139,82537,1,2,3:3:0:0:
297,176,82621,1,8,1:3:0:0:
294,212,82704,6,0,P|255:264|143:253,1,185,2|10,3:3|1:3,0:0:0:0:
144,254,83371,2,0,P|171:297|150:363,1,92.5,2|2,1:3|3:3,0:0:0:0:
0,278,83704,2,0,L|6:121,1,138.75,10|2,1:3|1:2,0:0:0:0:
7,111,84037,2,0,P|74:147|61:267,1,185,2|10,3:3|1:3,0:0:0:0:
77,247,84704,5,2,1:3:0:0:
103,239,84787,1,2,1:2:0:0:
130,239,84871,1,2,3:3:0:0:
273,320,85037,1,10,1:3:0:0:
211,129,85204,1,2,3:3:0:0:
207,92,85287,1,8,1:3:0:0:
224,58,85371,6,0,B|360:65|360:65|319:99,1,185,2|10,3:3|1:3,0:0:0:0:
444,46,85871,2,0,P|446:77|437:104,1,60.1249972476961,2|8,3:3|1:3,0:0:0:0:
262,36,86037,2,0,L|319:34,1,46.25,2|2,3:3|1:2,0:0:0:0:
344,165,86204,2,0,L|297:163,1,46.25,2|2,3:3|1:2,0:0:0:0:
195,94,86371,1,10,1:3:0:0:
203,139,86454,1,0,0:0:0:0:
189,183,86537,1,2,1:3:0:0:
153,212,86621,1,2,3:3:0:0:
106,213,86704,6,0,B|70:187|72:148|72:148|25:185|34:249|34:249|76:301|131:287|131:287|113:333|146:374|146:374|153:338,1,416.250015878678,6|10,1:3|1:3,0:0:0:0:
48,361,87871,1,2,3:3:0:0:
148,149,88037,6,0,B|173:84|134:32|134:32|97:76,1,152.625004657746,4|2,3:3|1:2,0:0:0:0:
78,115,88371,1,8,2:3:0:0:
175,239,88537,1,0,2:1:0:0:
253,37,88704,2,0,P|291:17|366:27,1,101.750003105164,6|2,2:0|3:3,0:0:0:0:
432,205,89037,2,0,P|381:208|336:186,1,101.750003105164,8|0,2:3|2:0,0:0:0:0:
487,106,89287,1,2,1:2:0:0:
487,106,89371,2,0,L|490:170,1,50.8750015525818,2|0,3:3|0:0,0:0:0:0:
488,261,89537,5,0,2:1:0:0:
397,32,89704,1,8,2:3:0:0:
363,157,89871,2,0,P|346:178|293:196,1,50.8750015525818,0|0,2:1|0:0,0:0:0:0:
244,200,90037,2,0,P|217:193|179:153,1,50.8750015525818,6|2,2:0|1:2,0:0:0:0:
265,67,90204,1,2,3:3:0:0:
445,132,90371,1,8,2:3:0:0:
244,200,90537,2,0,P|230:176|231:120,1,50.8750015525818,2|8,1:3|1:3,0:0:0:0:
352,147,90704,6,0,L|348:286,1,101.750003105164,2|2,3:3|3:3,0:0:0:0:
143,188,91037,1,10,1:3:0:0:
201,39,91204,1,2,1:3:0:0:
266,255,91371,2,0,P|233:286|165:286,1,101.750003105164,6|2,2:0|3:3,0:0:0:0:
109,174,91621,1,2,1:2:0:0:
109,174,91704,2,0,P|154:175|202:223,1,101.750003105164,10|2,1:3|1:3,0:0:0:0:
190,384,92037,6,0,L|122:376,1,50.8750015525818,2|0,3:3|0:0,0:0:0:0:
71,342,92204,1,0,2:1:0:0:
285,225,92371,1,8,2:3:0:0:
326,334,92537,2,0,L|321:386,1,50.8750015525818,0|2,2:1|1:2,0:0:0:0:
200,252,92704,2,0,L|195:200,1,50.8750015525818,6|2,2:0|1:2,0:0:0:0:
396,282,92871,1,2,3:3:0:0:
161,327,93037,1,8,2:3:0:0:
239,144,93204,1,2,1:3:0:0:
264,175,93287,1,8,1:3:0:0:
268,215,93371,6,0,B|164:228|164:228|105:213,1,152.625004657746,4|0,3:3|0:0,0:0:0:0:
50,193,93704,1,8,2:3:0:0:
209,384,93871,1,0,2:1:0:0:
209,384,93954,1,2,1:2:0:0:
209,384,94037,2,0,P|231:335|210:264,1,101.750003105164,6|2,2:0|3:3,0:0:0:0:
324,372,94287,1,2,1:2:0:0:
324,372,94371,2,0,P|374:352|409:287,1,101.750003105164,8|0,2:3|2:0,0:0:0:0:
302,145,94704,6,0,L|298:210,1,50.8750015525818,2|0,3:3|0:0,0:0:0:0:
313,276,94871,1,0,2:1:0:0:
512,182,95037,1,8,2:3:0:0:
420,83,95204,2,0,L|355:87,1,50.8750015525818,0|0,2:1|0:0,0:0:0:0:
333,260,95371,2,0,L|383:263,1,50.8750015525818,6|0,2:0|0:0,0:0:0:0:
503,157,95537,1,2,3:3:0:0:
290,181,95704,1,8,2:3:0:0:
417,353,95871,2,0,P|428:324|420:285,1,50.8750015525818,2|0,1:3|0:0,0:0:0:0:
406,226,96037,6,0,L|247:242,1,152.625004657746,2|0,3:3|0:0,0:0:0:0:
272,311,96371,1,10,1:3:0:0:
335,119,96537,2,0,P|332:88|308:56,1,50.8750015525818,2|2,1:3|1:2,0:0:0:0:
277,16,96704,2,0,L|157:28,1,101.750003105164,6|2,2:0|3:3,0:0:0:0:
225,193,97037,2,0,L|275:187,1,50.8750015525818,10|0,1:3|0:0,0:0:0:0:
144,147,97204,2,0,L|93:141,1,50.8750015525818,2|0,1:3|0:0,0:0:0:0:
177,314,97371,2,0,P|207:260|189:190,1,101.750003105164,2|0,3:3|2:1,0:0:0:0:
100,323,97621,1,2,1:2:0:0:
100,323,97704,2,0,L|227:327,1,101.750003105164,8|0,2:3|2:1,0:0:0:0:
273,327,97954,5,2,1:2:0:0:
273,327,98037,2,0,P|282:299|274:258,1,50.8750015525818,6|2,2:0|1:2,0:0:0:0:
253,164,98204,1,2,3:3:0:0:
421,288,98371,1,8,2:3:0:0:
460,278,98454,1,0,0:0:0:0:
490,251,98537,1,2,1:3:0:0:
498,210,98621,1,8,1:3:0:0:
487,170,98704,6,0,L|366:176,1,101.750003105164,4|0,3:3|2:1,0:0:0:0:
385,175,98954,1,2,1:2:0:0:
385,175,99037,1,8,2:3:0:0:
454,296,99204,1,0,2:1:0:0:
227,254,99371,2,0,P|191:213|183:160,1,101.750003105164,6|2,2:0|3:3,0:0:0:0:
338,47,99704,2,0,P|353:94|342:143,1,101.750003105164,8|0,2:3|2:0,0:0:0:0:
409,234,99954,5,2,1:2:0:0:
409,234,100037,2,0,L|414:167,1,50.8750015525818,2|0,3:3|0:0,0:0:0:0:
288,197,100204,1,0,2:1:0:0:
384,372,100371,1,8,2:3:0:0:
468,288,100537,2,0,P|434:264|405:257,1,50.8750015525818,0|2,2:1|1:2,0:0:0:0:
322,268,100704,2,0,P|290:293|276:320,1,50.8750015525818,6|2,2:0|1:2,0:0:0:0:
384,372,100871,1,2,3:3:0:0:
369,147,101037,1,8,2:3:0:0:
214,273,101204,2,0,L|210:344,1,50.8750015525818,2|8,1:3|1:3,0:0:0:0:
163,187,101371,6,0,L|168:85,1,101.750003105164,2|2,3:3|3:3,0:0:0:0:
307,261,101704,1,10,2:3:0:0:
127,290,101871,1,2,1:3:0:0:
275,120,102037,2,0,L|383:127,1,101.750003105164,6|2,1:2|3:3,0:0:0:0:
442,241,102287,1,2,1:2:0:0:
442,241,102371,2,0,L|340:247,1,101.750003105164,10|2,1:3|1:3,0:0:0:0:
216,177,102704,6,0,P|218:205|198:249,1,50.8750015525818,2|0,3:3|0:0,0:0:0:0:
171,297,102871,1,0,2:1:0:0:
0,188,103037,1,8,2:3:0:0:
119,83,103204,2,0,L|126:160,1,50.8750015525818,0|2,2:1|1:2,0:0:0:0:
173,270,103371,2,0,L|178:220,1,50.8750015525818,6|2,2:0|1:2,0:0:0:0:
244,143,103537,1,2,3:3:0:0:
24,255,103704,1,8,2:3:0:0:
218,341,103871,1,2,1:3:0:0:
247,312,103954,1,8,1:3:0:0:
256,272,104037,6,0,B|247:164|247:164|207:201,1,152.625004657746,4|2,3:3|1:2,0:0:0:0:
181,258,104371,1,8,2:3:0:0:
352,348,104537,1,0,2:1:0:0:
352,348,104621,1,2,1:2:0:0:
352,348,104704,2,0,P|405:340|447:292,1,101.750003105164,6|2,2:0|3:3,0:0:0:0:
380,183,104954,1,2,1:2:0:0:
380,183,105037,2,0,P|327:191|285:239,1,101.750003105164,8|0,2:3|2:0,0:0:0:0:
457,223,105287,5,2,1:2:0:0:
457,223,105371,2,0,P|466:186|462:158,1,50.8750015525818,2|0,3:3|0:0,0:0:0:0:
449,94,105537,1,0,2:1:0:0:
220,151,105704,1,8,2:3:0:0:
380,182,105871,2,0,P|375:145|362:120,1,50.8750015525818,0|0,2:1|0:0,0:0:0:0:
325,256,106037,2,0,P|316:280|315:305,1,50.8750015525818,6|2,2:0|1:2,0:0:0:0:
436,299,106204,1,2,3:3:0:0:
200,249,106371,1,8,2:3:0:0:
297,152,106537,1,2,1:3:0:0:
314,114,106621,1,8,1:3:0:0:
306,74,106704,5,2,3:3:0:0:
138,126,106871,1,2,3:3:0:0:
360,243,107037,1,10,1:3:0:0:
221,143,107204,1,2,1:3:0:0:
213,182,107287,1,2,1:2:0:0:
205,222,107371,1,6,2:0:0:0:
421,168,107537,1,2,3:3:0:0:
180,205,107704,5,10,1:3:0:0:
349,239,107871,1,2,1:3:0:0:
293,75,108037,2,0,P|282:101|285:142,1,50.8750015525818,2|0,3:3|0:0,0:0:0:0:
404,171,108204,2,0,P|402:145|391:122,1,50.8750015525818,0|2,2:1|1:2,0:0:0:0:
219,175,108371,1,8,2:3:0:0:
434,251,108537,2,0,L|512:243,1,50.8750015525818,0|2,2:1|1:2,0:0:0:0:
339,306,108704,5,6,2:0:0:0:
285,292,108787,1,2,1:2:0:0:
228,295,108871,1,2,3:3:0:0:
183,328,108954,1,2,1:2:0:0:
155,376,109037,1,8,2:3:0:0:
117,359,109121,1,0,0:0:0:0:
97,323,109204,1,2,1:3:0:0:
96,282,109287,1,8,1:3:0:0:
115,245,109371,6,0,B|162:226|162:226|265:238,1,124.874996189118,6|2,3:3|1:2,0:0:0:0:
314,299,109704,2,0,P|313:249|346:204,1,83.2499974594117,10|2,1:3|1:3,0:0:0:0:
496,270,110037,2,0,L|400:277,1,83.2499974594117,6|2,1:2|3:3,0:0:0:0:
412,276,110371,1,10,1:3:0:0:
467,129,110537,1,2,1:3:0:0:
295,216,110704,6,0,L|198:213,1,83.2499974594117,2|2,3:2|2:3,0:0:0:0:
366,151,111037,2,0,L|407:152,1,41.6249987297059,8|2,2:3|2:2,0:0:0:0:
298,105,111204,1,2,3:3:0:0:
283,84,111287,1,2,2:2:0:0:
283,58,111371,1,2,2:0:0:0:
488,93,111537,1,8,2:3:0:0:
436,233,111704,2,0,P|431:260|437:296,1,41.6249987297059,2|2,3:3|2:2,0:0:0:0:
469,348,111871,2,0,P|489:365|524:378,1,41.6249987297059,2|8,3:3|2:3,0:0:0:0:
262,306,112037,6,0,L|147:313,1,83.2499974594117,2|2,3:3|1:3,0:0:0:0:
212,141,112371,1,10,1:3:0:0:
334,195,112537,1,2,1:3:0:0:
334,195,112621,1,2,1:2:0:0:
334,195,112704,2,0,P|351:237|331:298,1,83.2499974594117,6|2,1:2|3:3,0:0:0:0:
216,279,112954,1,2,1:2:0:0:
216,279,113037,2,0,B|185:254|185:254|270:241,1,124.874996189118,10|2,1:3|1:2,0:0:0:0:
396,343,113371,6,0,B|367:359|367:359|286:355,1,83.2499974594117,2|2,3:2|2:3,0:0:0:0:
334,328,113621,1,2,2:2:0:0:
337,295,113704,1,8,2:3:0:0:
326,263,113787,1,2,2:2:0:0:
301,239,113871,2,0,L|247:230,1,41.6249987297059,2|8,3:3|2:3,0:0:0:0:
395,213,114037,1,6,2:0:0:0:
268,107,114204,1,2,3:3:0:0:
221,293,114371,1,2,3:3:0:0:
467,239,114537,1,8,2:3:0:0:
204,172,114704,6,0,B|110:181|110:181|150:221,1,124.874996189118,2|2,3:3|1:2,0:0:0:0:
151,218,115037,1,10,1:3:0:0:
337,187,115204,1,2,3:3:0:0:
233,271,115371,1,6,1:2:0:0:
221,293,115454,1,2,1:2:0:0:
219,317,115537,1,10,1:3:0:0:
345,377,115704,2,0,L|341:286,1,83.2499974594117,10|2,1:3|3:3,0:0:0:0:
256,150,116037,5,2,3:2:0:0:
254,174,116120,1,2,2:2:0:0:
253,199,116203,1,2,2:3:0:0:
355,114,116371,1,8,2:3:0:0:
353,138,116454,1,2,2:2:0:0:
352,163,116537,1,2,3:3:0:0:
417,230,116704,1,6,2:0:0:0:
235,283,116871,1,8,2:3:0:0:
318,320,117037,2,0,L|374:314,1,41.6249987297059,2|2,3:3|2:2,0:0:0:0:
231,272,117204,1,2,3:3:0:0:
427,373,117371,6,0,P|447:312|397:237,1,124.874996189118,2|2,3:3|1:2,0:0:0:0:
406,242,117704,1,10,1:3:0:0:
261,349,117871,1,2,1:3:0:0:
236,344,117954,1,2,1:2:0:0:
211,340,118037,2,0,L|106:349,1,83.2499974594117,6|2,1:2|3:3,0:0:0:0:
160,262,118287,1,2,1:2:0:0:
160,262,118371,2,0,P|162:212|117:161,1,83.2499974594117,10|2,1:3|1:3,0:0:0:0:
13,370,118704,6,0,L|69:374,1,41.6249987297059,10|8,3:3|1:0,0:0:0:0:
151,357,118871,1,8,3:0:0:0:
165,327,118954,1,8,1:0:0:0:
166,293,119037,1,8,2:3:0:0:
153,261,119121,1,8,2:3:0:0:
130,236,119204,6,0,L|186:232,1,41.6249987297059,10|8,3:3|1:0,0:0:0:0:
268,249,119371,1,8,3:0:0:0:
282,219,119454,1,8,3:0:0:0:
283,185,119537,1,8,3:0:0:0:
270,153,119621,1,8,3:0:0:0:
247,128,119704,6,0,L|303:124,1,41.6249987297059,8|8,2:3|2:1,0:0:0:0:
482,133,119871,1,2,3:3:0:0:
459,177,119954,1,0,3:0:0:0:
463,226,120037,6,0,L|488:358,1,124.874996189118,14|0,3:3|0:0,0:0:0:0:
390,307,120371,2,0,P|349:311|316:337,1,83.2499974594117,10|0,3:3|0:0,0:0:0:0:
104,364,120704,2,0,L|96:253,1,110.999996612549,2|0,0:3|0:0,0:0:0:0:
191,188,120954,1,0,0:0:0:0:
191,188,121037,2,0,L|184:285,1,83.2499974594117,2|0,3:3|0:0,0:0:0:0:
336,240,121371,5,2,0:3:0:0:
275,322,121704,2,0,B|179:354|195:282|91:314,5,185,2|2|2|2|2|6,3:3|3:3|3:3|3:3|3:3|3:2,0:0:0:0:
378,273,125371,5,0,0:0:0:0:
294,194,125704,2,0,B|264:156|264:93|298:57|298:57|321:55|348:67,5,185,2|2|2|2|2|2,3:3|3:3|3:3|3:3|3:3|3:3,0:0:0:0:
361,243,129371,5,2,3:3:0:0:
325,272,129454,1,8,3:3:0:0:
279,276,129537,1,0,0:0:0:0:
235,259,129621,1,0,0:0:0:0:
207,180,129704,5,0,0:0:0:0:
175,198,129787,1,0,0:0:0:0:
156,231,129871,1,8,3:3:0:0:
153,267,129954,1,0,3:3:0:0:
182,344,130037,5,0,3:3:0:0:
164,349,130121,1,0,3:3:0:0:
145,350,130204,6,0,P|113:341|86:319,1,46.25,8|8,1:3|1:3,0:0:0:0:
145,222,130371,2,0,P|153:254|147:288,1,46.25,0|8,3:3|1:3,0:0:0:0:
34,286,130537,2,0,P|57:262|90:250,1,46.25,8|8,1:3|1:3,0:0:0:0:
241,307,130704,6,0,B|235:368|235:368|208:345,1,92.5,0|0,2:2|2:2,0:0:0:0:
186,185,131204,1,0,2:2:0:0:
186,185,131371,2,0,P|157:130|76:103,2,138.75,0|0|0,2:2|2:2|2:2,0:0:0:0:
122,255,132037,6,0,B|152:280|198:287|235:264|235:264|307:298|295:239|373:273,1,254.375,0|0,0:0|0:0,0:0:0:0:
387,283,133037,6,0,P|369:241|382:182,1,92.5,0|0,2:2|2:2,0:0:0:0:
479,367,133371,2,0,L|378:370,1,92.5,0|0,2:2|2:2,0:0:0:0:
150,376,133871,1,0,2:2:0:0:
150,376,134038,2,0,P|98:320|114:236,2,138.75,0|0|0,2:2|2:2|2:2,0:0:0:0:
256,192,134704,12,4,135704,1:1:0:0:
141,116,136037,6,0,P|134:80|105:53,3,60.1249972476961,4|0|0|0,3:3|0:0|2:1|0:0,0:0:0:0:
103,220,136371,1,8,2:3:0:0:
86,251,136454,1,0,0:0:0:0:
86,286,136537,2,0,P|112:305|161:303,1,60.1249972476961,0|0,2:1|0:0,0:0:0:0:
294,280,136704,2,0,B|301:198|301:198|245:243,1,120.249994495392,6|2,2:0|3:3,0:0:0:0:
373,260,136954,1,0,0:0:0:0:
373,260,137037,2,0,P|412:244|434:210,1,60.1249972476961,8|0,2:3|0:0,0:0:0:0:
455,126,137204,2,0,P|449:84|422:54,1,60.1249972476961,0|0,2:0|0:0,0:0:0:0:
346,12,137371,6,0,P|304:6|268:24,3,60.1249972476961,2|2|2|2,3:2|2:2|2:3|2:2,0:0:0:0:
316,88,137704,1,8,2:3:0:0:
283,123,137787,1,2,2:2:0:0:
273,170,137871,1,2,2:3:0:0:
285,216,137954,1,2,2:2:0:0:
321,247,138037,2,0,P|355:256|403:245,1,60.1249972476961,6|0,2:0|0:0,0:0:0:0:
223,268,138204,2,0,P|235:301|271:334,1,60.1249972476961,2|2,3:3|2:2,0:0:0:0:
149,199,138371,2,0,P|128:227|122:276,1,60.1249972476961,8|2,2:3|2:2,0:0:0:0:
141,357,138537,1,2,2:0:0:0:
141,357,138621,1,8,2:3:0:0:
141,357,138704,6,0,B|209:370|195:324|268:340,1,120.249994495392,0|0,3:3|2:1,0:0:0:0:
481,376,139037,1,8,2:3:0:0:
497,343,139121,1,0,0:0:0:0:
496,307,139204,1,0,2:1:0:0:
477,276,139287,1,0,0:0:0:0:
444,259,139371,2,0,L|369:264,1,55.4999983062745,6|0,2:0|0:0,0:0:0:0:
384,212,139537,2,0,L|325:259,1,50.8750015525818,2|0,3:3|0:0,0:0:0:0:
313,208,139704,2,0,L|292:280,1,46.25,8|0,2:3|0:0,0:0:0:0:
259,242,139871,2,0,L|283:313,1,41.6249987297059,0|0,2:0|0:0,0:0:0:0:
205,384,140037,6,0,B|163:360|163:360|89:369,1,120.249994495392,2|2,3:2|2:3,0:0:0:0:
117,342,140287,1,2,2:2:0:0:
131,308,140371,1,8,2:3:0:0:
131,272,140454,1,2,2:2:0:0:
117,238,140537,1,2,2:3:0:0:
90,213,140621,1,2,2:2:0:0:
55,203,140704,5,6,2:0:0:0:
97,245,140787,1,0,0:0:0:0:
157,249,140871,1,2,3:3:0:0:
212,225,140954,1,2,2:2:0:0:
237,170,141037,1,8,2:3:0:0:
287,136,141121,1,2,2:2:0:0:
346,134,141204,1,2,2:0:0:0:
399,160,141287,1,8,2:3:0:0:
430,211,141371,6,0,P|432:243|411:289,3,60.1249972476961,0|0|0|0,3:3|0:0|2:1|0:0,0:0:0:0:
463,342,141704,2,0,P|437:361|388:371,3,60.1249972476961,8|0|0|0,2:3|0:0|2:1|0:0,0:0:0:0:
275,360,142037,2,0,B|235:356|235:356|198:365|198:365|146:360,1,120.249994495392,6|2,2:0|3:3,0:0:0:0:
72,350,142287,1,0,0:0:0:0:
72,350,142371,2,0,P|60:314|70:268,1,60.1249972476961,8|0,2:3|0:0,0:0:0:0:
276,219,142537,2,0,P|278:248|270:277,1,60.1249972476961,0|0,2:0|0:0,0:0:0:0:
18,159,142704,1,2,3:2:0:0:
18,159,142871,6,0,B|47:149|47:149|86:158,1,60.1249972476961,2|2,2:3|2:2,0:0:0:0:
123,320,143037,2,0,B|99:298|99:298|91:271,1,60.1249972476961,8|2,2:3|2:2,0:0:0:0:
201,152,143204,2,0,B|194:182|194:182|174:203,1,60.1249972476961,2|2,2:3|2:2,0:0:0:0:
8,76,143371,2,0,B|43:72|43:72|68:82|68:82|148:75,1,120.249994495392,6|2,2:0|3:3,0:0:0:0:
222,65,143621,1,2,2:2:0:0:
222,65,143704,2,0,P|253:79|275:107,1,60.1249972476961,8|2,2:3|2:2,0:0:0:0:
211,316,143871,1,2,2:0:0:0:
185,275,143954,1,8,2:3:0:0:
189,227,144037,6,0,B|226:204|226:204|325:211,1,120.249994495392,0|0,3:3|2:1,0:0:0:0:
385,305,144287,1,0,0:0:0:0:
385,305,144371,2,0,P|353:301|325:278,1,60.1249972476961,8|0,2:3|0:0,0:0:0:0:
361,107,144537,1,0,2:1:0:0:
383,135,144621,1,0,0:0:0:0:
393,168,144704,2,0,P|394:200|377:236,1,60.1249972476961,6|0,2:0|0:0,0:0:0:0:
217,270,144871,2,0,P|206:241|208:212,1,60.1249972476961,2|0,3:3|0:0,0:0:0:0:
422,288,145037,2,0,B|394:300|394:300|349:291,3,60.1249972476961,8|0|0|0,2:3|0:0|2:0|0:0,0:0:0:0:
383,197,145371,5,2,3:2:0:0:
360,154,145454,1,2,2:2:0:0:
316,134,145537,1,2,2:3:0:0:
267,136,145621,1,2,2:2:0:0:
208,196,145704,5,8,2:3:0:0:
175,210,145787,1,2,2:2:0:0:
138,211,145871,1,2,2:3:0:0:
105,195,145954,1,2,2:2:0:0:
49,132,146037,6,0,P|29:158|20:196,3,60.1249972476961,6|0|2|2,2:0|0:0|3:3|2:2,0:0:0:0:
39,279,146371,5,8,2:3:0:0:
98,286,146454,1,2,2:2:0:0:
157,293,146537,1,2,2:0:0:0:
217,300,146621,1,8,2:3:0:0:
299,286,146704,6,0,B|320:242|320:242|309:155,1,120.249994495392,4|0,3:3|2:1,0:0:0:0:
253,93,146954,1,0,0:0:0:0:
253,93,147037,2,0,P|220:91|186:110,1,60.1249972476961,8|0,2:3|0:0,0:0:0:0:
144,169,147204,2,0,P|133:200|143:238,1,60.1249972476961,0|0,2:1|0:0,0:0:0:0:
215,353,147371,2,0,B|254:349|254:349|288:362|288:362|343:357,1,120.249994495392,6|2,2:0|3:3,0:0:0:0:
426,335,147621,1,0,0:0:0:0:
426,335,147704,2,0,L|420:275,1,60.1249972476961,8|0,2:3|0:0,0:0:0:0:
237,221,147871,2,0,L|231:280,1,60.1249972476961,0|0,2:0|0:0,0:0:0:0:
386,125,148037,6,0,P|361:107|333:100,3,60.1249972476961,2|2|2|2,3:2|2:2|2:3|2:2,0:0:0:0:
306,237,148371,2,0,P|275:242|248:236,3,60.1249972476961,8|2|2|2,2:3|2:2|2:3|2:2,0:0:0:0:
172,175,148704,2,0,P|158:147|157:118,1,60.1249972476961,6|0,2:0|0:0,0:0:0:0:
150,266,148871,2,0,P|120:255|100:236,1,60.1249972476961,2|2,3:3|2:2,0:0:0:0:
198,345,149037,2,0,P|170:358|141:359,1,60.1249972476961,8|2,2:3|2:2,0:0:0:0:
30,327,149204,1,2,2:0:0:0:
0,289,149287,1,8,2:3:0:0:
3,240,149371,6,0,B|49:216|49:216|135:225,1,120.249994495392,0|0,3:3|2:1,0:0:0:0:
152,228,149621,1,0,0:0:0:0:
185,240,149704,1,8,2:3:0:0:
210,265,149787,1,0,0:0:0:0:
224,298,149871,1,0,2:1:0:0:
227,333,149954,1,0,0:0:0:0:
220,368,150037,2,0,L|150:374,1,60.1249972476961,6|0,2:0|0:0,0:0:0:0:
340,298,150204,2,0,L|410:292,1,60.1249972476961,2|0,3:3|0:0,0:0:0:0:
208,353,150371,2,0,L|138:359,1,60.1249972476961,8|0,2:3|0:0,0:0:0:0:
328,283,150538,2,0,L|398:277,1,60.1249972476961,0|0,2:0|0:0,0:0:0:0:
219,242,150704,5,2,3:2:0:0:
177,218,150787,1,2,2:2:0:0:
159,172,150871,1,2,2:3:0:0:
161,124,150954,1,2,2:2:0:0:
190,86,151037,2,0,L|249:79,3,60.1249972476961,8|2|2|2,2:3|2:2|2:3|2:2,0:0:0:0:
100,44,151371,2,0,P|89:83|94:115,1,60.1249972476961,6|0,2:0|0:0,0:0:0:0:
147,224,151537,2,0,P|105:185|42:191,1,120.249994495392,2|8,3:3|2:3,0:0:0:0:
102,289,151787,1,2,2:2:0:0:
160,302,151871,1,2,2:0:0:0:
211,270,151954,1,8,2:3:0:0:
224,211,152037,6,0,B|212:121|212:121|187:141,1,120.249994495392,0|0,3:3|2:1,0:0:0:0:
304,185,152287,1,0,0:0:0:0:
304,185,152371,2,0,P|338:178|367:143,3,60.1249972476961,8|0|0|0,2:3|0:0|2:1|0:0,0:0:0:0:
336,10,152704,2,0,P|301:40|306:119,1,120.249994495392,6|2,2:0|3:3,0:0:0:0:
424,90,152954,1,0,0:0:0:0:
424,90,153037,2,0,L|346:73,1,60.1249972476961,8|0,2:3|0:0,0:0:0:0:
275,237,153204,2,0,L|338:234,1,60.1249972476961,0|0,2:0|0:0,0:0:0:0:
223,24,153371,1,2,3:2:0:0:
223,24,153537,6,0,L|214:93,1,60.1249972476961,2|2,2:3|2:2,0:0:0:0:
380,30,153704,1,8,2:3:0:0:
380,30,153871,5,2,2:3:0:0:
373,65,153954,1,2,2:2:0:0:
379,100,154037,1,6,2:0:0:0:
401,128,154121,1,0,0:0:0:0:
433,142,154204,1,2,3:3:0:0:
468,142,154287,1,2,2:2:0:0:
500,125,154371,1,8,2:3:0:0:
230,106,154537,1,2,2:0:0:0:
209,150,154621,1,8,2:3:0:0:
218,196,154704,6,0,B|257:199|257:199|295:186|295:186|338:190,1,120.249994495392,0|0,3:3|2:1,0:0:0:0:
363,273,154954,1,0,0:0:0:0:
363,273,155037,2,0,P|332:273|300:258,1,60.1249972476961,8|0,2:3|0:0,0:0:0:0:
437,95,155204,1,0,2:1:0:0:
444,130,155287,1,0,0:0:0:0:
451,165,155371,2,0,L|447:237,1,60.1249972476961,6|0,2:0|0:0,0:0:0:0:
366,333,155537,2,0,L|362:261,1,60.1249972476961,2|0,3:3|0:0,0:0:0:0:
510,359,155704,2,0,P|480:373|436:364,1,60.1249972476961,8|0,2:3|0:0,0:0:0:0:
302,229,155871,1,0,2:0:0:0:
340,201,155954,1,0,0:0:0:0:
387,202,156037,6,0,P|435:247|423:320,1,120.249994495392,2|2,3:2|2:3,0:0:0:0:
282,344,156287,1,2,2:2:0:0:
282,344,156371,2,0,P|313:285|386:278,1,120.249994495392,8|2,2:3|2:3,0:0:0:0:
397,280,156621,1,2,2:2:0:0:
349,243,156704,1,6,2:0:0:0:
335,184,156787,1,0,0:0:0:0:
355,127,156871,1,2,3:3:0:0:
405,95,156954,1,2,2:2:0:0:
464,102,157037,1,8,2:3:0:0:
430,115,157121,1,2,2:2:0:0:
394,115,157204,1,2,2:0:0:0:
360,100,157287,1,8,2:3:0:0:
339,69,157371,6,0,P|330:40|335:1,3,60.1249972476961,4|0|0|0,3:3|0:0|2:1|0:0,0:0:0:0:
415,161,157704,1,8,2:3:0:0:
420,196,157787,1,0,0:0:0:0:
410,231,157871,2,0,P|381:245|342:243,1,60.1249972476961,0|0,2:1|0:0,0:0:0:0:
216,207,158037,2,0,B|212:167|212:167|225:129|225:129|220:78,1,120.249994495392,6|2,2:0|3:3,0:0:0:0:
134,44,158287,1,0,0:0:0:0:
137,49,158371,2,0,L|131:108,1,60.1249972476961,8|0,2:3|0:0,0:0:0:0:
64,160,158537,2,0,L|74:219,1,60.1249972476961,0|0,2:0|0:0,0:0:0:0:
22,286,158704,6,0,P|53:305|82:307,3,60.1249972476961,2|2|2|2,3:2|2:2|2:3|2:2,0:0:0:0:
170,283,159037,1,8,2:3:0:0:
202,246,159121,1,2,2:2:0:0:
248,234,159204,1,2,2:3:0:0:
294,245,159287,1,2,2:2:0:0:
327,280,159371,2,0,P|355:296|398:293,1,60.1249972476961,6|0,2:0|0:0,0:0:0:0:
421,161,159537,2,0,P|393:177|374:215,1,60.1249972476961,2|2,3:3|2:2,0:0:0:0:
481,307,159704,2,0,P|480:274|456:239,1,60.1249972476961,8|2,2:3|2:2,0:0:0:0:
307,370,159871,1,2,2:0:0:0:
307,370,159954,1,8,2:3:0:0:
307,370,160037,6,0,L|389:367,1,60.1249972476961,0|0,3:3|0:0,0:0:0:0:
175,309,160204,2,0,L|114:311,1,60.1249972476961,0|0,2:1|0:0,0:0:0:0:
268,252,160371,1,8,2:3:0:0:
302,218,160454,1,0,0:0:0:0:
309,170,160537,1,0,2:1:0:0:
295,123,160621,1,0,0:0:0:0:
259,90,160704,1,6,2:0:0:0:
274,135,160787,1,0,0:0:0:0:
318,155,160871,1,2,3:3:0:0:
359,154,160954,1,0,0:0:0:0:
396,135,161037,1,8,2:3:0:0:
432,138,161121,1,0,0:0:0:0:
462,156,161204,1,0,2:0:0:0:
473,183,161287,1,0,0:0:0:0:
470,213,161371,6,0,B|429:236|429:236|340:225,1,120.249994495392,2|2,3:2|2:3,0:0:0:0:
270,143,161621,1,2,2:2:0:0:
270,143,161704,2,0,P|300:139|346:167,1,60.1249972476961,8|2,2:3|2:2,0:0:0:0:
328,305,161871,2,0,P|299:314|270:310,1,60.1249972476961,2|2,2:3|2:2,0:0:0:0:
195,121,162037,2,0,L|205:53,1,60.1249972476961,6|0,2:0|0:0,0:0:0:0:
197,325,162204,2,0,L|207:393,1,60.1249972476961,2|2,3:3|2:2,0:0:0:0:
73,221,162371,1,8,2:3:0:0:
34,174,162454,1,2,2:2:0:0:
30,114,162537,1,2,2:0:0:0:
61,62,162621,1,8,2:3:0:0:
118,47,162704,6,0,L|189:52,3,60.1249972476961,0|0|0|0,3:3|0:0|2:1|0:0,0:0:0:0:
233,136,163037,2,0,L|304:131,3,60.1249972476961,0|0|0|0,0:0|0:0|2:1|0:0,0:0:0:0:
389,67,163371,2,0,B|414:105|414:105|403:191,1,120.249994495392,6|2,2:0|3:3,0:0:0:0:
389,275,163621,1,0,0:0:0:0:
389,275,163704,2,0,P|354:286|320:282,1,60.1249972476961,8|0,2:3|0:0,0:0:0:0:
283,113,163871,2,0,P|312:112|341:122,1,60.1249972476961,0|0,2:0|0:0,0:0:0:0:
282,344,164037,1,0,0:0:0:0:
282,344,164204,6,0,P|259:312|259:258,1,60.1249972476961,2|2,2:3|2:2,0:0:0:0:
179,240,164371,2,0,P|192:202|236:171,1,60.1249972476961,8|2,2:3|2:2,0:0:0:0:
205,95,164537,2,0,P|242:84|293:102,1,60.1249972476961,0|2,0:0|2:2,0:0:0:0:
367,121,164704,2,0,B|370:162|370:162|361:195|361:195|365:239,1,120.249994495392,6|2,2:0|3:3,0:0:0:0:
377,335,164954,1,2,2:2:0:0:
377,335,165037,2,0,P|355:348|309:351,1,60.1249972476961,0|2,0:0|2:2,0:0:0:0:
149,325,165203,1,0,0:0:0:0:
129,280,165287,1,0,0:0:0:0:
137,232,165371,6,0,P|190:202|275:226,1,120.249994495392,0|0,3:3|2:1,0:0:0:0:
255,332,165621,1,0,0:0:0:0:
255,332,165704,2,0,P|221:311|204:280,1,60.1249972476961,8|0,2:3|0:0,0:0:0:0:
315,151,165871,1,0,2:1:0:0:
333,181,165954,1,0,0:0:0:0:
336,216,166037,2,0,L|329:281,1,60.1249972476961,6|0,2:0|0:0,0:0:0:0:
172,258,166204,2,0,L|231:231,1,60.1249972476961,2|0,3:3|0:0,0:0:0:0:
291,380,166371,2,0,L|238:341,3,60.1249972476961,8|0|0|0,2:3|0:0|2:0|0:0,0:0:0:0:
321,289,166704,5,2,3:2:0:0:
340,245,166787,1,2,2:2:0:0:
335,196,166871,1,2,2:3:0:0:
310,155,166954,1,2,2:2:0:0:
265,137,167037,5,8,2:3:0:0:
291,162,167121,1,2,2:2:0:0:
325,170,167204,1,2,2:3:0:0:
360,163,167287,1,2,2:2:0:0:
387,139,167371,6,0,P|398:108|392:61,3,60.1249972476961,6|0|2|2,2:0|0:0|3:3|2:2,0:0:0:0:
415,235,167704,5,8,2:3:0:0:
396,304,167787,1,2,2:2:0:0:
334,342,167871,1,2,2:0:0:0:
262,341,167954,1,8,2:3:0:0:
204,298,168037,6,0,P|159:267|80:285,1,120.249994495392,4|0,3:3|2:1,0:0:0:0:
22,336,168287,1,0,0:0:0:0:
22,336,168371,2,0,P|4:298|4:253,1,60.1249972476961,8|0,2:3|0:0,0:0:0:0:
165,182,168537,2,0,P|165:224|146:264,1,60.1249972476961,0|0,2:1|0:0,0:0:0:0:
0,89,168704,2,0,B|63:67|55:117|127:91,1,120.249994495392,6|2,2:0|3:3,0:0:0:0:
206,57,168954,1,0,0:0:0:0:
206,57,169037,2,0,B|194:85|194:85|205:129,1,60.1249972476961,8|0,2:3|0:0,0:0:0:0:
290,250,169204,2,0,B|302:222|302:222|291:178,1,60.1249972476961,0|0,2:0|0:0,0:0:0:0:
119,204,169371,6,0,P|85:206|49:226,3,60.1249972476961,2|2|2|2,3:2|2:2|2:3|2:2,0:0:0:0:
111,295,169704,2,0,P|84:316|66:353,3,60.1249972476961,8|2|2|2,2:3|2:2|2:3|2:2,0:0:0:0:
156,374,170037,1,6,2:0:0:0:
204,375,170121,1,0,0:0:0:0:
248,356,170204,1,2,3:3:0:0:
277,318,170287,1,2,2:2:0:0:
282,269,170371,1,8,2:3:0:0:
266,223,170454,1,2,2:2:0:0:
277,176,170537,1,2,2:0:0:0:
314,145,170621,1,8,2:3:0:0:
361,145,170704,6,0,P|378:173|373:222,1,60.1249972476961,0|0,3:3|0:0,0:0:0:0:
320,363,170871,2,0,B|295:320|295:320|307:221,1,120.249994495392,0|8,2:1|2:3,0:0:0:0:
427,289,171121,1,0,0:0:0:0:
427,289,171204,2,0,P|399:301|356:299,1,60.1249972476961,0|0,2:1|0:0,0:0:0:0:
224,257,171370,5,6,2:0:0:0:
212,222,171454,1,0,0:0:0:0:
217,186,171537,1,2,3:3:0:0:
242,161,171620,1,0,0:0:0:0:
278,156,171704,2,0,P|306:163|341:198,1,60.1249972476961,8|0,2:3|0:0,0:0:0:0:
335,328,171871,2,0,P|311:346|282:353,1,60.1249972476961,0|0,2:0|0:0,0:0:0:0:
151,266,172037,5,2,3:2:0:0:
109,240,172121,1,2,2:2:0:0:
61,239,172204,1,2,2:3:0:0:
22,267,172287,1,2,2:2:0:0:
7,313,172371,2,0,L|13:381,1,60.1249972476961,8|2,2:3|2:2,0:0:0:0:
91,167,172537,5,2,2:3:0:0:
96,131,172621,1,2,2:2:0:0:
85,96,172704,2,0,P|58:86|15:91,1,60.1249972476961,6|0,2:0|0:0,0:0:0:0:
76,263,172871,2,0,P|105:264|133:254,1,60.1249972476961,2|2,3:3|2:2,0:0:0:0:
215,155,173037,1,8,2:3:0:0:
210,203,173121,1,2,2:2:0:0:
227,247,173204,1,2,2:0:0:0:
269,269,173287,1,8,2:3:0:0:
317,264,173371,6,0,B|338:223|338:223|326:134,1,120.249994495392,0|0,3:3|2:1,0:0:0:0:
309,54,173621,1,0,0:0:0:0:
309,54,173704,2,0,P|275:39|225:44,1,60.1249972476961,8|0,2:3|0:0,0:0:0:0:
102,132,173871,1,0,2:1:0:0:
121,162,173954,1,0,0:0:0:0:
154,174,174037,2,0,P|223:164|257:126,1,120.249994495392,6|2,2:0|3:3,0:0:0:0:
268,230,174287,5,0,0:0:0:0:
268,230,174371,2,0,P|266:265|300:309,1,60.1249972476961,8|0,2:3|0:0,0:0:0:0:
437,261,174537,2,0,P|438:225|404:181,1,60.1249972476961,0|0,2:0|0:0,0:0:0:0:
274,127,174704,1,2,3:2:0:0:
274,127,174871,6,0,L|365:138,1,60.1249972476961,2|2,2:3|2:2,0:0:0:0:
140,198,175037,1,8,2:3:0:0:
140,198,175204,5,2,2:3:0:0:
157,166,175287,1,2,2:2:0:0:
161,131,175370,1,6,2:0:0:0:
153,96,175454,1,0,0:0:0:0:
131,67,175537,1,2,3:3:0:0:
101,48,175620,1,2,2:2:0:0:
66,41,175704,1,8,2:3:0:0:
99,278,175871,1,2,2:0:0:0:
146,286,175954,1,8,2:3:0:0:
191,270,176037,6,0,L|195:192,1,60.1249972476961,0|0,3:3|0:0,0:0:0:0:
47,156,176204,2,0,L|51:234,1,60.1249972476961,0|0,2:1|0:0,0:0:0:0:
268,188,176371,1,8,2:3:0:0:
249,157,176454,1,0,0:0:0:0:
219,137,176537,1,0,2:1:0:0:
184,134,176621,1,0,0:0:0:0:
150,146,176704,2,0,P|129:169|117:216,1,60.1249972476961,6|0,2:0|0:0,0:0:0:0:
251,296,176871,2,0,P|255:265|238:219,1,60.1249972476961,2|0,3:3|0:0,0:0:0:0:
93,356,177037,1,8,2:3:0:0:
153,363,177121,1,0,0:0:0:0:
212,369,177204,1,0,2:0:0:0:
271,376,177287,1,0,0:0:0:0:
331,383,177371,6,0,P|366:370|391:333,3,60.1249972476961,2|2|2|2,3:2|2:2|2:3|2:2,0:0:0:0:
303,279,177704,2,0,P|318:245|310:201,3,60.1249972476961,8|0|0|2,2:3|0:0|2:1|1:2,0:0:0:0:
209,225,178037,1,6,2:0:0:0:
148,224,178121,1,2,1:2:0:0:
98,192,178204,1,2,3:3:0:0:
73,136,178287,1,2,1:2:0:0:
81,77,178371,1,8,2:3:0:0:
121,32,178454,1,0,0:0:0:0:
178,15,178537,1,2,1:3:0:0:
236,32,178621,1,8,1:3:0:0:
276,77,178704,6,0,P|360:91|414:8,1,185,6|10,3:3|1:3,0:0:0:0:
413,18,179371,2,0,L|308:12,1,92.5,2|2,1:3|3:3,0:0:0:0:
218,137,179704,2,0,L|386:127,1,138.75,10|2,1:3|1:2,0:0:0:0:
384,127,180037,2,0,B|354:162|358:213|395:239|395:239|366:267|376:314,1,185,2|10,3:3|1:3,0:0:0:0:
373,290,180704,2,0,L|488:285,1,92.5,2|2,1:3|3:3,0:0:0:0:
408,99,181037,1,10,1:3:0:0:
312,172,181204,1,2,1:3:0:0:
285,181,181287,1,8,1:3:0:0:
257,181,181371,6,0,B|217:182|191:155|191:155|154:171|154:171|124:143|74:155,1,185,2|10,3:3|1:3,0:0:0:0:
87,152,182037,2,0,P|107:207|83:268,1,92.5,2|2,1:3|3:3,0:0:0:0:
197,371,182371,2,0,P|177:314|222:234,1,138.75,10|2,1:3|1:2,0:0:0:0:
230,231,182704,2,0,P|163:248|111:143,1,185,2|10,1:3|1:3,0:0:0:0:
105,162,183371,2,0,L|167:159,1,46.25,2|10,1:2|1:3,0:0:0:0:
35,114,183537,1,2,1:3:0:0:
187,78,183704,2,0,L|292:83,1,92.5,8|2,1:3|1:3,0:0:0:0:
353,90,183954,5,8,1:3:0:0:
353,90,184037,2,0,P|338:139|445:214,1,185,2|10,1:3|1:3,0:0:0:0:
426,217,184704,2,0,P|383:194|322:205,1,92.5,2|2,1:3|3:3,0:0:0:0:
231,269,185037,2,0,B|276:291|276:291|383:276,1,138.75,10|2,1:3|1:2,0:0:0:0:
391,272,185371,2,0,P|411:229|291:169,1,185,2|0,3:3|0:0,0:0:0:0:
322,152,186037,2,0,L|447:145,1,92.5,2|2,1:3|3:3,0:0:0:0:
252,35,186371,1,10,1:3:0:0:
227,183,186537,1,2,1:3:0:0:
227,183,186621,1,8,1:3:0:0:
227,183,186704,6,0,B|231:234|231:234|218:264|218:264|227:371,1,185,2|10,3:3|1:3,0:0:0:0:
373,308,187204,1,2,1:3:0:0:
344,284,187287,1,2,1:2:0:0:
306,281,187371,1,2,1:3:0:0:
152,363,187537,1,2,3:3:0:0:
230,175,187704,2,0,L|224:69,1,92.5,10|2,1:3|1:3,0:0:0:0:
303,207,188037,6,0,P|271:245|172:228,1,138.75,2|0,3:3|0:0,0:0:0:0:
165,225,188371,2,0,P|164:166|168:118,1,92.5,0|0,0:0|0:0,0:0:0:0:
29,376,188704,2,0,P|24:317|16:269,1,92.5,0|0,0:0|0:0,0:0:0:0:
209,343,189037,1,0,0:0:0:0:
246,342,189121,1,0,0:0:0:0:
277,323,189204,1,0,0:0:0:0:
292,289,189287,1,0,0:0:0:0:
288,251,189371,6,0,L|175:240,1,101.750003105164,4|0,3:3|2:1,0:0:0:0:
260,48,189704,1,8,2:3:0:0:
260,48,189871,1,0,2:1:0:0:
360,216,190037,2,0,P|366:274|336:319,1,101.750003105164,6|2,2:0|3:3,0:0:0:0:
268,339,190287,1,2,1:2:0:0:
268,339,190371,2,0,P|262:306|276:266,1,50.8750015525818,8|0,2:3|0:0,0:0:0:0:
450,309,190537,1,0,2:0:0:0:
255,210,190704,6,0,B|149:198|149:198|82:224,1,152.625004657746,2|2,3:3|1:2,0:0:0:0:
87,327,191037,2,0,P|147:305|154:247,1,101.750003105164,8|0,2:3|2:1,0:0:0:0:
146,107,191371,1,6,2:0:0:0:
146,107,191454,1,2,1:2:0:0:
146,107,191537,1,2,3:3:0:0:
236,193,191704,1,8,2:3:0:0:
275,201,191787,1,0,0:0:0:0:
315,195,191871,1,2,1:3:0:0:
348,171,191954,1,8,1:3:0:0:
362,133,192037,6,0,P|360:202|438:257,1,152.625004657746,2|2,3:3|1:2,0:0:0:0:
449,258,192371,1,10,2:3:0:0:
344,323,192537,1,2,1:3:0:0:
227,177,192704,1,2,1:3:0:0:
197,168,192787,1,0,0:0:0:0:
166,174,192871,2,0,L|157:239,1,50.8750015525818,2|2,3:3|1:2,0:0:0:0:
238,361,193037,2,0,L|229:228,1,101.750003105164,10|2,1:3|1:3,0:0:0:0:
0,280,193371,6,0,P|50:325|143:311,1,152.625004657746,2|2,3:3|1:2,0:0:0:0:
153,297,193704,2,0,L|144:164,1,101.750003105164,8|0,2:3|2:1,0:0:0:0:
244,35,194037,1,6,2:0:0:0:
241,65,194121,1,2,1:2:0:0:
239,95,194204,1,2,3:3:0:0:
237,125,194287,1,2,1:2:0:0:
235,155,194371,1,8,2:3:0:0:
239,195,194454,1,0,0:0:0:0:
265,225,194537,1,2,1:3:0:0:
304,237,194621,1,8,1:3:0:0:
343,229,194704,6,0,B|361:188|361:188|349:105,1,101.750003105164,4|0,3:3|2:1,0:0:0:0:
146,161,195037,1,8,2:3:0:0:
230,243,195204,1,0,2:1:0:0:
239,270,195287,1,2,1:2:0:0:
235,300,195371,2,0,L|115:316,1,101.750003105164,6|2,2:0|3:3,0:0:0:0:
53,326,195621,1,2,1:2:0:0:
53,326,195704,2,0,P|39:300|40:261,1,50.8750015525818,8|0,2:3|0:0,0:0:0:0:
48,163,195871,1,0,2:0:0:0:
294,227,196037,6,0,L|128:242,1,152.625004657746,2|2,3:3|1:2,0:0:0:0:
259,307,196371,2,0,L|360:297,1,101.750003105164,8|0,2:3|2:1,0:0:0:0:
141,240,196704,2,0,L|90:235,2,50.8750015525818,6|2|2,2:0|1:2|3:3,0:0:0:0:
259,307,197037,1,8,2:3:0:0:
214,131,197204,1,2,1:3:0:0:
217,100,197287,1,8,1:3:0:0:
220,69,197371,6,0,L|287:58,1,50.8750015525818,2|2,3:3|1:2,0:0:0:0:
323,224,197537,2,0,L|272:215,1,50.8750015525818,2|2,3:3|1:2,0:0:0:0:
410,97,197704,2,0,L|420:224,1,101.750003105164,10|2,1:3|1:3,0:0:0:0:
427,279,197954,1,2,1:2:0:0:
427,279,198037,2,0,L|421:358,1,50.8750015525818,6|0,2:0|0:0,0:0:0:0:
288,371,198204,2,0,L|282:292,1,50.8750015525818,2|2,3:3|1:2,0:0:0:0:
206,155,198371,2,0,L|200:234,1,50.8750015525818,10|0,1:3|0:0,0:0:0:0:
163,354,198537,1,2,1:3:0:0:
129,378,198621,1,2,1:2:0:0:
88,376,198704,6,0,P|64:331|79:260,1,101.750003105164,2|0,3:3|2:1,0:0:0:0:
111,212,198954,1,2,1:2:0:0:
111,212,199037,2,0,P|114:161|90:117,1,101.750003105164,8|0,2:3|2:1,0:0:0:0:
66,98,199287,1,2,1:2:0:0:
114,115,199371,1,6,2:0:0:0:
164,112,199454,1,2,1:2:0:0:
208,88,199537,1,2,3:3:0:0:
236,45,199621,1,2,1:2:0:0:
282,24,199704,1,8,2:3:0:0:
332,24,199787,1,0,0:0:0:0:
377,47,199871,1,2,1:3:0:0:
405,88,199954,1,8,1:3:0:0:
406,134,200037,6,0,B|312:172|322:92|218:132,1,185,4|8,3:3|2:3,0:0:0:0:
246,317,200537,1,0,2:1:0:0:
246,317,200704,2,0,P|268:278|257:204,1,92.5,6|2,2:0|3:3,0:0:0:0:
53,273,201037,1,8,2:3:0:0:
143,328,201204,1,0,2:0:0:0:
152,116,201371,2,0,L|144:59,3,46.25,2|2|2|2,3:2|2:2|2:3|2:2,0:0:0:0:
204,210,201704,2,0,L|197:255,3,46.25,8|2|2|2,2:3|2:2|2:3|2:2,0:0:0:0:
264,147,202037,5,6,2:0:0:0:
288,132,202121,1,0,0:0:0:0:
315,129,202204,1,2,3:3:0:0:
341,135,202287,1,2,2:2:0:0:
364,150,202371,1,8,2:3:0:0:
381,171,202454,1,2,2:2:0:0:
389,197,202537,1,2,2:0:0:0:
389,224,202621,1,8,2:3:0:0:
378,249,202704,6,0,P|370:298|400:353,2,92.5,2|2|8,3:2|3:3|2:3,0:0:0:0:
465,286,203204,1,0,2:0:0:0:
279,355,203371,2,0,L|167:347,1,92.5,6|2,2:0|3:3,0:0:0:0:
249,161,203704,1,8,2:3:0:0:
308,250,203871,1,0,2:0:0:0:
117,271,204037,1,10,3:2:0:0:
91,259,204121,1,2,2:2:0:0:
75,236,204204,1,2,2:3:0:0:
70,208,204287,1,2,2:2:0:0:
76,180,204371,1,8,2:3:0:0:
95,160,204454,1,2,2:2:0:0:
103,133,204537,1,2,2:3:0:0:
98,105,204621,1,2,2:2:0:0:
78,85,204704,6,0,L|27:89,1,46.25,6|8,2:0|2:3,0:0:0:0:
221,144,204871,2,0,L|267:140,1,46.25,2|2,3:3|2:2,0:0:0:0:
153,0,205037,2,0,L|149:51,1,46.25,8|2,2:3|2:2,0:0:0:0:
165,208,205204,1,2,3:3:0:0:
197,224,205287,1,8,2:3:0:0:
234,226,205371,6,0,B|288:221|288:221|330:235|330:235|421:227,1,185,2|8,3:2|2:3,0:0:0:0:
360,33,205871,1,2,2:3:0:0:
360,33,206037,2,0,B|337:66|337:66|344:130,1,92.5,6|2,2:0|3:3,0:0:0:0:
378,321,206371,1,8,2:3:0:0:
440,241,206537,1,2,2:3:0:0:
223,194,206704,2,0,L|176:196,3,46.25,2|2|2|2,3:2|2:2|2:3|2:2,0:0:0:0:
283,251,207037,2,0,L|330:253,3,46.25,8|2|2|2,2:3|2:2|2:3|2:2,0:0:0:0:
223,308,207371,5,6,2:0:0:0:
220,335,207454,1,2,2:2:0:0:
230,360,207537,1,2,3:3:0:0:
253,375,207621,1,2,2:2:0:0:
280,377,207704,1,8,2:3:0:0:
305,366,207787,1,2,2:2:0:0:
319,342,207871,1,2,3:3:0:0:
319,314,207954,1,0,3:0:0:0:
305,290,208037,6,0,P|299:264|304:236,1,46.25,10|8,3:3|1:0,0:0:0:0:
444,211,208204,2,0,P|445:233|440:256,1,46.25,8|8,3:0|1:0,0:0:0:0:
237,208,208371,1,8,2:3:0:0:
261,180,208454,1,8,2:3:0:0:
296,170,208537,1,10,3:3:0:0:
332,176,208621,1,8,1:0:0:0:
360,198,208704,1,8,3:0:0:0:
347,163,208787,1,8,3:0:0:0:
356,128,208870,1,8,3:0:0:0:
379,99,208954,1,8,3:0:0:0:
412,86,209037,6,0,L|479:91,1,46.25,8|8,2:3|2:1,0:0:0:0:
426,182,209204,1,2,3:3:0:0:
411,215,209287,1,0,3:0:0:0:
411,252,209371,1,10,3:3:0:0:
425,285,209454,1,2,2:2:0:0:
452,309,209537,1,2,2:3:0:0:
459,345,209621,1,2,2:2:0:0:
440,376,209704,5,8,2:3:0:0:
238,342,209871,1,2,2:3:0:0:
350,126,210037,5,10,2:3:0:0:
316,328,210204,1,0,3:0:0:0:
161,194,210371,1,8,2:3:0:0:
120,172,210454,1,2,1:2:0:0:
73,172,210537,1,2,2:3:0:0:
32,194,210621,1,2,1:2:0:0:
13,236,210704,6,0,L|21:340,1,92.5,2|2,0:3|0:3,0:0:0:0:
113,269,211204,2,0,P|155:251|214:264,2,92.5,2|2|2,2:0|2:0|2:0,0:0:0:0:
168,332,212037,6,0,P|213:338|256:320,2,92.5,2|0|0,0:3|0:0|0:0,0:0:0:0:
499,236,213376,6,0,L|491:340,1,92.5,2|2,0:3|0:3,0:0:0:0:
399,269,213876,2,0,P|368:253|336:252,2,46.25,2|2|2,2:0|0:3|2:0,0:0:0:0:
343,332,214376,2,0,P|309:339|280:332,1,46.25,2|2,0:3|2:0,0:0:0:0:
256,220,214709,6,0,L|255:123,1,92.5,2|2,0:3|0:3,0:0:0:0:
168,51,215209,1,2,2:0:0:0:
190,45,215292,1,0,0:0:0:0:
213,46,215375,1,2,0:3:0:0:
152,168,215542,1,2,2:0:0:0:
163,148,215625,1,0,0:0:0:0:
179,131,215708,1,2,0:3:0:0:
432,196,216042,6,0,L|451:93,1,92.5,2|2,3:3|0:3,0:0:0:0:
343,138,216542,2,0,P|297:144|244:116,2,92.5,2|2|2,2:0|2:0|2:0,0:0:0:0:
301,57,217376,6,0,P|258:39|213:46,2,92.5,2|0|0,0:3|0:0|0:0,0:0:0:0:
164,127,218715,6,0,B|148:160|148:160|156:228,1,104.06250396967,2|0,0:3|0:0,0:0:0:0:
82,101,219209,2,0,L|75:27,1,69.375,2|0,0:3|0:0,0:0:0:0:
34,208,219577,2,0,L|22:292,1,69.375,2|0,0:3|0:0,0:0:0:0:
194,290,220048,6,0,P|157:265|96:268,1,104.06250396967,2|0,0:3|0:0,0:0:0:0:
173,369,220548,2,0,B|230:383|286:339|273:275|273:275|312:296,1,200.724992036667,2|0,0:3|0:0,0:0:0:0:
194,290,221375,6,0,P|140:280|76:232,1,104.06250396967,2|0,0:3|0:0,0:0:0:0:
112,152,221875,2,0,B|142:202|179:214|222:225|272:210|308:177|308:177|310:131|287:88|287:88|199:-41|99:90|202:211|287:88|287:88|297:35|379:-5|447:29|455:99|455:99|415:57|372:68,1,961.999955963137,2|0,0:3|0:0,0:0:0:0:
