osu file format v14

[General]
AudioFilename: audio.mp3
AudioLeadIn: 0
PreviewTime: 180690
Countdown: 0
SampleSet: Soft
StackLeniency: 0.7
Mode: 0
LetterboxInBreaks: 0
WidescreenStoryboard: 0

[Editor]
DistanceSpacing: 3
BeatDivisor: 4
GridSize: 4
TimelineZoom: 4.099999

[Metadata]
Title:Kodama
TitleUnicode:Kodama
Artist:Camellia
ArtistUnicode:Camellia
Creator:__Phantomhive__
Version:Storm of Falling Petals
Source:
Tags:kamelcamellia cametek breakcore MEGANTO METEOR
BeatmapID:1027565
BeatmapSetID:481467

[Difficulty]
HPDrainRate:6
CircleSize:4.2
OverallDifficulty:7
ApproachRate:9.8
SliderMultiplier:2
SliderTickRate:1

[Events]
//Background and Video events
0,0,"Hatsune.Miku.full.1525107.jpg",0,0
//Break Periods
2,28748,33439
2,61577,66439
2,116519,126811
2,171376,176183
//Storyboard Layer 0 (Background)
//Storyboard Layer 1 (Fail)
//Storyboard Layer 2 (Pass)
//Storyboard Layer 3 (Foreground)
//Storyboard Sound Samples

[TimingPoints]
6606,342.857142857143,4,2,0,60,1,0
6627,-250,4,2,0,60,0,0
34034,-100,4,2,0,100,0,0
39177,-100,4,2,0,100,0,0
39520,-100,4,2,0,100,0,1
42348,-100,4,2,0,80,0,1
42606,-100,4,2,0,100,0,1
44491,-100,4,2,0,60,0,1
44663,-100,4,2,0,75,0,1
44834,-100,4,2,0,85,0,1
45006,-100,4,2,0,100,0,1
46034,-66.6666666666667,4,2,0,100,0,1
47148,-100,4,2,0,100,0,1
47748,-100,4,2,0,80,0,1
48091,-100,4,2,0,100,0,1
48863,-100,4,2,0,80,0,1
49720,-100,4,2,0,100,0,1
55377,-200,4,2,0,60,0,1
55548,-200,4,2,0,75,0,1
55720,-200,4,2,0,85,0,1
56063,-100,4,2,0,100,0,1
56491,-100,4,2,0,100,0,1
61377,-100,4,2,0,100,0,0
66948,342.857142857143,4,2,0,100,1,0
72433,-100,4,2,0,100,0,1
74833,-200,4,2,0,100,0,1
75090,-100,4,2,0,100,0,1
77148,-200,4,2,0,100,0,1
77576,-100,4,2,0,100,0,1
77748,-200,4,2,0,100,0,1
78262,-100,4,2,0,100,0,1
80319,-200,4,2,0,100,0,1
80490,-100,4,2,0,100,0,1
83405,-100,4,2,0,100,0,0
84090,-100,4,2,0,70,0,0
84776,-100,4,2,0,50,0,0
86148,-100,4,2,0,100,0,1
88119,-200,4,2,0,100,0,1
88548,-100,4,2,0,100,0,1
88805,-333.333333333333,4,2,0,100,0,1
89233,-100,4,2,0,100,0,1
94205,-100,4,2,0,100,0,0
94376,-100,4,2,0,100,0,1
96433,-200,4,2,0,100,0,1
96776,-55.5555555555556,4,2,0,100,0,1
97462,-100,4,2,0,100,0,1
101919,-200,4,2,0,100,0,1
102262,-55.5555555555556,4,2,0,100,0,1
102948,-100,4,2,0,100,0,1
107405,-200,4,2,0,100,0,1
107748,-66.6666666666667,4,2,0,100,0,1
108433,-100,4,2,0,100,0,1
112890,-200,4,2,0,100,0,1
113233,-55.5555555555556,4,2,0,100,0,1
113662,-100,4,2,0,100,0,1
116319,-100,4,2,0,100,0,0
127290,-250,4,2,0,60,0,0
148376,-100,4,2,0,70,0,0
148805,-100,4,2,0,80,0,0
149233,-250,4,2,0,60,0,0
168176,-100,4,2,0,60,0,0
179405,-100,4,2,0,100,0,0
182148,-100,4,2,0,100,0,1
195176,-83.3333333333333,4,2,0,100,0,0
195862,-100,4,2,0,100,0,1
201348,-166.666666666667,4,2,0,100,0,1
202119,-142.857142857143,4,2,0,100,0,1
202805,-125,4,2,0,100,0,1
203062,-111.111111111111,4,2,0,100,0,1
203405,-76.9230769230769,4,2,0,100,0,0
204090,-100,4,2,0,100,0,1
204776,-76.9230769230769,4,2,0,100,0,1
214376,-68.9655172413793,4,2,0,100,0,1
215062,-76.9230769230769,4,2,0,100,0,1
225348,-66.6666666666667,4,2,0,100,0,1
226033,-250,4,2,0,100,0,0

[Colours]
Combo1 : 217,0,108
Combo2 : 255,66,156
Combo3 : 250,218,223
Combo4 : 150,1,150

[HitObjects]
148,248,6627,6,0,P|124:176|160:120,1,140
308,64,7463,1,0,0:0:0:0:
252,172,7634,1,0,0:0:0:0:
288,288,7806,2,0,P|348:312|404:284,1,120
92,100,8834,6,0,L|72:76,2,20
328,132,9348,2,0,B|304:212|304:212|256:272,1,160
140,236,10206,37,0,0:0:0:0:
44,168,10377,1,0,0:0:0:0:
164,152,10548,2,0,P|224:192|224:280,1,160
288,40,11577,6,0,L|376:66,1,80
484,52,12091,2,0,B|480:136|424:104|417:195,1,160
308,140,12948,1,0,0:0:0:0:
268,256,13120,1,0,0:0:0:0:
388,260,13291,1,0,0:0:0:0:
144,84,14320,38,0,L|120:56,2,20
280,284,14834,2,0,L|196:232,1,80
136,148,15348,1,0,0:0:0:0:
140,132,15434,1,0,0:0:0:0:
144,116,15520,1,0,0:0:0:0:
256,72,15691,1,0,0:0:0:0:
276,192,15864,1,0,0:0:0:0:
352,284,16034,2,0,B|335:321|356:345|356:345|380:317|385:288|368:235|368:235|389:190|364:137,1,280
136,64,17577,6,0,B|108:135|108:135|116:224,1,160
212,288,18434,1,0,0:0:0:0:
288,196,18606,1,0,0:0:0:0:
344,92,18777,2,0,P|283:68|227:96,1,120
128,276,19806,38,0,L|108:308,2,20
368,260,20320,2,0,P|400:184|364:112,1,160
252,92,21177,1,0,0:0:0:0:
324,188,21348,1,0,0:0:0:0:
240,276,21520,2,0,B|284:292|324:272|324:272|264:268|248:236|248:236,1,160
96,68,22548,6,0,L|72:156,1,80
152,240,23063,2,0,B|232:196|232:261|312:229,1,160
396,152,23920,1,0,0:0:0:0:
276,152,24091,1,0,0:0:0:0:
340,52,24263,1,0,0:0:0:0:
80,216,25291,38,0,L|56:244,2,20
256,192,25548,12,0,28548,0:0:0:0:
116,116,34034,53,0,0:0:0:0:
100,100,34377,1,0,0:0:0:0:
88,88,34720,1,0,0:0:0:0:
428,296,35063,53,0,0:0:0:0:
412,280,35406,1,0,0:0:0:0:
400,268,35748,1,0,0:0:0:0:
136,296,36091,5,0,0:0:0:0:
120,280,36434,1,0,0:0:0:0:
108,268,36777,1,0,0:0:0:0:
196,100,36948,37,0,0:0:0:0:
255,144,37120,1,0,0:0:0:0:
329,156,37291,1,0,0:0:0:0:
401,140,37463,5,0,0:0:0:0:
402,160,37548,1,0,0:0:0:0:
394,197,37634,1,0,0:0:0:0:
394,234,37720,1,0,0:0:0:0:
404,270,37806,1,0,0:0:0:0:
423,302,37891,1,0,0:0:0:0:
449,329,37977,1,0,0:0:0:0:
476,344,38063,1,0,0:0:0:0:
152,72,38148,37,0,0:0:0:0:
320,292,38320,1,0,0:0:0:0:
420,240,38491,1,0,0:0:0:0:
76,188,38834,1,0,0:0:0:0:
336,112,39177,37,2,0:0:0:0:
40,168,39520,37,0,0:0:0:0:
48,188,39606,1,0,0:0:0:0:
56,208,39691,1,0,0:0:0:0:
64,224,39777,1,0,0:0:0:0:
72,244,39863,2,0,L|100:200,1,50
248,56,40034,2,0,L|220:104,1,50
368,232,40206,2,0,B|348:280|348:280|271:315,1,100
388,68,40548,6,0,L|316:44,1,50
111,125,40720,2,0,L|39:101,1,50
380,152,40891,2,0,B|334:136|334:136|271:163,1,100
472,344,41234,1,0,0:0:0:0:
72,256,41320,2,0,B|94:265|122:260|122:260|141:276|141:276|168:275|189:297|189:297|210:297|210:297,1,150
176,48,41748,38,0,L|92:64,1,50
360,108,41920,2,0,L|432:96,1,50
264,172,42091,2,0,B|248:112|248:112|256:60,1,100
460,228,42348,6,0,L|444:195,1,25
472,202,42434,2,0,L|446:176,1,25
480,177,42520,2,0,L|448:164,1,25
432,160,42606,1,0,0:0:0:0:
308,240,42691,38,0,L|280:304,1,50
120,140,42863,2,0,L|148:76,1,50
344,152,43034,2,0,B|316:148|292:152|292:152|316:140|340:120,1,100
444,40,43291,6,0,L|384:68,1,50
262,261,43463,2,0,L|322:233,1,50
400,88,43634,2,0,P|428:148|408:204,1,100
180,64,43977,1,0,0:0:0:0:
68,272,44063,2,0,B|91:266|111:245|111:245|136:248|136:248|157:230|187:236|187:236|204:224|204:224,1,150
316,312,44406,1,0,0:0:0:0:
408,212,44491,38,0,L|408:152,1,50
364,108,44663,2,0,L|363:167,1,50
448,288,44834,2,0,L|448:228,1,50
292,44,45006,2,0,B|280:120|280:120|308:188,1,150
172,320,45348,6,0,L|200:256,1,50
380,60,45520,2,0,L|356:128,1,50
368,304,45691,2,0,B|316:312|316:312|232:288,1,100
104,60,46034,38,0,B|124:120|124:120|144:88,1,75.0000028610231
252,208,46206,2,0,B|191:191|191:191|206:225,1,75.0000028610231
472,296,46463,2,0,P|488:208|452:136,1,150.000005722046
192,308,46720,1,0,0:0:0:0:
152,148,46891,2,0,P|84:104|133:7,1,150.000005722046
344,72,47148,6,0,L|408:108,1,50
380,328,47320,2,0,L|315:291,1,50
192,232,47491,2,0,P|176:180|196:132,1,100
376,224,47748,2,0,L|352:184,1,25
340,224,47834,2,0,L|340:180,1,25
300,212,47920,2,0,L|316:180,1,25
268,200,48006,2,0,L|296:164,1,25
368,56,48092,37,0,0:0:0:0:
100,56,48434,6,0,L|112:92,1,25
84,80,48520,2,0,L|104:108,1,25
80,116,48606,2,0,L|108:136,1,25
92,152,48691,2,0,L|120:152,1,25
132,184,48777,1,0,0:0:0:0:
172,180,48863,2,0,L|188:152,10,25
192,132,49334,1,0,0:0:0:0:
328,228,49463,1,0,0:0:0:0:
472,48,49634,1,0,0:0:0:0:
300,336,49806,37,0,0:0:0:0:
252,319,49892,1,0,0:0:0:0:
203,311,49977,1,0,0:0:0:0:
153,312,50063,1,0,0:0:0:0:
105,325,50149,1,0,0:0:0:0:
81,309,50234,1,0,0:0:0:0:
100,263,50320,1,0,0:0:0:0:
108,214,50406,1,0,0:0:0:0:
103,164,50492,1,0,0:0:0:0:
87,117,50577,1,0,0:0:0:0:
87,117,50663,1,0,0:0:0:0:
87,117,50749,1,0,0:0:0:0:
248,68,50834,6,0,L|316:76,1,50
388,156,51006,2,0,L|320:148,1,50
216,320,51177,2,0,B|232:292|232:292|216:264|228:232|228:232|216:216|216:216|232:184|208:156|208:156,1,150
100,64,51520,2,0,P|64:132|64:132,1,50
112,304,51691,2,0,P|147:236|147:236,1,50
264,112,51863,2,0,B|304:112|304:112|324:104|324:104|352:120|392:108|392:108|424:132,1,150
356,320,52206,38,0,L|328:276,1,50
148,92,52377,2,0,L|172:140,1,50
112,304,52548,2,0,P|136:324|176:332,1,50
256,256,52720,2,0,P|231:235|192:227,1,50
148,92,52891,2,0,L|208:72,1,50
392,124,53063,2,0,L|344:80,1,50
64,136,53234,5,0,0:0:0:0:
76,152,53320,1,0,0:0:0:0:
88,168,53406,1,0,0:0:0:0:
96,180,53491,1,0,0:0:0:0:
292,96,53663,1,0,0:0:0:0:
244,300,53834,2,0,B|276:296|296:272|296:272|324:264|324:264|336:240|364:232|364:232|388:196,1,150
124,52,54263,38,0,L|76:104,1,50
96,232,54434,2,0,L|136:188,1,50
328,104,54606,2,0,B|372:136|372:136|420:136|420:136|416:156,1,100
420,280,54948,6,0,L|352:312,1,50
148,314,55120,2,0,B|111:277|111:277|86:207,1,100
416,32,55463,2,0,L|428:76,1,25
400,256,55634,2,0,L|388:212,1,25
336,96,55806,2,0,L|344:128,1,25
216,104,55977,2,0,B|172:128|172:128|144:176,1,100
412,312,56491,1,0,0:0:0:0:
60,192,56748,6,0,B|76:117|76:117|122:54,1,150
344,290,57091,2,0,L|312:236,1,50
256,96,57263,2,0,L|287:144,1,50
344,290,57434,2,0,B|312:294|312:294|292:286|292:286|268:286|248:266|248:266,1,100
64,144,57691,2,0,L|113:130,1,50
268,28,57863,2,0,L|218:41,1,50
92,264,58034,38,0,L|160:240,1,50
344,290,58206,1,0,0:0:0:0:
336,96,58377,2,0,L|276:72,1,50
280,76,58547,1,0,0:0:0:0:
280,76,58633,1,0,0:0:0:0:
200,224,58720,6,0,L|248:320,1,100
40,124,59063,1,0,0:0:0:0:
268,140,59234,2,0,L|316:236,1,100
96,228,59576,1,0,0:0:0:0:
88,236,59662,1,0,0:0:0:0:
80,244,59748,1,0,0:0:0:0:
228,260,60006,38,0,P|236:200|216:132,1,100
144,56,60348,1,0,0:0:0:0:
352,52,60520,2,0,B|402:113|402:113|398:149,1,100
328,172,60777,1,0,0:0:0:0:
280,187,60863,1,0,0:0:0:0:
244,221,60948,1,0,0:0:0:0:
202,249,61034,1,0,0:0:0:0:
155,264,61120,1,0,0:0:0:0:
120,280,61205,1,0,0:0:0:0:
72,295,61291,1,0,0:0:0:0:
36,329,61377,1,0,0:0:0:0:
256,192,66948,12,0,69690,0:0:0:0:
348,128,69776,5,0,0:0:0:0:
397,131,69862,1,0,0:0:0:0:
444,116,69948,1,0,0:0:0:0:
453,128,70033,1,0,0:0:0:0:
442,177,70119,1,0,0:0:0:0:
447,227,70205,1,0,0:0:0:0:
455,261,70290,1,0,0:0:0:0:
405,252,70376,1,0,0:0:0:0:
356,254,70462,1,0,0:0:0:0:
307,267,70548,1,0,0:0:0:0:
259,277,70633,1,0,0:0:0:0:
209,271,70719,1,0,0:0:0:0:
163,253,70805,1,0,0:0:0:0:
140,232,70890,1,0,0:0:0:0:
312,72,70976,5,0,0:0:0:0:
40,208,71233,1,0,0:0:0:0:
116,284,71405,1,0,0:0:0:0:
132,268,71748,1,0,0:0:0:0:
444,64,72090,37,2,0:0:0:0:
196,72,72433,37,0,0:0:0:0:
244,284,72776,2,0,L|296:244,1,50
356,96,72948,2,0,L|304:136,1,50
84,152,73119,2,0,P|80:208|128:252,1,100
420,316,73376,6,0,L|420:248,1,50
356,96,73548,2,0,L|356:163,1,50
404,304,73719,2,0,L|404:236,1,50
340,84,73891,2,0,L|340:151,1,50
384,288,74062,2,0,L|384:220,1,50
320,68,74234,2,0,L|320:135,1,50
364,276,74405,2,0,L|364:208,1,50
300,56,74577,2,0,L|300:168,1,100
96,64,74833,38,0,L|180:36,1,75
356,96,75176,1,0,0:0:0:0:
374,131,75261,1,0,0:0:0:0:
381,170,75347,1,0,0:0:0:0:
375,210,75433,1,0,0:0:0:0:
192,268,75519,6,0,L|116:232,1,50
44,88,75690,2,0,L|104:120,1,50
236,80,75862,2,0,P|256:136|228:196,1,100
420,320,76205,38,0,L|432:256,1,50
388,48,76376,2,0,L|372:116,1,50
232,236,76548,2,0,L|180:268,3,50
196,112,76890,2,0,L|256:80,2,50
400,104,77148,2,0,B|456:128|456:128|408:140,1,100
80,52,77576,1,0,0:0:0:0:
269,270,77833,6,0,B|300:294|314:291|314:291|334:298|355:284|355:284|368:281,1,100
312,56,78262,38,0,L|256:88,1,50
225,294,78433,2,0,L|281:261,1,50
404,224,78605,2,0,B|356:196|356:196|336:152,1,100
80,280,78948,6,0,L|144:256,1,50
412,56,79120,2,0,L|359:99,1,50
88,88,79291,2,0,L|144:120,1,50
424,288,79463,2,0,L|364:268,1,50
240,40,79634,2,0,L|256:88,1,50
260,324,79806,2,0,L|276:268,1,50
240,180,79977,2,0,P|296:172|351:210,1,100
416,311,80319,38,0,L|428:275,1,25
400,72,80490,2,0,L|380:128,1,50
172,280,80662,6,0,L|124:288,1,25
176,248,80748,2,0,L|136:244,1,25
192,224,80833,2,0,L|164:204,1,25
220,208,80919,2,0,L|204:176,1,25
256,208,81005,2,0,L|256:172,1,25
288,212,81090,2,0,L|304:176,1,25
360,72,81176,37,0,0:0:0:0:
416,300,81348,1,0,0:0:0:0:
120,96,81519,1,0,0:0:0:0:
288,208,81690,1,0,0:0:0:0:
88,284,81862,6,0,L|112:232,1,50
252,72,82033,2,0,L|224:136,1,50
108,238,82205,2,0,P|140:274|212:282,1,100
396,108,82548,1,0,0:0:0:0:
104,68,82719,37,0,0:0:0:0:
129,110,82804,1,0,0:0:0:0:
160,150,82890,1,0,0:0:0:0:
196,184,82976,1,0,0:0:0:0:
237,213,83061,1,0,0:0:0:0:
275,246,83147,1,0,0:0:0:0:
307,284,83233,1,0,0:0:0:0:
334,326,83319,1,0,0:0:0:0:
420,244,83405,6,0,L|452:248,4,25
237,213,83748,1,0,0:0:0:0:
140,324,83919,1,0,0:0:0:0:
92,124,84090,2,0,L|65:104,4,25
320,92,84433,1,0,0:0:0:0:
416,216,84605,1,0,0:0:0:0:
252,284,84776,2,0,L|224:316,4,25
256,192,85119,12,0,86148,0:0:0:0:
164,88,86490,38,0,L|136:140,1,50
196,312,86662,2,0,L|224:260,1,50
376,108,86833,2,0,B|388:140|388:140|380:160|380:160|392:184|376:216|376:216|380:236|380:236,1,100
132,276,87176,6,0,L|108:224,1,50
184,60,87348,2,0,L|207:112,1,50
304,264,87519,38,0,B|288:284|288:284|252:296,3,50
264,184,87862,2,0,B|280:164|280:164|316:152,2,50
428,184,88119,2,0,B|468:284,1,100
324,76,88547,1,0,0:0:0:0:
112,256,88805,6,0,L|152:205,1,59.9999981689454
376,76,89233,38,0,L|368:144,1,50
288,296,89405,2,0,L|296:232,1,50
140,60,89576,2,0,B|120:76|120:76|120:92|120:92|120:120|96:136|96:136|92:148|92:148|72:164|72:200,1,150
208,276,89919,6,0,L|248:208,1,50
380,84,90090,2,0,L|352:136,1,50
192,272,90262,2,0,L|204:220,1,50
396,92,90433,2,0,L|384:152,1,50
176,272,90605,2,0,L|160:224,1,50
408,96,90776,2,0,L|424:152,1,50
176,272,90948,2,0,B|156:252|156:252|144:232|144:232|116:216|116:176|116:176|100:160|100:160|96:128|96:128,1,150
252,80,91290,37,0,0:0:0:0:
444,296,91462,1,0,0:0:0:0:
92,84,91633,6,0,L|140:180,1,100
128,304,91976,1,0,0:0:0:0:
296,168,92147,2,0,B|328:212|328:212|344:264,1,100
128,304,92490,1,0,0:0:0:0:
60,128,92662,38,0,L|160:68,1,100
296,168,93005,1,0,0:0:0:0:
392,56,93176,2,0,B|424:100|424:100|440:152,1,100
231,279,93604,5,0,0:0:0:0:
182,283,93690,1,0,0:0:0:0:
135,301,93776,1,0,0:0:0:0:
109,307,93861,1,0,0:0:0:0:
115,258,93947,1,0,0:0:0:0:
107,209,94033,1,0,0:0:0:0:
85,164,94119,1,0,0:0:0:0:
51,128,94204,1,0,0:0:0:0:
224,92,94376,6,0,B|216:124|236:164|236:164|260:124|248:88,1,150
400,324,94719,2,0,B|396:295|400:255|400:255,1,50
324,80,94890,2,0,B|328:108|324:148|324:148,1,50
380,200,95062,2,0,B|344:228|344:228|252:212,1,100
120,72,95405,38,0,L|96:136,1,50
212,304,95576,2,0,L|235:240,1,50
120,72,95748,2,0,L|68:120,1,50
212,304,95919,2,0,L|264:256,1,50
120,72,96090,2,0,L|52:64,1,50
212,304,96262,2,0,L|288:288,1,50
328,104,96433,2,0,B|366:113|366:113|398:145,1,75
212,304,96776,6,0,P|84:276|216:272,1,359.999989013672
424,64,97462,38,0,L|416:128,1,50
184,96,97634,2,0,L|192:32,1,50
302,127,97805,2,0,B|296:148|296:148|300:176|300:176|284:204|284:204|276:240|276:240,1,100
483,76,98148,6,0,L|415:68,1,50
280,221,98319,2,0,L|347:228,1,50
483,76,98491,2,0,L|423:37,1,50
280,221,98662,2,0,L|339:259,1,50
483,76,98833,2,0,L|415:68,1,50
280,221,99004,2,0,L|347:228,1,50
116,124,99176,2,0,B|80:160|81:231|81:231|138:188|144:138,1,200
384,68,99862,37,0,0:0:0:0:
360,308,100033,2,0,L|368:256,1,50
404,44,100205,2,0,L|396:100,1,50
272,268,100376,2,0,B|204:256|204:256|184:224,1,100
60,76,100890,6,0,L|112:156,1,50
272,264,101062,2,0,L|236:220,1,50
60,120,101233,2,0,L|112:196,1,50
236,260,101405,2,0,L|196:208,1,50
60,164,101576,2,0,L|88:208,1,50
192,256,101748,2,0,L|156:208,1,50
119,80,101919,2,0,B|79:92|79:92|51:132,1,75
332,248,102262,38,0,B|307:302|337:337|337:337|372:296|380:253|355:176|355:176|386:110|349:33,1,359.999989013672
132,200,102948,6,0,L|204:172,1,50
392,204,103119,2,0,L|324:176,1,50
260,128,103290,2,0,B|268:172|268:172|256:204|256:204|268:264,1,100
48,216,103633,38,0,L|96:160,1,50
291,88,103805,2,0,L|243:148,1,50
48,216,103976,2,0,L|56:144,1,50
288,88,104148,2,0,L|284:160,1,50
48,216,104319,2,0,L|20:140,1,50
288,88,104490,2,0,L|328:148,1,50
184,304,104662,5,0,0:0:0:0:
232,293,104747,1,0,0:0:0:0:
282,298,104833,1,0,0:0:0:0:
331,299,104919,1,0,0:0:0:0:
380,289,105004,1,0,0:0:0:0:
408,271,105090,1,0,0:0:0:0:
403,221,105176,1,0,0:0:0:0:
400,173,105262,1,0,0:0:0:0:
393,123,105347,1,0,0:0:0:0:
80,80,105605,38,0,L|116:168,1,50
248,272,105776,2,0,L|220:212,1,50
216,152,105948,2,0,B|180:168|180:168|148:192|148:192|96:204|96:204,1,100
400,68,106376,6,0,L|400:136,1,50
380,296,106548,2,0,L|380:232,1,50
424,44,106719,2,0,L|424:112,1,50
404,272,106891,2,0,L|404:208,1,50
448,28,107062,2,0,L|448:96,1,50
428,256,107234,2,0,L|428:192,1,50
108,120,107405,2,0,B|142:96|142:96|174:90,1,75
300,228,107748,38,0,P|412:176|296:208,1,300.000011444092
132,84,108433,6,0,L|112:144,1,50
300,228,108605,2,0,L|320:164,1,50
192,212,108776,2,0,B|172:260|172:260|156:340,1,100
396,272,109119,38,0,L|408:208,1,50
360,56,109290,2,0,L|380:124,1,50
252,276,109462,2,0,L|280:212,1,50
208,68,109633,2,0,L|248:132,1,50
84,280,109805,2,0,L|120:216,1,50
64,80,109976,2,0,L|112:156,1,50
252,276,110148,6,0,B|300:292|363:260|363:260|299:228|252:244,1,200
108,112,110833,37,0,0:0:0:0:
368,96,111004,2,0,L|316:85,1,50
40,120,111176,2,0,L|95:130,1,50
268,152,111347,2,0,B|256:204|256:204|219:237,1,100
400,72,111862,6,0,L|336:52,1,50
112,72,112033,2,0,L|176:52,1,50
356,136,112205,2,0,L|292:116,1,50
156,144,112376,2,0,L|220:124,1,50
380,236,112548,2,0,L|316:216,1,50
128,236,112719,2,0,L|192:216,1,50
256,256,112890,2,0,L|256:344,1,75
176,256,113233,38,0,P|256:128|336:256,1,359.999989013672
236,328,113662,6,0,P|168:344|97:300,1,150
76,84,114090,2,0,L|44:244,1,150
128,296,114605,37,0,0:0:0:0:
204,124,114776,1,0,0:0:0:0:
136,300,114948,1,0,0:0:0:0:
268,132,115119,1,0,0:0:0:0:
136,300,115290,1,0,0:0:0:0:
336,168,115462,1,0,0:0:0:0:
342,217,115547,1,0,0:0:0:0:
340,267,115633,1,0,0:0:0:0:
324,305,115719,1,0,0:0:0:0:
275,293,115804,1,0,0:0:0:0:
225,290,115890,1,0,0:0:0:0:
175,294,115976,1,0,0:0:0:0:
128,296,116062,2,0,L|72:312,2,50
208,176,116319,5,0,0:0:0:0:
156,304,127290,54,0,L|112:140,1,160
200,64,128148,1,0,0:0:0:0:
316,92,128319,1,0,0:0:0:0:
368,200,128490,2,0,P|309:211|250:188,1,120
92,256,129519,37,0,0:0:0:0:
176,172,129690,1,0,0:0:0:0:
272,244,129862,1,0,0:0:0:0:
388,220,130033,2,0,B|424:228|460:208|460:208|420:184|376:200,1,160
264,164,130890,1,0,0:0:0:0:
176,84,131062,1,0,0:0:0:0:
112,304,131233,5,0,0:0:0:0:
324,92,132090,37,0,0:0:0:0:
436,296,132262,1,0,0:0:0:0:
172,228,132433,1,0,0:0:0:0:
284,188,132605,1,0,0:0:0:0:
332,84,132776,6,0,B|248:61|248:115|163:84,1,160
64,44,133633,1,0,0:0:0:0:
96,160,133805,1,0,0:0:0:0:
64,276,133976,2,0,P|128:284|180:244,1,120
464,44,135005,37,0,0:0:0:0:
348,76,135176,1,0,0:0:0:0:
344,196,135348,1,0,0:0:0:0:
300,308,135519,2,0,B|336:316|372:296|372:296|332:300|288:288,1,160
256,172,136376,1,0,0:0:0:0:
168,92,136548,1,0,0:0:0:0:
376,300,136719,6,0,B|359:337|380:361|380:361|404:333|409:304|392:251|392:251|413:206|388:153,1,280
164,72,138262,38,0,P|100:128|120:208,1,160
204,272,139119,1,0,0:0:0:0:
184,152,139290,1,0,0:0:0:0:
300,184,139462,2,0,B|336:175|360:200|360:200|380:176|416:184,1,120
64,76,140490,5,0,0:0:0:0:
180,264,140662,1,0,0:0:0:0:
260,176,140833,1,0,0:0:0:0:
372,128,141005,2,0,B|416:212|340:216|392:288,1,160
268,292,141862,1,0,0:0:0:0:
312,180,142033,1,0,0:0:0:0:
96,56,142205,37,0,0:0:0:0:
368,296,142890,5,0,0:0:0:0:
380,284,142976,1,0,0:0:0:0:
392,272,143062,1,0,0:0:0:0:
404,92,143319,1,0,0:0:0:0:
208,124,143576,1,0,0:0:0:0:
96,172,143748,2,0,P|140:236|228:244,1,160
308,168,144605,37,0,0:0:0:0:
408,100,144776,1,0,0:0:0:0:
448,212,144948,1,0,0:0:0:0:
132,88,145976,5,0,0:0:0:0:
100,204,146148,1,0,0:0:0:0:
216,176,146319,1,0,0:0:0:0:
132,88,146490,37,0,0:0:0:0:
364,152,146833,1,0,0:0:0:0:
304,320,147005,1,0,0:0:0:0:
192,280,147176,1,0,0:0:0:0:
324,80,147519,1,0,0:0:0:0:
108,240,148033,5,0,0:0:0:0:
120,232,148205,1,0,0:0:0:0:
224,160,148376,1,0,0:0:0:0:
271,144,148461,1,0,0:0:0:0:
321,147,148547,1,0,0:0:0:0:
370,156,148633,1,0,0:0:0:0:
418,147,148718,1,0,0:0:0:0:
451,110,148804,1,0,0:0:0:0:
467,63,148890,1,0,0:0:0:0:
451,40,148976,1,0,0:0:0:0:
401,41,149061,1,0,0:0:0:0:
351,43,149147,1,0,0:0:0:0:
92,88,149233,38,0,L|72:256,1,160
172,316,150090,1,0,0:0:0:0:
236,232,150262,1,0,0:0:0:0:
356,244,150433,2,0,B|416:252|416:252|480:232,1,120
112,236,151462,6,0,L|88:256,2,20
252,40,151976,2,0,B|320:88|320:88|358:155,1,160
268,208,152833,37,0,0:0:0:0:
172,140,153005,1,0,0:0:0:0:
288,116,153176,2,0,P|348:156|348:244,1,160
116,180,154205,6,0,L|204:206,1,80
244,312,154719,2,0,B|248:227|303:260|310:169,1,160
328,52,155576,1,0,0:0:0:0:
440,96,155748,1,0,0:0:0:0:
400,208,155919,1,0,0:0:0:0:
140,188,156948,38,0,L|112:200,2,20
356,84,157462,2,0,L|399:172,1,80
432,268,157976,1,0,0:0:0:0:
428,284,158062,1,0,0:0:0:0:
424,300,158148,1,0,0:0:0:0:
304,284,158319,1,0,0:0:0:0:
224,196,158490,1,0,0:0:0:0:
292,96,158662,2,0,B|331:104|350:79|350:79|318:61|289:62|240:90|240:90|192:79|145:114,1,280
212,344,160205,6,0,B|287:330|287:330|358:276,1,160
248,224,161062,1,0,0:0:0:0:
340,148,161234,1,0,0:0:0:0:
400,44,161405,2,0,P|339:20|283:48,1,120
88,232,162433,38,0,L|68:264,2,20
324,184,162948,2,0,P|258:133|180:149,1,160
232,256,163805,1,0,0:0:0:0:
340,208,163976,1,0,0:0:0:0:
284,316,164148,2,0,B|328:332|368:312|368:312|308:308|292:276|292:276,1,160
140,108,165176,6,0,L|116:196,1,80
88,300,165690,2,0,B|168:256|168:321|248:289,1,160
340,220,166547,1,0,0:0:0:0:
220,220,166718,1,0,0:0:0:0:
288,120,166890,1,0,0:0:0:0:
340,120,167919,38,0,L|360:92,2,20
256,192,168176,12,0,171176,0:0:0:0:
256,192,176662,12,0,179233,0:0:0:0:
232,88,179405,5,0,0:0:0:0:
280,99,179490,1,0,0:0:0:0:
330,95,179576,1,0,0:0:0:0:
377,78,179662,1,0,0:0:0:0:
419,51,179747,1,0,0:0:0:0:
416,91,179833,1,0,0:0:0:0:
415,141,179919,37,0,0:0:0:0:
422,190,180005,1,0,0:0:0:0:
437,238,180090,1,0,0:0:0:0:
459,283,180176,1,0,0:0:0:0:
456,302,180262,1,0,0:0:0:0:
407,293,180347,1,0,0:0:0:0:
357,295,180433,1,0,0:0:0:0:
309,309,180519,1,0,0:0:0:0:
120,248,180690,5,0,0:0:0:0:
300,64,180948,1,0,0:0:0:0:
404,164,181119,1,0,0:0:0:0:
40,56,181462,1,0,0:0:0:0:
364,320,181805,5,2,0:0:0:0:
104,220,182148,6,0,B|148:128|148:128|244:64|244:64,1,200
436,296,182662,2,0,L|404:228,1,50
392,92,182833,2,0,B|340:108|340:108|300:148,1,100
168,268,183090,1,0,0:0:0:0:
52,76,183176,38,0,L|112:108,1,50
284,124,183348,2,0,L|228:96,1,50
228,320,183519,2,0,L|286:286,1,50
391,148,183691,2,0,L|337:180,1,50
52,72,183862,2,0,L|81:133,1,50
211,247,184034,2,0,L|182:191,1,50
32,188,184205,2,0,L|52:240,1,50
244,328,184376,5,0,0:0:0:0:
404,64,184548,1,0,0:0:0:0:
273,191,184719,1,0,0:0:0:0:
44,100,184890,6,0,B|64:156|60:204|60:204|96:240|116:296,1,200
332,76,185405,2,0,L|264:112,1,50
200,132,185576,2,0,B|216:164|216:164|285:197,1,100
456,264,185833,1,0,0:0:0:0:
304,328,185919,38,0,L|228:312,1,50
204,236,186090,2,0,L|128:220,1,50
440,168,186262,2,0,L|384:160,1,50
348,84,186433,2,0,L|292:76,1,50
160,120,186605,2,0,L|116:112,2,25
257,243,186776,2,0,L|201:235,1,50
48,216,186948,2,0,B|28:272|56:332|56:332|84:264,1,150
188,128,187290,5,0,0:0:0:0:
412,248,187462,1,0,0:0:0:0:
232,64,187633,2,0,P|144:64|140:192,1,200
416,108,188148,2,0,L|360:132,1,50
192,132,188319,2,0,B|220:196|220:196|288:240,1,150
296,104,188662,6,0,L|326:155,1,50
405,285,188833,2,0,L|374:233,1,50
320,60,189005,2,0,L|359:125,1,50
458,289,189176,2,0,L|427:237,1,50
340,24,189348,2,0,L|379:89,1,50
512,296,189519,2,0,L|481:244,1,50
300,224,189690,2,0,L|224:264,1,50
56,200,189862,5,0,0:0:0:0:
184,312,190033,1,0,0:0:0:0:
100,88,190205,1,0,0:0:0:0:
256,160,190376,6,0,L|208:168,1,25
260,128,190462,2,0,L|220:124,1,25
276,104,190547,2,0,L|248:84,1,25
304,88,190633,2,0,L|288:56,1,25
340,88,190719,2,0,L|340:52,1,25
372,92,190805,2,0,L|388:56,1,25
396,104,190890,2,0,L|420:72,1,25
412,120,190976,2,0,L|452:100,1,25
424,316,191062,6,0,L|356:296,1,50
176,192,191233,2,0,L|244:216,1,50
388,208,191405,1,0,0:0:0:0:
148,84,191576,1,0,0:0:0:0:
392,56,191748,1,0,0:0:0:0:
412,48,192090,1,0,0:0:0:0:
400,224,192433,5,0,0:0:0:0:
378,268,192518,1,0,0:0:0:0:
377,318,192604,1,0,0:0:0:0:
362,335,192690,1,0,0:0:0:0:
313,325,192775,1,0,0:0:0:0:
263,325,192861,1,0,0:0:0:0:
214,334,192947,1,0,0:0:0:0:
104,196,193119,6,0,P|136:96|232:108,1,200
424,280,193633,1,0,0:0:0:0:
176,164,193805,2,0,B|224:184|224:184|260:224,1,100
128,312,194148,1,0,0:0:0:0:
280,124,194319,2,0,L|320:76,1,50
396,148,194490,2,0,L|356:196,1,50
272,96,194662,2,0,L|312:48,1,50
404,176,194833,2,0,L|364:224,1,50
264,72,195005,2,0,L|304:24,1,50
256,264,195176,6,0,B|232:264|204:280|204:280|192:276|192:276|152:280|124:260|124:260|100:256|100:256|120:224|112:184|112:184|136:180|136:180|188:208|232:184|232:184|248:192|248:192|272:176|312:180,1,419.999987182618
404,48,195862,6,0,B|444:148|444:148|428:256|428:256,1,200
160,192,196376,1,0,0:0:0:0:
96,128,196548,2,0,B|148:108|148:108|204:108,1,100
360,168,196890,1,0,0:0:0:0:
252,312,197062,2,0,L|176:296,1,50
96,196,197233,2,0,L|172:212,1,50
260,148,197405,2,0,L|184:132,1,50
152,40,197576,2,0,L|228:56,1,50
44,160,197748,2,0,L|0:152,2,25
200,232,197919,2,0,B|226:345|226:345|239:278,1,150
288,100,198262,5,0,0:0:0:0:
512,220,198434,1,0,0:0:0:0:
332,36,198605,2,0,P|244:36|240:164,1,200
400,180,199119,1,0,0:0:0:0:
224,148,199290,6,0,L|254:199,1,50
333,329,199462,2,0,L|302:277,1,50
276,76,199633,2,0,L|315:141,1,50
414,305,199804,2,0,L|383:253,1,50
332,16,199976,2,0,L|371:81,1,50
504,288,200147,2,0,L|473:236,1,50
464,212,200319,5,0,0:0:0:0:
184,152,200490,1,0,0:0:0:0:
231,273,200662,2,0,P|307:300|298:137,1,300
256,192,201348,12,0,203233,0:0:0:0:
252,96,203405,5,0,0:0:0:0:
195,65,203490,1,0,0:0:0:0:
131,72,203576,1,0,0:0:0:0:
83,114,203662,1,0,0:0:0:0:
66,176,203747,1,2,0:0:0:0:
87,236,203833,1,0,0:0:0:0:
139,274,203919,1,0,0:0:0:0:
376,272,204090,5,0,0:0:0:0:
404,76,204262,1,0,0:0:0:0:
392,84,204348,1,0,0:0:0:0:
380,92,204433,1,0,0:0:0:0:
140,268,204605,1,0,0:0:0:0:
136,56,204776,6,0,B|275:105|275:105|183:98|183:98,1,194.999991073609
208,312,205119,2,0,L|264:200,1,64.9999970245363
412,104,205290,2,0,L|356:215,1,64.9999970245363
424,284,205462,2,0,L|480:172,1,64.9999970245363
272,104,205633,2,0,L|216:215,1,64.9999970245363
64,188,205805,1,0,0:0:0:0:
304,308,205976,1,0,0:0:0:0:
160,208,206148,6,0,B|132:144|132:144|128:68,1,129.999994049073
304,72,206490,2,0,B|468:100|468:100|396:124,1,194.999991073609
372,292,206833,2,0,L|356:248,1,32.4999985122681
340,300,206919,2,0,L|332:252,1,32.4999985122681
300,304,207005,2,0,L|304:256,1,32.4999985122681
264,300,207090,2,0,L|276:244,1,32.4999985122681
119,202,207176,2,0,B|152:118|152:118|145:153|145:153|186:52|186:52,2,194.999991073609
376,324,207862,6,0,L|339:232,1,64.9999970245363
308,24,208033,2,0,L|344:116,1,64.9999970245363
468,240,208205,2,0,L|431:148,1,64.9999970245363
216,180,208376,2,0,L|252:272,1,64.9999970245363
104,348,208548,2,0,B|68:192|68:192|104:240,1,194.999991073609
256,304,208890,2,0,B|328:312|328:312|400:284,1,129.999994049073
368,160,209233,2,0,B|404:124|404:48|404:48|346:96|340:146,1,194.999991073609
248,304,209576,6,0,L|239:258,1,32.4999985122681
215,306,209662,2,0,L|214:257,1,32.4999985122681
175,304,209748,2,0,L|186:257,1,32.4999985122681
140,295,209833,2,0,L|160:241,1,32.4999985122681
184,80,209919,2,0,B|260:100|260:100|48:116,1,259.999988098145
64,312,210434,6,0,L|96:216,1,64.9999970245363
184,80,210605,2,0,L|152:176,1,64.9999970245363
244,332,210777,2,0,L|276:236,1,64.9999970245363
364,100,210948,2,0,L|332:196,1,64.9999970245363
396,344,211119,2,0,L|428:248,1,64.9999970245363
368,96,211290,2,0,B|352:44|352:44|300:196,1,194.999991073609
160,264,211634,2,0,B|215:308|215:308|291:325,1,129.999994049073
231,58,211976,2,0,B|395:86|395:86|323:110,1,194.999991073609
112,280,212319,6,0,L|151:254,1,32.4999985122681
97,250,212405,2,0,L|141:231,1,32.4999985122681
84,212,212491,2,0,L|131:205,1,32.4999985122681
79,176,212576,2,0,L|136:175,1,32.4999985122681
290,90,212662,2,0,B|354:155|354:155|325:134|325:134|401:215|401:215,2,194.999991073609
128,296,213348,6,0,L|96:208,1,64.9999970245363
212,48,213519,2,0,L|244:136,1,64.9999970245363
316,308,213690,1,0,0:0:0:0:
326,296,213776,1,0,0:0:0:0:
337,284,213862,1,0,0:0:0:0:
348,272,213948,1,0,0:0:0:0:
432,76,214033,5,0,0:0:0:0:
422,88,214119,1,0,0:0:0:0:
411,100,214205,1,0,0:0:0:0:
400,112,214291,1,0,0:0:0:0:
240,260,214376,5,0,0:0:0:0:
169,252,214461,1,0,0:0:0:0:
122,199,214547,1,0,0:0:0:0:
124,128,214633,1,0,0:0:0:0:
173,77,214718,1,0,0:0:0:0:
244,73,214804,1,0,0:0:0:0:
299,119,214890,1,0,0:0:0:0:
308,189,214976,1,0,0:0:0:0:
240,260,215062,6,0,P|72:284|72:284,1,129.999994049073
299,119,215405,2,0,B|335:207|335:207|315:319,1,194.999991073609
80,156,215748,2,0,B|116:68|116:68|112:124|112:124,1,129.999994049073
184,264,216090,2,0,L|160:336,2,64.9999970245363
388,52,216433,1,0,0:0:0:0:
92,176,216605,1,0,0:0:0:0:
360,264,216776,5,0,0:0:0:0:
220,76,216948,1,0,0:0:0:0:
172,227,217119,2,0,B|117:199|80:229|80:229|121:267|164:276|244:253|244:253|310:287|390:252,1,389.999982147218
392,56,217805,6,0,L|324:176,1,129.999994049073
188,184,218148,2,0,P|280:172|344:252,1,194.999991073609
96,324,218490,5,0,0:0:0:0:
440,108,218662,1,0,0:0:0:0:
40,208,218833,5,0,0:0:0:0:
464,288,219005,1,0,0:0:0:0:
128,72,219176,5,0,0:0:0:0:
108,64,219519,1,0,0:0:0:0:
84,256,219862,6,0,B|172:304|172:304|284:304,1,194.999991073609
296,40,220205,2,0,L|216:220,1,194.999991073609
414,68,220548,6,0,B|386:40|386:40|242:40,1,129.999994049073
104,208,220890,2,0,P|120:332|190:294,1,194.999991073609
340,132,221233,2,0,B|304:219|304:219|308:164|308:164,1,129.999994049073
104,208,221576,2,0,L|20:280,2,64.9999970245363
440,184,221919,5,0,0:0:0:0:
140,88,222090,1,0,0:0:0:0:
296,316,222262,1,0,0:0:0:0:
324,80,222433,1,0,0:0:0:0:
104,208,222605,2,0,B|128:276|128:276|184:332,1,129.999994049073
424,120,222948,5,0,0:0:0:0:
272,44,223119,1,0,0:0:0:0:
168,316,223290,1,0,0:0:0:0:
424,200,223805,5,0,0:0:0:0:
92,108,223976,1,0,0:0:0:0:
312,332,224319,5,0,0:0:0:0:
180,72,224490,1,0,0:0:0:0:
440,136,224662,5,0,0:0:0:0:
180,240,224833,1,0,0:0:0:0:
408,64,225005,5,0,0:0:0:0:
360,312,225176,1,0,0:0:0:0:
144,256,225348,5,0,0:0:0:0:
115,187,225433,1,0,0:0:0:0:
130,115,225519,1,0,0:0:0:0:
182,63,225605,1,0,0:0:0:0:
255,49,225690,1,0,0:0:0:0:
323,79,225776,1,0,0:0:0:0:
363,141,225862,1,0,0:0:0:0:
361,215,225948,1,0,0:0:0:0:
319,275,226033,1,0,0:0:0:0:
