osu file format v14

[General]
AudioFilename: audio.mp3
AudioLeadIn: 0
PreviewTime: 242507
Countdown: 0
SampleSet: Soft
StackLeniency: 0.7
Mode: 2
LetterboxInBreaks: 0
WidescreenStoryboard: 0

[Editor]
Bookmarks: 11963,27615,46398,79789,111094,144485,184137,212311,243615,262398,277007,295789,318746,345876
DistanceSpacing: 1
BeatDivisor: 3
GridSize: 32
TimelineZoom: 3.899998

[Metadata]
Title:Kisaragi
TitleUnicode:Kisaragi
Artist:Camellia
ArtistUnicode:かめりあ
Creator:Spectator
Version:Specuu's Parallel Universe
Source:
Tags:integertempest ajamez jemzuu electronic instrumental artcore fa featured artist KamelCamellia Cametek u.u.f.o uufo ctcd-0021 ctcd-0022 ctb international cup ctbi7 vii grand finals gf grandfinals tiebreaker tb Masaya Oya j-core jcore hardcore edm
BeatmapID:3169318
BeatmapSetID:1550926

[Difficulty]
HPDrainRate:4
CircleSize:4.2
OverallDifficulty:10
ApproachRate:10
SliderMultiplier:2
SliderTickRate:2

[Events]
//Background and Video events
0,0,"kisaragi.jpg",0,0
//Break Periods
2,169729,171035
2,173902,175209
2,178076,179383
2,204163,210557
2,285876,290122
//Storyboard Layer 0 (Background)
//Storyboard Layer 1 (Fail)
//Storyboard Layer 2 (Pass)
//Storyboard Layer 3 (Foreground)
//Storyboard Layer 4 (Overlay)
//Storyboard Sound Samples

[TimingPoints]
3616,260.869565217391,4,2,5,60,1,0
3681,-100,4,2,5,45,0,0
6224,-100,4,2,5,50,0,0
7137,-100,4,2,5,55,0,0
7789,-100,4,2,5,60,0,0
7855,-100,4,2,5,45,0,0
9355,-100,4,2,5,50,0,0
10268,-100,4,2,5,55,0,0
10920,-100,4,2,5,60,0,0
11963,-100,4,2,2,60,0,0
12224,-100,4,2,1,60,0,0
27615,-100,4,2,1,50,0,0
28137,-100,4,2,1,55,0,0
28659,-100,4,2,10,70,0,0
29181,-100,4,2,1,60,0,0
29702,-37.037037037037,4,2,1,60,0,0
31789,-100,4,2,1,60,0,0
32833,-100,4,2,4,60,0,0
32963,-100,4,2,1,60,0,0
33876,-37.037037037037,4,2,1,60,0,0
35442,-100,4,2,1,60,0,0
38050,-35.0877192982456,4,2,1,70,0,0
40137,-37.037037037037,4,2,1,70,0,0
40920,-100,4,2,1,70,0,0
41442,-100,4,2,4,70,0,0
41572,-100,4,2,1,70,0,0
42224,-37.037037037037,4,2,1,70,0,0
44311,-83.3333333333333,4,2,1,70,0,0
44702,-40,4,2,1,70,0,0
45094,-40,4,2,1,75,0,0
45876,-125,4,2,1,70,0,0
46398,-100,4,2,3,70,0,0
46529,-100,4,2,1,70,0,0
51615,-100,4,2,1,75,0,0
54224,-29.4117647058824,4,2,1,75,0,0
54746,-100,4,2,1,75,0,0
58920,-100,4,2,1,80,0,0
59181,-90.9090909090909,4,2,1,80,0,0
59442,-83.3333333333333,4,2,1,80,0,0
59702,-76.9230769230769,4,2,1,80,0,0
59963,-71.4285714285714,4,2,1,80,0,0
60224,-66.6666666666667,4,2,1,80,0,0
60485,-83.3333333333333,4,2,1,80,0,0
60746,-100,4,2,1,80,0,0
62050,-133.333333333333,4,2,2,80,0,0
63094,-100,4,2,11,70,0,1
63159,-100,4,2,1,70,0,1
66094,-100,4,2,2,70,0,1
67137,-100,4,2,1,70,0,1
70920,-76.9230769230769,4,2,1,70,0,1
71050,-100,4,2,1,70,0,1
71115,-76.9230769230769,4,2,1,70,0,1
71246,-100,4,2,1,70,0,1
71702,-100,4,2,11,70,0,1
71768,-100,4,2,1,70,0,1
74442,-100,4,2,2,70,0,1
74702,-100,4,2,2,70,0,1
75615,-100,4,2,1,70,0,1
78746,-100,4,2,2,60,0,1
79724,-100,4,2,1,60,0,0
79789,-100,4,2,3,70,0,1
79920,-100,4,2,1,70,0,1
82789,-100,4,2,2,70,0,1
83833,-100,4,2,1,70,0,1
86311,-90.9090909090909,4,2,1,70,0,1
87876,-100,4,2,1,70,0,1
88137,-100,4,2,3,70,0,1
88202,-100,4,2,1,70,0,1
91398,-100,4,2,2,70,0,1
92311,-100,4,2,1,70,0,1
93355,-95.2380952380952,4,2,1,70,0,1
93550,-100,4,2,1,70,0,1
93615,-95.2380952380952,4,2,1,70,0,1
93876,-100,4,2,1,70,0,1
94529,-90.9090909090909,4,2,1,70,0,1
96485,-38.4615384615385,4,2,1,60,0,0
97007,-100,4,2,1,60,0,0
97072,-100,4,2,99,60,0,0
97268,-100,4,2,1,60,0,0
97398,-100,4,2,99,60,0,0
97463,-100,4,2,1,60,0,0
97529,-100,4,2,99,60,0,0
97659,-100,4,2,99,60,0,0
97789,-100,4,1,1,60,0,0
97855,-100,4,2,1,60,0,0
97920,-100,4,2,99,60,0,0
98050,-100,4,2,1,60,0,0
98181,-100,4,2,99,60,0,0
98311,-100,4,2,3,60,0,0
98572,-100,4,2,10,70,0,0
98833,-100,4,2,1,60,0,0
98963,-100,4,2,10,70,0,0
99224,-100,4,2,1,60,0,0
99355,-100,4,2,10,70,0,0
99616,-100,4,2,1,60,0,0
99746,-100,4,2,10,70,0,0
99876,-100,4,2,1,60,0,0
100007,-100,4,2,10,70,0,0
100137,-100,4,2,1,60,0,0
100659,-37.037037037037,4,2,1,60,0,0
100789,-100,4,2,1,60,0,0
101181,-100,4,2,99,60,0,0
101507,-100,4,2,1,60,0,0
101572,-100,4,2,99,60,0,0
101637,-100,4,2,99,60,0,0
101702,-100,4,2,1,60,0,0
101898,-100,4,2,99,60,0,0
102094,-100,4,2,1,60,0,0
102355,-100,4,2,99,60,0,0
102485,-100,4,2,3,60,0,0
102746,-100,4,2,10,70,0,0
103007,-100,4,2,1,60,0,0
103137,-100,4,2,10,70,0,0
103398,-100,4,2,1,60,0,0
103529,-100,4,2,10,70,0,0
103790,-100,4,2,1,60,0,0
103920,-100,4,2,10,70,0,0
104050,-100,4,2,1,60,0,0
104181,-100,4,2,10,70,0,0
104311,-100,4,2,1,60,0,0
104833,-41.6666666666667,4,2,1,60,0,0
104963,-100,4,2,1,60,0,0
105355,-100,4,2,99,60,0,0
105420,-100,4,2,1,60,0,0
105485,-100,4,2,99,60,0,0
105615,-100,4,2,1,60,0,0
105648,-100,4,2,99,60,0,0
105811,-100,4,2,1,60,0,0
105876,-100,4,2,99,60,0,0
106007,-100,4,2,1,60,0,0
106137,-100,4,2,99,60,0,0
106398,-100,4,2,1,60,0,0
106463,-100,4,2,99,60,0,0
106659,-100,4,2,3,60,0,0
106920,-100,4,2,10,70,0,0
107181,-100,4,2,1,60,0,0
107311,-100,4,2,10,70,0,0
107572,-100,4,2,1,60,0,0
107703,-100,4,2,10,70,0,0
107964,-100,4,2,1,60,0,0
108094,-100,4,2,10,70,0,0
108224,-100,4,2,1,60,0,0
108355,-100,4,2,10,70,0,0
108485,-100,4,2,1,60,0,0
109007,-37.037037037037,4,2,1,60,0,0
109137,-100,4,2,1,60,0,0
109529,-100,4,2,99,60,0,0
109659,-100,4,2,1,60,0,0
109789,-100,4,2,99,60,0,0
110050,-100,4,2,1,60,0,0
110311,-100,4,2,99,60,0,0
110442,-100,4,2,1,60,0,0
110702,-100,4,2,3,60,0,0
110833,-100,4,2,4,60,0,0
111094,-100,4,2,3,60,0,0
115268,-100,4,2,1,60,0,0
117355,-100,4,2,1,75,0,0
118398,-117.647058823529,4,2,2,60,0,0
119181,-117.647058823529,4,2,2,75,0,0
119442,-83.3333333333333,4,2,2,70,0,1
119702,-83.3333333333333,4,2,1,70,0,1
119963,-83.3333333333333,4,2,2,70,0,1
120746,-83.3333333333333,4,2,1,70,0,1
121007,-83.3333333333333,4,2,2,70,0,1
121529,-44.6428571428571,4,2,1,70,0,1
121724,-83.3333333333333,4,2,1,70,0,1
122050,-83.3333333333333,4,2,2,70,0,1
123615,-83.3333333333333,4,2,1,70,0,1
124137,-83.3333333333333,4,2,2,70,0,1
124789,-83.3333333333333,4,2,1,70,0,1
125181,-83.3333333333333,4,2,2,70,0,1
125702,-44.6428571428571,4,2,1,70,0,1
125898,-83.3333333333333,4,2,1,70,0,1
126224,-83.3333333333333,4,2,2,70,0,1
128050,-83.3333333333333,4,2,1,70,0,1
128311,-83.3333333333333,4,2,2,70,0,1
129029,-83.3333333333333,4,2,1,70,0,1
129355,-83.3333333333333,4,2,2,70,0,1
129876,-83.3333333333333,4,2,2,70,0,1
130007,-83.3333333333333,4,2,1,70,0,1
130398,-83.3333333333333,4,2,2,70,0,1
131963,-83.3333333333333,4,2,1,70,0,1
132485,-83.3333333333333,4,2,2,70,0,1
133072,-83.3333333333333,4,2,1,70,0,1
133529,-83.3333333333333,4,2,2,70,0,1
134246,-83.3333333333333,4,2,1,70,0,1
134442,-83.3333333333333,4,2,2,70,0,1
135289,-83.3333333333333,4,2,1,70,0,1
136268,-83.3333333333333,4,2,1,70,0,0
143963,-100,4,2,11,60,0,0
144224,-100,4,2,12,60,0,0
144485,-100,4,2,5,60,0,0
146702,-100,4,2,5,30,0,0
146768,-100,4,2,5,60,0,0
146963,-100,4,2,5,30,0,0
147029,-100,4,2,5,60,0,0
147224,-100,4,2,5,30,0,0
147290,-100,4,2,5,60,0,0
147485,-100,4,2,5,30,0,0
147551,-100,4,2,5,60,0,0
147648,-100,4,2,5,35,0,0
147746,-100,4,2,5,60,0,0
148007,-100,4,2,5,30,0,0
148073,-100,4,2,5,60,0,0
148268,-100,4,2,5,30,0,0
148334,-100,4,2,5,60,0,0
148659,-100,4,2,5,65,0,0
148985,-100,4,2,5,35,0,0
149115,-100,4,2,5,65,0,0
149246,-100,4,2,5,35,0,0
149376,-100,4,2,5,65,0,0
149507,-100,4,2,5,35,0,0
149637,-100,4,2,5,65,0,0
150029,-100,4,2,5,35,0,0
150159,-100,4,2,5,65,0,0
150289,-100,4,2,5,35,0,0
150419,-100,4,2,5,65,0,0
150550,-100,4,2,5,35,0,0
150680,-100,4,2,5,50,0,0
151007,-100,4,2,5,55,0,0
151268,-100,4,2,5,60,0,0
151529,-100,4,2,5,65,0,0
151789,-100,4,2,10,70,0,0
152311,-100,4,2,2,60,0,0
152442,-100,4,2,6,60,0,0
152833,-100,4,2,1,65,0,1
152963,-100,4,2,7,65,0,1
153094,-100,4,2,5,65,0,1
153355,-90.9090909090909,4,2,6,65,0,1
154920,-90.9090909090909,4,2,8,65,0,1
155442,-90.9090909090909,4,2,6,65,0,1
156746,-90.9090909090909,4,2,4,65,0,1
157007,-90.9090909090909,4,2,1,65,0,1
157137,-90.9090909090909,4,2,7,65,0,1
157268,-90.9090909090909,4,2,5,65,0,1
157529,-43.4782608695652,4,2,9,65,0,1
157659,-90.9090909090909,4,2,9,65,0,1
158050,-43.4782608695652,4,2,9,65,0,1
158181,-90.9090909090909,4,2,9,65,0,1
158572,-90.9090909090909,4,2,1,65,0,1
159224,-90.9090909090909,4,2,7,65,0,1
159355,-90.9090909090909,4,2,11,65,0,1
159615,-43.4782608695652,4,2,9,65,0,1
159746,-90.9090909090909,4,2,9,65,0,1
160137,-43.4782608695652,4,2,9,65,0,1
160268,-90.9090909090909,4,2,9,65,0,1
160659,-90.9090909090909,4,2,1,65,0,1
160920,-90.9090909090909,4,2,4,65,0,1
161050,-90.9090909090909,4,2,7,65,0,1
161181,-90.9090909090909,4,2,1,65,0,1
161311,-90.9090909090909,4,2,8,65,0,1
161442,-90.9090909090909,4,2,1,65,0,1
161702,-90.9090909090909,4,2,6,65,0,1
163268,-90.9090909090909,4,2,8,65,0,1
163789,-90.9090909090909,4,2,6,65,0,1
164833,-90.9090909090909,4,2,1,65,0,1
165094,-90.9090909090909,4,2,5,65,0,1
165355,-90.9090909090909,4,2,7,65,0,1
165615,-90.9090909090909,4,2,8,65,0,1
165876,-43.4782608695652,4,2,9,65,0,1
166007,-90.9090909090909,4,2,9,65,0,1
166398,-43.4782608695652,4,2,9,65,0,1
166529,-90.9090909090909,4,2,9,65,0,1
166920,-90.9090909090909,4,2,1,65,0,1
167181,-90.9090909090909,4,2,6,65,0,1
167246,-90.9090909090909,4,2,1,65,0,1
167442,-90.9090909090909,4,2,7,68,0,1
167963,-90.9090909090909,4,2,1,71,0,1
168224,-86.9565217391304,4,2,7,71,0,1
168485,-86.9565217391304,4,2,1,74,0,1
168615,-86.9565217391304,4,2,7,74,0,1
168746,-90.9090909090909,4,2,1,74,0,1
168876,-90.9090909090909,4,2,9,74,0,1
169007,-100,4,2,1,60,0,0
169268,-100,4,2,2,60,0,0
169529,-100,4,2,5,60,0,0
175920,-76.9230769230769,4,2,1,40,0,0
176442,-100,4,2,1,40,0,0
177876,-100,4,2,5,40,0,0
179963,-111.111111111111,4,2,1,40,0,0
180094,-100,4,2,1,40,0,0
182050,-100,4,2,5,40,0,0
182181,-100,4,2,5,35,0,0
182572,-100,4,2,5,40,0,0
182833,-100,4,2,5,45,0,0
183224,-100,4,2,5,50,0,0
183485,-100,4,2,5,55,0,0
183746,-100,4,2,5,57,0,0
184137,-100,4,2,6,65,0,0
184202,-100,4,2,1,65,0,0
184268,-100,4,2,6,65,0,0
184333,-100,4,2,1,65,0,0
184529,-100,4,2,6,65,0,0
184594,-100,4,2,1,65,0,0
184660,-100,4,2,6,65,0,0
184725,-100,4,2,1,65,0,0
184920,-100,4,2,6,65,0,0
184985,-100,4,2,1,65,0,0
185051,-100,4,2,6,65,0,0
185116,-100,4,2,1,65,0,0
185311,-100,4,2,6,65,0,0
185637,-100,4,2,1,20,0,0
186224,-100,4,2,1,40,0,0
201876,-100,4,2,1,42,0,0
202268,-100,4,2,1,44,0,0
202529,-100,4,2,1,46,0,0
202789,-100,4,2,1,50,0,0
202920,-100,4,2,1,60,0,0
202985,-100,4,2,1,20,0,0
203050,-100,4,2,1,60,0,0
203115,-100,4,2,1,20,0,0
203181,-100,4,2,1,60,0,0
203246,-100,4,2,1,20,0,0
203311,-100,4,2,1,60,0,0
203376,-100,4,2,1,20,0,0
203442,-100,4,2,4,40,0,0
203702,-100,4,2,6,40,0,0
203963,-100,4,2,1,65,0,0
211007,-100,4,2,1,25,0,0
211268,-100,4,2,1,30,0,0
211659,-100,4,2,1,40,0,0
212311,-37.037037037037,4,2,1,65,0,0
214398,-90.9090909090909,4,2,1,65,0,0
215442,-100,4,2,1,65,0,0
215702,-100,4,2,3,65,0,0
216485,-36.3636363636364,4,2,1,65,0,0
217529,-100,4,2,1,65,0,0
218050,-100,4,2,1,50,0,0
218572,-100,4,2,4,55,0,0
221963,-100,4,2,98,55,0,0
222094,-100,4,2,4,55,0,0
222746,-100,4,2,4,60,0,0
224833,-100,4,2,4,63,0,0
225355,-100,4,2,98,63,0,0
225485,-100,4,2,4,63,0,0
225876,-100,4,2,1,63,0,0
226398,-100,4,2,2,65,0,0
226920,-100,4,2,1,65,0,0
231094,-100,4,2,1,70,0,0
233181,-100,4,2,1,73,0,0
233702,-90.9090909090909,4,2,1,75,0,0
234224,-90.9090909090909,4,2,1,75,0,0
235268,-204.081632653061,4,2,3,65,0,0
235333,-204.081632653061,4,2,3,5,0,0
237355,-100,4,2,2,45,0,0
237876,-100,4,2,2,50,0,0
238398,-100,4,2,2,55,0,0
238920,-100,4,2,2,60,0,0
239442,-100,4,2,2,50,0,0
240485,-100,4,2,2,55,0,0
241529,-100,4,2,2,60,0,0
242050,-100,4,2,2,63,0,0
242963,-100,4,2,4,66,0,0
243094,-86.9565217391304,4,2,4,68,0,0
243355,-100,4,2,4,70,0,0
243615,-83.3333333333333,4,2,2,75,0,1
243746,-83.3333333333333,4,2,1,75,0,1
244137,-83.3333333333333,4,2,2,75,0,1
244789,-83.3333333333333,4,2,1,75,0,1
245181,-83.3333333333333,4,2,2,75,0,1
245702,-83.3333333333333,4,2,1,75,0,1
246224,-83.3333333333333,4,2,2,75,0,1
247789,-83.3333333333333,4,2,1,75,0,1
248311,-83.3333333333333,4,2,2,75,0,1
249029,-83.3333333333333,4,2,1,75,0,1
249355,-83.3333333333333,4,2,2,75,0,1
249876,-41.6666666666667,4,2,1,75,0,1
250072,-83.3333333333333,4,2,1,75,0,1
250398,-83.3333333333333,4,2,2,75,0,1
251442,-41.6666666666667,4,2,2,75,0,1
251572,-83.3333333333333,4,2,2,75,0,1
251637,-41.6666666666667,4,2,2,75,0,1
251768,-83.3333333333333,4,2,2,75,0,1
251963,-83.3333333333333,4,2,1,75,0,1
252224,-83.3333333333333,4,2,2,75,0,1
252355,-83.3333333333333,4,2,1,75,0,1
252485,-83.3333333333333,4,2,2,75,0,1
253007,-41.6666666666667,4,2,2,75,0,1
253137,-83.3333333333333,4,2,1,75,0,1
253529,-83.3333333333333,4,2,2,75,0,1
254181,-83.3333333333333,4,2,1,75,0,1
254311,-83.3333333333333,4,2,2,75,0,1
254572,-83.3333333333333,4,2,2,75,0,1
255094,-41.6666666666667,4,2,2,75,0,1
255224,-83.3333333333333,4,2,2,75,0,1
255289,-41.6666666666667,4,2,2,75,0,1
255420,-83.3333333333333,4,2,2,75,0,1
256137,-83.3333333333333,4,2,1,75,0,1
256659,-83.3333333333333,4,2,2,75,0,1
257181,-83.3333333333333,4,2,1,75,0,1
257702,-83.3333333333333,4,2,2,75,0,1
258224,-41.6666666666667,4,2,1,75,0,1
258420,-83.3333333333333,4,2,1,75,0,1
258746,-83.3333333333333,4,2,2,75,0,1
259268,-83.3333333333333,4,2,1,75,0,1
260311,-83.3333333333333,4,2,2,75,0,1
260702,-100,4,2,1,75,0,0
262398,-90.9090909090909,4,2,2,75,0,1
262529,-90.9090909090909,4,2,1,75,0,1
263702,-100,4,2,1,75,0,1
263963,-90.9090909090909,4,2,1,75,0,1
264094,-100,4,2,1,75,0,1
264159,-83.3333333333333,4,2,1,75,0,1
264289,-100,4,2,1,75,0,1
264485,-90.9090909090909,4,2,1,75,0,1
265007,-83.3333333333333,4,2,1,75,0,1
265529,-90.9090909090909,4,2,1,75,0,1
268333,-83.3333333333333,4,2,1,75,0,1
268463,-90.9090909090909,4,2,1,75,0,1
268659,-35.7142857142857,4,2,1,75,0,1
268855,-90.9090909090909,4,2,1,75,0,1
268920,-100,4,2,4,60,0,0
270485,-81.9672131147541,4,2,4,65,0,0
270746,-83.3333333333333,4,2,1,80,0,1
271137,-83.3333333333333,4,2,2,80,0,1
272833,-83.3333333333333,4,2,1,75,0,1
274398,-83.3333333333333,4,2,1,80,0,1
274920,-100,4,2,1,60,0,0
275963,-100,4,2,1,62,0,0
276159,-100,4,2,1,65,0,0
276355,-83.3333333333333,4,2,4,70,0,0
277007,-33.3333333333333,4,2,4,60,0,0
277333,-100,4,2,1,60,0,0
277398,-100,4,2,98,60,0,0
277463,-100,4,2,1,60,0,0
277789,-100,4,2,98,60,0,0
277854,-100,4,2,1,60,0,0
278050,-100,4,2,98,60,0,0
278115,-100,4,2,1,60,0,0
278442,-100,4,2,98,60,0,0
278507,-100,4,2,1,60,0,0
278833,-100,4,2,98,60,0,0
278898,-100,4,2,1,60,0,0
279615,-100,4,2,4,60,0,0
279746,-100,4,2,1,60,0,0
280137,-100,4,2,4,60,0,0
280268,-100,4,2,1,60,0,0
280529,-100,4,2,4,60,0,0
281181,-33.3333333333333,4,2,4,60,0,0
281507,-100,4,2,1,60,0,0
281572,-100,4,2,98,60,0,0
281637,-100,4,2,1,60,0,0
281963,-100,4,2,98,60,0,0
282028,-100,4,2,1,60,0,0
282224,-100,4,2,98,60,0,0
282289,-100,4,2,1,60,0,0
282616,-100,4,2,98,60,0,0
282681,-100,4,2,1,60,0,0
283007,-100,4,2,98,60,0,0
283072,-100,4,2,1,60,0,0
283789,-100,4,2,4,60,0,0
283920,-100,4,2,1,60,0,0
284311,-100,4,2,4,60,0,0
284442,-100,4,2,1,60,0,0
284833,-100,4,2,4,60,0,0
284963,-100,4,2,1,60,0,0
285355,-100,4,2,11,60,0,0
290572,-100,4,2,1,50,0,0
290833,-100,4,2,1,53,0,0
291094,-100,4,2,1,56,0,0
291355,-100,4,2,1,60,0,0
291615,-100,4,2,10,75,0,0
291681,-100,4,2,1,35,0,0
291746,-100,4,2,10,75,0,0
291811,-100,4,2,1,35,0,0
292007,-100,4,2,10,75,0,0
292073,-100,4,2,1,35,0,0
292138,-100,4,2,10,75,0,0
292203,-100,4,2,1,35,0,0
292398,-100,4,2,10,75,0,0
292464,-100,4,2,1,35,0,0
292529,-100,4,2,10,75,0,0
292594,-100,4,2,1,35,0,0
292789,-100,4,2,10,75,0,0
292855,-100,4,2,1,35,0,0
293050,-100,4,2,10,75,0,0
293116,-100,4,2,1,35,0,0
293181,-100,4,2,10,75,0,0
293246,-100,4,2,1,35,0,0
293355,-100,4,2,10,75,0,0
293441,-100,4,2,1,35,0,0
293529,-100,4,2,10,75,0,0
293615,-100,4,2,1,35,0,0
293702,-100,4,2,1,70,0,0
294485,-100,4,2,1,60,0,0
295268,-86.9565217391304,4,2,1,60,0,0
295529,-95.2380952380952,4,2,1,65,0,0
295789,-90.9090909090909,4,2,2,85,0,1
295920,-90.9090909090909,4,2,1,85,0,1
299050,-90.9090909090909,4,2,2,85,0,1
299963,-90.9090909090909,4,2,2,85,0,1
300094,-90.9090909090909,4,2,1,85,0,1
302050,-83.3333333333333,4,2,1,85,0,1
304137,-83.3333333333333,4,2,2,85,0,1
304202,-83.3333333333333,4,2,1,85,0,1
304333,-90.9090909090909,4,2,1,85,0,1
307398,-90.9090909090909,4,2,2,85,0,1
308311,-38.4615384615385,4,2,1,85,0,1
309355,-90.9090909090909,4,2,1,85,0,1
310398,-90.9090909090909,4,2,2,75,0,0
310920,-90.9090909090909,4,2,6,75,0,0
311181,-90.9090909090909,4,2,3,75,0,0
311442,-90.9090909090909,4,2,2,75,0,0
311963,-90.9090909090909,4,2,6,75,0,0
312094,-90.9090909090909,4,2,7,75,0,0
312224,-90.9090909090909,4,2,2,75,0,0
313007,-90.9090909090909,4,2,6,75,0,0
313137,-90.9090909090909,4,2,2,75,0,0
314050,-90.9090909090909,4,2,6,75,0,0
314181,-90.9090909090909,4,2,7,75,0,0
314311,-90.9090909090909,4,2,4,75,0,0
314572,-90.9090909090909,4,2,1,75,0,0
315615,-90.9090909090909,4,2,1,80,0,0
316659,-90.9090909090909,4,2,1,85,0,0
317702,-90.9090909090909,4,2,10,70,0,0
318224,-90.9090909090909,4,2,10,75,0,0
318746,-86.9565217391304,4,2,1,65,0,1
319007,-100,4,2,10,65,0,1
319268,-83.3333333333333,4,2,6,65,0,1
320833,-83.3333333333333,4,2,8,65,0,1
321355,-83.3333333333333,4,2,6,65,0,1
322659,-83.3333333333333,4,2,4,65,0,1
322920,-83.3333333333333,4,2,1,65,0,1
323050,-83.3333333333333,4,2,7,65,0,1
323181,-83.3333333333333,4,2,5,65,0,1
323442,-43.4782608695652,4,2,9,65,0,1
323637,-83.3333333333333,4,2,9,65,0,1
323963,-43.4782608695652,4,2,9,65,0,1
324159,-83.3333333333333,4,2,9,65,0,1
324485,-83.3333333333333,4,2,1,65,0,1
325007,-83.3333333333333,4,2,8,65,0,1
325333,-83.3333333333333,4,2,7,65,0,1
325528,-83.3333333333333,4,2,9,65,0,1
325529,-43.4782608695652,4,2,9,65,0,1
325724,-83.3333333333333,4,2,9,65,0,1
326050,-43.4782608695652,4,2,9,65,0,1
326246,-83.3333333333333,4,2,9,65,0,1
326572,-83.3333333333333,4,2,1,65,0,1
326833,-83.3333333333333,4,2,4,65,0,1
326963,-83.3333333333333,4,2,7,65,0,1
327094,-83.3333333333333,4,2,1,65,0,1
327224,-83.3333333333333,4,2,8,65,0,1
327355,-83.3333333333333,4,2,1,65,0,1
327615,-83.3333333333333,4,2,6,65,0,1
329181,-83.3333333333333,4,2,8,65,0,1
329702,-83.3333333333333,4,2,6,65,0,1
330746,-83.3333333333333,4,2,1,65,0,1
331007,-83.3333333333333,4,2,5,65,0,1
331268,-83.3333333333333,4,2,7,65,0,1
331528,-83.3333333333333,4,2,8,65,0,1
331789,-43.4782608695652,4,2,9,65,0,1
331985,-83.3333333333333,4,2,9,65,0,1
332311,-43.4782608695652,4,2,9,65,0,1
332507,-83.3333333333333,4,2,9,65,0,1
332833,-83.3333333333333,4,2,1,65,0,1
333094,-83.3333333333333,4,2,6,65,0,1
333159,-83.3333333333333,4,2,1,65,0,1
333355,-83.3333333333333,4,2,7,65,0,1
333420,-83.3333333333333,4,2,1,65,0,1
333746,-83.3333333333333,4,2,7,65,0,1
333811,-83.3333333333333,4,2,1,65,0,1
334137,-83.3333333333333,4,2,7,65,0,1
334202,-83.3333333333333,4,2,1,65,0,1
334529,-83.3333333333333,4,2,7,65,0,1
334594,-83.3333333333333,4,2,1,65,0,1
334920,-83.3333333333333,4,2,4,65,0,1
335181,-83.3333333333333,4,2,2,65,0,1
335442,-83.3333333333333,4,2,2,65,0,1
336942,-83.3333333333333,4,2,2,70,0,0
337659,-83.3333333333333,4,2,2,70,0,0
341115,-43.4782608695652,4,2,2,70,0,0
341833,-83.3333333333333,4,2,2,70,0,0
342029,-83.3333333333333,4,2,2,70,0,0
343398,-83.3333333333333,4,2,1,70,0,0
343529,-83.3333333333333,4,2,11,85,0,1
343594,-83.3333333333333,4,2,1,15,0,0
345876,-83.3333333333333,4,2,2,70,0,0

[Colours]
Combo1 : 151,132,138
Combo2 : 240,123,132
Combo3 : 240,225,123

[HitObjects]
256,235,11963,6,0,L|254:28,1,200,4|2,0:1|0:0,0:0:0:0:
127,27,12355,1,2,0:0:0:0:
254,35,12485,2,0,L|268:348,1,300,2|2,0:0|0:0,0:0:0:0:
317,346,12942,1,2,0:0:0:0:
367,350,13007,5,2,0:0:0:0:
371,260,13137,1,2,0:0:0:0:
252,222,13268,1,2,0:0:0:0:
371,168,13398,1,2,0:0:0:0:
182,139,13659,1,2,0:0:0:0:
179,55,13789,1,2,0:0:0:0:
292,39,13920,1,2,0:0:0:0:
68,46,14050,5,2,0:0:0:0:
61,136,14181,1,2,0:0:0:0:
55,230,14311,1,2,0:0:0:0:
261,315,14442,2,0,L|148:339,1,100,2|2,0:0|0:0,0:0:0:0:
404,360,14963,6,0,L|436:307,2,50,2|2|2,0:0|0:0|0:0,0:0:0:0:
296,242,15224,1,2,0:0:0:0:
406,362,15355,1,2,0:0:0:0:
285,149,15485,2,0,L|92:76,1,200,2|2,0:0|0:0,0:0:0:0:
217,32,15876,1,2,0:0:0:0:
100,78,16007,1,2,0:0:0:0:
332,64,16137,5,2,0:0:0:0:
214,104,16268,1,2,0:0:0:0:
168,212,16398,1,2,0:0:0:0:
214,104,16529,1,2,0:0:0:0:
332,64,16659,1,2,0:0:0:0:
354,327,17050,5,2,0:0:0:0:
304,331,17115,1,2,0:0:0:0:
254,335,17180,1,2,0:0:0:0:
361,263,17311,1,2,0:0:0:0:
472,243,17442,1,2,0:0:0:0:
356,164,17572,2,0,L|141:129,1,200,2|2,0:0|0:0,0:0:0:0:
285,102,17963,1,2,0:0:0:0:
285,102,18094,1,2,0:0:0:0:
62,189,18224,5,2,0:0:0:0:
180,229,18355,1,2,0:0:0:0:
226,337,18485,1,2,0:0:0:0:
180,229,18616,1,2,0:0:0:0:
62,189,18746,1,2,0:0:0:0:
49,87,19137,6,0,L|118:75,1,50,2|2,0:0|0:0,0:0:0:0:
156,62,19268,2,0,L|37:42,2,100,2|2|2,0:0|0:0|0:0,0:0:0:0:
286,66,19659,2,0,L|300:271,1,200,2|2,0:0|0:0,0:0:0:0:
359,281,19985,1,2,0:0:0:0:
385,214,20050,1,2,0:0:0:0:
359,281,20115,1,2,0:0:0:0:
299,265,20181,1,2,0:0:0:0:
238,265,20246,6,0,L|47:246,1,150,2|2,0:0|0:0,0:0:0:0:
210,184,20572,1,2,0:0:0:0:
210,184,20702,1,2,0:0:0:0:
75,271,20833,2,0,L|69:62,1,200,2|0,0:0|0:0,0:0:0:0:
69,71,21224,6,0,L|152:62,1,50,2|2,0:0|0:0,0:0:0:0:
180,61,21355,2,0,L|70:43,2,100,2|2|2,0:0|0:0|0:0,0:0:0:0:
309,143,21746,2,0,L|108:192,1,200,2|2,0:0|0:0,0:0:0:0:
226,251,22137,1,2,0:0:0:0:
445,308,22268,1,2,0:0:0:0:
448,179,22529,6,0,L|332:171,2,100,2|2|2,0:0|0:0|0:0,0:0:0:0:
324,51,22920,2,0,P|202:77|192:238,1,300,2|2,0:0|0:0,0:0:0:0:
236,252,23376,1,2,0:0:0:0:
288,260,23442,6,0,L|395:257,2,100,2|2|2,0:0|0:0|0:0,0:0:0:0:
166,334,23833,2,0,L|158:128,1,200,2|2,0:0|0:0,0:0:0:0:
41,104,24224,1,2,0:0:0:0:
160,135,24355,1,2,0:0:0:0:
293,95,24485,5,2,0:0:0:0:
160,135,24615,1,2,0:0:0:0:
111,239,24746,1,2,0:0:0:0:
160,135,24876,1,2,0:0:0:0:
293,95,25007,1,2,0:0:0:0:
326,234,25398,6,0,L|245:244,1,50,2|2,0:0|0:0,0:0:0:0:
334,272,25529,2,0,L|446:284,2,100,2|2|2,0:0|0:0|0:0,0:0:0:0:
209,368,25920,2,0,L|409:330,1,200,2|2,0:0|0:0,0:0:0:0:
184,178,26311,1,2,0:0:0:0:
289,188,26442,1,2,0:0:0:0:
174,88,26572,5,2,0:0:0:0:
296,117,26702,1,2,0:0:0:0:
345,221,26833,1,2,0:0:0:0:
296,117,26963,1,2,0:0:0:0:
174,88,27094,1,2,0:0:0:0:
376,50,27485,2,2,L|310:48,1,50
98,259,27615,5,2,1:3:0:0:
72,216,27680,1,2,1:3:0:0:
92,169,27746,1,2,1:3:0:0:
148,156,27811,1,2,1:3:0:0:
343,75,27876,2,2,L|256:73,1,50,2|2,1:3|1:3,0:3:0:0:
147,70,28007,2,2,L|60:68,1,50,2|2,1:3|1:3,0:3:0:0:
364,156,28137,5,2,1:3:0:0:
420,169,28202,1,2,1:3:0:0:
440,216,28268,1,2,1:3:0:0:
414,259,28333,1,2,1:3:0:0:
241,254,28398,2,2,L|230:349,1,50,2|2,1:3|1:3,0:3:0:0:
408,335,28529,2,2,L|397:430,1,50,2|2,1:3|1:3,0:3:0:0:
235,303,28659,5,8,1:1:0:0:
15,245,28789,1,8,1:1:0:0:
235,303,28920,1,8,1:1:0:0:
15,245,29050,1,8,1:1:0:0:
129,203,29181,2,2,L|143:117,7,50
405,18,29702,6,0,B|141:74|141:74|140:73|140:73|28:319|28:319|27:318|27:318|139:72|139:72|139:72|139:72|27:318,1,1082.47749219749,10|0,1:3|0:0,0:0:0:0:
405,366,30355,2,0,B|141:310|141:310|140:311|140:311|22:53,1,541.298867142851,10|0,1:3|0:0,0:0:0:0:
139,72,30746,6,0,B|403:16|403:16|403:16|403:16|403:286|403:286|403:286|403:286|403:16|403:16|403:16|403:16|403:16|403:16|403:286,1,1080.00002728983,10|0,1:3|0:0,0:0:0:0:
51,235,31398,1,8,1:3:0:0:
377,169,31594,1,8,1:3:0:0:
51,235,31789,6,0,P|73:155|217:113,1,200,10|0,1:3|0:0,0:0:0:0:
379,205,32181,2,0,L|166:205,1,200,10|0,1:3|0:0,0:0:0:0:
386,114,32572,2,0,L|508:114,1,100,10|0,1:3|0:0,0:0:0:0:
186,307,32833,6,0,P|131:275|207:187,1,200,4|0,0:3|0:0,0:0:0:0:
302,139,33224,1,0,0:0:0:0:
183,98,33355,1,2,0:0:0:0:
110,97,33442,1,2,0:0:0:0:
183,98,33529,1,2,0:0:0:0:
360,95,33615,1,2,0:0:0:0:
360,95,33746,1,2,0:0:0:0:
98,18,33876,6,0,B|362:74|362:74|363:73|363:73|475:319|475:319|476:318|476:318|364:72|364:72|364:72|364:72|476:318,1,1082.47749219749,10|0,1:3|0:0,0:0:0:0:
98,366,34529,2,0,B|362:310|362:310|363:311|363:311|481:53,1,541.298867142851,10|0,1:3|0:0,0:0:0:0:
359,92,34920,6,0,B|95:34|95:34|95:34|95:34|125:169|95:302|95:302|95:302|95:302|95:32|95:32|95:32|95:32|95:302,1,1080.10229634669,10|0,1:3|0:0,0:0:0:0:
359,92,35572,1,8,1:3:0:0:
95,301,35768,1,8,1:3:0:0:
359,92,35963,6,0,P|414:115|499:243,1,200,10|0,1:3|0:0,0:0:0:0:
256,194,36355,2,0,L|256:-23,1,200,10|0,1:3|0:0,0:0:0:0:
23,74,36746,1,8,1:3:0:0:
349,78,36942,1,8,1:3:0:0:
23,74,37137,6,0,L|23:375,1,300,10|2,1:3|0:0,0:0:0:0:
86,352,37615,1,2,0:0:0:0:
149,330,37702,1,2,0:0:0:0:
337,242,37789,1,2,0:0:0:0:
268,219,37876,1,2,0:0:0:0:
91,162,37963,1,2,0:0:0:0:
304,152,38050,6,0,B|19:153|19:153|19:152|19:152|71:285|71:285|126:154|126:154|125:152|125:152|71:285|71:285|19:153|19:153|19:152|19:152|71:285|71:285|125:152,1,1144.02267371896,10|0,1:3|0:0,0:0:0:0:
409,152,38702,2,0,B|124:153|124:153|124:152|124:152|176:285|176:285|237:138,1,570.937501636315,10|0,1:3|0:0,0:0:0:0:
496,36,39094,6,0,B|211:36|211:36|211:36|211:36|211:321|211:321|211:321|211:321|211:36|211:36|211:36|211:36|211:36|211:36|211:321,1,1140.0000190258,10|0,1:3|0:0,0:0:0:0:
416,219,39746,1,8,1:3:0:0:
96,219,39942,1,8,1:3:0:0:
430,29,40137,6,0,B|160:28|160:28|160:28|160:28|160:331,1,540.000008178249,10|0,1:3|0:0,0:0:0:0:
430,29,40529,2,0,B|160:28|160:28|160:28|160:28|160:331,1,540.000008178249,10|0,1:3|0:0,0:0:0:0:
430,29,40920,6,0,B|430:130|430:130|254:248,1,300,10|0,1:3|0:0,0:0:0:0:
379,239,41442,1,4,0:3:0:0:
379,239,41572,1,0,0:0:0:0:
239,242,41702,1,2,0:0:0:0:
172,242,41789,1,2,0:0:0:0:
239,242,41876,1,2,0:0:0:0:
337,240,41963,1,2,0:0:0:0:
337,145,42094,1,2,0:0:0:0:
70,52,42224,6,0,B|334:108|334:108|335:107|335:107|447:353|447:353|448:352|448:352|336:106|336:106|336:106|336:106|448:352,1,1082.47749219749,10|0,1:3|0:0,0:0:0:0:
71,358,42876,2,0,B|335:302|335:302|336:303|336:303|454:45,1,541.298867142851,10|0,1:3|0:0,0:0:0:0:
69,160,43268,6,0,B|334:212|334:212|334:212|334:212|334:347|334:347|332:212|332:212|334:212|334:212|334:347|334:347|333:217|333:217|340:160|334:85|334:85|333:241,1,1080.00000411987,10|0,1:3|0:0,0:0:0:0:
67,108,43920,1,8,1:3:0:0:
337,101,44115,1,8,1:3:0:0:
37,106,44311,6,0,B|37:226|37:226|179:227,1,239.999992675781,10|0,1:3|0:0,0:0:0:0:
373,69,44702,2,0,B|373:320|373:320|83:317,1,500,10|0,1:3|0:0,0:0:0:0:
474,166,45094,1,8,1:3:0:0:
282,168,45289,1,8,1:3:0:0:
474,166,45485,1,8,1:3:0:0:
31,164,45681,1,8,1:3:0:0:
474,73,45876,6,0,L|474:340,1,240,2|0,1:3|0:0,0:0:0:0:
165,355,46398,6,0,L|279:342,1,100,6|0,1:1|0:0,0:0:0:0:
135,242,46659,2,0,L|3:222,1,100,0|0,1:3|0:0,0:0:0:0:
170,168,46920,2,0,L|175:54,1,100,0|0,1:3|0:0,0:0:0:0:
308,59,47181,2,0,L|314:-48,1,100,0|0,1:3|0:0,0:0:0:0:
177,22,47442,5,0,1:3:0:0:
408,77,47572,2,0,L|414:201,1,100,0|0,0:0|1:3,0:0:0:0:
295,189,47833,1,0,0:0:0:0:
168,262,47963,2,0,L|301:277,1,100,0|0,1:3|0:0,0:0:0:0:
136,359,48224,2,0,L|26:366,1,100,0|0,1:3|0:0,0:0:0:0:
172,320,48485,6,0,L|177:186,1,100,0|0,1:3|0:0,0:0:0:0:
314,186,48746,2,0,L|325:67,1,100,0|0,1:3|0:0,0:0:0:0:
183,68,49007,1,0,1:3:0:0:
323,36,49137,2,0,L|329:146,1,100,0|0,0:0|1:3,0:0:0:0:
455,169,49398,1,0,0:0:0:0:
211,249,49529,6,0,L|75:269,1,100,0|0,1:3|0:0,0:0:0:0:
249,332,49789,2,0,L|358:324,1,100,0|0,1:3|0:0,0:0:0:0:
218,148,50050,2,0,L|105:144,1,100,0|0,1:3|0:0,0:0:0:0:
322,71,50311,2,0,L|332:189,1,100,0|0,1:3|0:0,0:0:0:0:
104,31,50572,6,0,L|214:37,1,100,0|0,1:3|0:0,0:0:0:0:
68,104,50833,2,0,L|60:225,1,100,0|0,1:3|0:0,0:0:0:0:
200,258,51094,2,0,L|83:271,1,100,0|0,1:3|0:0,0:0:0:0:
237,329,51355,2,0,L|377:338,1,100,0|0,1:3|0:0,0:0:0:0:
108,369,51615,5,0,1:3:0:0:
235,354,51746,2,0,L|241:220,1,100,0|0,0:0|1:3,0:0:0:0:
367,206,52007,1,0,0:0:0:0:
239,155,52137,2,0,L|123:150,1,100,0|0,1:3|0:0,0:0:0:0:
271,72,52398,2,0,L|377:63,1,100,0|0,1:3|0:0,0:0:0:0:
143,31,52659,6,0,L|-3:35,1,100,0|0,1:3|0:0,0:0:0:0:
159,116,52920,1,2,1:1:0:0:
286,200,53050,2,0,L|160:211,1,100,0|2,0:1|1:1,0:0:0:0:
301,290,53311,1,0,0:0:0:0:
79,364,53442,2,0,L|72:256,1,100,2|0,1:1|0:1,0:0:0:0:
292,124,53702,6,0,L|168:120,1,100,2|0,1:1|0:1,0:0:0:0:
415,56,53963,1,2,1:1:0:0:
189,42,54094,1,0,0:1:0:0:
425,206,54224,6,0,B|363:48|363:48|306:209|306:209|325:22|325:22|359:180|359:180|394:19|394:19|424:181|424:181|65:191,1,1360.00002593994,2|6,1:1|1:1,0:0:0:0:
67,305,54876,1,0,0:1:0:0:
298,328,55007,1,2,1:1:0:0:
182,341,55137,1,0,0:1:0:0:
401,348,55268,1,2,1:1:0:0:
405,251,55398,1,0,0:1:0:0:
181,204,55529,1,2,1:1:0:0:
302,201,55659,2,0,L|306:125,1,50,0|0,1:1|1:0,1:0:0:0:
125,77,55789,6,0,L|17:81,1,100,2|0,1:1|0:1,0:0:0:0:
263,24,56050,2,0,L|135:19,1,100,2|0,1:1|0:1,0:0:0:0:
391,91,56311,1,2,1:1:0:0:
449,102,56376,2,0,L|469:157,2,50,0|0|0,0:0|1:1|1:0,0:0:0:0:
258,246,56572,1,2,1:1:0:0:
368,307,56702,2,0,L|293:310,1,50,0|0,1:1|1:0,1:0:0:0:
141,361,56833,6,0,L|261:362,1,100,2|0,1:1|2:1,0:0:0:0:
28,297,57094,2,0,L|23:171,1,100,2|0,1:1|2:1,0:0:0:0:
243,138,57355,1,2,1:1:0:0:
124,97,57485,2,0,L|179:95,1,50,0|0,1:1|1:0,1:0:0:0:
356,58,57615,1,2,1:1:0:0:
249,25,57746,2,2,L|169:21,1,50,2|2,1:2|1:2,1:2:0:0:
383,176,57876,6,0,L|503:173,1,100,2|0,1:1|1:1,0:0:0:0:
257,296,58137,1,2,1:1:0:0:
372,353,58268,2,0,L|290:356,1,50,0|0,1:1|1:0,1:0:0:0:
147,203,58398,1,2,1:1:0:0:
32,260,58529,2,0,L|114:263,1,50,0|0,1:1|1:0,1:0:0:0:
272,186,58659,2,2,L|274:126,1,50,2|2,1:2|1:2,1:2:0:0:
205,131,58789,2,2,L|202:66,1,50,2|2,1:2|1:2,1:2:0:0:
400,40,58920,6,0,L|280:44,1,100,2|0,1:1|1:1,0:0:0:0:
81,268,59181,2,0,L|196:265,1,110.000003356934,2|0,1:1|1:1,0:0:0:0:
428,345,59442,2,0,L|282:342,1,119.999996337891,2|0,1:1|1:1,0:0:0:0:
45,136,59702,2,0,L|181:128,1,129.999994049073,2|0,1:1|1:1,0:0:0:0:
449,52,59963,6,0,L|304:30,1,139.999995727539,2|0,1:1|1:1,0:0:0:0:
20,31,60224,2,0,L|174:2,1,150.000005722046,2|0,1:1|1:1,0:0:0:0:
434,228,60485,2,2,L|468:175,2,59.9999981689454,2|2|2,1:2|1:2|1:2,1:2:0:0:
382,234,60681,1,2,1:2:0:0:
211,293,60746,2,2,L|149:294,1,50,2|2,1:2|1:2,1:2:0:0:
221,311,60876,2,2,L|299:308,1,50,2|2,1:2|1:2,1:2:0:0:
84,343,61007,6,0,L|56:294,2,50,10|0|0,1:3|1:1|1:1,0:0:0:0:
222,360,61202,1,0,1:1:0:0:
81,295,61268,2,0,L|42:255,2,50,10|0|0,1:3|1:1|1:1,0:0:0:0:
236,329,61463,1,0,1:1:0:0:
81,231,61529,6,0,L|26:215,2,50,10|0|0,1:3|1:1|1:1,0:0:0:0:
256,296,61724,1,0,1:1:0:0:
82,166,61789,2,0,L|-9:157,2,50,10|0|0,1:3|1:1|1:1,0:0:0:0:
278,262,61985,1,0,1:1:0:0:
471,44,62050,6,0,P|347:81|486:275,1,450.000017166138,4|0,1:3|0:0,0:0:0:0:
235,364,63094,5,12,1:2:0:0:
342,264,63224,2,0,L|276:250,1,50,0|0,0:0|0:0,0:0:0:0:
114,142,63355,2,0,L|240:135,1,100,2|0,1:3|0:0,0:0:0:0:
430,49,63615,1,2,1:3:0:0:
212,31,63746,1,0,0:0:0:0:
433,144,63876,2,0,L|328:150,1,100,2|2,1:3|0:0,0:0:0:0:
100,260,64137,6,0,L|153:286,1,50,2|0,1:3|0:0,0:0:0:0:
205,288,64268,1,2,0:0:0:0:
439,348,64398,2,0,L|301:347,1,100,2|2,1:3|0:0,0:0:0:0:
119,165,64659,1,2,1:3:0:0:
243,169,64789,2,0,L|248:98,1,50,2|0,0:0|0:0,0:0:0:0:
60,53,64920,2,0,L|165:41,1,100,2|0,1:3|0:0,0:0:0:0:
396,101,65181,5,2,1:3:0:0:
159,78,65311,1,0,0:0:0:0:
400,134,65442,2,0,L|293:147,1,100,2|0,1:3|0:0,0:0:0:0:
54,299,65702,2,0,L|175:312,1,100,2|0,1:3|0:0,0:0:0:0:
393,333,65963,1,2,1:3:0:0:
155,340,66094,1,2,0:1:0:0:
394,298,66224,5,2,1:3:0:0:
159,251,66355,1,2,0:1:0:0:
394,195,66485,2,0,L|512:191,1,100,2|0,1:1|0:0,0:0:0:0:
251,128,66746,1,2,1:1:0:0:
489,114,66876,1,2,1:1:0:0:
242,100,67007,1,2,1:1:0:0:
490,74,67137,2,0,L|425:72,1,50,2|2,1:3|1:3,0:0:0:0:
223,27,67268,6,0,L|335:29,1,100,2|0,1:3|0:0,0:0:0:0:
120,165,67529,2,0,L|7:168,1,100,2|0,1:3|0:0,0:0:0:0:
252,262,67789,2,0,L|182:280,1,50,2|0,1:3|0:0,0:0:0:0:
143,269,67920,1,0,0:0:0:0:
367,340,68050,2,0,L|485:346,1,100,2|2,1:3|0:0,0:0:0:0:
249,282,68311,5,2,1:3:0:0:
468,247,68442,1,2,0:0:0:0:
239,172,68572,2,0,L|356:167,1,100,2|2,1:3|0:0,0:0:0:0:
116,86,68833,2,0,L|6:93,1,100,2|2,1:3|0:0,0:0:0:0:
243,65,69094,1,2,1:3:0:0:
18,93,69224,1,0,0:0:0:0:
259,155,69355,6,0,L|199:178,1,50,2|2,1:3|0:0,0:0:0:0:
155,177,69485,1,0,0:0:0:0:
367,257,69615,1,2,1:3:0:0:
143,330,69746,2,0,L|217:335,1,50,0|0,0:0|0:0,0:0:0:0:
368,38,69876,2,0,L|308:61,1,50,2|0,1:3|0:0,0:0:0:0:
264,60,70006,1,0,0:0:0:0:
466,148,70137,2,0,L|473:220,1,50,2|0,1:3|0:0,0:0:0:0:
301,302,70268,2,0,L|292:397,1,50,0|0,0:0|0:0,0:0:0:0:
128,205,70398,6,0,L|188:228,1,50,2|0,1:3|0:0,0:0:0:0:
232,227,70528,1,0,0:0:0:0:
119,315,70659,2,0,L|53:319,1,50,8|0,1:3|0:0,0:0:0:0:
207,360,70789,1,2,1:3:0:0:
348,369,70855,1,2,1:3:0:0:
186,255,70920,6,0,L|26:227,1,129.999994049073,8|0,1:3|0:0,0:0:0:0:
289,97,71115,2,0,L|443:85,1,129.999994049073,8|0,1:3|0:0,0:0:0:0:
204,112,71311,2,0,L|124:114,1,50,8|0,1:3|0:0,0:0:0:0:
421,245,71442,1,0,1:3:0:0:
421,245,71572,1,0,1:3:0:0:
175,215,71702,6,0,L|88:210,1,50,12|0,1:2|0:0,0:0:0:0:
358,145,71833,2,0,L|309:148,1,50,0|0,0:0|0:0,0:0:0:0:
142,88,71963,2,0,L|26:81,1,100,2|0,1:3|0:0,0:0:0:0:
262,42,72224,1,2,1:3:0:0:
39,49,72355,2,0,L|111:49,1,50,2|0,0:0|0:0,0:0:0:0:
270,155,72485,5,2,1:3:0:0:
52,238,72615,1,2,0:0:0:0:
280,258,72746,2,0,L|411:267,1,100,2|2,1:3|0:0,0:0:0:0:
140,346,73007,2,0,L|134:233,1,100,2|2,1:3|0:0,0:0:0:0:
355,137,73268,2,0,L|237:131,1,100,2|0,1:3|0:0,0:0:0:0:
488,55,73529,6,0,L|425:31,1,50,2|0,1:3|0:0,0:0:0:0:
382,35,73659,1,0,0:0:0:0:
166,200,73789,2,0,L|296:200,1,100,2|0,1:3|0:0,0:0:0:0:
38,282,74050,2,0,L|32:172,1,100,2|0,1:3|0:0,0:0:0:0:
266,160,74311,1,2,1:3:0:0:
31,149,74442,2,0,L|105:143,1,50,2|0,1:1|1:2,1:2:0:0:
266,138,74572,6,0,L|268:67,1,50,2|0,1:2|1:2,1:2:0:0:
96,48,74702,2,0,L|168:42,1,50,2|0,1:1|1:2,1:2:0:0:
321,31,74833,2,0,L|259:33,1,50,2|0,1:1|1:2,1:2:0:0:
212,85,74963,2,0,L|285:83,1,50,0|0,1:2|1:2,1:2:0:0:
434,172,75094,6,0,L|494:172,1,50,2|0,1:1|1:2,1:2:0:0:
321,233,75224,2,0,L|318:300,1,50,2|0,1:1|1:2,1:2:0:0:
149,350,75355,2,0,L|246:349,1,50,2|0,1:1|1:2,1:2:0:0:
376,107,75485,2,0,L|290:107,1,50,0|0,1:2|1:2,1:2:0:0:
128,31,75615,6,0,L|257:29,1,100,14|0,1:3|0:0,0:0:0:0:
13,113,75876,1,10,1:3:0:0:
241,176,76007,2,0,L|116:178,1,100,10|0,1:3|0:0,0:0:0:0:
391,247,76268,1,10,1:3:0:0:
131,304,76398,1,10,1:3:0:0:
401,342,76529,6,0,L|505:343,1,100,10|0,1:3|2:0,0:0:0:0:
315,311,76724,2,0,L|310:195,1,100,10|0,1:3|2:0,0:0:0:0:
122,142,76920,2,0,L|247:133,1,100,10|0,1:3|2:0,0:0:0:0:
45,78,77115,2,0,L|17:23,2,50,10|0|0,1:3|0:0|2:0,0:0:0:0:
220,46,77311,2,0,L|151:45,1,50,8|0,1:3|0:0,0:0:0:0:
353,108,77442,2,0,L|424:108,1,50,8|0,1:3|0:0,0:0:0:0:
213,242,77572,2,0,L|143:246,1,50,8|0,1:3|0:0,0:0:0:0:
360,306,77702,6,0,L|472:312,1,100,14|0,1:3|0:0,0:0:0:0:
229,354,77963,1,10,1:3:0:0:
465,253,78094,2,0,L|359:247,1,100,10|0,1:3|0:0,0:0:0:0:
161,117,78355,2,0,L|302:102,1,100,10|0,1:3|2:0,0:0:0:0:
66,35,78550,2,0,L|57:137,1,100,10|0,1:3|2:0,0:0:0:0:
281,191,78746,6,0,L|309:249,2,50,4|2|2,1:3|0:0|0:0,0:0:0:0:
219,184,78942,1,2,0:0:0:0:
336,108,79072,2,2,L|284:94,1,50,2|2,0:0|0:0,0:0:0:0:
227,59,79202,2,2,L|288:49,1,50,2|2,0:0|0:0,0:0:0:0:
390,85,79398,2,2,L|338:71,1,50,2|2,0:0|0:0,0:0:0:0:
281,36,79528,2,2,L|342:26,1,50,2|2,0:0|0:0,0:0:0:0:
182,41,79659,1,0,1:3:0:0:
34,99,79724,1,0,1:3:0:0:
231,140,79789,5,6,1:1:0:0:
361,219,79920,2,0,L|311:213,1,50,0|0,0:0|0:0,0:0:0:0:
112,300,80050,2,0,L|105:172,1,100,10|0,1:3|0:0,0:0:0:0:
367,121,80311,2,0,L|240:136,1,100,2|0,1:3|0:0,0:0:0:0:
26,202,80572,1,10,1:3:0:0:
266,164,80702,6,0,L|143:150,1,100,0|2,0:0|1:3,0:0:0:0:
401,171,80963,2,0,L|395:52,1,100,0|10,0:0|1:3,0:0:0:0:
268,62,81224,1,0,0:0:0:0:
44,146,81355,2,0,L|151:157,1,100,2|0,1:3|0:0,0:0:0:0:
407,250,81615,2,0,L|300:261,1,100,10|0,1:3|0:0,0:0:0:0:
51,326,81876,6,0,L|45:209,1,100,2|0,1:3|0:0,0:0:0:0:
96,224,82072,1,0,0:0:0:0:
286,162,82137,2,0,L|385:151,1,100,10|0,1:3|0:0,0:0:0:0:
258,76,82398,2,0,L|158:65,1,100,2|0,1:3|0:0,0:0:0:0:
392,42,82659,1,10,1:3:0:0:
153,256,82789,6,0,L|147:156,1,100,2|2,0:1|1:3,0:0:0:0:
381,137,83050,1,2,0:1:0:0:
143,71,83181,2,0,L|29:77,1,100,10|0,1:1|0:0,0:0:0:0:
287,163,83442,1,2,1:1:0:0:
44,122,83572,1,2,0:1:0:0:
287,163,83702,2,0,L|423:150,1,100,10|0,1:1|0:0,0:0:0:0:
153,336,83963,5,6,1:3:0:0:
50,311,84094,1,0,0:0:0:0:
179,259,84224,1,2,1:3:0:0:
282,232,84355,1,2,0:0:0:0:
179,259,84485,1,2,1:3:0:0:
409,110,84615,2,0,L|300:123,1,100,0|2,0:0|1:3,0:0:0:0:
87,220,84876,2,0,L|82:142,1,50,2|0,0:0|0:0,0:0:0:0:
313,253,85007,6,0,L|427:238,1,100,2|0,1:3|0:0,0:0:0:0:
183,86,85268,2,0,L|69:71,1,100,2|2,1:3|0:0,0:0:0:0:
340,167,85529,2,0,L|344:61,1,100,0|2,1:3|0:0,0:0:0:0:
89,177,85789,2,0,L|189:186,1,100,0|2,1:3|0:0,0:0:0:0:
432,301,86050,6,2,L|433:214,1,50,2|2,1:2|0:2,0:2:0:0:
255,277,86181,2,0,L|136:266,1,100,2|2,0:2|1:3,0:0:0:0:
444,153,86442,2,0,L|445:66,1,55.0000016784668,2|0,0:1|0:1,0:1:0:0:
254,75,86573,2,0,L|381:86,1,110.000003356934,2|0,1:3|0:0,0:0:0:0:
168,186,86833,2,0,L|47:195,1,110.000003356934,2|2,1:3|0:3,0:3:0:0:
116,191,87029,1,0,0:3:0:0:
329,302,87094,6,0,L|448:289,1,110.000003356934,2|0,1:3|0:0,0:0:0:0:
219,154,87355,2,0,L|338:141,1,110.000003356934,2|0,1:3|0:0,0:0:0:0:
132,299,87615,1,2,1:3:0:0:
403,222,87746,1,0,1:3:0:0:
127,197,87876,2,0,L|-2:213,1,100,2|0,1:3|0:0,0:0:0:0:
303,197,88137,5,6,1:1:0:0:
29,120,88268,2,0,L|25:45,1,50,0|0,0:0|0:0,0:0:0:0:
202,102,88398,2,0,L|333:91,1,100,10|0,1:3|0:0,0:0:0:0:
29,253,88659,2,0,L|27:383,1,100,2|0,1:3|0:0,0:0:0:0:
279,229,88920,1,10,1:3:0:0:
34,255,89050,1,0,0:0:0:0:
279,229,89181,6,0,L|397:220,1,100,2|0,1:3|0:0,0:0:0:0:
132,236,89442,2,0,L|125:115,1,100,10|0,1:3|0:0,0:0:0:0:
371,146,89702,2,0,L|268:146,1,100,2|0,1:3|0:0,0:0:0:0:
375,86,89963,2,0,L|483:86,1,100,10|0,1:3|0:0,0:0:0:0:
125,219,90224,5,2,1:3:0:0:
244,165,90355,2,0,L|302:174,1,50,2|0,1:3|0:0,0:0:0:0:
113,109,90485,2,0,L|10:92,1,100,10|0,1:3|0:0,0:0:0:0:
258,346,90746,2,0,L|263:236,1,100,2|0,1:3|0:0,0:0:0:0:
17,281,91007,1,10,1:3:0:0:
266,160,91137,1,0,0:0:0:0:
17,281,91268,6,0,L|11:165,1,100,2|2,1:3|0:1,0:0:0:0:
252,90,91529,2,0,L|133:73,1,100,10|0,1:1|0:0,0:0:0:0:
407,71,91789,1,2,1:1:0:0:
153,77,91920,1,2,0:1:0:0:
401,35,92050,2,0,L|499:49,1,100,10|0,1:1|0:0,0:0:0:0:
251,155,92311,6,0,L|367:164,1,100,6|0,1:3|0:0,0:0:0:0:
251,155,92572,1,2,1:3:0:0:
465,94,92702,1,2,0:0:0:0:
236,327,92833,2,0,L|99:319,1,100,2|0,1:3|0:0,0:0:0:0:
358,260,93094,1,2,1:3:0:0:
127,199,93224,1,2,0:0:0:0:
362,195,93355,6,0,L|475:197,1,104.999996795654,2|0,1:3|0:0,0:0:0:0:
220,128,93615,1,2,1:3:0:0:
471,102,93746,2,0,L|353:101,1,104.999996795654,2|2,0:0|1:3,0:0:0:0:
94,211,94007,1,0,0:0:0:0:
371,88,94137,1,2,1:3:0:0:
95,121,94268,1,2,1:3:0:0:
440,132,94529,6,0,L|507:126,1,55.0000016784668,12|0,1:3|0:0,0:0:0:0:
323,206,94659,2,0,L|253:211,1,55.0000016784668,0|0,1:3|0:0,0:0:0:0:
69,182,94920,2,0,L|2:176,1,55.0000016784668,12|0,1:3|0:0,0:0:0:0:
179,255,95050,2,0,L|258:265,1,55.0000016784668,0|0,1:3|0:0,0:0:0:0:
475,279,95311,6,0,L|400:270,1,55.0000016784668,12|0,1:3|0:0,0:0:0:0:
259,126,95442,2,0,L|334:117,1,55.0000016784668,0|0,1:3|0:0,0:0:0:0:
37,279,95702,2,0,L|112:270,1,55.0000016784668,12|0,1:3|0:0,0:0:0:0:
253,126,95833,2,0,L|178:117,1,55.0000016784668,0|0,1:3|0:0,0:0:0:0:
39,194,95963,6,0,L|35:122,1,55.0000016784668,0|0,0:0|0:0,0:0:0:0:
338,230,96094,1,12,1:3:0:0:
152,267,96224,2,0,L|207:276,1,55.0000016784668,0|0,1:0|1:0,0:0:0:0:
429,230,96355,2,0,L|503:243,1,55.0000016784668,0|0,1:0|1:0,0:0:0:0:
306,132,96485,6,0,B|49:169|49:169|319:204,1,519.99997619629,6|6,1:1|1:1,0:0:0:0:
439,348,97007,6,0,L|442:264,1,50,0|0,1:0|1:0,0:0:0:0:
369,267,97137,2,0,L|367:189,2,50,8|0|8,1:0|1:0|0:1,0:0:0:0:
241,134,97398,2,0,L|239:183,1,50,0|8,1:0|0:1,0:0:0:0:
310,187,97529,2,0,L|316:313,1,100,0|8,1:1|1:1,0:0:0:0:
182,254,97789,6,0,L|180:303,1,50,8|0,1:0|0:1,0:0:0:0:
249,325,97920,2,0,L|251:373,2,33.3333333333333,8|0|0,1:0|1:0|1:0,0:0:0:0:
65,286,98050,1,8,0:1:0:0:
65,286,98181,1,8,1:1:0:0:
312,121,98311,1,2,0:3:0:0:
200,170,98442,1,2,0:3:0:0:
479,243,98572,5,10,1:1:0:0:
200,170,98702,1,10,1:1:0:0:
312,121,98833,1,0,0:0:0:0:
33,243,98963,1,10,1:1:0:0:
312,170,99093,1,10,1:1:0:0:
200,121,99224,1,0,0:0:0:0:
479,243,99355,5,10,1:1:0:0:
200,170,99485,1,10,1:1:0:0:
312,121,99616,1,0,0:0:0:0:
33,243,99746,1,10,1:1:0:0:
33,243,99876,1,0,0:0:0:0:
312,121,100007,1,10,1:1:0:0:
33,243,100137,2,0,L|34:119,1,100,0|0,0:0|0:0,0:0:0:0:
254,229,100398,2,0,L|360:231,1,100,8|0,0:1|0:0,0:0:0:0:
87,189,100659,6,0,B|353:139|353:139|54:96,1,540.000002059937,6|2,1:1|1:1,0:0:0:0:
318,226,101181,6,0,L|395:225,2,50,0|0|8,1:0|1:0|1:1,0:0:0:0:
193,219,101442,1,0,1:0:0:0:
156,184,101507,1,8,0:1:0:0:
146,135,101572,1,8,1:1:0:0:
165,89,101637,1,0,1:0:0:0:
208,64,101702,1,8,0:1:0:0:
342,65,101833,6,0,L|348:157,1,50,8|0,0:1|1:0,0:0:0:0:
276,140,101963,2,0,L|264:265,1,100,8|8,1:1|0:1,0:0:0:0:
27,105,102224,2,0,L|142:106,1,100,8|8,0:1|1:1,0:0:0:0:
320,230,102485,1,2,0:3:0:0:
202,281,102616,1,2,0:3:0:0:
479,243,102746,5,10,1:1:0:0:
200,170,102876,1,10,1:1:0:0:
312,121,103007,1,0,0:0:0:0:
33,243,103137,1,10,1:1:0:0:
312,170,103267,1,10,1:1:0:0:
200,121,103398,1,0,0:0:0:0:
479,243,103529,5,10,1:1:0:0:
200,170,103659,1,10,1:1:0:0:
312,121,103790,1,0,0:0:0:0:
33,243,103920,1,10,1:1:0:0:
33,243,104050,1,0,0:0:0:0:
312,121,104181,1,10,1:1:0:0:
33,243,104311,2,0,L|28:123,1,100,0|0,0:0|0:0,0:0:0:0:
154,160,104572,2,0,L|149:40,1,100,8|0,0:1|0:0,0:0:0:0:
393,63,104833,6,0,B|153:62|153:62|420:63,1,479.999985351563,6|2,1:1|1:1,0:0:0:0:
219,151,105355,6,0,L|149:151,2,50,0|8|8,1:0|0:1|1:1,0:0:0:0:
340,183,105615,2,0,L|337:143,4,25,8|0|0|0|0,2:1|1:0|1:0|1:0|1:0,0:0:0:0:
394,119,105811,1,8,0:1:0:0:
456,76,105876,6,0,L|460:181,1,100,8|8,1:1|0:1,0:0:0:0:
333,237,106137,2,0,L|329:342,1,100,0|8,1:0|1:0,0:0:0:0:
62,314,106398,2,0,L|180:314,1,100,8|8,0:1|1:0,0:0:0:0:
377,168,106659,2,0,L|260:167,1,100,2|2,0:3|0:3,0:3:0:0:
33,243,106920,5,10,1:1:0:0:
312,170,107050,1,10,1:1:0:0:
200,121,107181,1,0,0:0:0:0:
479,243,107311,1,10,1:1:0:0:
200,170,107441,1,10,1:1:0:0:
312,121,107572,1,0,0:0:0:0:
33,243,107702,5,10,1:1:0:0:
312,170,107833,1,10,1:1:0:0:
200,121,107964,1,0,0:0:0:0:
479,243,108094,1,10,1:1:0:0:
479,243,108224,1,0,0:0:0:0:
200,121,108355,1,10,1:1:0:0:
479,243,108485,2,0,L|478:126,1,100,0|0,0:0|0:0,0:0:0:0:
219,41,108746,2,0,L|350:41,1,100,8|0,0:1|0:0,0:0:0:0:
52,163,109007,6,0,B|319:126|319:126|11:94,1,540.000002059937,6|2,1:1|1:1,0:0:0:0:
256,343,109529,5,0,1:0:0:0:
365,311,109659,1,8,0:1:0:0:
256,343,109789,1,0,1:0:0:0:
147,308,109919,1,0,1:0:0:0:
403,232,110050,2,0,L|407:123,1,100,8|8,0:1|0:1,0:0:0:0:
163,55,110311,2,0,L|262:62,1,100,0|8,1:0|0:1,0:0:0:0:
41,206,110572,1,8,0:1:0:0:
263,135,110702,1,2,0:3:0:0:
469,208,110833,2,0,L|469:27,1,150,4|0,0:3|0:0,0:0:0:0:
196,33,111094,5,6,3:0:0:0:
294,52,111224,1,2,0:0:0:0:
333,140,111354,1,2,0:0:0:0:
291,227,111485,1,2,0:0:0:0:
197,250,111615,1,2,0:0:0:0:
311,276,111746,1,2,0:0:0:0:
100,353,111876,2,0,L|95:239,1,100,2|0,0:0|0:0,0:0:0:0:
321,113,112137,5,2,0:3:0:0:
208,109,112268,1,2,0:0:0:0:
164,22,112398,1,2,0:0:0:0:
208,109,112529,1,2,0:0:0:0:
331,199,112659,2,0,L|226:205,1,100,2|0,0:0|0:0,0:0:0:0:
458,281,112920,2,2,L|467:157,1,100,2|2,0:0|0:0,0:0:0:0:
212,106,113181,5,2,0:3:0:0:
328,101,113312,1,2,0:0:0:0:
374,14,113442,1,2,0:0:0:0:
328,101,113573,1,2,0:0:0:0:
201,191,113703,2,2,L|309:197,1,100,2|2,0:0|0:0,0:0:0:0:
74,286,113963,6,0,L|66:175,1,100,2|2,0:3|0:0,0:0:0:0:
203,169,114224,2,2,L|206:54,1,100,2|2,0:0|0:0,0:0:0:0:
426,31,114485,2,0,L|323:24,1,100,2|2,0:3|0:0,0:0:0:0:
200,108,114746,2,0,L|309:91,1,100,2|2,0:3|0:0,0:0:0:0:
76,253,115007,2,0,L|66:121,1,100,2|2,0:3|0:0,0:0:0:0:
320,116,115268,5,8,1:3:0:0:
268,118,115333,1,0,1:3:0:0:
227,146,115398,1,0,1:3:0:0:
212,192,115463,1,0,1:3:0:0:
229,239,115528,1,8,1:3:0:0:
270,265,115594,1,0,1:3:0:0:
434,287,115659,1,0,1:3:0:0:
485,288,115724,1,0,1:3:0:0:
321,362,115789,6,0,L|260:365,1,50,8|0,1:3|1:3,0:0:0:0:
329,337,115920,2,0,L|392:335,1,50,0|0,1:3|1:3,0:0:0:0:
215,205,116050,2,0,L|154:208,1,50,8|0,1:3|1:3,0:0:0:0:
223,180,116181,2,0,L|286:178,1,50,0|0,1:3|1:3,0:0:0:0:
100,117,116311,5,8,1:3:0:0:
45,114,116376,2,0,L|13:52,2,50,0|0|0,1:3|1:3|1:3,0:0:0:0:
228,100,116572,2,0,L|260:38,2,50,8|0|0,1:3|1:3|1:3,0:0:0:0:
173,102,116768,1,0,1:3:0:0:
353,141,116833,6,0,L|362:206,1,50,8|0,1:3|1:3,0:0:0:0:
291,200,116963,2,0,L|285:264,1,50,0|0,1:3|1:3,0:0:0:0:
106,306,117094,2,0,L|45:311,1,50,8|0,1:3|1:3,0:0:0:0:
259,350,117224,2,0,L|330:352,1,50,0|0,1:3|1:3,0:0:0:0:
73,187,117355,5,8,1:3:0:0:
389,144,117485,1,8,1:3:0:0:
463,59,117746,5,8,1:3:0:0:
77,61,117876,1,8,1:3:0:0:
32,199,118137,5,8,1:3:0:0:
472,272,118268,1,8,1:3:0:0:
357,342,118398,6,0,P|313:319|477:59,1,510.000009727478,4|8,1:3|0:3,0:0:0:0:
155,207,119442,6,0,P|183:150|285:96,1,179.999994506836,4|0,1:1|0:0,0:0:0:0:
132,194,119702,1,10,1:3:0:0:
28,263,119833,1,0,0:0:0:0:
315,276,119963,6,0,L|376:270,1,59.9999981689454,2|0,1:1|0:0,0:0:0:0:
233,263,120094,2,0,L|228:192,1,59.9999981689454,2|0,0:1|0:0,0:0:0:0:
89,175,120224,2,0,L|162:162,1,59.9999981689454,2|0,1:1|0:0,0:0:0:0:
324,114,120355,2,0,L|388:109,1,59.9999981689454,2|0,0:1|0:0,0:0:0:0:
185,381,120485,6,0,P|166:315|284:301,1,179.999994506836,2|0,1:1|0:0,0:0:0:0:
61,267,120746,1,10,1:3:0:0:
48,135,120876,1,0,0:0:0:0:
263,82,121007,2,0,L|198:64,1,59.9999981689454,2|0,1:1|0:0,0:0:0:0:
367,24,121137,2,0,L|432:7,1,59.9999981689454,2|0,0:1|0:0,0:0:0:0:
256,192,121268,2,0,L|247:107,1,59.9999981689454,2|0,1:1|0:0,0:0:0:0:
442,129,121398,2,0,L|513:143,1,59.9999981689454,2|0,0:1|0:0,0:0:0:0:
263,284,121529,6,0,B|41:258|41:258|99:158,1,336.000004101563,6|0,1:3|0:0,0:0:0:0:
304,107,121789,1,10,1:3:0:0:
179,92,121920,1,0,0:0:0:0:
386,43,122050,2,0,L|453:62,1,59.9999981689454,2|2,1:1|2:0,0:0:0:0:
285,194,122181,2,0,L|357:214,1,59.9999981689454,2|2,2:1|2:0,0:0:0:0:
189,318,122311,2,0,L|105:318,1,59.9999981689454,2|0,1:1|0:0,0:0:0:0:
343,353,122442,2,0,L|351:252,1,59.9999981689454,2|0,0:1|0:0,0:0:0:0:
119,195,122572,6,0,L|265:137,1,119.999996337891,2|0,1:1|0:0,0:0:0:0:
414,62,122768,2,0,L|285:12,1,119.999996337891,2|0,0:1|0:0,0:0:0:0:
103,38,122963,2,0,L|190:25,1,59.9999981689454,2|0,0:1|0:0,0:0:0:0:
414,62,123094,2,0,L|424:193,1,119.999996337891,2|0,1:1|0:0,0:0:0:0:
259,209,123289,2,0,L|254:332,1,119.999996337891,2|0,0:1|0:0,0:0:0:0:
88,348,123485,2,0,L|-3:347,1,59.9999981689454,2|0,0:1|0:0,0:0:0:0:
225,338,123615,6,0,P|299:326|266:221,1,179.999994506836,6|0,1:3|0:0,0:0:0:0:
113,191,123876,1,10,1:3:0:0:
330,143,124007,1,0,0:0:0:0:
111,86,124137,2,0,L|36:72,1,59.9999981689454,2|0,1:1|0:0,0:0:0:0:
221,94,124268,2,0,L|223:28,1,59.9999981689454,2|0,0:1|0:0,0:0:0:0:
386,26,124398,2,0,L|449:26,1,59.9999981689454,2|0,1:1|0:0,0:0:0:0:
271,220,124529,2,0,L|262:139,1,59.9999981689454,2|0,0:1|0:0,0:0:0:0:
427,326,124659,6,0,P|385:268|250:255,1,179.999994506836,2|0,1:1|0:0,0:0:0:0:
472,177,124920,1,10,1:3:0:0:
250,138,125050,1,0,0:0:0:0:
25,81,125181,2,0,L|92:96,1,59.9999981689454,2|0,1:1|0:0,0:0:0:0:
243,49,125311,2,0,L|179:72,1,59.9999981689454,2|0,0:1|0:0,0:0:0:0:
360,109,125442,2,0,L|375:179,1,59.9999981689454,2|0,1:1|0:0,0:0:0:0:
185,218,125572,2,0,L|175:295,1,59.9999981689454,2|0,0:1|0:0,0:0:0:0:
356,349,125702,6,0,B|131:322|131:322|205:228,1,336.000004101563,6|0,1:3|0:0,0:0:0:0:
379,229,125963,1,10,1:3:0:0:
138,135,126094,1,0,0:0:0:0:
380,143,126224,2,0,L|446:131,1,59.9999981689454,10|0,1:1|0:0,0:0:0:0:
238,55,126355,2,0,L|173:35,1,59.9999981689454,2|0,1:1|0:0,0:0:0:0:
379,40,126485,2,0,L|313:25,1,59.9999981689454,10|0,1:1|0:0,0:0:0:0:
107,246,126615,2,0,L|95:167,1,59.9999981689454,2|0,1:1|0:0,0:0:0:0:
351,295,126746,6,0,L|493:347,1,119.999996337891,10|0,1:1|2:0,0:0:0:0:
263,331,126942,2,0,L|142:371,1,119.999996337891,10|0,1:1|2:0,0:0:0:0:
337,277,127137,2,0,L|346:186,1,59.9999981689454,10|0,1:1|0:0,0:0:0:0:
158,45,127268,6,0,L|276:1,1,119.999996337891,10|0,1:1|2:0,0:0:0:0:
473,138,127463,2,0,L|339:120,1,119.999996337891,10|0,1:1|2:0,0:0:0:0:
166,265,127659,2,0,L|107:264,1,59.9999981689454,10|0,1:1|0:0,0:0:0:0:
283,335,127789,1,0,1:3:0:0:
31,366,127920,1,0,1:3:0:0:
354,238,128050,6,0,L|476:236,1,119.999996337891,14|0,1:3|0:0,0:0:0:0:
265,180,128311,2,0,L|259:104,1,59.9999981689454,2|0,1:1|0:0,0:0:0:0:
440,114,128442,2,0,L|444:45,1,59.9999981689454,2|0,0:1|0:0,0:0:0:0:
283,18,128572,2,0,L|280:91,1,59.9999981689454,2|0,1:1|0:0,0:0:0:0:
113,141,128702,2,0,L|28:145,1,59.9999981689454,2|0,0:1|0:0,0:0:0:0:
250,264,128833,6,0,P|325:278|337:373,1,179.999994506836,2|0,1:1|0:0,0:0:0:0:
54,342,129094,1,10,1:3:0:0:
273,380,129224,1,0,0:0:0:0:
46,312,129355,2,0,L|41:242,1,59.9999981689454,2|0,1:1|0:0,0:0:0:0:
226,201,129485,2,0,L|160:179,1,59.9999981689454,2|0,0:1|0:0,0:0:0:0:
358,115,129615,2,0,L|430:99,1,59.9999981689454,2|0,1:1|0:0,0:0:0:0:
171,22,129746,2,0,L|112:26,1,59.9999981689454,2|0,0:1|0:0,0:0:0:0:
353,216,129876,5,2,1:1:0:0:
387,347,130007,1,0,1:3:0:0:
233,274,130072,1,0,1:3:0:0:
79,285,130137,5,14,1:3:0:0:
72,179,130268,2,0,L|151:188,1,59.9999981689454
370,342,130398,2,0,L|371:261,1,59.9999981689454,2|0,1:1|0:0,0:0:0:0:
150,107,130529,2,0,L|73:99,1,59.9999981689454,2|0,0:1|0:0,0:0:0:0:
378,174,130659,2,0,L|309:164,1,59.9999981689454,2|0,1:1|0:0,0:0:0:0:
129,283,130789,2,0,L|125:210,1,59.9999981689454,2|0,0:1|0:0,0:0:0:0:
374,65,130920,6,0,L|385:203,1,119.999996337891,10|0,1:1|2:0,0:0:0:0:
213,185,131115,2,0,L|202:317,1,119.999996337891,10|0,1:1|2:0,0:0:0:0:
27,291,131311,2,0,L|93:282,1,59.9999981689454,10|0,1:1|0:0,0:0:0:0:
274,124,131442,6,0,L|152:79,1,119.999996337891,10|0,1:1|2:0,0:0:0:0:
365,300,131637,2,0,L|487:249,1,119.999996337891,10|0,1:1|2:0,0:0:0:0:
288,223,131833,2,0,L|215:230,1,59.9999981689454,10|0,1:1|0:0,0:0:0:0:
450,296,131963,6,0,P|471:227|375:168,1,179.999994506836,2|0,1:3|0:0,0:0:0:0:
175,128,132224,1,14,1:3:0:0:
292,126,132355,1,0,0:0:0:0:
99,280,132485,2,0,L|37:266,1,59.9999981689454,2|0,1:1|0:0,0:0:0:0:
202,325,132615,2,0,L|210:232,1,59.9999981689454,2|0,1:1|0:0,0:0:0:0:
393,250,132746,2,0,L|405:172,1,59.9999981689454,10|0,1:1|0:0,0:0:0:0:
169,99,132876,2,0,L|91:107,1,59.9999981689454,2|0,1:1|0:0,0:0:0:0:
349,46,133007,6,0,L|499:170,1,179.999994506836,2|0,1:1|0:0,0:0:0:0:
304,307,133268,1,14,1:3:0:0:
179,326,133398,1,0,0:0:0:0:
430,355,133529,2,0,L|493:338,1,59.9999981689454,2|0,1:1|0:0,0:0:0:0:
334,241,133659,2,0,L|328:140,1,59.9999981689454,2|0,1:1|0:0,0:0:0:0:
134,120,133789,2,0,L|211:107,1,59.9999981689454,10|0,1:1|0:0,0:0:0:0:
415,38,133920,2,0,L|475:44,1,59.9999981689454,2|0,1:1|0:0,0:0:0:0:
169,206,134050,6,0,P|213:268|310:282,1,179.999994506836,2|2,1:1|0:0,0:0:0:0:
126,354,134311,1,14,1:3:0:0:
18,273,134442,2,0,L|82:266,1,59.9999981689454,2|0,0:1|0:1,0:0:0:0:
236,223,134572,2,0,L|242:141,1,59.9999981689454,2|0,0:1|0:1,0:0:0:0:
438,101,134702,2,0,L|328:92,1,59.9999981689454,2|0,1:1|0:1,0:0:0:0:
164,72,134833,2,0,L|160:0,1,59.9999981689454,10|0,1:1|0:1,0:0:0:0:
361,27,134963,2,0,L|444:29,1,59.9999981689454,2|0,1:1|0:1,0:0:0:0:
188,296,135094,6,0,L|18:370,1,179.999994506836,2|0,1:1|0:0,0:0:0:0:
243,372,135355,1,8,1:3:0:0:
22,367,135485,1,0,1:3:0:0:
170,280,135550,1,8,1:3:0:0:
318,263,135615,2,0,L|324:125,1,119.999996337891,0|8,1:3|1:3,0:0:0:0:
23,115,135811,2,0,L|146:98,1,119.999996337891,0|8,1:3|1:3,0:0:0:0:
335,57,136007,2,0,L|464:72,1,119.999996337891,0|0,1:3|0:0,0:0:0:0:
152,172,136268,6,0,L|25:197,1,119.999996337891,2|0,1:1|0:0,0:0:0:0:
186,261,136463,2,0,L|193:390,1,119.999996337891,2|0,1:1|0:0,0:0:0:0:
352,353,136659,2,0,L|491:333,1,119.999996337891,2|0,1:1|0:0,0:0:0:0:
305,270,136855,2,0,L|297:126,1,119.999996337891,2|0,1:1|0:0,0:0:0:0:
132,97,137050,2,0,L|-6:86,1,119.999996337891,2|0,1:1|0:0,0:0:0:0:
180,34,137246,2,0,L|190:162,1,119.999996337891,2|0,1:1|0:0,0:0:0:0:
362,194,137442,2,0,L|486:212,1,119.999996337891,2|0,1:1|0:0,0:0:0:0:
301,293,137637,2,0,L|155:307,1,119.999996337891,2|0,1:1|0:0,0:0:0:0:
416,354,137833,2,0,L|429:182,1,119.999996337891,2|0,1:1|0:0,0:0:0:0:
235,204,138029,2,0,L|224:72,1,119.999996337891,2|0,1:1|0:0,0:0:0:0:
488,50,138355,6,0,L|356:8,1,119.999996337891,2|0,1:1|0:0,0:0:0:0:
202,206,138550,2,0,L|327:142,1,119.999996337891,2|0,1:1|0:0,0:0:0:0:
133,324,138746,2,0,L|13:271,1,119.999996337891,2|0,1:1|0:0,0:0:0:0:
188,253,138942,2,0,L|314:195,1,119.999996337891,2|0,1:1|0:0,0:0:0:0:
482,139,139137,2,0,L|368:88,1,119.999996337891,2|0,1:1|0:0,0:0:0:0:
196,76,139333,2,0,L|324:29,1,119.999996337891,2|0,1:1|0:0,0:0:0:0:
132,164,139529,2,0,L|10:120,1,119.999996337891,2|0,1:1|0:0,0:0:0:0:
204,264,139724,2,0,L|326:220,1,119.999996337891,2|0,1:1|0:0,0:0:0:0:
106,360,139920,2,0,L|16:353,1,59.9999981689454,2|0,1:1|0:0,0:0:0:0:
231,357,140050,2,0,L|233:287,1,59.9999981689454,2|0,1:1|0:0,0:0:0:0:
419,257,140181,2,0,L|495:244,1,59.9999981689454,2|0,1:1|0:0,0:0:0:0:
217,209,140442,6,0,L|209:52,1,119.999996337891,2|0,1:1|0:0,0:0:0:0:
407,64,140637,2,0,L|258:13,1,119.999996337891,2|0,1:1|0:0,0:0:0:0:
120,266,140833,2,0,L|255:210,1,119.999996337891,2|0,1:1|0:0,0:0:0:0:
42,190,141029,2,0,L|30:53,1,119.999996337891,2|0,1:1|0:0,0:0:0:0:
211,110,141224,2,0,L|91:50,1,119.999996337891,2|0,1:1|0:0,0:0:0:0:
292,154,141420,2,0,L|419:110,1,119.999996337891,2|0,1:1|0:0,0:0:0:0:
237,306,141615,2,0,L|222:175,1,119.999996337891,2|0,1:1|0:0,0:0:0:0:
389,213,141811,2,0,L|254:175,1,119.999996337891,2|0,1:1|0:0,0:0:0:0:
481,172,142007,2,0,L|483:32,1,119.999996337891,2|0,1:1|0:0,0:0:0:0:
287,24,142202,2,0,L|282:160,1,119.999996337891,2|0,1:1|0:0,0:0:0:0:
11,244,142529,6,0,L|143:184,1,119.999996337891,2|0,1:1|0:0,0:0:0:0:
296,336,142724,2,0,L|166:294,1,119.999996337891,2|0,1:1|0:0,0:0:0:0:
367,245,142920,2,0,L|503:186,1,119.999996337891,2|0,1:1|0:0,0:0:0:0:
297,194,143115,2,0,L|283:69,1,119.999996337891,2|0,1:1|0:0,0:0:0:0:
97,60,143311,2,0,L|213:11,1,119.999996337891,2|0,1:1|0:0,0:0:0:0:
401,130,143507,2,4,L|279:87,1,119.999996337891,2|0,1:1|0:0,0:0:0:0:
102,215,143702,2,0,L|14:228,1,59.9999981689454,2|0,1:1|0:0,0:0:0:0:
213,272,143833,2,0,L|224:355,1,59.9999981689454,2|0,1:1|0:0,0:0:0:0:
430,234,143963,5,2,1:3:0:0:
454,238,143995,1,0,0:0:0:0:
475,226,144028,1,0,0:0:0:0:
485,204,144060,1,0,0:0:0:0:
478,180,144093,1,0,0:0:0:0:
458,166,144126,1,0,0:0:0:0:
434,167,144158,1,0,0:0:0:0:
214,122,144224,2,0,L|205:80,6,25,2|0|0|0|0|0|0,0:3|0:0|0:0|0:0|0:0|0:0|0:0,0:0:0:0:
463,71,144485,5,4,1:3:0:0:
463,71,144746,1,0,1:0:0:0:
323,70,145007,1,0,1:0:0:0:
323,70,145268,1,0,1:0:0:0:
183,69,145529,5,0,1:0:0:0:
183,69,145790,1,0,1:0:0:0:
39,66,146051,1,0,1:0:0:0:
39,66,146312,1,0,1:0:0:0:
438,102,146572,6,0,L|452:236,1,100,0|2,1:0|2:0,0:0:0:0:
313,102,146833,2,0,L|327:236,1,100,0|2,1:0|2:0,0:0:0:0:
186,99,147094,2,0,L|200:233,1,100,0|2,1:0|2:0,0:0:0:0:
61,99,147355,2,0,L|75:233,1,100,0|2,1:0|2:0,0:0:0:0:
361,157,147615,6,0,L|397:158,4,25,2|0|0|0|2,1:2|0:0|0:0|0:0|2:0,0:0:0:0:
214,154,147876,2,0,L|92:153,1,100,0|2,1:0|0:0,0:0:0:0:
364,315,148137,2,0,L|486:314,1,100,0|2,1:0|0:0,0:0:0:0:
214,153,148398,2,2,L|202:223,3,50,2|2|2|2,1:2|0:2|0:2|0:2,0:0:0:0:
366,237,148659,6,0,P|420:205|348:111,1,200,4|0,1:3|1:3,0:0:0:0:
256,83,149050,1,2,0:0:0:0:
118,83,149181,2,0,L|118:200,1,100,0|2,1:3|0:0,0:0:0:0:
256,83,149442,2,0,L|365:82,1,100,0|2,1:3|0:0,0:0:0:0:
89,327,149702,6,0,P|35:295|107:201,1,200,0|0,1:3|1:3,0:0:0:0:
199,173,150093,1,2,0:0:0:0:
436,202,150224,2,0,L|436:96,1,100,0|2,1:3|0:0,0:0:0:0:
213,71,150485,2,0,L|333:71,1,100,0|2,1:3|0:0,0:0:0:0:
80,283,150746,5,2,1:2:0:0:
57,232,150811,1,2,0:2:0:0:
78,181,150876,1,2,0:2:0:0:
131,164,150942,1,2,0:2:0:0:
301,172,151007,2,2,L|301:107,1,50,2|2,1:2|0:2,0:0:0:0:
132,64,151137,2,2,L|47:64,1,50,2|2,0:2|0:2,0:0:0:0:
298,332,151268,1,2,1:2:0:0:
353,311,151333,1,2,0:2:0:0:
371,259,151398,1,2,0:2:0:0:
351,207,151463,1,2,0:2:0:0:
122,104,151529,2,2,L|122:186,1,50,2|2,1:2|0:2,0:0:0:0:
358,107,151659,2,2,L|417:105,1,50,2|2,0:2|0:2,0:0:0:0:
56,144,151789,5,10,1:1:0:0:
177,143,151920,1,10,1:1:0:0:
480,141,152050,1,10,1:1:0:0:
177,143,152181,1,10,1:1:0:0:
56,144,152311,1,4,1:3:0:0:
392,351,152442,2,0,L|398:137,1,200,4|0,0:3|0:0,0:0:0:0:
400,60,152833,5,2,1:3:0:0:
263,114,152963,2,0,L|228:123,2,25,2|0|0,0:3|0:0|0:0,0:0:0:0:
442,207,153094,1,10,0:3:0:0:
465,198,153126,1,0,0:0:0:0:
481,179,153159,1,8,0:3:0:0:
486,155,153191,1,0,0:0:0:0:
479,132,153224,1,0,0:3:0:0:
461,115,153257,1,0,0:0:0:0:
437,109,153289,1,8,0:3:0:0:
236,185,153355,6,0,L|81:175,1,110.000003356934,10|0,1:3|0:0,0:0:0:0:
310,102,153550,2,0,L|208:46,1,110.000003356934,10|0,1:3|0:0,0:0:0:0:
405,42,153746,2,0,L|412:114,1,55.0000016784668,10|0,1:3|0:0,0:0:0:0:
200,309,153876,6,0,L|45:299,1,110.000003356934,10|0,1:3|0:0,0:0:0:0:
274,226,154072,2,0,L|172:170,1,110.000003356934,10|0,1:3|0:0,0:0:0:0:
368,166,154267,2,0,L|375:238,1,55.0000016784668,10|0,1:3|0:0,0:0:0:0:
174,268,154398,6,0,L|248:262,1,55.0000016784668,8|0,1:3|0:0,0:0:0:0:
403,319,154529,2,0,L|488:315,1,55.0000016784668,8|0,1:3|0:0,0:0:0:0:
231,353,154659,1,8,1:3:0:0:
102,324,154789,1,8,1:3:0:0:
331,240,154920,5,2,1:3:0:0:
352,226,154952,1,0,0:0:0:0:
359,214,154985,1,0,0:0:0:0:
379,200,155017,1,0,0:0:0:0:
374,176,155050,1,0,0:0:0:0:
395,162,155082,1,0,0:0:0:0:
375,136,155115,1,0,0:0:0:0:
396,122,155147,1,0,0:0:0:0:
363,97,155181,1,0,1:3:0:0:
384,83,155213,1,0,0:0:0:0:
339,68,155246,1,0,0:0:0:0:
359,54,155279,1,0,0:0:0:0:
308,54,155311,1,0,0:0:0:0:
336,39,155343,1,0,0:0:0:0:
284,40,155376,1,0,0:0:0:0:
83,141,155442,6,0,L|222:124,1,110.000003356934,10|0,1:3|0:0,0:0:0:0:
375,323,155637,2,0,L|229:274,1,110.000003356934,10|0,1:3|0:0,0:0:0:0:
468,248,155833,2,0,L|477:185,1,55.0000016784668,10|0,1:3|0:0,0:0:0:0:
276,137,155963,6,0,L|386:150,1,110.000003356934,10|0,1:3|0:0,0:0:0:0:
202,27,156158,2,0,L|98:61,1,110.000003356934,10|0,1:3|0:0,0:0:0:0:
280,223,156354,2,0,L|283:158,1,55.0000016784668,10|0,1:3|0:0,0:0:0:0:
112,155,156485,6,0,L|179:154,1,55.0000016784668,0|0,1:3|1:3,0:0:0:0:
340,75,156615,2,0,L|254:76,1,55.0000016784668,0|0,1:3|1:3,0:0:0:0:
466,214,156746,2,0,L|473:77,1,110.000003356934,10|0,1:3|0:0,0:0:0:0:
146,233,157007,5,2,1:3:0:0:
257,183,157137,2,0,L|291:191,2,27.5000008392334,2|0|0,0:3|0:0|0:0,0:0:0:0:
72,132,157268,1,10,0:3:0:0:
99,127,157300,1,0,0:0:0:0:
126,122,157333,1,8,0:3:0:0:
153,118,157365,1,0,0:0:0:0:
180,113,157398,1,8,0:3:0:0:
207,108,157431,1,0,0:0:0:0:
234,104,157463,1,8,0:3:0:0:
465,232,157529,6,0,L|190:198,1,230.000004386902,10|0,1:3|0:0,0:0:0:0:
45,325,157724,2,0,L|198:304,1,110.000003356934,10|0,1:3|0:0,0:0:0:0:
355,367,157920,2,0,L|355:286,1,55.0000016784668,10|0,1:3|0:0,0:0:0:0:
46,121,158050,6,0,L|321:87,1,230.000004386902,10|0,1:3|0:0,0:0:0:0:
466,214,158245,2,0,L|313:193,1,110.000003356934,10|0,1:3|0:0,0:0:0:0:
156,256,158441,2,0,L|156:175,1,55.0000016784668,10|0,1:3|0:0,0:0:0:0:
360,112,158572,6,0,L|299:112,1,55.0000016784668,8|0,1:3|0:0,0:0:0:0:
100,325,158702,2,0,L|36:325,1,55.0000016784668,8|0,1:3|0:0,0:0:0:0:
257,199,158833,1,8,1:3:0:0:
381,195,158963,1,8,1:3:0:0:
146,106,159094,5,2,1:3:0:0:
265,104,159224,2,0,L|269:140,2,27.5000008392334,2|0|0,0:3|0:0|0:0,0:0:0:0:
100,184,159355,2,8,L|24:181,1,55.0000016784668,10|8,1:3|0:3,0:3:0:0:
221,277,159485,2,8,L|288:275,1,55.0000016784668,8|8,0:3|0:3,0:3:0:0:
460,175,159615,6,0,L|230:183,1,230.000004386902,10|0,1:3|0:0,0:0:0:0:
34,96,159811,2,0,L|187:89,1,110.000003356934,10|0,1:3|0:0,0:0:0:0:
346,126,160007,2,0,L|271:130,1,55.0000016784668,10|0,1:3|0:0,0:0:0:0:
23,253,160137,6,0,L|253:261,1,230.000004386902,10|0,1:3|0:0,0:0:0:0:
449,174,160333,2,0,L|296:167,1,110.000003356934,10|0,1:3|0:0,0:0:0:0:
137,204,160529,2,0,L|212:208,1,55.0000016784668,10|0,1:3|0:0,0:0:0:0:
448,288,160659,6,0,L|448:224,1,55.0000016784668,0|0,1:3|1:3,0:0:0:0:
270,253,160789,2,0,L|324:256,1,55.0000016784668,0|0,1:3|1:3,0:0:0:0:
141,307,160920,1,2,1:3:0:0:
30,286,161050,1,2,0:3:0:0:
320,119,161181,5,2,1:3:0:0:
196,165,161311,2,0,L|156:163,2,27.5000008392334,2|0|0,0:3|0:0|0:0,0:0:0:0:
345,284,161442,1,8,0:3:0:0:
369,269,161474,1,0,0:0:0:0:
384,247,161507,1,0,0:0:0:0:
390,220,161539,1,0,0:0:0:0:
384,194,161572,1,0,0:0:0:0:
367,172,161605,1,0,0:0:0:0:
344,158,161637,1,2,0:0:0:0:
88,320,161702,6,0,P|37:297|18:233,1,110.000003356934,10|0,1:3|0:0,0:0:0:0:
217,154,161898,2,0,P|268:131|287:67,1,110.000003356934,10|0,1:3|0:0,0:0:0:0:
482,165,162094,2,0,L|488:98,1,55.0000016784668,10|0,1:3|0:0,0:0:0:0:
289,338,162224,6,0,P|240:316|218:267,1,110.000003356934,10|0,1:3|0:0,0:0:0:0:
18,151,162420,2,0,P|69:128|88:64,1,110.000003356934,10|0,1:3|0:0,0:0:0:0:
288,83,162615,2,0,L|294:16,1,55.0000016784668,10|0,1:3|0:0,0:0:0:0:
82,234,162746,6,0,L|24:234,1,55.0000016784668,8|0,1:3|0:0,0:0:0:0:
221,175,162876,2,0,L|279:175,1,55.0000016784668,8|0,1:3|0:0,0:0:0:0:
469,270,163007,1,8,1:3:0:0:
345,269,163137,1,8,1:3:0:0:
67,359,163268,1,2,1:3:0:0:
66,331,163300,1,0,0:0:0:0:
66,304,163333,1,0,0:0:0:0:
66,276,163365,1,0,0:0:0:0:
66,249,163398,1,0,0:0:0:0:
51,230,163430,1,0,0:0:0:0:
83,220,163463,1,0,0:0:0:0:
51,230,163496,1,0,0:0:0:0:
83,220,163529,1,0,1:3:0:0:
49,227,163561,1,0,0:0:0:0:
67,106,163593,1,0,0:0:0:0:
67,72,163626,1,0,0:0:0:0:
66,44,163658,1,0,0:0:0:0:
66,17,163691,1,0,0:0:0:0:
66,17,163724,1,0,0:0:0:0:
251,190,163789,6,0,P|302:167|321:103,1,110.000003356934,10|0,1:3|0:0,0:0:0:0:
111,103,163985,2,0,P|60:80|41:16,1,110.000003356934,10|0,1:3|0:0,0:0:0:0:
270,104,164181,2,0,L|270:48,1,55.0000016784668,10|0,1:3|0:0,0:0:0:0:
498,170,164311,6,0,P|476:219|426:240,1,110.000003356934,10|0,1:3|0:0,0:0:0:0:
229,255,164507,2,0,P|250:304|300:325,1,110.000003356934,10|0,1:3|0:0,0:0:0:0:
495,97,164703,2,0,L|495:41,1,55.0000016784668,10|0,1:3|0:0,0:0:0:0:
287,54,164833,6,0,L|205:54,1,55.0000016784668,0|0,1:3|1:3,0:0:0:0:
495,188,164963,2,0,L|425:187,1,55.0000016784668,0|0,1:3|1:3,0:0:0:0:
236,198,165094,1,10,1:3:0:0:
213,191,165126,1,0,0:0:0:0:
204,167,165159,1,0,0:0:0:0:
213,144,165191,1,0,0:0:0:0:
236,139,165224,1,0,0:0:0:0:
299,136,165289,1,0,0:0:0:0:
474,86,165355,6,2,L|511:85,2,27.5000008392334,2|0|0,1:3|0:0|0:0,0:0:0:0:
245,332,165485,2,0,L|211:340,2,27.5000008392334,2|0|0,0:3|0:0|0:0,0:0:0:0:
430,281,165616,1,2,0:3:0:0:
403,276,165648,1,0,0:0:0:0:
376,271,165681,1,0,0:0:0:0:
349,267,165713,1,0,0:0:0:0:
322,262,165746,1,0,0:0:0:0:
295,257,165779,1,0,0:0:0:0:
268,253,165811,1,0,2:0:0:0:
35,143,165876,6,0,L|311:109,1,230.000004386902,10|0,1:3|0:0,0:0:0:0:
463,187,166072,2,0,L|340:172,1,110.000003356934,10|0,1:3|0:0,0:0:0:0:
156,244,166268,2,0,L|252:228,1,55.0000016784668,10|0,1:3|0:0,0:0:0:0:
479,111,166398,6,0,L|203:77,1,230.000004386902,10|0,1:3|0:0,0:0:0:0:
51,155,166594,2,0,L|174:140,1,110.000003356934,10|0,1:3|0:0,0:0:0:0:
358,212,166790,2,0,L|262:196,1,55.0000016784668,10|0,1:3|0:0,0:0:0:0:
46,270,166920,5,8,1:3:0:0:
303,354,167050,1,8,1:3:0:0:
46,270,167181,2,0,L|36:198,3,55.0000016784668,12|0|0|0,1:3|0:0|0:0|0:0,0:0:0:0:
261,128,167442,6,0,L|179:128,1,55.0000016784668,4|0,1:3|1:3,0:0:0:0:
31,85,167572,2,0,L|113:83,1,55.0000016784668,0|0,1:3|1:3,0:0:0:0:
264,32,167703,1,8,1:3:0:0:
478,234,167833,2,0,L|480:161,1,55.0000016784668,4|0,1:3|1:3,0:0:0:0:
301,203,167963,6,0,L|377:204,1,55.0000016784668,0|0,1:3|1:3,0:0:0:0:
185,239,168094,2,0,L|185:147,1,55.0000016784668,8|0,1:3|0:0,0:0:0:0:
358,125,168224,2,0,L|359:54,1,57.5000010967255,4|0,1:3|1:3,0:0:0:0:
175,85,168355,2,0,L|237:86,1,57.5000010967255,0|0,1:3|1:3,0:0:0:0:
427,310,168485,6,0,L|489:311,1,57.5000010967255,8|0,1:3|0:0,0:0:0:0:
219,362,168615,2,0,L|304:362,1,57.5000010967255,4|0,1:3|1:3,0:0:0:0:
483,220,168746,1,0,1:3:0:0:
331,220,168811,1,0,1:3:0:0:
181,220,168876,1,12,1:3:0:0:
29,220,168941,1,0,1:0:0:0:
29,101,169268,5,8,2:3:0:0:
481,93,169529,1,4,0:3:0:0:
188,243,171485,6,0,L|184:191,1,50,0|0,0:0|0:0,0:0:0:0:
326,384,171615,2,0,B|416:345|441:221|350:139|258:154|258:154|257:153|257:153|161:137|72:227|103:345|188:383,1,701.174064548323,2|2,0:0|0:0,0:0:0:0:
443,284,172659,2,0,L|318:285,1,100,2|2,0:0|0:0,0:0:0:0:
89,217,172920,2,0,L|214:218,1,100,2|2,0:0|0:0,0:0:0:0:
445,194,173181,2,0,L|445:91,1,100,2|2,0:0|0:0,0:0:0:0:
345,93,173442,2,0,L|470:94,1,100,2|2,0:0|0:0,0:0:0:0:
189,88,173702,1,4,2:3:0:0:
448,245,175659,6,0,L|457:200,3,33.3333333333333,0|0|0|2,0:0|0:0|0:0|0:0,0:0:0:0:
256,349,175920,2,0,B|148:330|86:206|154:92|255:74|255:74|255:73|255:73|362:93|423:218|354:331|254:348,1,780.667427618564,2|2,0:0|0:0,0:0:0:0:
29,280,176833,2,0,L|28:162,1,100,2|2,0:0|0:0,0:0:0:0:
253,181,177094,2,0,L|378:179,1,100,2|2,0:0|0:0,0:0:0:0:
127,78,177355,2,0,L|22:80,1,100,2|2,0:0|0:0,0:0:0:0:
127,78,177615,2,0,L|22:80,1,100,2|2,0:0|0:0,0:0:0:0:
352,77,177876,1,4,0:3:0:0:
79,184,179833,6,0,L|153:184,1,50,0|0,0:0|0:0,0:0:0:0:
311,382,179963,2,0,P|397:344|305:-74,1,629.999980773926,2|2,0:0|0:0,0:0:0:0:
79,109,181007,2,0,L|81:234,1,100,2|2,0:0|0:0,0:0:0:0:
307,124,181268,2,0,L|187:123,1,100,2|2,0:0|0:0,0:0:0:0:
433,109,181529,2,0,L|431:234,1,100,2|2,0:0|0:0,0:0:0:0:
331,209,181790,2,0,L|451:208,1,100,2|2,0:0|0:0,0:0:0:0:
188,214,182050,5,4,0:3:0:0:
256,192,182181,12,2,183876,0:0:0:0:
297,198,184137,6,0,L|232:185,1,50,8|0,1:3|0:0,0:0:0:0:
59,91,184268,2,0,L|130:80,1,50,8|0,1:3|0:0,0:0:0:0:
374,87,184529,6,0,L|309:77,1,50,8|0,1:3|0:0,0:0:0:0:
101,264,184659,2,0,L|179:246,1,50,8|0,1:3|0:0,0:0:0:0:
419,340,184920,6,0,L|338:334,1,50,8|0,1:3|0:0,0:0:0:0:
119,165,185050,2,0,L|202:153,1,50,8|0,1:3|0:0,0:0:0:0:
479,142,185311,5,8,1:3:0:0:
28,36,185572,2,0,P|95:49|12:272,1,400,8|0,1:3|2:0,0:0:0:0:
341,343,186224,5,4,1:3:0:0:
485,180,186485,2,0,L|357:171,2,100,0|0|2,0:0|0:0|0:0,0:0:0:0:
267,158,187007,1,0,0:0:0:0:
381,89,187137,2,0,L|311:85,1,50,0|0,0:0|0:0,0:0:0:0:
149,90,187268,6,0,L|44:102,1,100,8|0,0:0|0:0,0:0:0:0:
182,175,187529,1,0,0:0:0:0:
189,274,187659,1,0,0:0:0:0:
323,226,187789,1,2,0:0:0:0:
330,325,187919,1,0,0:0:0:0:
201,363,188050,2,0,L|337:366,1,100,0|0,0:0|0:0,0:0:0:0:
66,349,188311,6,0,L|59:124,1,200,0|0,1:2|2:0,0:0:0:0:
192,153,188702,2,0,L|199:40,1,100,0|2,2:0|2:0,0:0:0:0:
424,25,188963,2,0,L|288:46,1,100,2|2,1:3|2:0,0:0:0:0:
195,170,189224,2,0,L|263:182,1,50,2|0,2:0|0:0,0:0:0:0:
452,102,189355,5,10,2:0:0:0:
358,125,189485,1,0,0:0:0:0:
317,212,189615,1,0,2:0:0:0:
360,299,189746,1,0,0:0:0:0:
463,325,189876,2,0,L|234:340,1,200,2|0,0:0|0:0,0:0:0:0:
392,369,190268,1,0,0:0:0:0:
174,382,190398,6,0,L|161:157,1,200,0|2,1:3|0:0,0:0:0:0:
34,144,190789,1,0,0:0:0:0:
167,97,190920,2,0,L|396:49,1,200,2|2,0:0|0:0,0:0:0:0:
234,26,191311,2,0,L|232:103,1,50,2|0,0:0|0:0,0:0:0:0:
407,118,191442,5,8,0:0:0:0:
456,230,191572,1,0,0:0:0:0:
407,118,191702,1,0,0:0:0:0:
294,119,191833,1,0,0:0:0:0:
407,118,191963,1,2,0:0:0:0:
456,230,192094,1,0,0:0:0:0:
407,118,192224,1,0,0:0:0:0:
294,119,192355,1,0,0:0:0:0:
63,311,192485,6,0,L|294:283,1,200,0|2,1:3|0:0,0:0:0:0:
147,257,192876,1,0,0:0:0:0:
261,286,193007,1,2,0:0:0:0:
481,110,193137,1,0,1:3:0:0:
371,116,193268,1,2,0:0:0:0:
362,232,193398,1,2,0:0:0:0:
139,74,193529,6,0,L|359:43,1,200,8|0,0:0|0:0,0:0:0:0:
234,110,193920,1,2,0:0:0:0:
117,143,194050,1,0,0:0:0:0:
245,197,194181,2,0,L|305:204,1,50,2|2,0:0|0:0,0:0:0:0:
238,224,194311,2,0,L|179:228,1,50,2|0,0:0|0:0,0:0:0:0:
241,251,194442,2,0,L|298:250,1,50,0|0,0:0|0:0,0:0:0:0:
110,346,194572,6,0,P|43:330|73:207,1,200,0|0,1:3|0:0,0:0:0:0:
158,169,194963,1,0,0:0:0:0:
286,137,195094,2,0,L|73:111,1,200,2|0,0:0|0:0,0:0:0:0:
204,54,195485,2,0,L|282:51,1,50,0|0,0:0|0:0,0:0:0:0:
84,233,195615,5,8,0:0:0:0:
33,345,195745,1,0,0:0:0:0:
84,233,195875,1,0,0:0:0:0:
201,234,196006,1,0,0:0:0:0:
84,233,196136,1,2,0:0:0:0:
33,345,196267,1,0,0:0:0:0:
84,233,196397,1,0,0:0:0:0:
201,234,196528,1,0,0:0:0:0:
429,120,196659,6,0,L|217:93,1,200,0|0,1:3|2:0,0:0:0:0:
338,60,197050,1,0,2:0:0:0:
454,47,197181,1,2,2:0:0:0:
229,118,197311,2,0,L|227:239,1,100,2|2,1:3|2:0,0:0:0:0:
355,252,197572,1,2,2:0:0:0:
128,78,197702,5,8,2:0:0:0:
245,157,197833,1,0,0:0:0:0:
292,282,197963,1,0,2:0:0:0:
245,157,198094,1,0,0:0:0:0:
128,78,198224,1,2,0:0:0:0:
245,157,198355,1,0,0:0:0:0:
292,282,198485,1,0,0:0:0:0:
245,157,198615,1,0,0:0:0:0:
17,282,198746,6,0,L|233:320,1,200,0|2,1:3|0:0,0:0:0:0:
92,355,199137,1,0,0:0:0:0:
214,317,199268,1,2,0:0:0:0:
341,259,199398,2,0,L|216:245,1,100,0|2,0:0|0:0,0:0:0:0:
114,164,199659,2,0,L|170:161,1,50,0|0,0:0|0:0,0:0:0:0:
350,93,199789,5,8,0:0:0:0:
233,172,199920,1,0,0:0:0:0:
186,297,200050,1,0,0:0:0:0:
233,172,200181,1,0,0:0:0:0:
350,93,200311,1,2,0:0:0:0:
233,172,200442,1,0,0:0:0:0:
186,297,200572,1,0,0:0:0:0:
233,172,200702,1,0,0:0:0:0:
463,180,200833,6,0,L|337:168,1,100,0|0,1:3|0:0,0:0:0:0:
244,56,201094,2,0,L|363:48,1,100,2|0,0:0|0:0,0:0:0:0:
225,146,201355,1,2,0:0:0:0:
12,260,201485,2,0,L|154:270,1,100,2|2,1:3|0:0,0:0:0:0:
247,312,201746,2,0,L|314:322,1,50,0|0,0:0|0:0,0:0:0:0:
103,363,201876,6,0,L|41:359,1,50,8|0,0:0|0:0,0:0:0:0:
127,345,202007,2,0,L|132:278,1,50,0|0,0:0|0:0,0:0:0:0:
272,272,202137,2,0,L|276:208,1,50,0|0,1:3|1:3,0:0:0:0:
426,215,202268,2,0,L|435:142,1,50,0|0,1:3|1:3,0:0:0:0:
272,142,202398,2,0,L|267:64,1,50,0|0,1:3|1:3,0:0:0:0:
92,104,202529,2,0,L|81:28,1,50,0|0,1:3|1:3,0:0:0:0:
312,13,202659,2,0,L|382:20,1,50,0|0,1:3|1:3,0:0:0:0:
109,202,202789,2,0,L|30:204,1,50,0|0,1:3|1:3,0:0:0:0:
268,265,202920,5,6,1:1:0:0:
415,285,202985,1,0,0:0:0:0:
209,321,203050,1,6,1:1:0:0:
61,346,203115,1,0,0:0:0:0:
269,169,203181,5,6,1:1:0:0:
426,189,203246,1,0,0:0:0:0:
217,84,203311,1,6,1:1:0:0:
53,105,203376,1,0,0:0:0:0:
252,187,203442,6,0,L|262:248,3,50,4|2|2|2,0:3|0:0|0:0|0:0,0:0:0:0:
205,247,203702,1,4,0:3:0:0:
179,187,203768,1,2,0:0:0:0:
205,247,203833,1,2,0:0:0:0:
261,238,203898,1,2,0:0:0:0:
449,290,203963,5,4,0:3:0:0:
256,192,211007,12,0,211529,0:0:0:0:
254,203,211659,6,2,L|284:160,2,50,2|2|2,0:2|0:2|0:2,0:0:0:0:
197,210,211876,1,2,0:2:0:0:
117,252,211963,1,2,0:2:0:0:
199,289,212050,1,2,0:2:0:0:
409,312,212137,1,2,0:2:0:0:
331,359,212224,1,2,0:2:0:0:
409,85,212311,6,0,B|145:141|145:141|144:140|144:140|32:386|32:386|31:385|31:385|143:139|143:139|143:139|143:139|31:385,1,1082.47749219749,10|0,1:3|0:0,0:0:0:0:
405,366,212964,2,0,B|141:310|141:310|140:311|140:311|22:53,1,541.298867142851,10|0,1:3|0:0,0:0:0:0:
139,309,213355,6,0,B|405:256|405:256|405:-22|405:-22|405:358|405:358|404:134,1,1080.00000411987,10|0,1:3|0:0,0:0:0:0:
109,74,214007,1,8,1:3:0:0:
406,71,214203,1,8,1:3:0:0:
57,163,214398,6,0,B|167:164|167:164|38:165,1,220.000006713867,10|0,1:3|0:0,0:0:0:0:
367,81,214789,2,0,L|130:80,1,220.000006713867,10|0,1:3|0:0,0:0:0:0:
462,314,215181,6,0,P|456:249|305:166,1,220.000006713867,10|0,1:3|0:0,0:0:0:0:
338,163,215572,1,0,0:0:0:0:
471,58,215702,2,0,L|350:58,1,100,2|0,0:3|0:0,0:0:0:0:
184,104,215963,1,2,0:3:0:0:
110,104,216050,1,2,0:0:0:0:
184,104,216137,1,2,0:0:0:0:
355,261,216224,2,0,L|473:261,1,100,2|0,0:3|0:0,0:0:0:0:
177,259,216485,6,0,B|453:262|453:262|350:6|350:6|454:263|454:263|348:2,1,1100.00001049042,10|0,1:3|0:0,0:0:0:0:
81,188,217137,2,0,B|334:77|334:77|67:188,1,550.000005245209,10|0,1:3|0:0,0:0:0:0:
430,192,217529,5,10,1:3:0:0:
257,223,218050,1,2,0:0:0:0:
211,205,218115,1,2,0:0:0:0:
193,160,218180,1,2,0:0:0:0:
213,115,218245,1,2,0:0:0:0:
255,223,218311,1,2,0:0:0:0:
300,205,218376,1,2,0:0:0:0:
318,160,218441,1,2,0:0:0:0:
298,115,218506,1,2,0:0:0:0:
255,105,218572,6,0,L|256:329,1,200,4|0,1:3|1:0,0:0:0:0:
139,329,218963,1,0,0:0:0:0:
375,234,219094,2,2,L|259:220,1,100,2|2,1:1|0:1,0:1:0:0:
400,170,219355,2,2,L|520:184,1,100,2|2,1:1|0:1,0:1:0:0:
248,180,219615,6,0,P|193:149|256:54,1,200,2|0,1:0|1:0,0:0:0:0:
369,84,220007,1,0,0:0:0:0:
245,72,220137,2,2,L|131:81,1,100,2|2,1:1|0:1,0:1:0:0:
266,171,220398,2,2,L|380:180,1,100,2|2,1:1|0:1,0:1:0:0:
86,329,220659,6,0,P|36:292|104:185,1,200,2|0,1:1|1:0,0:0:0:0:
229,146,221050,2,0,L|128:130,2,100,2|0|0,0:1|1:0|0:0,0:0:0:0:
470,85,221442,6,0,L|251:116,1,200,2|0,1:1|1:0,0:0:0:0:
413,330,221833,2,0,P|463:293|395:186,1,200,2|0,2:1|2:0,0:0:0:0:
275,160,222224,2,0,L|403:149,1,100,2|0,1:1|0:0,0:0:0:0:
251,90,222485,2,0,L|123:79,1,100,2|0,1:1|0:0,0:0:0:0:
424,241,222746,6,0,L|191:262,1,200,2|0,1:0|1:0,0:0:0:0:
344,223,223137,1,2,0:1:0:0:
130,107,223268,2,2,L|249:98,1,100,2|2,1:1|0:1,0:1:0:0:
350,97,223529,2,2,L|231:88,1,100,2|2,1:1|0:1,0:1:0:0:
34,287,223789,6,0,L|32:78,1,200,2|0,1:1|0:1,0:0:0:0:
153,144,224181,1,2,0:1:0:0:
273,80,224311,2,2,L|206:86,1,50,2|2,1:1|0:1,0:1:0:0:
71,245,224442,2,2,L|210:224,1,100,2|2,0:1|1:1,0:1:0:0:
395,209,224702,1,2,0:1:0:0:
131,308,224833,6,0,P|80:281|146:183,1,200,2|0,1:1|1:0,0:0:0:0:
276,125,225224,2,0,L|67:84,1,200,2|0,0:1|0:0,0:0:0:0:
397,195,225615,6,0,P|448:168|382:70,1,200,2|0,1:1|1:0,0:0:0:0:
252,164,226007,2,2,L|305:154,1,50,2|2,1:2|1:2,0:0:0:0:
452,195,226137,1,2,1:2:0:0:
472,145,226202,1,2,0:2:0:0:
451,97,226268,1,2,1:2:0:0:
396,79,226333,1,2,0:2:0:0:
319,286,226398,6,0,P|377:260|303:43,1,350,4|0,1:3|0:0,0:0:0:0:
116,79,226920,6,0,L|108:216,1,100,6|0,1:1|0:0,0:0:0:0:
164,175,227115,1,0,0:0:0:0:
317,229,227181,2,0,L|459:245,1,100,2|0,1:1|0:0,0:0:0:0:
176,357,227442,2,0,L|170:234,1,100,2|0,1:2|0:2,0:0:0:0:
434,165,227702,2,0,L|321:149,1,100,2|0,1:1|0:0,0:0:0:0:
41,96,227963,6,0,L|33:233,1,100,2|0,1:1|0:0,0:0:0:0:
89,192,228158,1,0,0:0:0:0:
242,246,228224,2,0,L|384:262,1,100,2|0,1:1|0:0,0:0:0:0:
217,170,228485,2,0,L|147:163,2,50,2|0|0,1:1|0:0|0:0,0:0:0:0:
472,107,228746,2,0,L|359:93,1,100,2|0,1:1|0:0,0:0:0:0:
130,304,229007,6,0,L|122:204,1,100,2|0,1:1|0:0,0:0:0:0:
373,95,229268,1,2,1:1:0:0:
120,128,229398,2,0,L|-4:114,2,100,0|2|0,0:0|1:1|0:0,0:0:0:0:
373,95,229789,2,0,L|379:220,1,100,2|0,1:1|0:0,0:0:0:0:
322,199,229985,1,0,0:0:0:0:
160,273,230050,6,0,L|37:283,1,100,2|0,1:1|0:0,0:0:0:0:
115,277,230246,1,0,0:0:0:0:
310,321,230311,2,0,L|166:333,1,100,2|0,1:1|2:0,0:0:0:0:
464,344,230572,2,0,L|468:237,1,100,2|0,1:1|0:0,0:0:0:0:
214,248,230833,1,2,1:1:0:0:
321,235,230963,1,0,2:0:0:0:
62,267,231094,6,0,L|59:140,1,100,6|0,1:1|1:1,0:0:0:0:
115,153,231289,1,0,1:0:0:0:
301,109,231355,2,0,L|168:93,1,100,2|0,1:1|1:1,0:0:0:0:
261,87,231550,1,0,1:0:0:0:
450,267,231615,2,0,L|453:140,1,100,2|0,1:1|1:3,0:0:0:0:
397,153,231810,1,0,1:3:0:0:
211,109,231876,2,0,L|344:93,1,100,2|0,1:1|1:1,0:0:0:0:
250,88,232071,1,0,1:3:0:0:
67,290,232137,6,0,L|62:165,1,100,2|0,1:1|1:1,0:0:0:0:
120,178,232333,1,0,1:0:0:0:
304,248,232398,2,0,L|432:237,1,100,2|0,1:1|1:1,0:0:0:0:
342,222,232594,1,0,1:0:0:0:
208,248,232659,2,0,L|80:237,1,100,2|0,1:1|1:1,0:0:0:0:
170,222,232855,1,0,1:1:0:0:
382,337,232920,2,0,L|384:259,1,50,2|0,1:1|1:1,0:0:0:0:
171,131,233050,2,0,L|221:138,1,50,0|0,1:1|1:1,0:0:0:0:
474,273,233181,6,0,L|476:207,1,50,2|0,1:1|1:1,0:0:0:0:
329,274,233311,2,0,L|331:208,1,50,0|0,1:1|1:1,0:0:0:0:
178,275,233442,2,0,L|180:209,1,50,2|0,1:1|1:1,0:0:0:0:
33,276,233572,2,0,L|35:210,1,50,0|0,1:1|1:1,0:0:0:0:
225,353,233702,6,0,L|287:354,1,55.0000016784668,2|0,1:1|1:1,0:0:0:0:
94,261,233833,2,0,L|174:261,1,55.0000016784668,0|0,1:1|1:1,0:0:0:0:
373,170,233963,6,0,L|435:171,1,55.0000016784668,2|0,1:1|1:1,0:0:0:0:
242,78,234094,2,0,L|322:78,1,55.0000016784668,0|0,1:1|1:1,0:0:0:0:
489,81,234224,5,8,1:3:0:0:
104,72,234355,1,0,1:3:0:0:
102,161,234615,5,8,1:3:0:0:
490,166,234746,1,0,1:3:0:0:
489,81,235007,5,8,1:3:0:0:
102,161,235138,1,0,1:3:0:0:
497,128,235268,6,0,B|510:267|394:384|256:375|256:375|256:375|256:375|116:384|2:266|15:128,1,784.089738255584,4|2,1:3|0:0,0:0:0:0:
25,207,237485,1,2,0:0:0:0:
35,286,237615,1,2,0:0:0:0:
187,282,237876,1,2,0:0:0:0:
177,203,238006,1,2,0:0:0:0:
167,124,238137,1,2,0:0:0:0:
320,122,238398,1,2,0:0:0:0:
330,201,238529,1,2,0:0:0:0:
340,280,238659,1,2,0:0:0:0:
493,277,238920,1,2,0:0:0:0:
483,198,239050,1,2,0:0:0:0:
473,119,239181,1,2,0:0:0:0:
47,112,239442,5,0,1:3:0:0:
47,131,239474,1,0,1:3:0:0:
47,151,239507,1,0,1:3:0:0:
197,109,239572,1,0,1:3:0:0:
347,112,239637,1,0,1:3:0:0:
347,131,239669,1,0,1:0:0:0:
347,151,239702,1,0,1:3:0:0:
197,109,239767,1,0,1:0:0:0:
47,272,239833,1,0,1:0:0:0:
47,253,239865,1,0,1:0:0:0:
47,233,239898,1,0,1:3:0:0:
197,275,239963,5,0,1:3:0:0:
347,272,240028,1,0,1:0:0:0:
347,253,240060,1,0,1:3:0:0:
347,233,240093,1,0,1:0:0:0:
197,275,240158,1,0,1:3:0:0:
47,165,240224,1,0,1:3:0:0:
79,166,240257,1,0,1:0:0:0:
110,166,240289,1,0,1:0:0:0:
235,114,240354,1,0,1:0:0:0:
299,114,240419,1,0,1:3:0:0:
465,112,240485,5,0,1:3:0:0:
465,131,240518,1,0,1:0:0:0:
465,151,240550,1,0,1:0:0:0:
315,109,240615,1,0,1:0:0:0:
165,112,240681,1,0,1:3:0:0:
165,131,240713,1,0,1:0:0:0:
165,151,240746,1,0,1:3:0:0:
315,109,240811,1,0,1:0:0:0:
465,272,240876,1,0,1:0:0:0:
465,253,240909,1,0,1:0:0:0:
465,233,240942,1,0,1:3:0:0:
315,275,241006,5,0,1:3:0:0:
165,272,241071,1,0,1:0:0:0:
165,253,241105,1,0,1:3:0:0:
165,233,241137,1,0,1:0:0:0:
315,275,241202,1,0,1:3:0:0:
465,165,241267,1,0,1:3:0:0:
432,165,241300,1,0,1:0:0:0:
400,165,241333,1,0,1:0:0:0:
277,114,241398,1,0,1:0:0:0:
212,114,241463,1,0,1:3:0:0:
49,193,241529,5,0,1:3:0:0:
80,192,241561,1,0,1:0:0:0:
112,191,241594,1,0,1:0:0:0:
317,204,241659,1,0,1:0:0:0:
381,203,241724,1,0,1:3:0:0:
116,304,241789,1,0,1:3:0:0:
147,303,241821,1,0,1:0:0:0:
179,302,241854,1,0,1:0:0:0:
383,340,241919,1,0,1:0:0:0:
447,339,241984,1,0,1:3:0:0:
178,221,242050,5,0,1:3:0:0:
145,221,242083,1,0,1:0:0:0:
113,222,242115,1,0,1:0:0:0:
279,132,242181,1,0,1:0:0:0:
442,129,242246,1,0,1:3:0:0:
178,129,242311,1,0,1:3:0:0:
145,129,242344,1,0,1:0:0:0:
113,130,242376,1,0,1:0:0:0:
279,39,242442,1,0,1:0:0:0:
442,36,242507,1,0,1:3:0:0:
179,35,242572,6,0,P|133:53|190:158,1,200,4|0,1:3|0:0,0:0:0:0:
462,200,242963,2,2,L|462:272,1,50,2|2,0:1|0:1,0:1:0:0:
254,296,243094,2,2,L|177:296,1,57.5000010967255,2|2,0:1|0:1,0:1:0:0:
420,371,243224,2,2,L|355:371,1,57.5000010967255,2|2,0:1|0:1,0:1:0:0:
142,362,243355,1,2,0:1:0:0:
119,315,243420,1,2,0:1:0:0:
140,264,243485,1,2,0:1:0:0:
199,247,243550,1,2,0:1:0:0:
401,176,243615,6,0,P|352:120|235:103,1,179.999994506836,4|0,1:1|0:0,0:0:0:0:
63,128,243876,1,10,1:3:0:0:
262,219,244007,2,0,L|281:190,2,29.9999990844727,0|0|0,0:0|0:0|0:0,0:0:0:0:
89,266,244137,6,0,L|31:246,1,59.9999981689454,2|0,1:1|0:0,0:0:0:0:
194,348,244268,2,0,L|130:329,1,59.9999981689454,2|0,0:1|0:0,0:0:0:0:
310,318,244398,2,0,L|376:313,1,59.9999981689454,2|0,1:1|0:0,0:0:0:0:
157,203,244529,2,0,L|151:126,1,59.9999981689454,2|0,0:1|0:0,0:0:0:0:
333,164,244659,6,0,P|346:103|237:66,1,179.999994506836,2|0,1:1|0:0,0:0:0:0:
454,69,244920,2,0,L|484:13,2,59.9999981689454,10|0|0,1:3|0:0|0:0,0:0:0:0:
394,83,245115,1,0,0:0:0:0:
240,182,245181,6,0,L|299:172,1,59.9999981689454,2|0,1:1|0:0,0:0:0:0:
135,269,245311,2,0,L|56:276,1,59.9999981689454,2|0,0:1|0:0,0:0:0:0:
259,298,245442,2,0,L|267:383,1,59.9999981689454,2|0,1:1|0:0,0:0:0:0:
457,262,245572,2,0,L|380:260,1,59.9999981689454,2|0,0:1|0:0,0:0:0:0:
188,208,245702,6,0,P|222:149|332:136,1,179.999994506836,6|0,1:3|0:0,0:0:0:0:
135,103,245963,1,10,1:3:0:0:
40,45,246094,1,0,0:0:0:0:
69,40,246126,1,0,0:0:0:0:
99,36,246159,1,0,0:0:0:0:
258,128,246224,6,0,L|263:216,1,59.9999981689454,2|0,1:1|0:0,0:0:0:0:
87,212,246355,2,0,L|78:280,1,59.9999981689454,2|0,0:1|0:0,0:0:0:0:
268,327,246485,2,0,L|183:330,1,59.9999981689454,2|0,1:1|0:0,0:0:0:0:
381,244,246615,2,0,L|478:242,1,59.9999981689454,2|0,0:1|0:0,0:0:0:0:
223,192,246746,6,0,L|104:173,1,119.999996337891,2|0,1:1|0:0,0:0:0:0:
266,178,246942,2,0,L|267:47,1,119.999996337891,2|0,0:1|0:0,0:0:0:0:
39,40,247137,2,0,L|98:47,1,59.9999981689454,2|0,0:1|0:0,0:0:0:0:
306,337,247268,6,0,L|183:288,1,119.999996337891,2|0,1:1|0:0,0:0:0:0:
27,225,247463,2,0,L|122:134,1,119.999996337891,2|0,0:1|0:0,0:0:0:0:
331,224,247659,2,0,L|407:225,1,59.9999981689454,2|0,0:1|0:0,0:0:0:0:
239,100,247789,5,6,1:3:0:0:
335,49,247920,2,0,L|270:29,1,59.9999981689454,0|0,0:0|0:0,0:0:0:0:
111,151,248050,1,10,1:3:0:0:
205,154,248181,2,0,L|271:117,1,59.9999981689454,0|0,0:0|0:0,0:0:0:0:
95,261,248311,6,0,L|26:288,1,59.9999981689454,2|0,1:1|0:0,0:0:0:0:
207,337,248442,2,0,L|211:267,1,59.9999981689454,2|0,0:1|0:0,0:0:0:0:
367,242,248572,2,0,L|433:231,1,59.9999981689454,2|0,1:1|0:0,0:0:0:0:
244,203,248702,2,0,L|233:142,1,59.9999981689454,2|0,0:1|0:0,0:0:0:0:
398,105,248833,6,0,P|356:59|228:47,1,179.999994506836,2|0,1:1|0:0,0:0:0:0:
419,9,249094,2,0,L|477:21,3,59.9999981689454,10|0|0|0,1:3|0:0|0:0|0:0,0:0:0:0:
308,165,249355,6,0,L|225:144,1,59.9999981689454,2|0,1:1|0:0,0:0:0:0:
414,206,249485,2,0,L|487:227,1,59.9999981689454,2|0,0:1|0:0,0:0:0:0:
308,281,249615,2,0,L|307:351,1,59.9999981689454,2|0,1:1|0:0,0:0:0:0:
122,352,249746,2,0,L|205:340,1,59.9999981689454,2|0,0:1|0:0,0:0:0:0:
400,205,249876,6,0,B|167:144|167:144|225:36,1,359.999989013672,6|0,1:3|0:0,0:0:0:0:
417,69,250137,2,0,L|489:81,1,59.9999981689454,10|0,1:3|0:0,0:0:0:0:
272,129,250268,2,0,L|266:196,1,59.9999981689454
67,234,250398,6,0,L|140:242,1,59.9999981689454,10|0,1:1|0:0,0:0:0:0:
314,319,250529,2,0,L|221:333,1,59.9999981689454,2|0,1:1|0:0,0:0:0:0:
428,199,250659,2,0,L|432:134,1,59.9999981689454,10|0,1:1|0:0,0:0:0:0:
242,162,250789,2,0,L|301:164,1,59.9999981689454,2|0,1:1|0:0,0:0:0:0:
124,98,250920,6,0,L|23:168,1,119.999996337891,10|0,1:1|2:0,0:0:0:0:
215,216,251115,2,0,L|224:342,1,119.999996337891,10|0,1:1|2:0,0:0:0:0:
424,369,251311,2,0,L|483:365,1,59.9999981689454,10|0,1:1|0:0,0:0:0:0:
281,260,251442,6,0,L|26:209,1,239.999992675781,10|0,1:1|2:0,0:0:0:0:
261,91,251637,2,0,L|503:154,1,239.999992675781,10|0,1:1|2:0,0:0:0:0:
281,260,251833,2,0,L|208:258,1,59.9999981689454,10|0,1:1|0:0,0:0:0:0:
412,42,251963,5,0,1:3:0:0:
162,160,252094,1,0,1:3:0:0:
444,281,252224,1,14,1:2:0:0:
473,368,252355,6,0,L|402:367,1,59.9999981689454,0|0,0:0|0:0,0:0:0:0:
256,371,252485,2,0,L|253:294,1,59.9999981689454,2|0,1:1|0:0,0:0:0:0:
89,279,252615,2,0,L|173:239,1,59.9999981689454,2|0,0:1|0:0,0:0:0:0:
323,100,252746,2,0,L|411:111,1,59.9999981689454,2|0,1:1|0:0,0:0:0:0:
191,122,252876,2,0,L|185:17,1,59.9999981689454,2|0,0:1|0:0,0:0:0:0:
411,246,253007,6,0,B|199:132|199:132|258:248,1,359.999989013672,2|0,1:1|0:0,0:0:0:0:
429,330,253268,1,10,1:3:0:0:
161,332,253398,2,0,L|74:321,1,59.9999981689454
288,272,253529,6,0,L|290:204,1,59.9999981689454,2|0,1:1|0:0,0:0:0:0:
95,72,253659,2,0,L|164:80,1,59.9999981689454,2|0,0:1|0:0,0:0:0:0:
316,125,253789,2,0,L|226:132,1,59.9999981689454,2|0,1:1|0:0,0:0:0:0:
463,275,253920,2,0,L|403:267,1,59.9999981689454,2|0,0:1|0:0,0:0:0:0:
260,358,254050,5,2,1:1:0:0:
62,228,254181,1,2,1:3:0:0:
213,206,254246,1,2,1:3:0:0:
373,168,254311,6,6,P|324:111|205:100,1,179.999994506836,12|0,1:2|0:0,0:0:0:0:
428,52,254572,2,0,L|513:33,1,59.9999981689454,2|0,1:1|0:0,0:0:0:0:
306,166,254702,2,0,L|297:232,1,59.9999981689454,2|0,0:1|0:0,0:0:0:0:
108,294,254833,2,0,L|22:297,1,59.9999981689454,2|0,1:1|0:0,0:0:0:0:
270,353,254963,2,0,L|352:351,1,59.9999981689454,2|0,0:1|0:0,0:0:0:0:
168,260,255094,6,0,L|401:184,1,239.999992675781,10|0,1:1|2:0,0:0:0:0:
234,128,255289,2,0,L|-3:58,1,239.999992675781,10|0,1:1|2:0,0:0:0:0:
217,33,255485,2,0,L|308:35,1,59.9999981689454,10|0,1:1|0:0,0:0:0:0:
109,130,255615,6,0,L|14:220,1,119.999996337891,10|0,1:1|2:0,0:0:0:0:
214,231,255811,2,0,L|220:367,1,119.999996337891,10|0,1:1|2:0,0:0:0:0:
398,378,256007,2,0,L|476:367,1,59.9999981689454,10|0,1:1|0:0,0:0:0:0:
238,347,256137,6,0,P|208:271|309:235,1,179.999994506836,6|0,1:3|0:0,0:0:0:0:
468,215,256398,2,0,L|477:75,1,119.999996337891,10|0,1:3|0:0,0:0:0:0:
412,83,256594,1,0,0:0:0:0:
199,250,256659,2,0,L|192:162,1,59.9999981689454,2|0,1:1|0:0,0:0:0:0:
357,114,256789,2,0,L|348:45,1,59.9999981689454,2|0,1:1|0:0,0:0:0:0:
155,84,256920,2,0,L|225:78,1,59.9999981689454,10|0,1:1|0:0,0:0:0:0:
414,238,257050,2,0,L|354:236,1,59.9999981689454,2|0,1:1|0:0,0:0:0:0:
141,366,257181,6,0,L|336:297,1,179.999994506836,6|0,1:3|0:0,0:0:0:0:
66,269,257442,2,0,L|54:132,1,119.999996337891,10|0,1:3|0:0,0:0:0:0:
119,105,257637,1,0,0:0:0:0:
295,202,257702,2,0,L|302:114,1,59.9999981689454,2|0,1:1|0:0,0:0:0:0:
472,121,257833,2,0,L|481:52,1,59.9999981689454,2|0,1:1|0:0,0:0:0:0:
291,53,257963,2,0,L|206:51,1,59.9999981689454,10|0,1:1|0:0,0:0:0:0:
441,209,258093,2,0,L|356:206,1,59.9999981689454,2|0,1:1|0:0,0:0:0:0:
157,340,258224,6,0,B|380:246|380:246|321:134,1,359.999989013672,6|0,1:3|0:0,0:0:0:0:
121,193,258485,2,0,L|118:66,1,119.999996337891,10|0,1:3|0:0,0:0:0:0:
178,60,258681,1,0,0:0:0:0:
377,44,258746,2,0,L|299:35,1,59.9999981689454,2|0,1:1|0:0,0:0:0:0:
111,282,258876,2,0,L|19:302,1,59.9999981689454,2|0,1:1|0:0,0:0:0:0:
236,271,259007,2,0,L|239:340,1,59.9999981689454,10|0,1:1|0:0,0:0:0:0:
417,351,259137,2,0,L|329:349,1,59.9999981689454,2|0,1:1|0:0,0:0:0:0:
186,335,259268,5,10,1:3:0:0:
324,302,259333,1,2,1:3:0:0:
462,292,259398,2,0,L|469:206,1,59.9999981689454,2|2,1:3|1:3,0:0:0:0:
312,187,259529,2,0,L|228:180,1,59.9999981689454,10|0,1:3|0:0,0:0:0:0:
399,135,259659,1,2,1:3:0:0:
251,102,259724,1,0,1:0:0:0:
103,69,259789,6,0,L|26:69,1,59.9999981689454,10|0,1:3|0:0,0:0:0:0:
201,34,259920,1,2,1:3:0:0:
362,27,259985,1,0,1:0:0:0:
189,162,260050,2,0,L|110:178,1,59.9999981689454,10|0,1:3|0:0,0:0:0:0:
366,273,260181,2,0,L|463:290,1,59.9999981689454,0|0,1:0|0:0,0:0:0:0:
246,359,260311,6,0,P|198:287|402:128,1,359.999989013672,4|2,1:3|0:0,0:0:0:0:
235,28,260833,2,0,L|225:91,1,50,2|0,0:0|0:0,0:0:0:0:
147,93,260964,2,0,L|137:156,1,50,2|0,0:0|0:0,0:0:0:0:
221,155,261094,2,0,L|230:218,1,50,2|0,0:0|0:0,0:0:0:0:
310,216,261225,2,0,L|319:279,1,50,2|0,0:0|0:0,0:0:0:0:
139,116,261355,6,0,P|63:138|88:338,1,300,2|2,0:0|0:0,0:0:0:0:
186,339,261876,2,0,L|196:276,1,50,2|0,0:0|0:0,0:0:0:0:
277,282,262007,2,0,L|287:219,1,50,2|0,0:0|0:0,0:0:0:0:
195,217,262137,2,0,L|185:154,1,50,2|0,0:0|0:0,0:0:0:0:
375,116,262268,2,0,L|389:27,1,50,2|0,0:0|0:0,0:0:0:0:
184,87,262398,6,0,L|63:81,1,110.000003356934,4|2,1:1|1:3,0:0:0:0:
241,151,262594,1,2,1:3:0:0:
75,168,262659,2,0,L|149:171,1,55.0000016784668,2|2,1:3|1:3,0:0:0:0:
326,150,262789,1,2,1:3:0:0:
434,280,262920,6,0,L|375:278,1,55.0000016784668,2|2,1:3|1:3,0:0:0:0:
200,257,263050,2,0,L|279:262,1,55.0000016784668,2|2,1:3|1:3,0:0:0:0:
438,200,263181,2,0,L|286:190,1,110.000003356934,2|2,1:3|1:3,0:0:0:0:
173,136,263376,1,2,1:3:0:0:
327,110,263442,6,0,L|264:104,1,55.0000016784668,2|2,1:3|1:3,0:0:0:0:
69,47,263572,2,0,L|182:54,1,110.000003356934,2|0,1:3|1:0,0:0:0:0:
445,38,263833,1,0,1:0:0:0:
177,172,263963,6,0,L|53:181,1,110.000003356934,2|0,1:3|2:0,0:0:0:0:
316,259,264159,2,0,L|453:278,1,119.999996337891,10|0,1:3|2:0,0:0:0:0:
236,345,264355,2,0,L|157:338,1,50,2|0,1:3|0:0,0:0:0:0:
448,178,264485,6,0,L|314:167,1,110.000003356934,6|0,1:3|0:0,0:0:0:0:
60,286,264746,2,0,L|56:162,1,110.000003356934,10|0,1:3|0:0,0:0:0:0:
116,166,264942,1,0,0:0:0:0:
273,61,265007,6,0,L|189:60,3,59.9999981689454,2|2|2|2,1:3|1:3|1:3|1:3,1:3:0:0:
51,76,265268,2,0,L|110:75,3,59.9999981689454,2|2|2|2,1:3|1:3|1:3|1:3,1:3:0:0:
327,140,265529,6,0,L|457:138,1,110.000003356934,6|0,1:3|0:0,0:0:0:0:
195,273,265789,2,0,L|72:268,1,110.000003356934,10|0,1:3|0:0,0:0:0:0:
146,265,265985,1,0,0:0:0:0:
309,221,266050,6,2,L|224:216,3,55.0000016784668,2|2|2|2,1:3|1:3|1:3|1:3,1:3:0:0:
30,202,266311,1,2,1:3:0:0:
264,130,266442,1,2,1:3:0:0:
30,202,266572,6,0,L|22:78,1,110.000003356934,2|0,1:3|0:0,0:0:0:0:
355,281,266833,1,6,1:3:0:0:
253,232,266963,2,0,L|331:217,1,55.0000016784668,0|0,0:0|0:0,0:0:0:0:
135,151,267094,6,0,L|24:131,1,110.000003356934,0|0,1:3|1:3,0:0:0:0:
311,71,267355,1,10,1:3:0:0:
26,131,267485,1,2,1:3:0:0:
299,294,267615,6,0,L|309:159,1,110.000003356934,10|0,1:3|2:0,0:0:0:0:
121,118,267811,2,0,L|253:111,1,110.000003356934,10|0,1:3|2:0,0:0:0:0:
428,70,268007,2,0,L|334:59,1,55.0000016784668,10|0,1:3|0:0,0:0:0:0:
109,240,268137,6,0,L|234:227,1,110.000003356934,10|0,1:3|2:0,0:0:0:0:
438,167,268333,2,0,L|289:152,1,119.999996337891,10|0,1:3|2:0,0:0:0:0:
72,145,268529,2,0,L|66:57,1,55.0000016784668,10|0,1:3|0:0,0:0:0:0:
323,358,268659,6,0,B|332:79|332:79|31:105,1,559.999982910157,2|6,1:2|1:2,0:2:0:0:
171,127,269050,2,2,L|178:214,1,50,2|2,0:1|0:1,0:1:0:0:
370,128,269181,2,2,L|486:134,1,100,2|2,0:1|0:1,0:1:0:0:
260,293,269442,2,2,L|144:299,1,100,2|2,0:1|0:1,0:1:0:0:
456,216,269702,6,2,L|349:199,2,100,2|2|2,0:1|0:2|0:2,0:0:0:0:
312,121,270094,2,2,L|252:112,1,50,2|2,0:1|0:1,0:1:0:0:
78,215,270224,2,10,L|191:224,1,100,10|10,0:1|0:1,0:1:0:0:
417,298,270485,2,2,L|353:291,1,60.9999974868775,10|2,0:1|0:2,0:0:0:0:
130,308,270615,2,2,L|61:304,1,60.9999974868775,10|2,0:1|0:2,0:0:0:0:
325,205,270746,5,2,1:1:0:0:
61,131,270876,2,0,L|152:122,1,59.9999981689454,0|0,1:3|1:3,0:0:0:0:
310,74,271007,2,0,L|179:55,1,119.999996337891,14|2,1:3|1:1,0:0:0:0:
337,121,271202,1,2,1:1:0:0:
484,89,271268,6,0,L|490:4,1,59.9999981689454,2|0,0:1|0:0,0:0:0:0:
314,246,271398,2,0,L|396:235,1,59.9999981689454,2|0,1:1|1:3,0:0:0:0:
190,140,271529,2,0,L|108:129,1,59.9999981689454,2|0,1:1|1:3,0:0:0:0:
321,106,271659,1,2,1:1:0:0:
457,172,271789,6,0,L|462:257,1,59.9999981689454,2|0,1:1|1:3,0:0:0:0:
269,348,271920,2,0,L|348:338,1,59.9999981689454,0|2,1:3|1:1,0:0:0:0:
139,272,272050,2,0,L|-2:250,1,119.999996337891,0|2,1:3|0:1,0:0:0:0:
194,195,272246,1,0,1:3:0:0:
23,169,272311,6,0,L|17:24,1,119.999996337891,2|0,0:1|1:3,0:0:0:0:
196,103,272507,2,0,L|352:63,1,119.999996337891,2|2,0:1|0:0,0:0:0:0:
173,239,272702,2,0,L|92:227,1,59.9999981689454,2|2,1:1|0:0,0:0:0:0:
325,354,272833,5,6,1:3:0:0:
372,335,272898,1,2,1:3:0:0:
389,286,272963,1,2,1:3:0:0:
362,236,273028,1,2,1:3:0:0:
168,200,273094,2,0,L|89:202,1,59.9999981689454,10|2,1:3|1:3,0:0:0:0:
306,125,273224,2,0,L|394:127,1,59.9999981689454,2|2,1:3|1:3,0:0:0:0:
109,116,273355,6,0,L|26:118,1,59.9999981689454,0|0,1:3|1:3,0:0:0:0:
243,31,273485,2,0,L|163:31,1,59.9999981689454,0|0,1:3|1:3,0:0:0:0:
359,199,273615,2,0,L|368:103,1,59.9999981689454,8|0,1:3|1:3,0:0:0:0:
177,115,273746,2,0,L|279:113,1,59.9999981689454,0|0,1:3|1:3,0:0:0:0:
463,298,273876,5,6,1:3:0:0:
451,239,273941,1,2,1:3:0:0:
411,196,274006,1,2,1:3:0:0:
353,182,274071,1,2,1:3:0:0:
171,283,274137,2,0,L|166:217,1,59.9999981689454,10|2,1:3|1:3,0:0:0:0:
343,104,274268,2,0,L|348:14,1,59.9999981689454,2|2,1:3|1:3,0:0:0:0:
167,156,274398,6,0,L|241:140,1,59.9999981689454,0|0,1:3|1:3,0:0:0:0:
63,306,274529,2,0,L|125:321,1,59.9999981689454,0|0,1:3|1:3,0:0:0:0:
348,344,274659,2,0,L|352:268,1,59.9999981689454,8|0,1:3|1:3,0:0:0:0:
196,107,274789,2,0,L|192:31,1,59.9999981689454,0|0,1:3|1:3,0:0:0:0:
411,168,274920,6,0,P|460:140|401:33,1,200,2|0,0:0|0:0,0:0:0:0:
288,72,275311,1,2,0:0:0:0:
285,126,275376,1,2,0:0:0:0:
282,181,275442,1,2,0:0:0:0:
408,160,275572,1,0,0:0:0:0:
159,221,275702,2,0,L|39:233,1,100,2|0,0:0|0:0,0:0:0:0:
329,300,275963,5,2,0:0:0:0:
60,348,276159,1,2,0:0:0:0:
425,211,276355,2,2,L|516:218,1,59.9999981689454,2|2,0:1|0:1,0:1:0:0:
220,208,276485,2,2,L|212:137,1,59.9999981689454,2|2,0:1|0:1,0:1:0:0:
405,86,276616,2,2,L|339:80,1,59.9999981689454,2|2,0:1|0:1,0:1:0:0:
165,170,276746,1,2,0:1:0:0:
116,147,276811,1,2,0:1:0:0:
98,94,276877,1,2,0:1:0:0:
119,47,276942,1,2,0:1:0:0:
282,34,277007,6,0,B|391:314|391:313|391:313|496:29|496:29|357:104|357:103|228:11|228:11|357:280|357:280|473:2|473:2|173:7|173:7|292:280|292:280|33:126|33:126|101:-7|101:-7|149:134|149:134|82:270|82:270|32:125|32:125|281:296|281:296|161:30|161:30|278:308|278:308|33:135|33:135|73:251|73:251|152:89|152:89|455:338|455:338,1,4800.00018310548,6|2,1:2|0:1,0:0:0:0:
381,324,279126,5,2,0:1:0:0:
383,299,279159,1,2,0:1:0:0:
385,274,279191,1,2,0:1:0:0:
387,249,279224,1,2,0:1:0:0:
271,226,279355,1,0,0:0:0:0:
43,208,279485,1,2,1:3:0:0:
276,130,279615,1,4,0:3:0:0:
152,112,279746,1,0,0:0:0:0:
364,60,279876,1,2,1:3:0:0:
488,50,280007,1,0,0:0:0:0:
247,31,280137,5,4,1:3:0:0:
368,97,280268,1,2,0:1:0:0:
369,121,280300,1,2,0:1:0:0:
370,146,280333,1,2,0:1:0:0:
371,171,280365,1,2,0:1:0:0:
373,196,280398,1,2,0:1:0:0:
135,240,280529,5,2,1:1:0:0:
111,242,280561,1,0,0:0:0:0:
86,245,280594,1,2,0:1:0:0:
284,291,280659,2,0,L|304:254,2,25,2|0|2,0:1|0:0|0:1,0:0:0:0:
105,326,280789,2,0,L|79:286,2,25,2|0|2,0:1|0:0|0:1,0:0:0:0:
274,361,280920,5,2,1:1:0:0:
298,363,280952,1,0,0:0:0:0:
323,366,280985,1,2,0:1:0:0:
494,175,281050,1,2,0:1:0:0:
470,177,281082,1,0,0:0:0:0:
445,180,281115,1,2,0:1:0:0:
230,34,281181,6,0,B|121:314|121:313|121:313|16:29|16:29|155:104|155:103|284:11|284:11|155:280|155:280|39:2|39:2|339:7|339:7|220:280|220:280|479:126|479:126|411:-7|411:-7|363:134|363:134|430:270|430:270|480:125|480:125|231:296|231:296|351:30|351:30|234:308|234:308|479:135|479:135|439:251|439:251|360:89|360:89|57:338|57:338,1,4800.00018310548,6|2,1:2|0:1,0:0:0:0:
129,257,283300,5,2,0:1:0:0:
127,232,283333,1,2,0:1:0:0:
125,207,283365,1,2,0:1:0:0:
123,182,283398,1,2,0:1:0:0:
241,226,283529,1,0,0:0:0:0:
469,208,283659,1,2,1:3:0:0:
236,130,283789,1,4,0:3:0:0:
360,112,283920,1,0,0:0:0:0:
123,59,284050,1,2,1:3:0:0:
247,49,284181,1,0,0:0:0:0:
31,119,284311,5,4,1:3:0:0:
253,217,284442,1,2,0:1:0:0:
228,216,284474,1,2,0:1:0:0:
203,216,284507,1,2,0:1:0:0:
178,215,284539,1,2,0:1:0:0:
153,215,284572,1,2,0:1:0:0:
375,292,284702,1,2,1:3:0:0:
137,356,284833,6,0,L|126:249,1,100,2|0,0:3|0:0,0:0:0:0:
379,188,285094,1,2,1:3:0:0:
125,136,285224,1,2,0:0:0:0:
479,124,285355,5,4,1:3:0:0:
256,192,290572,12,0,291485,0:0:0:0:
288,121,291615,6,0,L|270:49,1,50,8|0,1:1|0:0,0:0:0:0:
93,70,291746,2,0,L|70:-18,1,50,8|0,1:1|0:0,0:0:0:0:
355,255,292007,6,0,L|314:204,1,50,8|0,1:1|0:0,0:0:0:0:
113,203,292137,2,0,L|71:151,1,50,8|0,1:1|0:0,0:0:0:0:
398,362,292398,6,0,L|325:342,1,50,8|0,1:1|0:0,0:0:0:0:
102,309,292529,2,0,L|52:308,1,50,8|0,1:1|0:0,0:0:0:0:
398,239,292789,5,8,1:1:0:0:
30,109,293050,2,0,L|103:95,1,50,8|0,1:1|0:0,0:0:0:0:
270,181,293181,2,0,L|166:162,1,66.6666666666667,8|0,1:1|0:0,0:0:0:0:
371,85,293355,2,0,L|462:99,1,66.6666666666667,8|0,1:0|0:0,0:0:0:0:
248,273,293529,2,0,L|177:262,1,66.6666666666667,8|0,1:0|0:0,0:0:0:0:
436,349,293702,5,2,0:0:0:0:
436,349,293833,1,2,0:0:0:0:
436,349,293963,1,2,0:0:0:0:
311,360,294094,1,2,0:0:0:0:
436,349,294224,2,2,L|439:230,1,100,2|2,0:0|0:0,0:0:0:0:
311,198,294485,1,2,0:0:0:0:
72,149,294615,1,2,0:0:0:0:
309,83,294876,2,2,L|90:50,1,200,2|2,0:0|0:0,0:0:0:0:
336,203,295268,6,2,L|421:196,3,57.5000010967255,2|2|2|2,0:0|0:0|0:0|0:0,0:0:0:0:
215,340,295529,2,2,L|155:332,1,52.4999983978272,2|2,0:0|0:0,0:0:0:0:
342,84,295659,2,2,L|409:92,1,52.4999983978272,2|2,0:0|0:0,0:0:0:0:
166,228,295789,5,4,1:1:0:0:
52,182,295920,2,0,L|131:173,1,55.0000016784668,0|0,0:0|0:0,0:0:0:0:
310,297,296050,2,0,L|457:286,1,110.000003356934,10|0,1:3|0:0,0:0:0:0:
142,342,296311,2,0,L|141:223,1,110.000003356934,2|0,1:3|0:0,0:0:0:0:
424,188,296572,1,10,1:3:0:0:
141,132,296702,6,0,L|10:109,1,110.000003356934,0|2,0:0|1:3,0:0:0:0:
141,132,296963,1,0,0:0:0:0:
425,64,297094,1,10,1:3:0:0:
141,132,297224,1,0,0:0:0:0:
425,64,297355,2,0,L|297:46,1,110.000003356934,2|0,1:3|0:0,0:0:0:0:
36,109,297615,1,10,1:3:0:0:
316,48,297746,1,0,0:0:0:0:
36,109,297876,6,0,L|30:194,1,55.0000016784668,2|2,1:3|0:0,0:0:0:0:
232,178,298007,2,0,L|178:184,1,55.0000016784668,2|2,2:0|0:0,0:0:0:0:
369,254,298137,2,0,L|483:267,1,110.000003356934,10|2,1:3|2:0,0:0:0:0:
201,343,298398,2,0,L|88:330,1,110.000003356934,2|0,1:3|0:0,0:0:0:0:
370,349,298659,1,10,1:3:0:0:
92,244,298789,1,0,0:0:0:0:
373,215,298920,6,0,L|382:105,1,110.000003356934,2|2,1:1|0:1,0:1:0:0:
92,161,299181,1,10,1:1:0:0:
370,266,299311,1,0,0:0:0:0:
92,161,299442,2,2,L|201:175,1,110.000003356934,2|2,1:1|0:1,0:1:0:0:
474,249,299702,2,0,L|479:379,1,110.000003356934,10|0,1:1|0:0,0:0:0:0:
204,134,299963,6,0,L|199:25,1,110.000003356934,4|0,1:1|0:0,0:0:0:0:
465,165,300224,1,10,1:3:0:0:
192,211,300355,2,0,L|317:234,1,110.000003356934,0|2,0:0|1:3,0:0:0:0:
24,290,300616,1,0,0:0:0:0:
300,229,300746,2,0,L|430:209,1,110.000003356934,10|0,1:3|0:0,0:0:0:0:
131,213,301007,6,0,L|130:70,1,110.000003356934,2|0,1:3|0:0,0:0:0:0:
407,95,301268,1,10,1:3:0:0:
130,103,301398,1,0,0:0:0:0:
407,95,301529,2,0,L|265:72,1,110.000003356934,2|0,1:3|0:0,0:0:0:0:
23,169,301789,1,10,1:3:0:0:
33,115,301854,1,2,0:3:0:0:
71,77,301919,1,2,0:3:0:0:
129,65,301984,1,2,0:3:0:0:
346,147,302050,6,2,L|352:233,1,59.9999981689454,2|2,1:3|0:3,0:0:0:0:
118,209,302181,2,2,L|206:207,1,59.9999981689454,2|2,0:3|0:3,0:0:0:0:
397,304,302311,2,2,L|316:303,3,59.9999981689454,10|2|2|2,1:3|0:3|0:3|0:3,0:0:0:0:
115,304,302572,2,2,L|196:303,3,59.9999981689454,2|2|2|2,1:3|0:3|0:3|0:3,0:0:0:0:
346,224,302833,2,2,L|425:224,1,59.9999981689454,10|2,1:3|0:3,0:0:0:0:
170,76,302963,2,2,L|248:77,1,59.9999981689454,2|2,0:3|0:3,0:0:0:0:
463,165,303094,5,14,1:3:0:0:
168,160,303224,2,0,L|247:162,1,59.9999981689454,2|2,1:3|0:3,0:0:0:0:
455,64,303355,2,0,L|373:64,1,59.9999981689454,10|2,1:3|0:3,0:0:0:0:
176,261,303485,2,0,P|111:226|194:118,1,239.999992675781,14|0,1:3|1:0,0:0:0:0:
414,189,303876,2,2,L|500:190,1,59.9999981689454,2|2,1:3|1:3,0:3:0:0:
279,106,304007,2,2,L|357:107,1,59.9999981689454,2|2,1:3|1:3,0:3:0:0:
142,186,304137,6,0,L|12:184,1,119.999996337891,4|0,1:1|0:0,0:0:0:0:
83,184,304333,1,0,0:0:0:0:
295,259,304398,2,0,L|155:258,1,110.000003356934,10|0,1:3|0:0,0:0:0:0:
463,106,304659,2,0,L|470:230,1,110.000003356934,2|0,1:3|0:0,0:0:0:0:
191,184,304920,1,10,1:3:0:0:
469,215,305050,1,0,0:0:0:0:
191,184,305181,6,0,L|66:184,1,110.000003356934,2|0,1:3|0:0,0:0:0:0:
363,119,305442,2,0,L|372:264,1,110.000003356934,10|0,1:3|0:0,0:0:0:0:
81,182,305702,1,2,1:3:0:0:
363,119,305833,1,0,0:0:0:0:
81,182,305963,2,0,L|226:181,1,110.000003356934,10|0,1:3|0:0,0:0:0:0:
443,104,306224,6,0,L|447:167,1,55.0000016784668,2|0,1:3|0:0,0:0:0:0:
256,210,306355,2,0,L|310:209,1,55.0000016784668,0|0,0:0|0:0,0:0:0:0:
123,122,306485,2,0,L|-1:124,1,110.000003356934,10|0,1:3|0:0,0:0:0:0:
301,327,306746,2,0,L|425:329,1,110.000003356934,2|0,1:3|0:0,0:0:0:0:
123,166,307007,1,10,1:3:0:0:
411,257,307137,1,0,0:0:0:0:
123,166,307268,6,0,L|112:53,1,110.000003356934,2|2,1:3|0:1,0:0:0:0:
413,138,307529,2,0,L|257:138,1,110.000003356934,10|0,1:1|0:0,0:0:0:0:
21,65,307789,1,2,1:1:0:0:
303,138,307920,1,2,0:1:0:0:
21,65,308050,2,0,L|175:66,1,110.000003356934,8|0,1:1|0:0,0:0:0:0:
495,218,308311,6,0,B|258:111|258:111|-33:238,1,519.99997619629,14|8,1:3|1:3,0:0:0:0:
257,203,308659,1,8,1:3:0:0:
19,214,308746,1,8,1:3:0:0:
257,203,308833,2,0,B|499:108|499:108|254:16,1,519.99997619629,14|8,1:3|1:3,0:0:0:0:
24,20,309181,1,8,1:3:0:0:
255,16,309268,1,8,1:3:0:0:
485,21,309355,6,0,L|354:21,1,110.000003356934,14|0,1:3|0:0,0:0:0:0:
100,91,309615,1,8,1:3:0:0:
376,108,309746,2,0,L|508:109,1,110.000003356934,10|0,1:3|0:0,0:0:0:0:
136,108,310007,2,0,L|4:109,1,110.000003356934,10|0,1:3|0:0,0:0:0:0:
258,209,310268,2,0,L|329:209,1,55.0000016784668,2|0,1:3|1:3,0:0:0:0:
136,243,310398,6,2,L|14:243,1,110.000003356934,6|2,1:1|0:1,0:0:0:0:
316,343,310659,2,2,L|177:342,1,110.000003356934,2|2,0:1|0:1,0:0:0:0:
482,283,310920,2,0,P|461:209|332:144,1,220.000006713867,4|0,0:3|0:0,0:0:0:0:
342,50,311311,1,0,0:0:0:0:
69,80,311442,6,2,L|196:78,1,110.000003356934,6|2,1:1|0:1,0:0:0:0:
443,80,311702,2,2,L|316:78,1,110.000003356934,2|2,0:1|0:1,0:0:0:0:
443,80,311963,1,4,3:3:0:0:
174,333,312094,2,0,L|176:108,1,220.000006713867,4|0,0:3|0:0,0:0:0:0:
376,243,312485,6,2,L|498:243,1,110.000003356934,6|2,1:1|0:1,0:0:0:0:
196,343,312746,2,2,L|335:342,1,110.000003356934,2|2,0:1|0:1,0:0:0:0:
30,283,313007,2,0,P|51:209|180:144,1,220.000006713867,4|0,0:3|0:0,0:0:0:0:
170,50,313398,1,0,0:0:0:0:
435,134,313529,6,2,L|311:134,1,110.000003356934,6|2,1:1|0:1,0:0:0:0:
57,243,313789,2,2,L|193:242,1,110.000003356934,2|2,0:1|0:1,0:0:0:0:
466,241,314050,1,4,0:3:0:0:
167,242,314181,1,4,0:3:0:0:
466,241,314311,2,2,L|332:241,1,110.000003356934,2|2,0:1|0:0,0:0:0:0:
76,290,314572,5,2,1:3:0:0:
52,234,314637,1,0,1:3:0:0:
80,176,314702,1,0,1:3:0:0:
139,161,314768,1,0,1:3:0:0:
311,113,314833,2,0,L|243:113,1,55.0000016784668,2|0,1:3|1:3,0:0:0:0:
77,43,314963,2,0,L|165:44,1,55.0000016784668,0|0,1:3|1:3,0:0:0:0:
372,226,315094,5,2,1:3:0:0:
431,241,315160,1,0,1:3:0:0:
459,299,315225,1,0,1:3:0:0:
435,355,315290,1,0,1:3:0:0:
255,178,315355,2,0,L|200:178,1,55.0000016784668,2|0,1:3|1:3,0:0:0:0:
379,108,315485,2,0,L|434:108,1,55.0000016784668,0|0,1:3|1:3,0:0:0:0:
197,312,315615,6,0,L|92:312,1,55.0000016784668,2|0,1:3|1:3,0:0:0:0:
315,312,315746,2,0,L|420:312,1,55.0000016784668,0|0,1:3|1:3,0:0:0:0:
110,231,315876,2,0,L|194:229,1,55.0000016784668,2|0,1:3|1:3,0:0:0:0:
402,231,316007,2,0,L|318:229,1,55.0000016784668,0|0,1:3|1:3,0:0:0:0:
85,149,316137,6,0,L|8:149,1,55.0000016784668,2|0,1:3|1:3,0:0:0:0:
240,69,316268,2,0,L|168:69,1,55.0000016784668,0|0,1:3|1:3,0:0:0:0:
342,258,316398,2,0,L|419:258,1,55.0000016784668,2|0,1:3|1:3,0:0:0:0:
187,178,316529,2,0,L|259:178,1,55.0000016784668,0|0,1:3|1:3,0:0:0:0:
481,69,316659,5,8,1:3:0:0:
144,284,316790,1,0,1:3:0:0:
481,69,317050,5,8,1:3:0:0:
144,284,317181,1,0,1:3:0:0:
481,69,317442,5,8,1:3:0:0:
144,284,317572,1,0,1:3:0:0:
398,105,317702,6,2,L|403:193,1,55.0000016784668,10|2,0:3|0:3,0:3:0:0:
269,109,317833,2,2,L|274:197,1,55.0000016784668,6|2,0:3|0:3,0:3:0:0:
144,109,317963,2,2,L|149:197,1,55.0000016784668,10|2,0:3|0:3,0:3:0:0:
16,108,318094,2,2,L|21:196,1,55.0000016784668,6|2,0:3|0:3,0:3:0:0:
228,256,318224,2,2,L|283:256,1,55.0000016784668,14|10,0:3|0:3,0:3:0:0:
90,346,318355,2,2,L|36:348,1,55.0000016784668,10|6,0:3|0:3,0:3:0:0:
290,203,318485,2,0,L|400:205,1,110.000003356934,14|10,1:3|1:3,0:0:0:0:
66,84,318746,6,2,B|178:100|178:100|63:126,1,230.000004386902,2|8,1:3|0:3,0:0:0:0:
125,145,319072,1,8,0:3:0:0:
298,189,319137,1,8,0:3:0:0:
361,171,319202,1,8,0:3:0:0:
163,330,319268,6,0,L|52:270,1,119.999996337891,10|0,1:3|0:0,0:0:0:0:
248,255,319463,2,0,L|149:158,1,119.999996337891,10|0,1:3|0:0,0:0:0:0:
336,115,319659,2,0,L|407:111,1,59.9999981689454,10|0,1:3|0:0,0:0:0:0:
235,334,319789,6,0,L|346:274,1,119.999996337891,10|0,1:3|0:0,0:0:0:0:
150,259,319984,2,0,L|252:159,1,119.999996337891,10|0,1:3|0:0,0:0:0:0:
428,67,320180,2,0,L|359:54,1,59.9999981689454,10|0,1:3|0:0,0:0:0:0:
212,24,320311,2,0,L|307:6,1,59.9999981689454,8|0,1:3|0:0,0:0:0:0:
115,109,320442,2,0,L|36:102,1,59.9999981689454,8|0,1:3|0:0,0:0:0:0:
261,196,320572,1,8,1:3:0:0:
27,246,320702,1,8,1:3:0:0:
278,301,320833,5,2,1:3:0:0:
323,301,320865,1,0,0:0:0:0:
365,292,320898,1,0,0:0:0:0:
390,271,320931,1,0,0:0:0:0:
396,254,320963,1,0,0:0:0:0:
396,240,320996,1,0,0:0:0:0:
396,225,321029,1,0,0:0:0:0:
387,210,321061,1,0,0:0:0:0:
357,199,321094,1,0,1:3:0:0:
325,193,321126,1,0,0:0:0:0:
292,183,321159,1,0,0:0:0:0:
264,166,321191,1,0,0:0:0:0:
244,142,321224,1,0,0:0:0:0:
233,113,321257,1,0,0:0:0:0:
232,83,321289,1,0,0:0:0:0:
436,47,321355,6,0,L|311:124,1,119.999996337891,10|0,1:3|0:0,0:0:0:0:
163,233,321550,2,0,L|278:306,1,119.999996337891,10|0,1:3|0:0,0:0:0:0:
89,348,321746,2,0,L|9:315,1,59.9999981689454,10|0,1:3|0:0,0:0:0:0:
223,234,321876,6,0,L|126:142,1,119.999996337891,10|0,1:3|0:0,0:0:0:0:
315,126,322072,2,0,L|424:48,1,119.999996337891,10|0,1:3|0:0,0:0:0:0:
229,101,322268,2,0,L|222:-4,1,59.9999981689454,10|0,1:3|0:0,0:0:0:0:
379,48,322398,1,0,1:3:0:0:
225,41,322463,1,0,1:3:0:0:
68,56,322529,1,0,1:3:0:0:
225,41,322594,1,0,1:3:0:0:
379,48,322659,5,10,1:3:0:0:
412,56,322692,1,0,0:0:0:0:
431,81,322724,1,0,0:0:0:0:
432,102,322757,1,0,0:0:0:0:
429,131,322789,1,0,0:0:0:0:
417,154,322822,1,0,0:0:0:0:
379,175,322855,1,0,0:0:0:0:
203,212,322920,6,2,L|171:211,2,29.9999990844727,2|0|0,1:3|0:0|0:0,0:0:0:0:
379,254,323050,2,0,L|436:255,2,29.9999990844727,2|0|0,0:3|0:0|0:0,0:0:0:0:
233,295,323181,1,10,0:3:0:0:
88,318,323246,1,8,0:3:0:0:
241,366,323311,1,8,0:3:0:0:
270,365,323343,1,0,0:0:0:0:
300,364,323376,1,8,0:3:0:0:
86,237,323442,6,0,L|337:208,1,230.000004386902,10|0,1:3|0:0,0:0:0:0:
492,92,323637,2,0,L|331:81,1,119.999996337891,10|0,1:3|0:0,0:0:0:0:
196,109,323833,2,0,L|191:34,1,59.9999981689454,10|0,1:3|0:0,0:0:0:0:
420,352,323963,6,0,L|169:323,1,230.000004386902,10|0,1:3|0:0,0:0:0:0:
19,184,324159,2,0,L|142:163,1,119.999996337891,10|0,1:3|0:0,0:0:0:0:
321,207,324355,2,0,L|329:133,1,59.9999981689454,10|0,1:3|0:0,0:0:0:0:
141,47,324485,2,0,L|209:36,1,59.9999981689454,8|0,1:3|0:0,0:0:0:0:
389,322,324615,2,0,L|296:311,1,59.9999981689454,8|0,1:3|0:0,0:0:0:0:
128,351,324746,1,8,1:3:0:0:
420,237,324876,1,8,1:3:0:0:
123,234,325007,5,2,1:3:0:0:
94,228,325039,1,0,0:0:0:0:
63,224,325072,1,0,0:0:0:0:
93,220,325104,1,0,0:0:0:0:
116,202,325137,1,0,0:0:0:0:
125,173,325169,1,0,0:0:0:0:
116,202,325202,1,0,0:0:0:0:
93,220,325235,1,0,0:0:0:0:
63,224,325267,1,0,1:3:0:0:
253,123,325333,2,0,L|302:122,2,29.9999990844727,2|0|0,0:3|0:0|0:0,0:0:0:0:
63,224,325463,1,0,0:0:0:0:
234,264,325529,6,0,L|491:210,1,230.000004386902,10|0,1:3|0:0,0:0:0:0:
282,122,325724,2,0,L|134:84,1,119.999996337891,10|0,1:3|0:0,0:0:0:0:
374,45,325920,2,0,L|448:43,1,59.9999981689454,10|0,1:3|0:0,0:0:0:0:
179,308,326050,6,0,L|436:254,1,230.000004386902,10|0,1:3|0:0,0:0:0:0:
200,166,326246,2,0,L|61:129,1,119.999996337891,10|0,1:3|0:0,0:0:0:0:
274,95,326441,2,0,L|348:93,1,59.9999981689454,10|0,1:3|0:0,0:0:0:0:
191,42,326572,1,0,1:3:0:0:
50,48,326637,1,0,1:3:0:0:
190,126,326702,1,0,1:3:0:0:
335,147,326768,1,0,1:3:0:0:
161,245,326833,6,0,L|131:251,1,29.9999990844727,2|0,1:3|0:0,0:0:0:0:
62,352,326963,2,0,L|104:354,1,29.9999990844727,2|0,0:3|0:0,0:0:0:0:
336,361,327094,5,2,1:3:0:0:
296,357,327126,1,0,0:0:0:0:
255,360,327159,1,0,0:0:0:0:
243,336,327192,1,0,0:0:0:0:
255,360,327224,1,2,0:3:0:0:
243,336,327257,1,0,0:0:0:0:
255,360,327289,1,0,0:0:0:0:
414,327,327355,1,8,0:3:0:0:
255,360,327420,1,0,0:0:0:0:
91,253,327485,2,0,L|156:243,1,59.9999981689454,0|2,0:0|0:0,0:0:0:0:
375,235,327615,6,0,L|492:126,1,119.999996337891,10|0,1:3|0:0,0:0:0:0:
259,157,327811,2,0,L|362:52,1,119.999996337891,10|0,1:3|0:0,0:0:0:0:
163,59,328007,2,0,L|75:45,1,59.9999981689454,10|0,1:3|0:0,0:0:0:0:
281,268,328137,6,0,L|164:159,1,119.999996337891,10|0,1:3|0:0,0:0:0:0:
397,191,328333,2,0,L|299:84,1,119.999996337891,10|0,1:3|0:0,0:0:0:0:
110,353,328529,2,0,L|194:341,1,59.9999981689454,10|0,1:3|0:0,0:0:0:0:
361,360,328659,2,0,L|289:346,1,59.9999981689454,8|0,1:3|0:0,0:0:0:0:
110,315,328789,2,0,L|186:306,1,59.9999981689454,8|0,1:3|0:0,0:0:0:0:
361,282,328920,1,8,1:3:0:0:
72,217,329050,1,8,1:3:0:0:
356,255,329181,5,2,1:3:0:0:
399,249,329213,1,0,0:0:0:0:
443,246,329246,1,0,0:0:0:0:
459,217,329279,1,0,0:0:0:0:
443,186,329311,1,0,0:0:0:0:
417,171,329344,1,0,0:0:0:0:
390,162,329376,1,8,0:3:0:0:
265,135,329442,1,8,1:3:0:0:
141,127,329507,1,8,0:3:0:0:
268,95,329572,1,8,0:3:0:0:
297,92,329604,1,0,0:0:0:0:
327,90,329637,1,0,0:0:0:0:
117,103,329702,6,0,L|10:22,1,119.999996337891,10|0,1:3|0:0,0:0:0:0:
206,251,329898,2,0,L|93:179,1,119.999996337891,10|0,1:3|0:0,0:0:0:0:
290,304,330094,2,0,L|374:277,1,59.9999981689454,10|0,1:3|0:0,0:0:0:0:
162,203,330224,6,0,L|269:122,1,119.999996337891,10|0,1:3|0:0,0:0:0:0:
73,351,330420,2,0,L|186:279,1,119.999996337891,10|0,1:3|0:0,0:0:0:0:
347,219,330616,2,0,L|351:139,1,59.9999981689454,10|0,1:3|0:0,0:0:0:0:
200,122,330746,1,0,1:0:0:0:
145,120,330811,1,0,1:0:0:0:
302,120,330876,1,0,1:0:0:0:
462,124,330942,1,0,1:0:0:0:
309,14,331007,6,0,L|301:61,6,29.9999990844727,10|0|0|0|0|0|0,1:3|0:0|0:0|0:0|0:0|0:0|0:0,0:0:0:0:
168,221,331268,1,2,1:3:0:0:
194,234,331300,1,0,0:0:0:0:
221,248,331333,1,0,0:0:0:0:
247,262,331365,1,0,0:0:0:0:
274,276,331398,1,2,0:3:0:0:
300,290,331431,1,0,0:0:0:0:
327,304,331463,1,8,0:3:0:0:
186,354,331529,5,10,0:3:0:0:
47,357,331594,1,8,0:3:0:0:
201,338,331659,1,8,0:3:0:0:
230,338,331691,1,0,0:0:0:0:
260,339,331724,1,0,2:0:0:0:
69,270,331789,6,0,L|306:229,1,230.000004386902,10|0,1:3|0:0,0:0:0:0:
493,112,331985,2,0,L|346:85,1,119.999996337891,10|0,1:3|0:0,0:0:0:0:
170,141,332181,2,0,L|163:71,1,59.9999981689454,10|0,1:3|0:0,0:0:0:0:
429,45,332311,6,0,L|192:86,1,230.000004386902,10|0,1:3|0:0,0:0:0:0:
5,203,332507,2,0,L|152:230,1,119.999996337891,10|0,1:3|0:0,0:0:0:0:
329,177,332703,2,0,L|336:247,1,59.9999981689454,10|0,1:3|0:0,0:0:0:0:
148,345,332833,6,0,L|230:366,1,59.9999981689454,8|0,1:3|0:0,0:0:0:0:
395,49,332963,2,0,L|303:67,1,59.9999981689454,8|0,1:3|0:0,0:0:0:0:
167,160,333094,1,12,1:3:0:0:
325,197,333159,1,8,1:3:0:0:
484,250,333224,2,0,L|394:257,1,59.9999981689454,8|0,1:3|0:0,0:0:0:0:
189,335,333355,6,0,L|104:340,1,59.9999981689454,4|2,1:3|1:3,0:0:0:0:
265,282,333485,1,2,1:3:0:0:
400,233,333550,1,2,1:3:0:0:
228,202,333615,2,0,L|168:203,1,59.9999981689454,8|0,1:3|0:0,0:0:0:0:
323,335,333746,6,0,L|408:340,1,59.9999981689454,4|2,1:3|1:3,0:0:0:0:
247,282,333876,1,2,1:3:0:0:
112,233,333941,1,2,1:3:0:0:
284,202,334006,2,0,L|344:203,1,59.9999981689454,8|0,1:3|0:0,0:0:0:0:
196,101,334137,6,0,L|266:103,1,59.9999981689454,4|0,1:3|1:3,1:3:0:0:
420,128,334268,1,0,1:3:0:0:
258,187,334333,1,0,1:3:0:0:
93,247,334398,2,0,L|163:249,1,59.9999981689454,8|0,1:3|1:3,1:3:0:0:
316,101,334529,6,0,L|246:103,1,59.9999981689454,4|0,1:3|1:3,1:3:0:0:
88,128,334659,1,0,1:3:0:0:
254,187,334725,1,0,1:3:0:0:
429,251,334790,2,0,L|359:253,1,59.9999981689454,8|0,1:3|1:3,1:3:0:0:
183,152,334920,6,0,L|175:90,3,59.9999981689454,4|0|0|0,1:3|0:0|0:0|0:0,0:0:0:0:
404,15,335181,6,0,L|425:220,1,179.999994506836,8|0,1:3|0:0,0:0:0:0:
204,260,335442,2,0,L|113:269,1,59.9999981689454,4|0,1:1|0:0,0:0:0:0:
360,172,335572,6,0,L|487:197,1,119.999996337891,2|0,1:1|0:0,0:0:0:0:
326,261,335767,2,0,L|319:390,1,119.999996337891,2|0,1:1|0:0,0:0:0:0:
160,353,335963,2,0,L|21:333,1,119.999996337891,2|0,1:1|0:0,0:0:0:0:
207,270,336159,2,0,L|215:126,1,119.999996337891,2|0,1:1|0:0,0:0:0:0:
380,97,336354,2,0,L|518:86,1,119.999996337891,2|0,1:1|0:0,0:0:0:0:
332,34,336550,2,0,L|322:162,1,119.999996337891,2|0,1:1|0:0,0:0:0:0:
150,194,336746,2,0,L|26:212,1,119.999996337891,2|0,1:1|0:0,0:0:0:0:
240,249,336942,2,0,L|393:230,1,119.999996337891,2|0,1:1|0:0,0:0:0:0:
129,99,337137,2,0,L|2:80,1,119.999996337891,2|0,1:1|0:0,0:0:0:0:
231,72,337333,2,0,L|388:42,1,119.999996337891,2|0,1:1|0:0,0:0:0:0:
141,24,337659,6,0,L|134:153,1,119.999996337891,2|0,1:1|0:0,0:0:0:0:
311,223,337854,2,0,L|186:159,1,119.999996337891,2|0,1:1|0:0,0:0:0:0:
383,323,338050,2,0,L|503:270,1,119.999996337891,2|0,1:1|0:0,0:0:0:0:
324,253,338246,2,0,L|198:195,1,119.999996337891,2|0,1:1|0:0,0:0:0:0:
30,139,338441,2,0,L|144:88,1,119.999996337891,2|0,1:1|0:0,0:0:0:0:
316,76,338637,2,0,L|188:29,1,119.999996337891,2|0,1:1|0:0,0:0:0:0:
380,164,338833,2,0,L|502:120,1,119.999996337891,2|0,1:1|0:0,0:0:0:0:
308,264,339028,2,0,L|186:220,1,119.999996337891,2|0,1:1|0:0,0:0:0:0:
406,360,339224,2,0,L|332:338,1,59.9999981689454,2|0,1:1|0:0,0:0:0:0:
161,333,339354,2,0,L|237:321,1,59.9999981689454,2|0,1:1|0:0,0:0:0:0:
417,222,339485,2,0,L|341:209,1,59.9999981689454,2|0,1:1|0:0,0:0:0:0:
93,244,339746,6,0,L|83:89,1,119.999996337891,2|0,1:1|0:0,0:0:0:0:
275,75,339941,2,0,L|182:153,1,119.999996337891,2|0,1:1|0:0,0:0:0:0:
373,260,340137,2,0,L|272:164,1,119.999996337891,2|0,1:1|0:0,0:0:0:0:
470,190,340333,2,0,L|482:53,1,119.999996337891,2|0,1:1|0:0,0:0:0:0:
301,110,340528,2,0,L|404:22,1,119.999996337891,2|0,1:1|0:0,0:0:0:0:
209,115,340724,2,0,L|303:23,1,119.999996337891,2|0,1:1|0:0,0:0:0:0:
121,304,340919,2,0,L|-20:253,1,119.999996337891,2|0,1:1|0:0,0:0:0:0:
245,357,341115,2,0,L|480:289,1,230.000004386902,2|0,1:1|0:0,0:0:0:0:
238,253,341311,2,0,L|0:189,1,230.000004386902,2|0,1:1|0:0,0:0:0:0:
245,137,341507,2,0,L|489:82,1,230.000004386902,2|0,1:1|0:0,0:0:0:0:
188,233,341833,6,0,L|168:65,1,119.999996337891,2|0,1:1|0:0,0:0:0:0:
360,365,342028,2,0,L|230:323,1,119.999996337891,2|0,1:1|0:0,0:0:0:0:
60,220,342224,2,0,L|196:161,1,119.999996337891,2|0,1:1|0:0,0:0:0:0:
345,115,342419,2,0,L|217:93,1,119.999996337891,2|0,1:1|0:0,0:0:0:0:
420,45,342615,2,0,L|444:182,1,119.999996337891,2|0,1:1|0:0,0:0:0:0:
246,285,342811,2,0,L|368:242,1,119.999996337891,2|0,1:1|0:0,0:0:0:0:
147,327,343007,2,0,L|64:324,1,59.9999981689454,2|0,1:1|0:0,0:0:0:0:
396,357,343137,2,0,L|480:348,1,59.9999981689454,2|0,1:1|0:0,0:0:0:0:
46,238,343398,5,8,1:3:0:0:
469,196,343529,1,8,1:1:0:0:
256,192,343594,12,4,345876,0:0:0:0:
