osu file format v14

[General]
AudioFilename: audio.mp3
AudioLeadIn: 0
PreviewTime: 293703
Countdown: 0
SampleSet: Normal
StackLeniency: 0.7
Mode: 1
LetterboxInBreaks: 0
WidescreenStoryboard: 0

[Editor]
Bookmarks: 38703,46399,136138,143834,286008,291356
DistanceSpacing: 3
BeatDivisor: 4
GridSize: 32
TimelineZoom: 2.9

[Metadata]
Title:Kisaragi
TitleUnicode:Kisaragi
Artist:Camellia
ArtistUnicode:かめりあ
Creator:Servatory
Version:Interdimensional Travelers
Source:
Tags:Electronic Hardcore Artcore Instrumental Cametek Kamel camellia KamelCamellia UUFO U.U.F.O featured artist fa
BeatmapID:3876065
BeatmapSetID:1882660

[Difficulty]
HPDrainRate:4
CircleSize:5
OverallDifficulty:6.6
ApproachRate:5
SliderMultiplier:1.4
SliderTickRate:1

[Events]
//Background and Video events
0,0,"blue space.jpg",0,0
//Break Periods
2,169730,180982
2,203703,209677
//Storyboard Layer 0 (Background)
//Storyboard Layer 1 (Fail)
//Storyboard Layer 2 (Pass)
//Storyboard Layer 3 (Foreground)
//Storyboard Layer 4 (Overlay)
//Storyboard Sound Samples

[TimingPoints]
3617,260.869565217391,4,1,0,90,1,0
3617,-66.6666666666667,4,1,0,90,0,0
4658,-125.079244956619,4,1,0,90,0,0
5702,-175.331456987182,4,1,0,90,0,0
6745,-250.176102931299,4,1,0,90,0,0
7789,-66.6666666666667,4,1,0,90,0,0
8832,-124.380196660393,4,1,0,90,0,0
9876,-174.819634934432,4,1,0,90,0,0
10919,-250.177603355777,4,1,0,90,0,0
11962,-166.743611463271,4,1,0,80,0,0
26310,-166.5778,4,1,0,80,0,0
26441,-160.87505,4,1,0,80,0,0
26571,-155.40886,4,1,0,80,0,0
26701,-150.1284,4,1,0,80,0,0
26832,-144.98878,4,1,0,80,0,0
26962,-140.06236,4,1,0,80,0,0
27093,-135.26736,4,1,0,80,0,0
27484,-121.909836,4,1,0,80,0,0
27549,-119.82081,4,1,0,81,0,0
27614,-117.76759,4,1,0,81,0,0
27680,-115.71878,4,1,0,82,0,0
27745,-113.73585,4,1,0,82,0,0
27810,-111.786896,4,1,0,83,0,0
27875,-109.871346,4,1,0,84,0,0
27941,-107.95991,4,1,0,84,0,0
28006,-106.10994,4,1,0,85,0,0
28071,-104.29166,4,1,0,85,0,0
28136,-102.50454,4,1,0,86,0,0
28201,-100.74805,4,1,0,86,0,0
28267,-98.99532,4,1,0,87,0,0
28332,-97.298965,4,1,0,88,0,0
28397,-95.63167,4,1,0,88,0,0
28462,-93.99294,4,1,0,89,0,0
28528,-92.35774,4,1,0,89,0,0
28593,-90.77512,4,1,0,90,0,0
28660,-66.6666666666667,4,1,0,100,0,0
29701,-71.443954,4,1,0,100,0,0
30354,-73.99417,4,1,0,100,0,0
30745,-75.56454,4,1,0,100,0,0
31397,-78.257645,4,1,0,100,0,0
31593,-79.08583,4,1,0,100,0,0
31788,-79.9185,4,1,0,100,0,0
32180,-81.61898,4,1,0,100,0,0
32571,-83.35118,4,1,0,100,0,0
33875,-71.442116,4,1,0,100,0,0
34528,-73.68176,4,1,0,100,0,0
34919,-75.05627,4,1,0,100,0,0
35571,-77.40555,4,1,0,100,0,0
35767,-78.12605,4,1,0,100,0,0
35962,-78.849525,4,1,0,100,0,0
36354,-80.32424,4,1,0,100,0,0
36745,-81.82266,4,1,0,100,0,0
36941,-82.584274,4,1,0,100,0,0
37136,-83.34904,4,1,0,100,0,0
37397,-111.03517,4,1,0,80,0,0
37462,-108.59509,4,1,0,81,0,0
37528,-106.172325,4,1,0,82,0,0
37593,-103.83913,4,1,0,83,0,0
37658,-101.55719,4,1,0,84,0,0
37723,-99.325386,4,1,0,85,0,0
37788,-97.14264,4,1,0,86,0,0
37854,-94.97539,4,1,0,87,0,0
37919,-92.88823,4,1,0,88,0,0
37984,-90.846954,4,1,0,89,0,0
38049,-71.443954,4,1,0,100,0,0
38701,-73.9902,4,1,0,100,0,0
39093,-75.56454,4,1,0,100,0,0
39745,-78.257645,4,1,0,100,0,0
39941,-79.08583,4,1,0,100,0,0
40136,-79.9185,4,1,0,100,0,0
40528,-81.61898,4,1,0,100,0,0
40919,-83.35118,4,1,0,100,0,0
42223,-71.44753,4,1,0,100,0,0
42875,-74.59087,4,1,0,100,0,0
43267,-76.54691,4,1,0,100,0,0
43919,-79.9146,4,1,0,100,0,0
44114,-80.950294,4,1,0,100,0,0
44310,-82.00483,4,1,0,100,0,0
44701,-84.149734,4,1,0,100,0,0
45093,-86.35645,4,1,0,100,0,0
45288,-87.47563,4,1,0,100,0,0
45484,-88.61518,4,1,0,100,0,0
45680,-89.76956,4,1,0,100,0,0
45875,-90.932976,4,1,0,100,0,0
46397,-83.3333333333333,4,1,0,90,0,0
46658,-166.65302,4,1,0,80,0,0
46788,-166.21223,4,1,0,80,0,0
46919,-165.76929,4,1,0,80,0,0
47049,-165.33087,4,1,0,80,0,0
47180,-164.89024,4,1,0,80,0,0
47310,-164.45415,4,1,0,80,0,0
47441,-164.01587,4,1,0,80,0,0
47571,-163.58208,4,1,0,80,0,0
47701,-163.14943,4,1,0,80,0,0
47832,-162.71461,4,1,0,80,0,0
47962,-162.28427,4,1,0,80,0,0
48093,-161.8518,4,1,0,80,0,0
48223,-161.42372,4,1,0,80,0,0
48354,-160.99352,4,1,0,80,0,0
48484,-160.56772,4,1,0,80,0,0
48745,-159.71625,4,1,0,80,0,0
48875,-159.29384,4,1,0,80,0,0
49006,-158.86931,4,1,0,80,0,0
49136,-158.44913,4,1,0,80,0,0
49267,-158.02687,4,1,0,80,0,0
49397,-157.6089,4,1,0,80,0,0
49528,-157.18886,4,1,0,80,0,0
49658,-156.77313,4,1,0,80,0,0
49788,-156.3585,4,1,0,80,0,0
49919,-155.94179,4,1,0,80,0,0
50049,-155.52937,4,1,0,80,0,0
50180,-155.11485,4,1,0,80,0,0
50310,-154.70464,4,1,0,80,0,0
50441,-154.2923,4,1,0,80,0,0
50571,-153.88425,4,1,0,80,0,0
50832,-153.06822,4,1,0,80,0,0
50962,-152.66339,4,1,0,80,0,0
51093,-152.25653,4,1,0,80,0,0
51223,-151.85382,4,1,0,80,0,0
51354,-151.44914,4,1,0,80,0,0
51484,-151.0486,4,1,0,80,0,0
51614,-150.6491,4,1,0,80,0,0
51745,-150.24759,4,1,0,80,0,0
51875,-149.85022,4,1,0,80,0,0
52006,-149.45087,4,1,0,80,0,0
52136,-149.05559,4,1,0,80,0,0
52267,-148.65837,4,1,0,80,0,0
52397,-148.26518,4,1,0,80,0,0
52528,-147.87004,4,1,0,80,0,0
52658,-147.47896,4,1,0,80,0,0
52919,-146.6969,4,1,0,80,0,0
53049,-146.30893,4,1,0,80,0,0
53180,-145.919,4,1,0,80,0,0
53310,-145.53308,4,1,0,80,0,0
53441,-145.1452,4,1,0,80,0,0
53571,-144.76132,4,1,0,80,0,0
53701,-144.37848,4,1,0,80,0,0
53832,-143.99368,4,1,0,80,0,0
53962,-143.61284,4,1,0,80,0,0
54093,-143.23012,4,1,0,80,0,0
54223,-83.3333333333333,4,1,0,80,0,0
54745,-124.98586,4,1,0,90,0,0
55006,-124.06916,4,1,0,90,0,0
55136,-123.61508,4,1,0,90,0,0
55201,-123.388664,4,1,0,90,0,0
55267,-123.159195,4,1,0,90,0,0
55397,-122.70844,4,1,0,90,0,0
55528,-122.2559,4,1,0,90,0,0
55593,-122.03196,4,1,0,90,0,0
55658,-121.80845,4,1,0,90,0,0
55723,-121.58535,4,1,0,90,0,0
55788,-121.36264,4,1,0,90,0,0
55919,-120.91506,4,1,0,90,0,0
56049,-120.47252,4,1,0,90,0,0
56180,-120.02821,4,1,0,90,0,0
56245,-119.80837,4,1,0,90,0,0
56310,-119.588936,4,1,0,90,0,0
56441,-119.14789,4,1,0,90,0,0
56506,-118.92966,4,1,0,90,0,0
56571,-118.711815,4,1,0,90,0,0
56701,-118.27733,4,1,0,90,0,0
56832,-117.84113,4,1,0,90,0,0
57093,-116.97684,4,1,0,90,0,0
57223,-116.54871,4,1,0,90,0,0
57354,-116.11889,4,1,0,90,0,0
57484,-115.69389,4,1,0,90,0,0
57549,-115.481995,4,1,0,90,0,0
57614,-115.27046,4,1,0,90,0,0
57745,-114.84536,4,1,0,90,0,0
57875,-114.42503,4,1,0,90,0,0
57941,-114.21223,4,1,0,90,0,0
58006,-114.00303,4,1,0,90,0,0
58071,-113.79421,4,1,0,90,0,0
58136,-113.5858,4,1,0,90,0,0
58267,-113.166885,4,1,0,90,0,0
58397,-112.75271,4,1,0,90,0,0
58528,-112.336876,4,1,0,90,0,0
58593,-112.13112,4,1,0,90,0,0
58658,-111.925735,4,1,0,90,0,0
58788,-111.5161,4,1,0,90,0,0
58919,-111.10483,4,1,0,90,0,0
59049,-109.77121,4,1,0,90,0,0
59180,-108.45745,4,1,0,90,0,0
59310,-107.16926,4,1,0,90,0,0
59441,-105.88664,4,1,0,90,0,0
59571,-104.62898,4,1,0,90,0,0
59701,-103.38628,4,1,0,90,0,0
59832,-102.14893,4,1,0,90,0,0
59962,-100.93567,4,1,0,90,0,0
60093,-99.727646,4,1,0,90,0,0
60223,-98.54317,4,1,0,90,0,0
60354,-97.36378,4,1,0,90,0,0
60484,-96.20736,4,1,0,90,0,0
60614,-95.06467,4,1,0,90,0,0
60745,-93.92691,4,1,0,90,0,0
60875,-92.81131,4,1,0,90,0,0
61006,-91.70052,4,1,0,90,0,0
61071,-91.15431,4,1,0,90,0,0
61136,-90.61137,4,1,0,90,0,0
61201,-90.07164,4,1,0,90,0,0
61267,-89.526924,4,1,0,90,0,0
61332,-88.99366,4,1,0,90,0,0
61397,-88.46358,4,1,0,90,0,0
61462,-87.936646,4,1,0,90,0,0
61528,-87.40482,4,1,0,90,0,0
61593,-86.8842,4,1,0,90,0,0
61658,-86.3667,4,1,0,90,0,0
61723,-85.85225,4,1,0,90,0,0
61788,-85.34087,4,1,0,90,0,0
61854,-84.82476,4,1,0,90,0,0
61919,-84.3195,4,1,0,90,0,0
61984,-83.81727,4,1,0,90,0,0
62049,-83.31802,4,1,0,90,0,0
63095,-100,4,1,0,100,0,1
70919,-83.3333369444446,4,1,0,100,0,1
71114,-92.7100081276867,4,1,0,100,0,1
71310,-103.299554125758,4,1,0,100,0,1
71443,-111.111111111111,4,1,0,100,0,0
71571,-100,4,1,0,100,0,0
71703,-90.9090952066118,4,1,0,100,0,1
71834,-100,4,1,0,100,0,1
75614,-76.934906,4,1,0,100,0,1
75875,-77.708885,4,1,0,100,0,1
76006,-78.100296,4,1,0,100,0,1
76267,-78.88602,4,1,0,100,0,1
76397,-79.28031,4,1,0,100,0,1
76528,-79.679634,4,1,0,100,0,1
76723,-80.27777,4,1,0,100,0,1
76919,-80.88351,4,1,0,100,0,1
77114,-81.490685,4,1,0,100,0,1
77310,-82.10557,4,1,0,100,0,1
77441,-82.51913,4,1,0,100,0,1
77571,-82.93159,4,1,0,100,0,1
77701,-83.3461,4,1,0,100,0,1
77962,-80.169815,4,1,0,100,0,1
78093,-78.63617,4,1,0,100,0,1
78354,-75.667496,4,1,0,100,0,1
78549,-73.5229,4,1,0,100,0,1
78747,-71.42856,4,1,0,100,0,0
79658,-111.111111111111,4,1,0,100,0,0
79723,-106.382978723404,4,1,0,100,0,0
79790,-100,4,1,0,100,0,1
79919,-111.111111111111,4,1,0,100,0,1
88006,-111.111111111111,4,1,0,100,0,1
88071,-106.382978723404,4,1,0,100,0,1
88136,-100,4,1,0,100,0,1
88267,-111.111111111111,4,1,0,100,0,1
94528,-76.938835,4,1,0,100,0,1
94658,-77.4521,4,1,0,100,0,1
94919,-78.492935,4,1,0,100,0,1
95049,-79.01655,4,1,0,100,0,1
95310,-80.07841,4,1,0,100,0,1
95441,-80.61673,4,1,0,100,0,1
95701,-81.69591,4,1,0,100,0,1
95832,-82.24511,4,1,0,100,0,1
96093,-83.35035,4,1,0,100,0,1
96223,-100.107574,4,1,0,100,0,1
96288,-103.66725,4,1,0,100,0,1
96354,-107.41125,4,1,0,100,0,1
96419,-111.230644,4,1,0,100,0,1
96486,-76.9230769230769,4,1,0,100,0,0
97136,-142.92456,4,1,0,80,0,0
97180,-143.66818,4,1,0,80,0,0
97223,-144.39865,4,1,0,80,0,0
97267,-145.14996,4,1,0,80,0,0
97397,-147.39262,4,1,0,80,0,0
97528,-149.68758,4,1,0,80,0,0
97658,-152.00035,4,1,0,80,0,0
97788,-154.34886,4,1,0,80,0,0
97919,-156.7521,4,1,0,80,0,0
97962,-157.54912,4,1,0,80,0,0
98006,-158.36882,4,1,0,80,0,0
98049,-159.17404,4,1,0,80,0,0
98180,-161.65245,4,1,0,80,0,0
98310,-164.15009,4,1,0,80,0,0
98441,-166.70596,4,1,0,80,0,0
98571,-71.443924,4,1,0,90,0,0
98701,-72.448616,4,1,0,90,0,0
98962,-74.50862,4,1,0,90,0,0
99093,-75.56454,4,1,0,90,0,0
99354,-77.713135,4,1,0,90,0,0
99484,-78.806,4,1,0,90,0,0
99745,-81.04677,4,1,0,90,0,0
100006,-83.35124,4,1,0,90,0,0
100265,-161.290322580645,4,1,0,80,0,0
100397,-163.934426229508,4,1,0,80,0,0
100528,-166.666666666667,4,1,0,80,0,0
100658,-66.6666666666667,4,1,0,90,0,0
101310,-142.92459,4,1,0,80,0,0
101441,-145.1517,4,1,0,80,0,0
101571,-147.39612,4,1,0,80,0,0
101614,-148.1461,4,1,0,80,0,0
101658,-148.91751,4,1,0,80,0,0
101701,-149.67525,4,1,0,80,0,0
101832,-152.00755,4,1,0,80,0,0
101962,-154.35797,4,1,0,80,0,0
102093,-156.76324,4,1,0,80,0,0
102136,-157.56091,4,1,0,80,0,0
102180,-158.38132,4,1,0,80,0,0
102223,-159.18721,4,1,0,80,0,0
102354,-161.66776,4,1,0,80,0,0
102484,-164.16753,4,1,0,80,0,0
102614,-166.706,4,1,0,80,0,0
102745,-71.443924,4,1,0,90,0,0
102875,-72.448616,4,1,0,90,0,0
103136,-74.50862,4,1,0,90,0,0
103267,-75.56454,4,1,0,90,0,0
103528,-77.713135,4,1,0,90,0,0
103658,-78.806,4,1,0,90,0,0
103919,-81.04677,4,1,0,90,0,0
104180,-83.35124,4,1,0,90,0,0
104439,-161.290322580645,4,1,0,80,0,0
104571,-163.934426229508,4,1,0,80,0,0
104701,-166.666666666667,4,1,0,80,0,0
104832,-76.9230769230769,4,1,0,90,0,0
105484,-142.89085,4,1,0,80,0,0
105614,-145.10033,4,1,0,80,0,0
105658,-145.85587,4,1,0,80,0,0
105701,-146.598,4,1,0,80,0,0
105745,-147.36134,4,1,0,80,0,0
105875,-149.63992,4,1,0,80,0,0
106006,-151.9717,4,1,0,80,0,0
106136,-154.32156,4,1,0,80,0,0
106180,-155.1251,4,1,0,80,0,0
106223,-155.91443,4,1,0,80,0,0
106267,-156.72627,4,1,0,80,0,0
106397,-159.14966,4,1,0,80,0,0
106528,-161.6296,4,1,0,80,0,0
106658,-164.12881,4,1,0,80,0,0
106788,-166.66666,4,1,0,80,0,0
106919,-71.443924,4,1,0,90,0,0
107049,-72.448616,4,1,0,90,0,0
107310,-74.50862,4,1,0,90,0,0
107441,-75.56454,4,1,0,90,0,0
107701,-77.70479,4,1,0,90,0,0
107832,-78.806,4,1,0,90,0,0
108093,-81.04677,4,1,0,90,0,0
108354,-83.35124,4,1,0,90,0,0
108612,-161.290322580645,4,1,0,80,0,0
108745,-163.934426229508,4,1,0,80,0,0
108875,-166.666666666667,4,1,0,80,0,0
109006,-66.6666666666667,4,1,0,90,0,0
109658,-142.70398,4,1,0,80,0,0
109701,-142.01213,4,1,0,80,0,0
109745,-141.3077,4,1,0,80,0,0
109788,-140.62263,4,1,0,80,0,0
109919,-138.55597,4,1,0,80,0,0
110049,-136.53511,4,1,0,80,0,0
110180,-134.52853,4,1,0,80,0,0
110310,-132.56642,4,1,0,80,0,0
110441,-130.61816,4,1,0,80,0,0
110571,-128.71309,4,1,0,80,0,0
110701,-126.83579,4,1,0,80,0,0
110832,-124.971756,4,1,0,80,0,0
111093,-100.01709,4,1,0,80,0,0
111223,-101.134346,4,1,0,80,0,0
111484,-103.415276,4,1,0,80,0,0
111614,-104.57049,4,1,0,80,0,0
111875,-106.92892,4,1,0,80,0,0
112006,-108.132614,4,1,0,80,0,0
112267,-110.57137,4,1,0,80,0,0
112397,-111.806526,4,1,0,80,0,0
112658,-114.32815,4,1,0,80,0,0
112788,-115.60527,4,1,0,80,0,0
112919,-116.90664,4,1,0,80,0,0
113049,-118.21257,4,1,0,80,0,0
113180,-119.54328,4,1,0,80,0,0
113441,-122.23941,4,1,0,80,0,0
113571,-123.6049,4,1,0,80,0,0
113832,-126.3926,4,1,0,80,0,0
113962,-127.8045,4,1,0,80,0,0
114223,-130.68694,4,1,0,80,0,0
114354,-132.15807,4,1,0,80,0,0
114614,-135.12715,4,1,0,80,0,0
114745,-136.64827,4,1,0,80,0,0
115006,-139.73018,4,1,0,80,0,0
115136,-141.29105,4,1,0,80,0,0
115267,-142.88156,4,1,0,80,0,0
115332,-140.73251,4,1,0,80,0,0
115397,-138.70148,4,1,0,81,0,0
115462,-136.6998,4,1,0,81,0,0
115528,-134.69685,4,1,0,81,0,0
115593,-132.75294,4,1,0,82,0,0
115658,-130.83708,4,1,0,82,0,0
115723,-128.94888,4,1,0,82,0,0
115788,-127.08792,4,1,0,82,0,0
115854,-125.225815,4,1,0,83,0,0
115919,-123.4186,4,1,0,83,0,0
115984,-121.637436,4,1,0,83,0,0
116049,-119.882,4,1,0,84,0,0
116114,-118.1519,4,1,0,84,0,0
116180,-116.42072,4,1,0,84,0,0
116245,-114.74057,4,1,0,85,0,0
116310,-113.08466,4,1,0,85,0,0
116375,-111.45266,4,1,0,85,0,0
116441,-109.81964,4,1,0,86,0,0
116506,-108.23475,4,1,0,86,0,0
116571,-106.672745,4,1,0,86,0,0
116636,-105.13326,4,1,0,87,0,0
116701,-103.61601,4,1,0,87,0,0
116767,-102.09782,4,1,0,87,0,0
116832,-100.62437,4,1,0,88,0,0
116897,-99.17218,4,1,0,88,0,0
116962,-97.74096,4,1,0,88,0,0
117028,-96.30885,4,1,0,88,0,0
117093,-94.918945,4,1,0,89,0,0
117158,-93.5491,4,1,0,89,0,0
117223,-92.19902,4,1,0,89,0,0
117288,-90.86843,4,1,0,90,0,0
117356,-66.6666666666667,4,1,0,90,0,0
119443,-100,4,1,0,100,0,1
126745,-83.3333369444446,4,1,0,100,0,1
126941,-87.915176037023,4,1,0,100,0,1
127136,-92.7450177738799,4,1,0,100,0,1
127267,-96.150886441054,4,1,0,100,0,1
127462,-101.475380009557,4,1,0,100,0,1
127658,-107.153369959517,4,1,0,100,0,1
127790,-111.111111111111,4,1,0,90,0,0
127919,-100,4,1,0,90,0,0
128051,-90.9090909090909,4,1,0,100,0,1
128182,-100,4,1,0,100,0,1
129877,-100,4,1,0,100,0,0
130006,-100,4,1,0,90,0,0
130071,-96.1538461538461,4,1,0,90,0,0
130138,-90.9090909090909,4,1,0,100,0,1
130269,-100,4,1,0,100,0,1
130919,-76.947716,4,1,0,100,0,1
131114,-79.38892,4,1,0,98,0,1
131310,-81.920685,4,1,0,97,0,1
131441,-83.657684,4,1,0,95,0,1
131636,-86.31176,4,1,0,93,0,1
131832,-89.06431,4,1,0,92,0,1
131962,-90.93821,4,1,0,90,0,1
132223,-111.08121,4,1,0,90,0,1
132354,-109.140305,4,1,0,90,0,1
132419,-108.189865,4,1,0,90,0,1
132484,-107.24773,4,1,0,90,0,1
132549,-106.3138,4,1,0,90,0,1
132614,-105.387985,4,1,0,90,0,1
132680,-104.45618,4,1,0,90,0,1
132745,-103.54654,4,1,0,90,0,1
132810,-102.64484,4,1,0,90,0,1
132875,-101.75098,4,1,0,90,0,1
132941,-100.85133,4,1,0,90,0,1
133006,-99.97309,4,1,0,90,0,1
133267,-111.08117,4,1,0,90,0,1
133397,-109.152504,4,1,0,90,0,1
133462,-108.20077,4,1,0,90,0,1
133528,-107.242874,4,1,0,90,0,1
133593,-106.307785,4,1,0,90,0,1
133658,-105.38086,4,1,0,90,0,1
133723,-104.462006,4,1,0,90,0,1
133788,-103.551155,4,1,0,90,0,1
133854,-102.63443,4,1,0,90,0,1
133919,-101.73953,4,1,0,90,0,1
133984,-100.85242,4,1,0,90,0,1
134049,-99.97305,4,1,0,90,0,1
134310,-111.08129,4,1,0,90,0,1
134441,-109.14528,4,1,0,90,0,1
134506,-108.19721,4,1,0,90,0,1
134571,-107.2574,4,1,0,90,0,1
134636,-106.325745,4,1,0,90,0,1
134702,-105.38803,4,1,0,90,0,1
134767,-104.47261,4,1,0,90,0,1
134832,-103.56515,4,1,0,90,0,1
134897,-102.66556,4,1,0,90,0,1
134962,-101.77378,4,1,0,90,0,1
135028,-100.87622,4,1,0,90,0,1
135093,-99.999985,4,1,0,90,0,1
135288,-97.96942,4,1,0,80,0,1
135354,-97.29152,4,1,0,80,0,1
135484,-95.96996,4,1,0,80,0,1
135549,-95.31594,4,1,0,80,0,1
135614,-94.66637,4,1,0,80,0,1
135745,-93.37064,4,1,0,80,0,1
135810,-92.73433,4,1,0,80,0,1
135941,-91.46505,4,1,0,80,0,1
136006,-90.84171,4,1,0,80,0,1
136137,-250.00914,4,1,0,100,0,1
136267,-76.92308,4,1,0,100,0,1
136462,-75.71377,4,1,0,100,0,1
136658,-74.51741,4,1,0,100,0,1
136854,-73.33996,4,1,0,100,0,1
137049,-72.18698,4,1,0,100,0,1
137180,-254.82207,4,1,0,100,0,1
137245,-71.04636,4,1,0,100,0,1
137441,-69.923744,4,1,0,100,0,1
137636,-68.82448,4,1,0,100,0,1
137832,-67.736984,4,1,0,100,0,1
138028,-66.666664,4,1,0,100,0,1
138224,-259.73242,4,1,0,100,0,1
138354,-76.92308,4,1,0,100,0,1
138549,-75.756485,4,1,0,100,0,1
138745,-74.60174,4,1,0,100,0,1
138940,-73.47035,4,1,0,100,0,1
139136,-72.35046,4,1,0,100,0,1
139267,-264.7325,4,1,0,100,0,1
139331,-71.25321,4,1,0,100,0,1
139528,-70.16161,4,1,0,100,0,1
139723,-69.097565,4,1,0,100,0,1
139919,-68.04432,4,1,0,100,0,1
140049,-67.354614,4,1,0,100,0,1
140180,-66.666664,4,1,0,100,0,1
140311,-269.83383,4,1,0,100,0,1
140441,-76.92308,4,1,0,100,0,1
140636,-75.71308,4,1,0,100,0,1
140832,-74.51607,4,1,0,100,0,1
141028,-73.337975,4,1,0,100,0,1
141223,-72.184364,4,1,0,100,0,1
141354,-275.0284,4,1,0,100,0,1
141418,-71.04892,4,1,0,100,0,1
141614,-69.925644,4,1,0,100,0,1
141810,-68.82013,4,1,0,100,0,1
142006,-67.732086,4,1,0,100,0,1
142201,-66.666664,4,1,0,100,0,1
142398,-280.32813,4,1,0,100,0,1
142528,-76.92308,4,1,0,100,0,1
142723,-75.294464,4,1,0,100,0,1
142919,-73.692245,4,1,0,100,0,1
143114,-72.13204,4,1,0,100,0,1
143310,-70.597115,4,1,0,100,0,1
143441,-285.72473,4,1,0,100,0,1
143506,-69.09486,4,1,0,100,0,1
143701,-67.63198,4,1,0,100,0,1
143832,-66.666664,4,1,0,100,0,1
144486,-83.3333333333333,4,1,0,90,0,0
144745,-199.96379,4,1,0,80,0,0
145006,-197.61578,4,1,0,80,0,0
145267,-195.29536,4,1,0,80,0,0
145528,-193.0022,4,1,0,80,0,0
145788,-190.74458,4,1,0,80,0,0
146049,-188.50482,4,1,0,80,0,0
146310,-186.29138,4,1,0,80,0,0
146571,-184.10393,4,1,0,80,0,0
146832,-181.94214,4,1,0,80,0,0
147093,-179.80577,4,1,0,80,0,0
147354,-177.69446,4,1,0,80,0,0
147614,-175.6159,4,1,0,80,0,0
147875,-173.55382,4,1,0,80,0,0
148136,-171.51593,4,1,0,80,0,0
148397,-169.50197,4,1,0,80,0,0
148462,-169.00407,4,1,0,80,0,0
148528,-168.50005,4,1,0,80,0,0
148593,-168.00511,4,1,0,80,0,0
148658,-167.51166,4,1,0,80,0,0
148919,-165.54472,4,1,0,80,0,0
149180,-163.60086,4,1,0,80,0,0
149441,-161.67986,4,1,0,80,0,0
149701,-159.78859,4,1,0,80,0,0
149962,-157.91235,4,1,0,80,0,0
150223,-156.0581,4,1,0,80,0,0
150484,-154.22568,4,1,0,80,0,0
150745,-152.41473,4,1,0,80,0,0
151006,-150.62508,4,1,0,80,0,0
151267,-148.85643,4,1,0,80,0,0
151528,-147.10852,4,1,0,80,0,0
151788,-145.38774,4,1,0,80,0,0
151919,-144.52837,4,1,0,80,0,0
152049,-143.68056,4,1,0,80,0,0
152180,-142.83128,4,1,0,80,0,0
152832,-100.1148,4,1,0,90,0,0
152875,-102.61505,4,1,0,90,0,0
152919,-105.2381,4,1,0,90,0,0
152962,-107.866295,4,1,0,90,0,0
153028,-112.02853,4,1,0,90,0,0
153093,-116.284645,4,1,0,90,0,0
153158,-120.70245,4,1,0,90,0,0
153223,-125.2881,4,1,0,90,0,0
153354,-71.53162,4,1,0,100,0,0
153549,-73.18648,4,1,0,100,0,0
153745,-74.88841,4,1,0,100,0,0
153875,-76.03902,4,1,0,100,0,0
154071,-77.80729,4,1,0,100,0,0
154267,-79.616684,4,1,0,100,0,0
154397,-80.83993,4,1,0,100,0,0
154528,-82.0916,4,1,0,100,0,0
154658,-83.35288,4,1,0,100,0,0
154919,-100,4,1,0,100,0,0
154962,-102.48437,4,1,0,100,0,0
155006,-105.090416,4,1,0,100,0,0
155049,-107.70124,4,1,0,100,0,0
155114,-111.7715,4,1,0,100,0,0
155180,-116.0618,4,1,0,100,0,0
155245,-120.44801,4,1,0,100,0,0
155310,-125,4,1,0,100,0,0
155441,-71.46245,4,1,0,100,0,0
155636,-73.128876,4,1,0,100,0,0
155832,-74.84302,4,1,0,100,0,0
155962,-76.00205,4,1,0,100,0,0
156158,-77.78353,4,1,0,100,0,0
156354,-79.60678,4,1,0,100,0,0
156484,-80.91264,4,1,0,100,0,0
156549,-83.323784,4,1,0,100,0,0
156614,-85.80678,4,1,0,100,0,0
156680,-88.403694,4,1,0,100,0,0
156745,-91.03805,4,1,0,100,0,0
157006,-100.113625,4,1,0,100,0,0
157049,-102.588,4,1,0,100,0,0
157093,-105.18324,4,1,0,100,0,0
157136,-107.78291,4,1,0,100,0,0
157201,-111.835144,4,1,0,100,0,0
157267,-116.10562,4,1,0,100,0,0
157332,-120.47075,4,1,0,100,0,0
157397,-125,4,1,0,100,0,0
157528,-71.49799,4,1,0,100,0,0
157723,-73.157234,4,1,0,100,0,0
157919,-74.863785,4,1,0,100,0,0
158049,-76.017586,4,1,0,100,0,0
158245,-77.790855,4,1,0,100,0,0
158441,-79.605484,4,1,0,100,0,0
158571,-80.83236,4,1,0,100,0,0
158701,-82.078156,4,1,0,100,0,0
158832,-83.35294,4,1,0,100,0,0
159093,-100.09306,4,1,0,100,0,0
159136,-102.588,4,1,0,100,0,0
159180,-105.18324,4,1,0,100,0,0
159223,-107.78291,4,1,0,100,0,0
159288,-111.835144,4,1,0,100,0,0
159354,-116.10562,4,1,0,100,0,0
159419,-120.47075,4,1,0,100,0,0
159484,-125,4,1,0,100,0,0
159614,-71.46243,4,1,0,100,0,0
159810,-73.1362,4,1,0,100,0,0
160006,-74.84918,4,1,0,100,0,0
160136,-76.007416,4,1,0,100,0,0
160332,-77.787636,4,1,0,100,0,0
160528,-79.609566,4,1,0,100,0,0
160658,-80.91451,4,1,0,100,0,0
160723,-83.325226,4,1,0,100,0,0
160788,-85.807755,4,1,0,100,0,0
160854,-88.40417,4,1,0,100,0,0
160919,-91.03801,4,1,0,100,0,0
161180,-125.18408,4,1,0,100,0,0
161223,-129.20792,4,1,0,100,0,0
161267,-133.45927,4,1,0,100,0,0
161310,-137.74911,4,1,0,100,0,0
161375,-144.49695,4,1,0,100,0,0
161441,-151.68692,4,1,0,100,0,0
161506,-159.1175,4,1,0,100,0,0
161571,-166.91211,4,1,0,100,0,0
161701,-125.23647,4,1,0,100,0,0
161897,-130.73772,4,1,0,100,0,0
162093,-136.48062,4,1,0,100,0,0
162223,-140.42816,4,1,0,100,0,0
162419,-146.59673,4,1,0,100,0,0
162614,-153.0027,4,1,0,100,0,0
162745,-157.46266,4,1,0,100,0,0
162875,-162.01709,4,1,0,100,0,0
163006,-166.7398,4,1,0,100,0,0
163267,-125.18408,4,1,0,100,0,0
163310,-129.20792,4,1,0,100,0,0
163354,-133.45927,4,1,0,100,0,0
163397,-137.74911,4,1,0,100,0,0
163462,-144.49695,4,1,0,100,0,0
163528,-151.68692,4,1,0,100,0,0
163593,-159.1175,4,1,0,100,0,0
163658,-166.91211,4,1,0,100,0,0
163788,-125.111565,4,1,0,100,0,0
163984,-130.63538,4,1,0,100,0,0
164180,-136.40308,4,1,0,100,0,0
164310,-140.36836,4,1,0,100,0,0
164506,-146.56578,4,1,0,100,0,0
164701,-153.00308,4,1,0,100,0,0
164832,-157.65913,4,1,0,100,0,0
164897,-163.4024,4,1,0,100,0,0
164962,-169.3549,4,1,0,100,0,0
165028,-175.62088,4,1,0,100,0,0
165093,-182.01845,4,1,0,100,0,0
165354,-125.18408,4,1,0,100,0,0
165397,-129.20792,4,1,0,100,0,0
165441,-133.45927,4,1,0,100,0,0
165484,-137.74911,4,1,0,100,0,0
165549,-144.49695,4,1,0,100,0,0
165614,-151.57535,4,1,0,100,0,0
165680,-159.1175,4,1,0,100,0,0
165745,-166.91211,4,1,0,100,0,0
165875,-125.111565,4,1,0,100,0,0
166071,-130.63538,4,1,0,100,0,0
166267,-136.40308,4,1,0,100,0,0
166397,-140.36836,4,1,0,100,0,0
166593,-146.56578,4,1,0,100,0,0
166788,-153.00308,4,1,0,100,0,0
166919,-157.48564,4,1,0,100,0,0
167049,-162.06381,4,1,0,100,0,0
167180,-166.81183,4,1,0,90,0,0
167245,-163.06316,4,1,0,90,0,0
167310,-159.57516,4,1,0,90,0,0
167375,-156.16177,4,1,0,90,0,0
167441,-152.77057,4,1,0,90,0,0
167506,-149.50272,4,1,0,90,0,0
167571,-146.30478,4,1,0,90,0,0
167636,-143.17525,4,1,0,90,0,0
167701,-140.11266,4,1,0,90,0,0
167767,-137.06996,4,1,0,90,0,0
167832,-134.13797,4,1,0,90,0,0
167897,-131.26869,4,1,0,90,0,0
167962,-128.46078,4,1,0,90,0,0
168028,-125.67113,4,1,0,90,0,0
168093,-122.982956,4,1,0,90,0,0
168158,-120.352295,4,1,0,90,0,0
168223,-117.7779,4,1,0,90,0,0
168288,-115.25856,4,1,0,90,0,0
168354,-112.75561,4,1,0,90,0,0
168419,-110.34371,4,1,0,90,0,0
168484,-107.983406,4,1,0,90,0,0
168549,-105.673584,4,1,0,90,0,0
168614,-103.41317,4,1,0,90,0,0
168680,-101.16745,4,1,0,90,0,0
168745,-99.003426,4,1,0,90,0,0
168810,-96.88569,4,1,0,90,0,0
168875,-94.81326,4,1,0,90,0,0
168941,-92.75429,4,1,0,90,0,0
169006,-90.77023,4,1,0,90,0,0
169269,-83.3333333333333,4,1,0,80,0,0
169528,-66.6666666666667,4,1,0,80,0,0
170572,-77.34164,4,1,0,80,0,0
171615,-83.71302,4,1,0,80,0,0
172659,-90.61616,4,1,0,80,0,0
173702,-98.0811,4,1,0,80,0,0
174746,-106.16905,4,1,0,80,0,0
175789,-114.91524,4,1,0,80,0,0
176833,-124.39135,4,1,0,80,0,0
177876,-134.63869,4,1,0,80,0,0
178919,-145.7302,4,1,0,80,0,0
179963,-157.74738,4,1,0,80,0,0
181006,-170.74257,4,1,0,80,0,0
182050,-184.82234,4,1,0,80,0,0
182178,-10000,4,1,0,80,0,0
183093,-200.04797,4,1,0,80,0,0
184136,-71.44392,4,1,0,100,0,0
184267,-72.4564,4,1,0,100,0,0
184528,-74.516624,4,1,0,100,0,0
184658,-75.56454,4,1,0,100,0,0
184918,-77.70479,4,1,0,100,0,0
185049,-78.80601,4,1,0,100,0,0
185310,-81.04677,4,1,0,100,0,0
185571,-83.35124,4,1,0,100,0,0
186223,-199.96974,4,1,0,70,0,0
186354,-199.47539,4,1,0,70,0,0
186484,-198.98598,4,1,0,70,0,0
186614,-198.49779,4,1,0,70,0,0
186745,-198.00705,4,1,0,70,0,0
186875,-197.52126,4,1,0,70,0,0
187006,-197.03293,4,1,0,70,0,0
187136,-196.54953,4,1,0,70,0,0
187201,-196.30827,4,1,0,70,0,0
187267,-196.06361,4,1,0,70,0,0
187397,-197.06908,4,1,0,70,0,0
187528,-198.06459,4,1,0,70,0,0
187658,-199.05751,4,1,0,70,0,0
187788,-200.0554,4,1,0,70,0,0
187919,-201.06602,4,1,0,70,0,0
188049,-202.07396,4,1,0,70,0,0
188180,-203.09479,4,1,0,70,0,0
188310,-204.11292,4,1,0,70,0,0
188441,-203.05571,4,1,0,70,0,0
188571,-202.04283,4,1,0,70,0,0
188701,-201.03502,4,1,0,70,0,0
188832,-200.02454,4,1,0,70,0,0
188962,-199.0268,4,1,0,70,0,0
189093,-198.02641,4,1,0,70,0,0
189223,-197.03862,4,1,0,70,0,0
189288,-196.5466,4,1,0,70,0,0
189354,-196.04823,4,1,0,70,0,0
189484,-197.06044,4,1,0,70,0,0
189614,-198.0474,4,1,0,70,0,0
189745,-199.04694,4,1,0,70,0,0
189875,-200.04384,4,1,0,70,0,0
190006,-201.05347,4,1,0,70,0,0
190136,-202.06041,4,1,0,70,0,0
190267,-203.08022,4,1,0,70,0,0
190397,-204.09732,4,1,0,70,0,0
190528,-203.04219,4,1,0,70,0,0
190658,-202.03131,4,1,0,70,0,0
190788,-201.02547,4,1,0,70,0,0
190919,-200.01694,4,1,0,70,0,0
191049,-199.02112,4,1,0,70,0,0
191180,-198.02266,4,1,0,70,0,0
191310,-197.03677,4,1,0,70,0,0
191375,-196.54565,4,1,0,70,0,0
191441,-196.04823,4,1,0,70,0,0
191571,-197.06232,4,1,0,70,0,0
191701,-198.05118,4,1,0,70,0,0
191832,-199.05264,4,1,0,70,0,0
191962,-200.05148,4,1,0,70,0,0
192093,-201.06306,4,1,0,70,0,0
192223,-202.07199,4,1,0,70,0,0
192354,-203.09381,4,1,0,70,0,0
192484,-204.11293,4,1,0,70,0,0
192614,-203.0661,4,1,0,70,0,0
192745,-202.04799,4,1,0,70,0,0
192875,-201.04268,4,1,0,70,0,0
193006,-200.03471,4,1,0,70,0,0
193136,-199.0394,4,1,0,70,0,0
193267,-198.04144,4,1,0,70,0,0
193397,-197.05609,4,1,0,70,0,0
193462,-196.56526,4,1,0,70,0,0
193528,-196.0681,4,1,0,70,0,0
193658,-197.39682,4,1,0,70,0,0
193788,-198.69917,4,1,0,70,0,0
193919,-200.02023,4,1,0,70,0,0
194180,-181.99638,4,1,0,70,0,0
194245,-184.90031,4,1,0,70,0,0
194310,-187.85057,4,1,0,70,0,0
194375,-190.8479,4,1,0,70,0,0
194441,-193.94029,4,1,0,70,0,0
194506,-197.0348,4,1,0,70,0,0
194571,-200.17868,4,1,0,70,0,0
194701,-199.56918,4,1,0,70,0,0
194832,-199.06233,4,1,0,70,0,0
194962,-198.56064,4,1,0,70,0,0
195093,-198.05634,4,1,0,70,0,0
195223,-197.55719,4,1,0,70,0,0
195354,-197.05545,4,1,0,70,0,0
195484,-196.55878,4,1,0,70,0,0
195549,-196.31094,4,1,0,70,0,0
195614,-196.0634,4,1,0,70,0,0
195745,-197.0757,4,1,0,70,0,0
195875,-198.0627,4,1,0,70,0,0
196006,-199.06229,4,1,0,70,0,0
196136,-200.05922,4,1,0,70,0,0
196267,-201.0689,4,1,0,70,0,0
196397,-202.07588,4,1,0,70,0,0
196528,-203.09573,4,1,0,70,0,0
196658,-204.06567,4,1,0,70,0,0
196788,-203.03284,4,1,0,70,0,0
196919,-202.0026,4,1,0,70,0,0
197049,-200.99051,4,1,0,70,0,0
197180,-199.98083,4,1,0,70,0,0
197310,-198.98883,4,1,0,70,0,0
197441,-197.99911,4,1,0,70,0,0
197571,-197.02666,4,1,0,70,0,0
197636,-196.544,4,1,0,70,0,0
197701,-196.06367,4,1,0,70,0,0
197832,-197.06293,4,1,0,70,0,0
197962,-198.03484,4,1,0,70,0,0
198093,-199.02393,4,1,0,70,0,0
198223,-200.01534,4,1,0,70,0,0
198354,-201.02438,4,1,0,70,0,0
198484,-202.03584,4,1,0,70,0,0
198614,-203.05754,4,1,0,70,0,0
198745,-204.0976,4,1,0,70,0,0
198875,-203.02876,4,1,0,70,0,0
199006,-201.99455,4,1,0,70,0,0
199136,-200.97859,4,1,0,70,0,0
199267,-199.9651,4,1,0,70,0,0
199397,-198.96944,4,1,0,70,0,0
199528,-197.97606,4,1,0,70,0,0
199658,-197,4,1,0,70,0,0
199723,-196.5156,4,1,0,70,0,0
199788,-196.03355,4,1,0,70,0,0
199919,-190.38893,4,1,0,70,0,0
200049,-185.01509,4,1,0,70,0,0
200180,-179.7533,4,1,0,70,0,0
200310,-174.67964,4,1,0,70,0,0
200441,-169.7118,4,1,0,70,0,0
200571,-164.92155,4,1,0,70,0,0
200701,-160.26654,4,1,0,70,0,0
200832,-155.70862,4,1,0,70,0,0
200962,-151.31364,4,1,0,70,0,0
201093,-147.01031,4,1,0,70,0,0
201223,-142.86086,4,1,0,70,0,0
201354,-138.79793,4,1,0,70,0,0
201484,-134.88026,4,1,0,70,0,0
201614,-131.07318,4,1,0,70,0,0
201745,-127.34549,4,1,0,70,0,0
201875,-123.751076,4,1,0,80,0,0
201941,-121.965225,4,1,0,81,0,0
202006,-120.231636,4,1,0,81,0,0
202071,-118.522675,4,1,0,82,0,0
202136,-116.838005,4,1,0,83,0,0
202201,-115.17729,4,1,0,83,0,0
202267,-113.51517,4,1,0,84,0,0
202332,-111.901695,4,1,0,85,0,0
202397,-110.31113,4,1,0,85,0,0
202462,-108.74319,4,1,0,86,0,0
202528,-107.17392,4,1,0,87,0,0
202593,-105.65055,4,1,0,87,0,0
202658,-104.14886,4,1,0,88,0,0
202723,-102.6685,4,1,0,89,0,0
202788,-101.20918,4,1,0,89,0,0
202854,-99.74865,4,1,0,90,0,0
202920,-71.45005,4,1,0,100,0,0
203963,-79.428764,4,1,0,80,0,0
205007,-88.30741,4,1,0,80,0,0
206050,-98.168564,4,1,0,80,0,0
207094,-109.14196,4,1,0,80,0,0
208137,-121.32967,4,1,0,80,0,0
209181,-134.89206,4,1,0,80,0,0
210224,-149.95525,4,1,0,80,0,0
210875,-10000,4,1,0,80,0,0
211267,-166.70052,4,1,0,80,0,0
212310,-71.443954,4,1,0,100,0,0
212962,-73.9902,4,1,0,100,0,0
213354,-75.56454,4,1,0,100,0,0
214006,-78.257645,4,1,0,100,0,0
214201,-79.08159,4,1,0,100,0,0
214397,-79.9185,4,1,0,100,0,0
214788,-81.6146,4,1,0,100,0,0
215180,-83.35118,4,1,0,100,0,0
216484,-71.44379,4,1,0,100,0,0
217136,-73.115524,4,1,0,100,0,0
217528,-74.1394,4,1,0,100,0,0
218571,-83.3461294566994,4,1,0,90,0,0
218832,-166.65302,4,1,0,80,0,0
219093,-165.76929,4,1,0,80,0,0
219354,-164.89024,4,1,0,80,0,0
219614,-164.01918,4,1,0,80,0,0
219875,-163.14943,4,1,0,80,0,0
220136,-162.28427,4,1,0,80,0,0
220397,-161.42372,4,1,0,80,0,0
220658,-160.56772,4,1,0,80,0,0
220919,-159.71625,4,1,0,80,0,0
221180,-158.86931,4,1,0,80,0,0
221441,-158.02687,4,1,0,80,0,0
221701,-157.19205,4,1,0,80,0,0
221962,-156.3585,4,1,0,80,0,0
222223,-155.52937,4,1,0,80,0,0
222484,-154.70464,4,1,0,80,0,0
222744,-153.88736,4,1,0,80,0,0
223005,-153.07133,4,1,0,80,0,0
223266,-152.25963,4,1,0,80,0,0
223527,-151.45222,4,1,0,80,0,0
223788,-150.6491,4,1,0,80,0,0
224049,-149.85022,4,1,0,80,0,0
224310,-149.05559,4,1,0,80,0,0
224571,-148.26518,4,1,0,80,0,0
224832,-147.47896,4,1,0,80,0,0
225093,-146.6969,4,1,0,80,0,0
225354,-145.919,4,1,0,80,0,0
225615,-145.1452,4,1,0,80,0,0
225875,-144.37848,4,1,0,80,0,0
226136,-143.61284,4,1,0,80,0,0
226397,-83.3333333333333,4,1,0,80,0,0
226919,-124.98601,4,1,0,80,0,0
227180,-123.172134,4,1,0,80,0,0
227441,-121.38459,4,1,0,80,0,0
227571,-120.50395,4,1,0,81,0,0
227701,-119.629684,4,1,0,81,0,0
227832,-118.75511,4,1,0,81,0,0
227962,-117.89354,4,1,0,81,0,0
228223,-116.18261,4,1,0,81,0,0
228484,-114.4965,4,1,0,81,0,0
228614,-113.66582,4,1,0,82,0,0
228745,-112.83486,4,1,0,82,0,0
228875,-112.01624,4,1,0,82,0,0
229006,-111.197334,4,1,0,82,0,0
229267,-109.58358,4,1,0,82,0,0
229397,-108.788536,4,1,0,83,0,0
229528,-107.99324,4,1,0,83,0,0
229788,-106.43193,4,1,0,83,0,0
230049,-104.88733,4,1,0,83,0,0
230180,-104.120544,4,1,0,83,0,0
230310,-103.365135,4,1,0,84,0,0
230571,-101.86504,4,1,0,84,0,0
230832,-100.38671,4,1,0,84,0,0
230962,-99.65841,4,1,0,84,0,0
231093,-98.929855,4,1,0,84,0,0
231223,-98.212105,4,1,0,84,0,0
231354,-97.49411,4,1,0,85,0,0
231484,-96.786804,4,1,0,85,0,0
231614,-96.08461,4,1,0,85,0,0
231745,-95.38217,4,1,0,85,0,0
231875,-94.69017,4,1,0,85,0,0
232006,-93.99793,4,1,0,86,0,0
232136,-93.31596,4,1,0,86,0,0
232267,-92.63377,4,1,0,86,0,0
232397,-91.961716,4,1,0,86,0,0
232528,-91.28942,4,1,0,86,0,0
232658,-90.62711,4,1,0,86,0,0
232788,-89.96962,4,1,0,87,0,0
232919,-89.311874,4,1,0,87,0,0
233049,-88.663925,4,1,0,87,0,0
233180,-88.01573,4,1,0,87,0,0
233245,-87.69588,4,1,0,87,0,0
233310,-87.37718,4,1,0,88,0,0
233375,-87.05964,4,1,0,88,0,0
233441,-86.738396,4,1,0,88,0,0
233506,-86.42318,4,1,0,88,0,0
233571,-86.10911,4,1,0,88,0,0
233636,-85.79618,4,1,0,89,0,0
233701,-85.48438,4,1,0,89,0,0
233767,-85.16895,4,1,0,89,0,0
233832,-84.85945,4,1,0,89,0,0
233897,-84.551056,4,1,0,89,0,0
233962,-84.24378,4,1,0,89,0,0
234028,-83.93293,4,1,0,90,0,0
234093,-83.627914,4,1,0,90,0,0
234158,-83.324,4,1,0,90,0,0
234223,-66.6666666666667,4,1,0,100,0,0
235268,-66.7176,4,1,0,80,0,0
236311,-80.71252,4,1,0,80,0,0
237355,-97.660904,4,1,0,80,0,0
238398,-118.14663,4,1,0,80,0,0
239441,-142.92722,4,1,0,80,0,0
239506,-141.09584,4,1,0,80,0,0
239571,-139.28789,4,1,0,80,0,0
239636,-137.50311,4,1,0,81,0,0
239701,-135.74121,4,1,0,81,0,0
239767,-133.97528,4,1,0,81,0,0
239832,-132.25859,4,1,0,81,0,0
239897,-130.56389,4,1,0,81,0,0
239962,-128.8909,4,1,0,82,0,0
240028,-127.21411,4,1,0,82,0,0
240093,-125.58405,4,1,0,82,0,0
240158,-123.97488,4,1,0,82,0,0
240223,-122.38632,4,1,0,82,0,0
240288,-120.8181,4,1,0,83,0,0
240354,-119.246346,4,1,0,83,0,0
240419,-117.718376,4,1,0,83,0,0
240484,-116.209984,4,1,0,83,0,0
240549,-114.72092,4,1,0,84,0,0
240614,-113.25093,4,1,0,84,0,0
240680,-111.77761,4,1,0,84,0,0
240745,-110.34535,4,1,0,84,0,0
240810,-108.93143,4,1,0,84,0,0
240875,-107.53563,4,1,0,85,0,0
240941,-106.13666,4,1,0,85,0,0
241006,-104.776665,4,1,0,85,0,0
241071,-103.434105,4,1,0,85,0,0
241136,-102.10875,4,1,0,85,0,0
241201,-100.80037,4,1,0,86,0,0
241267,-99.48902,4,1,0,86,0,0
241332,-98.21422,4,1,0,86,0,0
241397,-96.95574,4,1,0,86,0,0
241462,-95.713394,4,1,0,86,0,0
241528,-94.46822,4,1,0,87,0,0
241593,-93.257744,4,1,0,87,0,0
241658,-92.06278,4,1,0,87,0,0
241723,-90.88313,4,1,0,87,0,0
241788,-89.7186,4,1,0,88,0,0
241854,-88.551414,4,1,0,88,0,0
241919,-87.416756,4,1,0,88,0,0
241984,-86.29664,4,1,0,88,0,0
242049,-85.190865,4,1,0,88,0,0
242114,-84.09927,4,1,0,89,0,0
242180,-83.005196,4,1,0,89,0,0
242245,-81.9416,4,1,0,89,0,0
242310,-80.89164,4,1,0,89,0,0
242375,-79.855125,4,1,0,89,0,0
242441,-78.81626,4,1,0,90,0,0
242506,-77.80634,4,1,0,90,0,0
242571,-76.809364,4,1,0,90,0,0
242962,-83.44811,4,1,0,100,0,0
243028,-84.993195,4,1,0,100,0,0
243093,-86.54283,4,1,0,100,0,0
243158,-88.12073,4,1,0,100,0,0
243223,-89.727394,4,1,0,100,0,0
243288,-91.36335,4,1,0,100,0,0
243354,-93.05499,4,1,0,100,0,0
243419,-94.751625,4,1,0,100,0,0
243484,-96.47919,4,1,0,100,0,0
243549,-98.23824,4,1,0,100,0,0
243616,-100.02937,4,1,0,100,0,1
250919,-83.3333369444446,4,1,0,100,0,1
251114,-87.8911148059758,4,1,0,100,0,1
251310,-92.7450177738799,4,1,0,100,0,1
251441,-96.150886441054,4,1,0,100,0,1
251636,-101.475380009557,4,1,0,100,0,1
251832,-107.153369959517,4,1,0,100,0,1
251964,-111.111111111111,4,1,0,100,0,0
252093,-100,4,1,0,100,0,0
252225,-90.9090909090909,4,1,0,100,0,1
252354,-100,4,1,0,100,0,1
254180,-99.9999989,4,1,0,100,0,1
254245,-96.1538461538461,4,1,0,100,0,1
254310,-90.9090909090909,4,1,0,100,0,1
254441,-100,4,1,0,100,0,1
255093,-76.947716,4,1,0,100,0,1
255288,-79.38892,4,1,0,100,0,1
255484,-81.920685,4,1,0,100,0,1
255614,-83.64429,4,1,0,100,0,1
255810,-86.31176,4,1,0,100,0,1
256006,-89.06431,4,1,0,100,0,1
256136,-90.93821,4,1,0,100,0,1
256397,-111.0811,4,1,0,90,0,1
256528,-109.13281,4,1,0,90,0,1
256593,-108.17884,4,1,0,90,0,1
256658,-107.233185,4,1,0,90,0,1
256723,-106.29581,4,1,0,90,0,1
256788,-105.36664,4,1,0,90,0,1
256854,-104.431465,4,1,0,90,0,1
256919,-103.51857,4,1,0,90,0,1
256984,-102.61367,4,1,0,90,0,1
257049,-101.716675,4,1,0,90,0,1
257114,-100.82752,4,1,0,90,0,1
257180,-99.93265,4,1,0,90,0,1
257441,-111.08107,4,1,0,90,0,1
257571,-109.14507,4,1,0,90,0,1
257636,-108.189766,4,1,0,90,0,1
257701,-107.24282,4,1,0,90,0,1
257766,-106.30417,4,1,0,90,0,1
257831,-105.37374,4,1,0,90,0,1
257897,-104.4373,4,1,0,90,0,1
257962,-103.52321,4,1,0,90,0,1
258027,-102.61712,4,1,0,90,0,1
258093,-101.70518,4,1,0,90,0,1
258157,-100.828636,4,1,0,90,0,1
258223,-99.932594,4,1,0,90,0,1
258484,-111.06641,4,1,0,90,0,1
258614,-108.199554,4,1,0,90,0,1
258680,-106.77252,4,1,0,90,0,1
258745,-105.3855,4,1,0,90,0,1
258810,-104.016495,4,1,0,90,0,1
258875,-102.66526,4,1,0,90,0,1
258941,-101.31121,4,1,0,90,0,1
259006,-99.99515,4,1,0,90,0,1
259071,-98.69616,4,1,0,90,0,1
259136,-97.414055,4,1,0,90,0,1
259201,-96.148605,4,1,0,90,0,1
259267,-94.88051,4,1,0,90,0,1
259332,-93.64797,4,1,0,90,0,1
259397,-92.43144,4,1,0,90,0,1
259462,-91.23072,4,1,0,90,0,1
259528,-90.02747,4,1,0,90,0,1
259593,-88.85798,4,1,0,90,0,1
259658,-87.703674,4,1,0,90,0,1
259723,-86.564354,4,1,0,90,0,1
259788,-85.43986,4,1,0,90,0,1
259919,-83.21773,4,1,0,90,0,1
259984,-82.13669,4,1,0,90,0,1
260049,-81.0697,4,1,0,90,0,1
260114,-80.01657,4,1,0,90,0,1
260180,-78.961235,4,1,0,90,0,1
260245,-77.935486,4,1,0,90,0,1
260312,-76.92308,4,1,0,90,0,0
261356,-142.857142857143,4,1,0,80,0,0
262399,-90.90909,4,1,0,100,0,1
262528,-91.94024,4,1,0,100,0,1
262593,-92.45621,4,1,0,100,0,1
262658,-92.975075,4,1,0,100,0,1
262723,-93.49686,4,1,0,100,0,1
262788,-94.02157,4,1,0,100,0,1
262854,-94.55735,4,1,0,100,0,1
262919,-95.08802,4,1,0,100,0,1
262984,-95.62166,4,1,0,100,0,1
263049,-96.158295,4,1,0,100,0,1
263114,-96.69794,4,1,0,100,0,1
263180,-97.248985,4,1,0,100,0,1
263245,-97.79474,4,1,0,100,0,1
263310,-98.34358,4,1,0,100,0,1
263375,-98.895485,4,1,0,100,0,1
263441,-99.45905,4,1,0,100,0,1
263506,-100.01722,4,1,0,100,0,1
263571,-76.9230752662722,4,1,0,100,0,1
263767,-79.7175670469249,4,1,0,100,0,1
263962,-82.6062731841355,4,1,0,100,0,1
264158,-85.6236355203637,4,1,0,100,0,1
264354,-88.7602661383015,4,1,0,100,0,1
264484,-90.9090869421489,4,1,0,100,0,1
264745,-111.08121,4,1,0,100,0,1
264875,-109.15499,4,1,0,100,0,1
264941,-108.189865,4,1,0,100,0,1
265006,-107.24773,4,1,0,100,0,1
265071,-106.3138,4,1,0,100,0,1
265136,-105.387985,4,1,0,100,0,1
265201,-104.47024,4,1,0,100,0,1
265267,-103.54654,4,1,0,100,0,1
265332,-102.64484,4,1,0,100,0,1
265397,-101.75098,4,1,0,100,0,1
265462,-100.8649,4,1,0,100,0,1
265528,-83.3333333333333,4,1,0,100,0,1
265788,-111.08114,4,1,0,100,0,1
265919,-109.135315,4,1,0,100,0,1
265984,-108.182526,4,1,0,100,0,1
266050,-107.22358,4,1,0,100,0,1
266115,-106.287476,4,1,0,100,0,1
266180,-105.35954,4,1,0,100,0,1
266245,-104.43972,4,1,0,100,0,1
266311,-103.51396,4,1,0,100,0,1
266376,-102.61025,4,1,0,100,0,1
266441,-101.71442,4,1,0,100,0,1
266506,-100.82641,4,1,0,100,0,1
266572,-99.93268,4,1,0,100,0,1
266832,-90.8980260000001,4,1,0,100,0,1
266962,-100.040375,4,1,0,100,0,1
267028,-101.38197,4,1,0,100,0,1
267093,-102.72083,4,1,0,100,0,1
267158,-104.07736,4,1,0,100,0,1
267223,-105.45181,4,1,0,100,0,1
267288,-106.84442,4,1,0,100,0,1
267354,-97.6987193827408,4,1,0,100,0,1
267484,-111.155975,4,1,0,100,0,1
267614,-76.951195,4,1,0,100,0,1
267810,-79.75781,4,1,0,98,0,1
268006,-82.66681,4,1,0,96,0,1
268136,-84.65453,4,1,0,95,0,1
268332,-87.74213,4,1,0,93,0,1
268528,-90.94232,4,1,0,91,0,1
268658,-100.107574,4,1,0,89,0,1
268701,-102.44848,4,1,0,87,0,1
268745,-104.90052,4,1,0,85,0,1
268788,-107.353516,4,1,0,84,0,1
268854,-111.230644,4,1,0,82,0,1
268921,-76.9230769230769,4,1,0,80,0,0
270745,-90.84849,4,1,0,100,0,0
270875,-86.995316,4,1,0,100,0,0
270941,-85.102066,4,1,0,100,0,0
271008,-83.277794,4,1,0,100,0,1
271136,-90.96476,4,1,0,100,0,1
271201,-92.08168,4,1,0,100,0,1
271267,-93.22983,4,1,0,100,0,1
271332,-94.37455,4,1,0,100,0,1
271397,-95.53334,4,1,0,100,0,1
271462,-96.70635,4,1,0,100,0,1
271528,-97.912155,4,1,0,100,0,1
271593,-99.11438,4,1,0,100,0,1
271658,-100.331375,4,1,0,100,0,1
271788,-102.81037,4,1,0,100,0,1
271854,-104.09227,4,1,0,100,0,1
271919,-105.370384,4,1,0,100,0,1
271984,-106.66419,4,1,0,100,0,1
272049,-107.973885,4,1,0,100,0,1
272180,-110.66247,4,1,0,100,0,1
272245,-112.021255,4,1,0,100,0,1
272310,-113.39673,4,1,0,100,0,1
272441,-116.220345,4,1,0,100,0,1
272506,-117.64737,4,1,0,100,0,1
272636,-120.55421,4,1,0,100,0,1
272701,-122.03445,4,1,0,100,0,1
272832,-125.07315,4,1,0,100,0,1
272897,-123.41001,4,1,0,100,0,1
272962,-121.86203,4,1,0,100,0,1
273028,-120.3101,4,1,0,100,0,1
273093,-118.80101,4,1,0,100,0,1
273158,-117.31083,4,1,0,100,0,1
273223,-115.83936,4,1,0,100,0,1
273288,-114.386345,4,1,0,100,0,1
273354,-112.92962,4,1,0,100,0,1
273419,-111.51311,4,1,0,100,0,1
273484,-110.11435,4,1,0,100,0,1
273549,-108.73313,4,1,0,100,0,1
273614,-107.369255,4,1,0,100,0,1
273680,-106.0019,4,1,0,100,0,1
273745,-104.67228,4,1,0,100,0,1
273810,-103.35932,4,1,0,100,0,1
273875,-102.06284,4,1,0,100,0,1
273941,-100.76307,4,1,0,100,0,1
274006,-99.49916,4,1,0,100,0,1
274071,-98.2511,4,1,0,100,0,1
274136,-97.01869,4,1,0,100,0,1
274201,-95.80176,4,1,0,100,0,1
274267,-94.58171,4,1,0,100,0,1
274332,-93.39533,4,1,0,100,0,1
274397,-92.22383,4,1,0,100,0,1
274462,-91.06705,4,1,0,100,0,1
274528,-89.90729,4,1,0,100,0,1
274593,-88.77956,4,1,0,100,0,1
274658,-87.66595,4,1,0,100,0,1
274723,-86.566315,4,1,0,100,0,1
274788,-85.4805,4,1,0,100,0,1
274854,-84.391884,4,1,0,100,0,1
274921,-83.33332,4,1,0,100,0,0
276354,-90.97127,4,1,0,100,0,0
276419,-93.01535,4,1,0,99,0,0
276484,-95.10535,4,1,0,98,0,0
276549,-97.242325,4,1,0,97,0,0
276614,-99.427315,4,1,0,96,0,0
276680,-101.69615,4,1,0,95,0,0
276745,-103.98122,4,1,0,94,0,0
276810,-106.31763,4,1,0,93,0,0
276875,-108.70653,4,1,0,92,0,0
276941,-111.18711,4,1,0,91,0,0
277006,-83.3333333333333,4,1,0,90,0,0
277397,-142.9476,4,1,0,90,0,0
277788,-149.96773,4,1,0,90,0,0
278049,-154.84467,4,1,0,90,0,0
278441,-162.46896,4,1,0,90,0,0
278832,-170.44778,4,1,0,90,0,0
279093,-175.99069,4,1,0,80,0,0
279484,-184.63358,4,1,0,80,0,0
279875,-193.70088,4,1,0,80,0,0
280136,-200,4,1,0,80,0,0
280528,-90.97137,4,1,0,100,0,0
280593,-93.018974,4,1,0,99,0,0
280658,-95.11268,4,1,0,98,0,0
280723,-97.253494,4,1,0,97,0,0
280788,-99.442505,4,1,0,96,0,0
280854,-101.715614,4,1,0,95,0,0
280919,-104.00506,4,1,0,94,0,0
280984,-106.34603,4,1,0,93,0,0
281049,-108.73969,4,1,0,92,0,0
281114,-111.18724,4,1,0,91,0,0
281182,-83.3333333333333,4,1,0,90,0,0
281571,-142.89224,4,1,0,90,0,0
281962,-149.9232,4,1,0,90,0,0
282223,-154.80801,4,1,0,90,0,0
282615,-162.44522,4,1,0,90,0,0
283006,-170.43828,4,1,0,90,0,0
283267,-175.99152,4,1,0,80,0,0
283658,-184.6511,4,1,0,80,0,0
284049,-193.73679,4,1,0,80,0,0
284310,-200.04912,4,1,0,80,0,0
284701,-200.13672,4,1,0,80,0,0
284832,-209.29948,4,1,0,80,0,0
284962,-218.80696,4,1,0,80,0,0
285093,-228.82448,4,1,0,80,0,0
285223,-239.21889,4,1,0,80,0,0
285354,-250.17093,4,1,0,80,0,0
286006,-400.12515,4,1,0,60,0,0
286136,-408.34406,4,1,0,60,0,0
286267,-416.796999999999,4,1,0,60,0,0
286398,-666.608460000001,4,1,0,60,0,0
286788,-434.64377,4,1,0,60,0,0
286919,-425.643160000001,4,1,0,60,0,0
287049,-416.89566,4,1,0,60,0,0
287180,-408.2626,4,1,0,60,0,0
287310,-399.872250000001,4,1,0,60,0,0
287441,-636.920100000001,4,1,0,60,0,0
288485,-608.527399999999,4,1,0,60,0,0
288875,-454.322849999999,4,1,0,60,0,0
289006,-439.97913,4,1,0,60,0,0
289136,-426.192629999998,4,1,0,60,0,0
289267,-412.737,4,1,0,60,0,0
289397,-399.8041,4,1,0,60,0,0
289528,-581.425799999998,4,1,0,60,0,0
290180,-400.12515,4,1,0,60,0,0
290310,-408.34406,4,1,0,60,0,0
290441,-416.796999999999,4,1,0,60,0,0
290572,-555.507,4,1,0,60,0,0
290962,-399.842960000002,4,1,0,60,0,0
291093,-389.690499999999,4,1,0,60,0,0
291223,-379.870329999999,4,1,0,60,0,0
291354,-370.22495,4,1,0,60,0,0
291614,-71.46697,4,1,0,100,0,0
291745,-72.477646,4,1,0,100,0,0
292006,-74.53409,4,1,0,100,0,0
292136,-75.58004,4,1,0,100,0,0
292397,-77.72451,4,1,0,100,0,0
292528,-78.82368,4,1,0,100,0,0
292788,-81.05149,4,1,0,100,0,0
293049,-83.351204,4,1,0,100,0,0
293180,-81.5017,4,1,0,100,0,0
293354,-79.16606,4,1,0,100,0,0
293528,-76.89736,4,1,0,100,0,0
293703,-66.6666666666667,4,1,0,80,0,0
294747,-80,4,1,0,80,0,0
295790,-100,4,1,0,100,0,1
302701,-99.9999989,4,1,0,100,0,1
302767,-99.0183859016993,4,1,0,100,0,1
302832,-98.061902075784,4,1,0,100,0,1
302897,-97.1154603015829,4,1,0,100,0,1
302962,-96.1789613002786,4,1,0,100,0,1
303028,-95.2380931519275,4,1,0,100,0,1
303093,-83.3333369444446,4,1,0,100,0,1
303354,-91.658585982384,4,1,0,100,0,1
303484,-96.1376275328723,4,1,0,100,0,1
303745,-105.867077143883,4,1,0,100,0,1
303875,-111.111111111111,4,1,0,100,0,1
303941,-105.576142427482,4,1,0,100,0,1
304006,-100.418963612435,4,1,0,100,0,1
304071,-95.5354694726628,4,1,0,100,0,1
304136,-90.9090869421489,4,1,0,100,0,1
304269,-100,4,1,0,100,0,1
308312,-76.9230769230769,4,1,0,100,0,1
308571,-90.9090869421489,4,1,0,100,0,1
308658,-88.3042801255171,4,1,0,100,0,1
308745,-85.7799611316836,4,1,0,100,0,1
308832,-76.9230800000001,4,1,0,100,0,1
309093,-90.9090869421489,4,1,0,100,0,1
309180,-88.3042801255171,4,1,0,100,0,1
309267,-85.7799611316836,4,1,0,100,0,1
309354,-76.94196,4,1,0,100,0,1
309614,-79.43748,4,1,0,100,0,1
309745,-80.725334,4,1,0,100,0,1
310006,-83.35378,4,1,0,100,0,1
310267,-111.111111111111,4,1,0,90,0,1
310399,-111.111111111111,4,1,0,90,0,0
310528,-103.843345201673,4,1,0,90,0,0
310658,-97.1421930897081,4,1,0,90,0,0
310788,-90.9090869421489,4,1,0,90,0,0
311441,-111.111111111111,4,1,0,90,0,0
311571,-103.896808167931,4,1,0,90,0,0
311701,-97.1919030002479,4,1,0,90,0,0
311832,-90.9090869421489,4,1,0,90,0,0
312484,-111.111111111111,4,1,0,90,0,0
312614,-103.896808167931,4,1,0,90,0,0
312744,-97.1919030002479,4,1,0,90,0,0
312875,-90.9090869421489,4,1,0,90,0,0
313528,-111.111111111111,4,1,0,90,0,0
313658,-103.896808167931,4,1,0,90,0,0
313788,-97.1919030002479,4,1,0,90,0,0
313919,-90.9090869421489,4,1,0,90,0,0
314571,-142.79329,4,1,0,80,0,0
314636,-140.73355,4,1,0,80,0,0
314701,-138.7035,4,1,0,81,0,0
314767,-136.67221,4,1,0,81,0,0
314832,-134.70076,4,1,0,81,0,0
314897,-132.75775,4,1,0,82,0,0
314962,-130.84277,4,1,0,82,0,0
315028,-128.92657,4,1,0,82,0,0
315093,-127.066864,4,1,0,83,0,0
315158,-125.23397,4,1,0,83,0,0
315223,-123.42753,4,1,0,83,0,0
315288,-121.647125,4,1,0,84,0,0
315354,-119.86561,4,1,0,84,0,0
315419,-118.13659,4,1,0,84,0,0
315484,-116.4325,4,1,0,85,0,0
315549,-114.75301,4,1,0,85,0,0
315614,-113.09774,4,1,0,85,0,0
315680,-111.44143,4,1,0,85,0,0
315745,-109.83392,4,1,0,86,0,0
315810,-108.24962,4,1,0,86,0,0
315875,-106.68815,4,1,0,86,0,0
315941,-105.12571,4,1,0,87,0,0
316006,-103.60931,4,1,0,87,0,0
316071,-102.114784,4,1,0,87,0,0
316136,-100.6418,4,1,0,88,0,0
316201,-99.19009,4,1,0,88,0,0
316267,-97.737465,4,1,0,88,0,0
316332,-96.32763,4,1,0,89,0,0
316397,-94.93813,4,1,0,89,0,0
316462,-93.56869,4,1,0,89,0,0
316528,-92.19838,4,1,0,90,0,0
316593,-90.86845,4,1,0,90,0,0
316660,-66.6666666666667,4,1,0,100,0,0
317703,-90.9090909090909,4,1,0,90,0,0
317832,-90.983154,4,1,0,90,0,0
317962,-95.92958,4,1,0,90,0,0
318093,-101.18611,4,1,0,90,0,0
318158,-103.90025,4,1,0,90,0,0
318223,-106.68722,4,1,0,90,0,0
318288,-109.54893,4,1,0,90,0,0
318354,-112.53322,4,1,0,90,0,0
318397,-114.521126,4,1,0,90,0,0
318441,-116.59164,4,1,0,90,0,0
318484,-118.65124,4,1,0,90,0,0
318614,-125.10185,4,1,0,90,0,0
318745,-100.22622,4,1,0,100,0,0
318788,-102.69069,4,1,0,100,0,0
318832,-105.27521,4,1,0,100,0,0
318875,-107.863815,4,1,0,100,0,0
318941,-111.96141,4,1,0,100,0,0
319006,-116.149025,4,1,0,100,0,0
319071,-120.49327,4,1,0,100,0,0
319136,-125,4,1,0,100,0,0
319267,-71.46245,4,1,0,100,0,0
319462,-73.128876,4,1,0,100,0,0
319658,-74.84302,4,1,0,100,0,0
319788,-76.00205,4,1,0,100,0,0
319984,-77.78353,4,1,0,100,0,0
320180,-79.60678,4,1,0,100,0,0
320310,-80.83958,4,1,0,100,0,0
320441,-82.10118,4,1,0,100,0,0
320571,-83.37261,4,1,0,100,0,0
320832,-100.113625,4,1,0,100,0,0
320875,-102.588,4,1,0,100,0,0
320919,-105.18324,4,1,0,100,0,0
320962,-107.78291,4,1,0,100,0,0
321028,-111.89866,4,1,0,100,0,0
321093,-116.10562,4,1,0,100,0,0
321158,-120.47075,4,1,0,100,0,0
321223,-125,4,1,0,100,0,0
321354,-71.479385,4,1,0,100,0,0
321549,-73.15002,4,1,0,100,0,0
321745,-74.868576,4,1,0,100,0,0
321875,-76.03065,4,1,0,100,0,0
322071,-77.81688,4,1,0,100,0,0
322267,-79.64507,4,1,0,100,0,0
322397,-80.95447,4,1,0,100,0,0
322462,-83.36941,4,1,0,100,0,0
322527,-85.856384,4,1,0,100,0,0
322593,-88.45755,4,1,0,100,0,0
322658,-91.096306,4,1,0,100,0,0
322919,-100.113625,4,1,0,100,0,0
322962,-102.588,4,1,0,100,0,0
323006,-105.18324,4,1,0,100,0,0
323049,-107.78291,4,1,0,100,0,0
323115,-111.89866,4,1,0,100,0,0
323180,-116.10562,4,1,0,100,0,0
323245,-120.47075,4,1,0,100,0,0
323310,-125,4,1,0,100,0,0
323441,-71.46245,4,1,0,100,0,0
323636,-73.128876,4,1,0,100,0,0
323832,-74.84302,4,1,0,100,0,0
323962,-76.00205,4,1,0,100,0,0
324158,-77.78353,4,1,0,100,0,0
324354,-79.60678,4,1,0,100,0,0
324484,-80.83958,4,1,0,100,0,0
324614,-82.09148,4,1,0,100,0,0
324745,-83.37261,4,1,0,100,0,0
325006,-100.113625,4,1,0,100,0,0
325049,-102.588,4,1,0,100,0,0
325093,-105.18324,4,1,0,100,0,0
325136,-107.78291,4,1,0,100,0,0
325201,-111.835144,4,1,0,100,0,0
325267,-116.10562,4,1,0,100,0,0
325332,-120.47075,4,1,0,100,0,0
325397,-125,4,1,0,100,0,0
325527,-71.47084,4,1,0,100,0,0
325723,-73.14094,4,1,0,100,0,0
325919,-74.85006,4,1,0,100,0,0
326049,-76.00564,4,1,0,100,0,0
326245,-77.7817,4,1,0,100,0,0
326441,-79.599266,4,1,0,100,0,0
326571,-80.90116,4,1,0,100,0,0
326636,-83.30954,4,1,0,100,0,0
326701,-85.78964,4,1,0,100,0,0
326767,-88.383446,4,1,0,100,0,0
326832,-91.01458,4,1,0,100,0,0
327093,-125.18313,4,1,0,100,0,0
327136,-129.18616,4,1,0,100,0,0
327180,-133.41481,4,1,0,100,0,0
327223,-137.68105,4,1,0,100,0,0
327288,-144.39041,4,1,0,100,0,0
327354,-151.53761,4,1,0,100,0,0
327419,-158.92221,4,1,0,100,0,0
327484,-166.66666,4,1,0,100,0,0
327614,-125.05513,4,1,0,100,0,0
327810,-130.57687,4,1,0,100,0,0
328006,-136.3424,4,1,0,100,0,0
328136,-140.30624,4,1,0,100,0,0
328332,-146.50139,4,1,0,100,0,0
328527,-152.93636,4,1,0,100,0,0
328658,-157.41731,4,1,0,100,0,0
328788,-161.99384,4,1,0,100,0,0
328919,-166.74017,4,1,0,100,0,0
329180,-125.18313,4,1,0,100,0,0
329223,-129.18616,4,1,0,100,0,0
329267,-133.41481,4,1,0,100,0,0
329310,-137.68105,4,1,0,100,0,0
329375,-144.39041,4,1,0,100,0,0
329441,-151.53761,4,1,0,100,0,0
329506,-158.92221,4,1,0,100,0,0
329571,-166.66666,4,1,0,100,0,0
329701,-125.1102,4,1,0,100,0,0
329897,-130.62572,4,1,0,100,0,0
330093,-136.3844,4,1,0,100,0,0
330223,-140.34328,4,1,0,100,0,0
330419,-146.53036,4,1,0,100,0,0
330614,-152.95651,4,1,0,100,0,0
330745,-157.60492,4,1,0,100,0,0
330810,-163.3603,4,1,0,100,0,0
330875,-169.32588,4,1,0,100,0,0
330941,-175.60619,4,1,0,100,0,0
331006,-182.01892,4,1,0,100,0,0
331267,-125.18313,4,1,0,100,0,0
331310,-129.18616,4,1,0,100,0,0
331354,-133.41481,4,1,0,100,0,0
331397,-137.68105,4,1,0,100,0,0
331462,-144.39041,4,1,0,100,0,0
331528,-151.53761,4,1,0,100,0,0
331593,-158.92221,4,1,0,100,0,0
331658,-166.66666,4,1,0,100,0,0
331788,-125.05513,4,1,0,100,0,0
331984,-130.57687,4,1,0,100,0,0
332180,-136.3424,4,1,0,100,0,0
332310,-140.30624,4,1,0,100,0,0
332506,-146.50139,4,1,0,100,0,0
332701,-152.93636,4,1,0,100,0,0
332832,-157.41731,4,1,0,100,0,0
332962,-161.99384,4,1,0,100,0,0
333093,-166.74017,4,1,0,80,0,0
333158,-163.00084,4,1,0,80,0,0
333223,-159.52151,4,1,0,81,0,0
333288,-156.11644,4,1,0,81,0,0
333354,-152.73337,4,1,0,81,0,0
333419,-149.4732,4,1,0,82,0,0
333484,-146.28262,4,1,0,82,0,0
333549,-143.16016,4,1,0,82,0,0
333614,-140.10434,4,1,0,83,0,0
333680,-137.06824,4,1,0,83,0,0
333745,-134.14244,4,1,0,84,0,0
333810,-131.27913,4,1,0,84,0,0
333875,-128.47691,4,1,0,84,0,0
333941,-125.69279,4,1,0,85,0,0
334006,-123.00982,4,1,0,85,0,0
334071,-120.38411,4,1,0,85,0,0
334136,-117.81445,4,1,0,86,0,0
334201,-115.299644,4,1,0,86,0,0
334267,-112.80108,4,1,0,86,0,0
334332,-110.393295,4,1,0,87,0,0
334397,-108.03689,4,1,0,87,0,0
334462,-105.7308,4,1,0,88,0,0
334527,-103.47393,4,1,0,88,0,0
334593,-101.23162,4,1,0,88,0,0
334658,-99.070786,4,1,0,89,0,0
334723,-96.95608,4,1,0,89,0,0
334788,-94.8865,4,1,0,89,0,0
334854,-92.830284,4,1,0,90,0,0
334919,-90.848785,4,1,0,90,0,0
335443,-333.33328,4,1,0,100,0,1
335571,-76.92308,4,1,0,100,0,1
335766,-75.71377,4,1,0,100,0,1
335962,-74.51741,4,1,0,100,0,1
336158,-73.33996,4,1,0,100,0,1
336353,-72.18698,4,1,0,100,0,1
336485,-339.46997,4,1,0,100,0,1
336549,-71.04636,4,1,0,100,0,1
336745,-69.923744,4,1,0,100,0,1
336940,-68.82448,4,1,0,100,0,1
337136,-67.736984,4,1,0,100,0,1
337332,-66.666664,4,1,0,100,0,1
337528,-345.71362,4,1,0,100,0,1
337658,-76.92308,4,1,0,100,0,1
337853,-75.756485,4,1,0,100,0,1
338049,-74.60174,4,1,0,100,0,1
338244,-73.47035,4,1,0,100,0,1
338440,-72.35046,4,1,0,100,0,1
338571,-352.07205,4,1,0,100,0,1
338635,-71.25321,4,1,0,100,0,1
338832,-70.16161,4,1,0,100,0,1
339027,-69.097565,4,1,0,100,0,1
339223,-68.04432,4,1,0,100,0,1
339353,-67.354614,4,1,0,100,0,1
339484,-66.666664,4,1,0,100,0,1
339615,-358.55374,4,1,0,100,0,1
339745,-76.92308,4,1,0,100,0,1
339940,-75.71377,4,1,0,100,0,1
340136,-74.51741,4,1,0,100,0,1
340332,-73.33996,4,1,0,100,0,1
340527,-72.18698,4,1,0,100,0,1
340658,-365.14835,4,1,0,100,0,1
340722,-71.052124,4,1,0,100,0,1
340918,-69.92943,4,1,0,100,0,1
341114,-68.82448,4,1,0,100,0,1
341310,-67.736984,4,1,0,100,0,1
341505,-66.67208,4,1,0,100,0,1
341702,-371.87073,4,1,0,100,0,1
341832,-76.92308,4,1,0,100,0,1
342027,-75.294464,4,1,0,100,0,1
342223,-73.692245,4,1,0,100,0,1
342418,-72.13204,4,1,0,100,0,1
342614,-70.597115,4,1,0,100,0,1
342745,-377.80197,4,1,0,100,0,1
342810,-69.09486,4,1,0,100,0,1
343005,-67.63198,4,1,0,100,0,1
343136,-66.666664,4,1,0,100,0,1
343397,-62.5,4,1,0,100,0,1
343660,-62.5,4,1,0,80,0,1
343789,-192.44756,4,1,0,80,0,1
344832,-98.093704,4,1,0,80,0,1
345877,-49.967697,4,1,0,80,0,0

[HitObjects]
256,256,3617,5,12,0:0:0:0:
256,192,3747,12,0,7660,0:0:0:0:
256,256,7790,5,12,0:0:0:0:
256,192,7921,12,0,11834,0:0:0:0:
256,256,11964,5,12,0:0:0:0:
256,192,12095,1,0,0:0:0:0:
256,192,12225,1,0,0:0:0:0:
256,192,12356,1,8,0:0:0:0:
256,192,12486,1,0,0:0:0:0:
256,192,12877,1,8,0:0:0:0:
256,192,12943,1,0,0:0:0:0:
256,192,13008,1,8,0:0:0:0:
256,192,13138,1,8,0:0:0:0:
256,192,13269,1,0,0:0:0:0:
256,192,13399,1,8,0:0:0:0:
256,192,13660,1,0,0:0:0:0:
256,192,13790,1,8,0:0:0:0:
256,192,13921,1,8,0:0:0:0:
256,192,14051,1,0,0:0:0:0:
256,192,14182,1,0,0:0:0:0:
256,192,14312,1,8,0:0:0:0:
256,192,14443,1,0,0:0:0:0:
256,192,14573,1,8,0:0:0:0:
256,192,14964,1,0,0:0:0:0:
256,192,15030,1,0,0:0:0:0:
256,192,15095,1,8,0:0:0:0:
256,192,15225,1,8,0:0:0:0:
256,192,15356,1,0,0:0:0:0:
256,192,15486,1,8,0:0:0:0:
256,192,15747,1,8,0:0:0:0:
256,192,15877,1,8,0:0:0:0:
256,192,16008,1,0,0:0:0:0:
256,192,16138,1,8,0:0:0:0:
256,192,16269,1,0,0:0:0:0:
256,192,16399,1,0,0:0:0:0:
256,192,16530,1,8,0:0:0:0:
256,192,16660,1,8,0:0:0:0:
256,192,17051,1,0,0:0:0:0:
256,192,17116,1,8,0:0:0:0:
256,192,17182,1,0,0:0:0:0:
256,192,17312,1,8,0:0:0:0:
256,192,17443,1,0,0:0:0:0:
256,192,17573,1,8,0:0:0:0:
256,192,17834,1,0,0:0:0:0:
256,192,17964,1,8,0:0:0:0:
256,192,18095,1,0,0:0:0:0:
256,192,18225,1,8,0:0:0:0:
256,192,18356,1,8,0:0:0:0:
256,192,18486,1,0,0:0:0:0:
256,192,18616,1,0,0:0:0:0:
256,192,18747,1,8,0:0:0:0:
256,192,19138,1,0,0:0:0:0:
256,192,19203,1,0,0:0:0:0:
256,192,19269,1,8,0:0:0:0:
256,192,19399,1,0,0:0:0:0:
256,192,19530,1,0,0:0:0:0:
256,192,19660,1,8,0:0:0:0:
256,192,19921,1,8,0:0:0:0:
256,192,19986,1,8,0:0:0:0:
256,192,20051,1,0,0:0:0:0:
256,192,20116,1,0,0:0:0:0:
256,192,20182,1,8,0:0:0:0:
256,192,20247,1,8,0:0:0:0:
256,192,20312,1,0,0:0:0:0:
256,192,20443,1,0,0:0:0:0:
256,192,20573,1,8,0:0:0:0:
256,192,20703,1,8,0:0:0:0:
256,192,20834,1,0,0:0:0:0:
256,192,21225,1,8,0:0:0:0:
256,192,21290,1,8,0:0:0:0:
256,192,21356,1,8,0:0:0:0:
256,192,21486,1,8,0:0:0:0:
256,192,21616,1,0,0:0:0:0:
256,192,21747,1,8,0:0:0:0:
256,192,22008,1,8,0:0:0:0:
256,192,22138,1,0,0:0:0:0:
256,192,22269,1,8,0:0:0:0:
256,192,22399,1,0,0:0:0:0:
256,192,22530,1,0,0:0:0:0:
256,192,22660,1,8,0:0:0:0:
256,192,22790,1,8,0:0:0:0:
256,192,22921,1,8,0:0:0:0:
256,192,23312,1,0,0:0:0:0:
256,192,23377,1,0,0:0:0:0:
256,192,23443,1,8,0:0:0:0:
256,192,23573,1,8,0:0:0:0:
256,192,23703,1,0,0:0:0:0:
256,192,23834,1,8,0:0:0:0:
256,192,24095,1,8,0:0:0:0:
256,192,24225,1,0,0:0:0:0:
256,192,24356,1,8,0:0:0:0:
256,192,24486,1,8,0:0:0:0:
256,192,24616,1,0,0:0:0:0:
256,192,24747,1,0,0:0:0:0:
256,192,24877,1,8,0:0:0:0:
256,192,25008,1,8,0:0:0:0:
256,192,25399,1,0,0:0:0:0:
256,192,25464,1,0,0:0:0:0:
256,192,25530,1,8,0:0:0:0:
256,192,25660,1,0,0:0:0:0:
256,192,25790,1,8,0:0:0:0:
256,192,25921,1,0,0:0:0:0:
256,192,26182,1,0,0:0:0:0:
256,192,26312,1,8,0:0:0:0:
256,192,26443,1,8,0:0:0:0:
256,192,26573,1,0,0:0:0:0:
256,192,26703,1,0,0:0:0:0:
256,192,26834,1,8,0:0:0:0:
256,192,26964,1,0,0:0:0:0:
256,192,27095,1,8,0:0:0:0:
256,192,27486,1,0,0:0:0:0:
256,192,27551,1,0,0:0:0:0:
256,192,27616,1,8,0:0:0:0:
256,192,27682,1,8,0:0:0:0:
256,192,27747,1,8,0:0:0:0:
256,192,27812,1,0,0:0:0:0:
256,192,27877,1,8,0:0:0:0:
256,192,27943,1,0,0:0:0:0:
256,192,28008,1,8,0:0:0:0:
256,192,28073,1,8,0:0:0:0:
256,192,28138,1,0,0:0:0:0:
256,192,28203,1,0,0:0:0:0:
256,192,28269,1,8,0:0:0:0:
256,192,28334,1,0,0:0:0:0:
256,192,28399,1,8,0:0:0:0:
256,192,28464,1,8,0:0:0:0:
256,192,28530,1,0,0:0:0:0:
256,192,28595,1,8,0:0:0:0:
256,256,28660,1,4,0:0:0:0:
256,256,28790,1,4,0:0:0:0:
256,256,28921,1,12,0:0:0:0:
256,256,29051,1,12,0:0:0:0:
256,256,29703,1,12,0:0:0:0:
256,256,30356,1,12,0:0:0:0:
256,256,30747,1,4,0:0:0:0:
256,256,31399,1,12,0:0:0:0:
256,256,31595,1,12,0:0:0:0:
256,256,31790,1,4,0:0:0:0:
256,256,32182,1,12,0:0:0:0:
256,256,32573,1,4,0:0:0:0:
256,256,33877,1,4,0:0:0:0:
256,256,34530,1,12,0:0:0:0:
256,256,34921,1,4,0:0:0:0:
256,256,35573,1,12,0:0:0:0:
256,256,35769,1,12,0:0:0:0:
256,256,35964,1,4,0:0:0:0:
256,256,36356,1,4,0:0:0:0:
256,256,36747,1,12,0:0:0:0:
256,256,36943,1,4,0:0:0:0:
256,256,37138,1,12,0:0:0:0:
256,192,37399,1,0,0:0:0:0:
256,192,37464,1,0,0:0:0:0:
256,192,37530,1,8,0:0:0:0:
256,192,37595,1,8,0:0:0:0:
256,192,37660,1,0,0:0:0:0:
256,192,37725,1,0,0:0:0:0:
256,192,37790,1,8,0:0:0:0:
256,192,37856,1,8,0:0:0:0:
256,192,37921,1,8,0:0:0:0:
256,192,37986,1,8,0:0:0:0:
256,256,38051,1,4,0:0:0:0:
256,256,38703,1,12,0:0:0:0:
256,256,39095,1,4,0:0:0:0:
256,256,39747,1,12,0:0:0:0:
256,256,39943,1,12,0:0:0:0:
256,256,40138,1,4,0:0:0:0:
256,256,40530,1,4,0:0:0:0:
256,256,40921,1,12,0:0:0:0:
256,256,42225,1,12,0:0:0:0:
256,256,42877,1,4,0:0:0:0:
256,256,43269,1,12,0:0:0:0:
256,256,43921,1,12,0:0:0:0:
256,256,44116,1,12,0:0:0:0:
256,256,44312,1,4,0:0:0:0:
256,256,44703,1,12,0:0:0:0:
256,256,45095,1,12,0:0:0:0:
256,256,45290,1,4,0:0:0:0:
256,256,45486,1,12,0:0:0:0:
256,256,45682,1,12,0:0:0:0:
256,256,45877,1,4,0:0:0:0:
256,256,46399,1,12,0:0:0:0:
256,192,46660,1,0,0:0:0:0:
256,192,46790,1,0,0:0:0:0:
256,192,46921,1,8,0:0:0:0:
256,192,47051,1,0,0:0:0:0:
256,192,47182,1,8,0:0:0:0:
256,192,47312,1,8,0:0:0:0:
256,192,47443,1,8,0:0:0:0:
256,192,47573,1,0,0:0:0:0:
256,192,47703,1,8,0:0:0:0:
256,192,47834,1,8,0:0:0:0:
256,192,47964,1,0,0:0:0:0:
256,192,48095,1,0,0:0:0:0:
256,192,48225,1,8,0:0:0:0:
256,192,48356,1,8,0:0:0:0:
256,192,48486,1,0,0:0:0:0:
256,192,48747,1,0,0:0:0:0:
256,192,48877,1,0,0:0:0:0:
256,192,49008,1,8,0:0:0:0:
256,192,49138,1,8,0:0:0:0:
256,192,49269,1,8,0:0:0:0:
256,192,49399,1,0,0:0:0:0:
256,192,49530,1,8,0:0:0:0:
256,192,49660,1,8,0:0:0:0:
256,192,49790,1,0,0:0:0:0:
256,192,49921,1,8,0:0:0:0:
256,192,50051,1,0,0:0:0:0:
256,192,50182,1,0,0:0:0:0:
256,192,50312,1,8,0:0:0:0:
256,192,50443,1,8,0:0:0:0:
256,192,50573,1,0,0:0:0:0:
256,192,50834,1,8,0:0:0:0:
256,192,50964,1,0,0:0:0:0:
256,192,51095,1,8,0:0:0:0:
256,192,51225,1,8,0:0:0:0:
256,192,51356,1,0,0:0:0:0:
256,192,51486,1,0,0:0:0:0:
256,192,51616,1,8,0:0:0:0:
256,192,51747,1,8,0:0:0:0:
256,192,51877,1,8,0:0:0:0:
256,192,52008,1,0,0:0:0:0:
256,192,52138,1,8,0:0:0:0:
256,192,52269,1,0,0:0:0:0:
256,192,52399,1,8,0:0:0:0:
256,192,52530,1,8,0:0:0:0:
256,192,52660,1,0,0:0:0:0:
256,192,52921,1,0,0:0:0:0:
256,192,53051,1,0,0:0:0:0:
256,192,53182,1,8,0:0:0:0:
256,192,53312,1,0,0:0:0:0:
256,192,53443,1,8,0:0:0:0:
256,192,53573,1,8,0:0:0:0:
256,192,53703,1,8,0:0:0:0:
256,192,53834,1,0,0:0:0:0:
256,192,53964,1,8,0:0:0:0:
256,192,54095,1,8,0:0:0:0:
256,192,54225,12,0,54616,0:0:0:0:
256,192,54747,5,8,0:0:0:0:
256,192,55008,1,0,0:0:0:0:
256,192,55138,1,0,0:0:0:0:
256,192,55203,1,0,0:0:0:0:
256,192,55269,1,8,0:0:0:0:
256,192,55399,1,0,0:0:0:0:
256,192,55530,1,8,0:0:0:0:
256,192,55595,1,0,0:0:0:0:
256,192,55660,1,0,0:0:0:0:
256,192,55725,1,0,0:0:0:0:
256,192,55790,1,8,0:0:0:0:
256,192,55921,1,8,0:0:0:0:
256,192,56051,1,0,0:0:0:0:
256,192,56182,1,8,0:0:0:0:
256,192,56247,1,0,0:0:0:0:
256,192,56312,1,8,0:0:0:0:
256,192,56443,1,0,0:0:0:0:
256,192,56508,1,0,0:0:0:0:
256,192,56573,1,8,0:0:0:0:
256,192,56703,1,8,0:0:0:0:
256,192,56834,1,0,0:0:0:0:
256,192,57095,1,8,0:0:0:0:
256,192,57225,1,0,0:0:0:0:
256,192,57356,1,0,0:0:0:0:
256,192,57486,1,8,0:0:0:0:
256,192,57551,1,0,0:0:0:0:
256,192,57616,1,8,0:0:0:0:
256,192,57747,1,0,0:0:0:0:
256,192,57877,1,8,0:0:0:0:
256,192,57943,1,8,0:0:0:0:
256,192,58008,1,8,0:0:0:0:
256,192,58073,1,8,0:0:0:0:
256,192,58138,1,0,0:0:0:0:
256,192,58269,1,0,0:0:0:0:
256,192,58399,1,8,0:0:0:0:
256,192,58530,1,0,0:0:0:0:
256,192,58595,1,0,0:0:0:0:
256,192,58660,1,8,0:0:0:0:
256,192,58790,1,0,0:0:0:0:
256,192,58921,1,8,0:0:0:0:
256,192,59051,1,8,0:0:0:0:
256,192,59182,1,8,0:0:0:0:
256,192,59312,1,0,0:0:0:0:
256,192,59443,1,8,0:0:0:0:
256,192,59573,1,8,0:0:0:0:
256,192,59703,1,8,0:0:0:0:
256,192,59834,1,0,0:0:0:0:
256,192,59964,1,8,0:0:0:0:
256,192,60095,1,8,0:0:0:0:
256,192,60225,1,8,0:0:0:0:
256,192,60356,1,0,0:0:0:0:
256,192,60486,1,8,0:0:0:0:
256,192,60616,1,8,0:0:0:0:
256,192,60747,1,8,0:0:0:0:
256,192,60877,1,0,0:0:0:0:
256,192,61008,1,8,0:0:0:0:
256,192,61073,1,8,0:0:0:0:
256,192,61138,1,0,0:0:0:0:
256,192,61203,1,0,0:0:0:0:
256,192,61269,1,8,0:0:0:0:
256,192,61334,1,0,0:0:0:0:
256,192,61399,1,8,0:0:0:0:
256,192,61464,1,8,0:0:0:0:
256,192,61530,1,8,0:0:0:0:
256,192,61595,1,0,0:0:0:0:
256,192,61660,1,8,0:0:0:0:
256,192,61725,1,8,0:0:0:0:
256,192,61790,1,0,0:0:0:0:
256,192,61856,1,0,0:0:0:0:
256,192,61921,1,8,0:0:0:0:
256,192,61986,1,8,0:0:0:0:
256,192,62051,1,0,0:0:0:0:
256,192,62182,12,0,62834,0:0:0:0:
256,256,63095,5,12,0:0:0:0:
256,192,63225,1,8,0:0:0:0:
256,192,63290,1,8,0:0:0:0:
256,192,63356,1,0,0:0:0:0:
256,192,63486,1,8,0:0:0:0:
256,192,63616,1,0,0:0:0:0:
256,192,63682,1,0,0:0:0:0:
256,192,63747,1,8,0:0:0:0:
256,192,63812,1,0,0:0:0:0:
256,192,63877,1,8,0:0:0:0:
256,192,64008,1,8,0:0:0:0:
256,192,64138,1,0,0:0:0:0:
256,192,64269,1,8,0:0:0:0:
256,192,64334,1,8,0:0:0:0:
256,192,64399,1,0,0:0:0:0:
256,192,64530,1,8,0:0:0:0:
256,192,64660,1,0,0:0:0:0:
256,192,64725,1,0,0:0:0:0:
256,192,64790,1,0,0:0:0:0:
256,192,64856,1,0,0:0:0:0:
256,192,64921,1,8,0:0:0:0:
256,192,65051,1,0,0:0:0:0:
256,192,65182,1,8,0:0:0:0:
256,192,65312,1,8,0:0:0:0:
256,192,65377,1,8,0:0:0:0:
256,192,65443,1,0,0:0:0:0:
256,192,65573,1,0,0:0:0:0:
256,192,65703,1,8,0:0:0:0:
256,192,65769,1,0,0:0:0:0:
256,192,65834,1,8,0:0:0:0:
256,192,65899,1,8,0:0:0:0:
256,192,65964,1,0,0:0:0:0:
256,192,66095,1,8,0:0:0:0:
256,192,66225,1,0,0:0:0:0:
256,192,66356,1,8,0:0:0:0:
256,192,66421,1,0,0:0:0:0:
256,192,66486,1,8,0:0:0:0:
256,192,66616,1,0,0:0:0:0:
256,192,66747,1,8,0:0:0:0:
256,192,66812,1,8,0:0:0:0:
256,192,66877,1,0,0:0:0:0:
256,192,66943,1,0,0:0:0:0:
256,192,67008,1,8,0:0:0:0:
256,192,67138,1,8,0:0:0:0:
256,192,67203,1,0,0:0:0:0:
256,192,67269,1,8,0:0:0:0:
256,192,67399,1,8,0:0:0:0:
256,192,67530,1,0,0:0:0:0:
256,192,67660,1,0,0:0:0:0:
256,192,67725,1,0,0:0:0:0:
256,192,67790,1,8,0:0:0:0:
256,192,67921,1,0,0:0:0:0:
256,192,67986,1,0,0:0:0:0:
256,192,68051,1,8,0:0:0:0:
256,192,68116,1,0,0:0:0:0:
256,192,68182,1,8,0:0:0:0:
256,192,68247,1,8,0:0:0:0:
256,192,68312,1,0,0:0:0:0:
256,192,68443,1,8,0:0:0:0:
256,192,68508,1,0,0:0:0:0:
256,192,68573,1,8,0:0:0:0:
256,192,68703,1,8,0:0:0:0:
256,192,68834,1,0,0:0:0:0:
256,192,68964,1,0,0:0:0:0:
256,192,69095,1,8,0:0:0:0:
256,192,69225,1,0,0:0:0:0:
256,192,69290,1,0,0:0:0:0:
256,192,69356,1,8,0:0:0:0:
256,192,69486,1,8,0:0:0:0:
256,192,69616,1,0,0:0:0:0:
256,192,69747,1,8,0:0:0:0:
256,192,69812,1,0,0:0:0:0:
256,192,69877,1,8,0:0:0:0:
256,192,70008,1,0,0:0:0:0:
256,192,70073,1,0,0:0:0:0:
256,192,70138,1,8,0:0:0:0:
256,192,70203,1,0,0:0:0:0:
256,192,70269,1,8,0:0:0:0:
256,192,70334,1,8,0:0:0:0:
256,192,70399,1,0,0:0:0:0:
256,192,70790,1,0,0:0:0:0:
256,192,70856,1,0,0:0:0:0:
256,256,70921,1,12,0:0:0:0:
256,256,71116,1,12,0:0:0:0:
256,256,71312,1,12,0:0:0:0:
256,192,71443,1,0,0:0:0:0:
256,192,71573,1,0,0:0:0:0:
256,256,71703,1,12,0:0:0:0:
256,192,71834,1,0,0:0:0:0:
256,192,71899,1,0,0:0:0:0:
256,192,71964,1,8,0:0:0:0:
256,192,72095,1,0,0:0:0:0:
256,192,72160,1,0,0:0:0:0:
256,192,72225,1,8,0:0:0:0:
256,192,72290,1,0,0:0:0:0:
256,192,72356,1,8,0:0:0:0:
256,192,72486,1,8,0:0:0:0:
256,192,72616,1,8,0:0:0:0:
256,192,72682,1,8,0:0:0:0:
256,192,72747,1,0,0:0:0:0:
256,192,72877,1,0,0:0:0:0:
256,192,73008,1,8,0:0:0:0:
256,192,73073,1,8,0:0:0:0:
256,192,73138,1,0,0:0:0:0:
256,192,73203,1,0,0:0:0:0:
256,192,73269,1,8,0:0:0:0:
256,192,73399,1,0,0:0:0:0:
256,192,73530,1,8,0:0:0:0:
256,192,73660,1,8,0:0:0:0:
256,192,73725,1,8,0:0:0:0:
256,192,73790,1,0,0:0:0:0:
256,192,73921,1,8,0:0:0:0:
256,192,74051,1,0,0:0:0:0:
256,192,74116,1,0,0:0:0:0:
256,192,74182,1,8,0:0:0:0:
256,192,74247,1,0,0:0:0:0:
256,192,74312,1,8,0:0:0:0:
256,192,74443,1,8,0:0:0:0:
256,192,74508,1,8,0:0:0:0:
256,192,74573,1,0,0:0:0:0:
256,192,74703,1,8,0:0:0:0:
256,192,74769,1,0,0:0:0:0:
256,192,74834,1,8,0:0:0:0:
256,192,74964,1,8,0:0:0:0:
256,192,75095,1,0,0:0:0:0:
256,192,75160,1,0,0:0:0:0:
256,192,75225,1,0,0:0:0:0:
256,192,75290,1,0,0:0:0:0:
256,192,75356,1,8,0:0:0:0:
256,192,75486,1,0,0:0:0:0:
256,256,75616,1,12,0:0:0:0:
256,256,75877,1,4,0:0:0:0:
256,256,76008,1,4,0:0:0:0:
256,256,76269,1,12,0:0:0:0:
256,256,76399,1,4,0:0:0:0:
256,256,76530,1,4,0:0:0:0:
256,256,76725,1,12,0:0:0:0:
256,256,76921,1,4,0:0:0:0:
256,256,77116,1,12,0:0:0:0:
256,256,77312,1,12,0:0:0:0:
256,256,77443,1,12,0:0:0:0:
256,256,77573,1,12,0:0:0:0:
256,256,77703,1,4,0:0:0:0:
256,256,77964,1,12,0:0:0:0:
256,256,78095,1,12,0:0:0:0:
256,256,78356,1,4,0:0:0:0:
256,256,78551,1,12,0:0:0:0:
256,256,78747,1,4,0:0:0:0:
256,192,78877,12,0,79530,0:0:0:0:
256,192,79660,5,0,0:0:0:0:
256,192,79725,1,0,0:0:0:0:
256,256,79790,1,12,0:0:0:0:
256,192,79921,1,0,0:0:0:0:
256,192,80051,1,8,0:0:0:0:
256,192,80116,1,8,0:0:0:0:
256,192,80182,1,0,0:0:0:0:
256,192,80247,1,0,0:0:0:0:
256,192,80312,1,8,0:0:0:0:
256,192,80443,1,0,0:0:0:0:
256,192,80573,1,8,0:0:0:0:
256,192,80703,1,8,0:0:0:0:
256,192,80769,1,8,0:0:0:0:
256,192,80834,1,0,0:0:0:0:
256,192,80964,1,8,0:0:0:0:
256,192,81030,1,0,0:0:0:0:
256,192,81095,1,8,0:0:0:0:
256,192,81160,1,8,0:0:0:0:
256,192,81225,1,0,0:0:0:0:
256,192,81290,1,0,0:0:0:0:
256,192,81356,1,8,0:0:0:0:
256,192,81486,1,0,0:0:0:0:
256,192,81616,1,8,0:0:0:0:
256,192,81682,1,8,0:0:0:0:
256,192,81747,1,8,0:0:0:0:
256,192,81812,1,8,0:0:0:0:
256,192,81877,1,0,0:0:0:0:
256,192,82008,1,0,0:0:0:0:
256,192,82138,1,8,0:0:0:0:
256,192,82203,1,0,0:0:0:0:
256,192,82269,1,8,0:0:0:0:
256,192,82334,1,8,0:0:0:0:
256,192,82399,1,0,0:0:0:0:
256,192,82530,1,0,0:0:0:0:
256,192,82660,1,8,0:0:0:0:
256,192,82790,1,8,0:0:0:0:
256,192,82856,1,0,0:0:0:0:
256,192,82921,1,8,0:0:0:0:
256,192,83051,1,0,0:0:0:0:
256,192,83116,1,0,0:0:0:0:
256,192,83182,1,8,0:0:0:0:
256,192,83247,1,8,0:0:0:0:
256,192,83312,1,0,0:0:0:0:
256,192,83377,1,0,0:0:0:0:
256,192,83443,1,8,0:0:0:0:
256,192,83573,1,0,0:0:0:0:
256,192,83703,1,8,0:0:0:0:
256,192,83769,1,8,0:0:0:0:
256,192,83834,1,0,0:0:0:0:
256,192,83899,1,0,0:0:0:0:
256,192,83964,1,8,0:0:0:0:
256,192,84095,1,0,0:0:0:0:
256,192,84225,1,8,0:0:0:0:
256,192,84356,1,0,0:0:0:0:
256,192,84421,1,0,0:0:0:0:
256,192,84486,1,8,0:0:0:0:
256,192,84616,1,0,0:0:0:0:
256,192,84747,1,8,0:0:0:0:
256,192,84877,1,8,0:0:0:0:
256,192,84943,1,8,0:0:0:0:
256,192,85008,1,0,0:0:0:0:
256,192,85138,1,0,0:0:0:0:
256,192,85269,1,8,0:0:0:0:
256,192,85334,1,8,0:0:0:0:
256,192,85399,1,8,0:0:0:0:
256,192,85464,1,8,0:0:0:0:
256,192,85530,1,0,0:0:0:0:
256,192,85660,1,0,0:0:0:0:
256,192,85790,1,8,0:0:0:0:
256,192,85921,1,8,0:0:0:0:
256,192,85986,1,0,0:0:0:0:
256,192,86051,1,8,0:0:0:0:
256,192,86182,1,0,0:0:0:0:
256,192,86312,1,8,0:0:0:0:
256,192,86443,1,0,0:0:0:0:
256,192,86508,1,0,0:0:0:0:
256,192,86573,1,8,0:0:0:0:
256,192,86703,1,0,0:0:0:0:
256,192,86834,1,8,0:0:0:0:
256,192,86964,1,8,0:0:0:0:
256,192,87030,1,8,0:0:0:0:
256,192,87095,1,0,0:0:0:0:
256,192,87225,1,0,0:0:0:0:
256,192,87356,1,8,0:0:0:0:
256,192,87421,1,8,0:0:0:0:
256,192,87486,1,8,0:0:0:0:
256,192,87551,1,8,0:0:0:0:
256,192,87616,1,0,0:0:0:0:
256,192,87747,1,0,0:0:0:0:
256,192,87877,1,8,0:0:0:0:
256,192,88008,1,0,0:0:0:0:
256,192,88073,1,0,0:0:0:0:
256,256,88138,1,12,0:0:0:0:
256,192,88269,1,0,0:0:0:0:
256,192,88399,1,8,0:0:0:0:
256,192,88530,1,0,0:0:0:0:
256,192,88595,1,0,0:0:0:0:
256,192,88660,1,8,0:0:0:0:
256,192,88725,1,0,0:0:0:0:
256,192,88790,1,8,0:0:0:0:
256,192,88856,1,8,0:0:0:0:
256,192,88921,1,0,0:0:0:0:
256,192,89051,1,8,0:0:0:0:
256,192,89116,1,8,0:0:0:0:
256,192,89182,1,0,0:0:0:0:
256,192,89312,1,8,0:0:0:0:
256,192,89443,1,0,0:0:0:0:
256,192,89573,1,8,0:0:0:0:
256,192,89638,1,0,0:0:0:0:
256,192,89703,1,8,0:0:0:0:
256,192,89834,1,0,0:0:0:0:
256,192,89899,1,0,0:0:0:0:
256,192,89964,1,8,0:0:0:0:
256,192,90095,1,0,0:0:0:0:
256,192,90225,1,8,0:0:0:0:
256,192,90356,1,8,0:0:0:0:
256,192,90486,1,0,0:0:0:0:
256,192,90616,1,8,0:0:0:0:
256,192,90682,1,8,0:0:0:0:
256,192,90747,1,0,0:0:0:0:
256,192,90812,1,0,0:0:0:0:
256,192,90877,1,8,0:0:0:0:
256,192,90943,1,0,0:0:0:0:
256,192,91008,1,8,0:0:0:0:
256,192,91138,1,0,0:0:0:0:
256,192,91203,1,0,0:0:0:0:
256,192,91269,1,8,0:0:0:0:
256,192,91399,1,0,0:0:0:0:
256,192,91530,1,8,0:0:0:0:
256,192,91660,1,8,0:0:0:0:
256,192,91725,1,8,0:0:0:0:
256,192,91790,1,0,0:0:0:0:
256,192,91921,1,8,0:0:0:0:
256,192,91986,1,0,0:0:0:0:
256,192,92051,1,8,0:0:0:0:
256,192,92182,1,0,0:0:0:0:
256,192,92312,1,8,0:0:0:0:
256,192,92443,1,8,0:0:0:0:
256,192,92573,1,0,0:0:0:0:
256,192,92703,1,8,0:0:0:0:
256,192,92769,1,8,0:0:0:0:
256,192,92834,1,0,0:0:0:0:
256,192,92964,1,8,0:0:0:0:
256,192,93030,1,0,0:0:0:0:
256,192,93095,1,8,0:0:0:0:
256,192,93225,1,8,0:0:0:0:
256,192,93356,1,0,0:0:0:0:
256,192,93486,1,0,0:0:0:0:
256,192,93616,1,8,0:0:0:0:
256,192,93747,1,8,0:0:0:0:
256,192,93812,1,0,0:0:0:0:
256,192,93877,1,8,0:0:0:0:
256,192,94008,1,0,0:0:0:0:
256,192,94073,1,0,0:0:0:0:
256,192,94138,1,8,0:0:0:0:
256,192,94269,1,0,0:0:0:0:
256,256,94530,1,12,0:0:0:0:
256,256,94660,1,12,0:0:0:0:
256,256,94921,1,12,0:0:0:0:
256,256,95051,1,12,0:0:0:0:
256,256,95312,1,12,0:0:0:0:
256,256,95443,1,12,0:0:0:0:
256,256,95703,1,12,0:0:0:0:
256,256,95834,1,12,0:0:0:0:
256,256,96095,1,12,0:0:0:0:
256,192,96225,1,0,0:0:0:0:
256,192,96290,1,0,0:0:0:0:
256,192,96356,1,0,0:0:0:0:
256,192,96421,1,0,0:0:0:0:
256,256,96486,1,12,0:0:0:0:
256,256,96747,1,12,0:0:0:0:
256,192,97138,1,8,0:0:0:0:
256,192,97182,1,8,0:0:0:0:
256,192,97225,1,8,0:0:0:0:
256,192,97269,1,0,0:0:0:0:
256,192,97399,1,8,0:0:0:0:
256,192,97530,1,0,0:0:0:0:
256,192,97660,1,8,0:0:0:0:
256,192,97790,1,8,0:0:0:0:
256,192,97921,1,0,0:0:0:0:
256,192,97964,1,0,0:0:0:0:
256,192,98008,1,0,0:0:0:0:
256,192,98051,1,8,0:0:0:0:
256,192,98182,1,0,0:0:0:0:
256,192,98312,1,8,0:0:0:0:
256,192,98443,1,8,0:0:0:0:
256,256,98573,1,4,0:0:0:0:
256,256,98703,1,4,0:0:0:0:
256,256,98964,1,12,0:0:0:0:
256,256,99095,1,12,0:0:0:0:
256,256,99356,1,4,0:0:0:0:
256,256,99486,1,4,0:0:0:0:
256,256,99747,1,12,0:0:0:0:
256,256,100008,1,12,0:0:0:0:
256,192,100269,1,0,0:0:0:0:
256,256,100399,1,0,0:0:0:0:
256,192,100530,1,8,0:0:0:0:
256,256,100660,1,12,0:0:0:0:
256,256,100921,1,12,0:0:0:0:
256,192,101312,1,8,0:0:0:0:
256,192,101443,1,8,0:0:0:0:
256,192,101573,1,8,0:0:0:0:
256,192,101616,1,8,0:0:0:0:
256,192,101660,1,8,0:0:0:0:
256,192,101703,1,0,0:0:0:0:
256,192,101834,1,8,0:0:0:0:
256,192,101964,1,0,0:0:0:0:
256,192,102095,1,0,0:0:0:0:
256,192,102138,1,0,0:0:0:0:
256,192,102182,1,0,0:0:0:0:
256,192,102225,1,8,0:0:0:0:
256,192,102356,1,0,0:0:0:0:
256,192,102486,1,8,0:0:0:0:
256,192,102616,1,8,0:0:0:0:
256,256,102747,1,4,0:0:0:0:
256,256,102877,1,4,0:0:0:0:
256,256,103138,1,12,0:0:0:0:
256,256,103269,1,12,0:0:0:0:
256,256,103530,1,4,0:0:0:0:
256,256,103660,1,4,0:0:0:0:
256,256,103921,1,12,0:0:0:0:
256,256,104182,1,12,0:0:0:0:
256,192,104443,1,0,0:0:0:0:
256,192,104573,1,8,0:0:0:0:
256,192,104703,1,8,0:0:0:0:
256,256,104834,1,4,0:0:0:0:
256,256,105095,1,4,0:0:0:0:
256,192,105486,1,8,0:0:0:0:
256,192,105616,1,8,0:0:0:0:
256,192,105660,1,8,0:0:0:0:
256,192,105703,1,8,0:0:0:0:
256,192,105747,1,8,0:0:0:0:
256,192,105877,1,0,0:0:0:0:
256,192,106008,1,8,0:0:0:0:
256,192,106138,1,0,0:0:0:0:
256,192,106182,1,0,0:0:0:0:
256,192,106225,1,0,0:0:0:0:
256,192,106269,1,0,0:0:0:0:
256,192,106399,1,8,0:0:0:0:
256,192,106530,1,0,0:0:0:0:
256,192,106660,1,8,0:0:0:0:
256,192,106790,1,8,0:0:0:0:
256,256,106921,1,4,0:0:0:0:
256,256,107051,1,4,0:0:0:0:
256,256,107312,1,12,0:0:0:0:
256,256,107443,1,12,0:0:0:0:
256,256,107703,1,4,0:0:0:0:
256,256,107834,1,4,0:0:0:0:
256,256,108095,1,12,0:0:0:0:
256,256,108356,1,12,0:0:0:0:
256,192,108616,1,0,0:0:0:0:
256,192,108747,1,0,0:0:0:0:
256,192,108877,1,8,0:0:0:0:
256,256,109008,1,12,0:0:0:0:
256,256,109269,1,12,0:0:0:0:
256,192,109660,1,8,0:0:0:0:
256,192,109703,1,8,0:0:0:0:
256,192,109747,1,8,0:0:0:0:
256,192,109790,1,0,0:0:0:0:
256,192,109921,1,8,0:0:0:0:
256,192,110051,1,0,0:0:0:0:
256,192,110182,1,8,0:0:0:0:
256,192,110312,1,0,0:0:0:0:
256,192,110443,1,0,0:0:0:0:
256,192,110573,1,8,0:0:0:0:
256,192,110703,1,0,0:0:0:0:
256,192,110834,1,8,0:0:0:0:
256,192,111095,1,8,0:0:0:0:
256,192,111225,1,8,0:0:0:0:
256,192,111486,1,8,0:0:0:0:
256,192,111616,1,0,0:0:0:0:
256,192,111877,1,8,0:0:0:0:
256,192,112008,1,8,0:0:0:0:
256,192,112269,1,8,0:0:0:0:
256,192,112399,1,0,0:0:0:0:
256,192,112660,1,8,0:0:0:0:
256,192,112790,1,8,0:0:0:0:
256,192,112921,1,0,0:0:0:0:
256,192,113051,1,8,0:0:0:0:
256,192,113182,1,0,0:0:0:0:
256,192,113443,1,8,0:0:0:0:
256,192,113573,1,0,0:0:0:0:
256,192,113834,1,0,0:0:0:0:
256,192,113964,1,0,0:0:0:0:
256,192,114225,1,8,0:0:0:0:
256,192,114356,1,0,0:0:0:0:
256,192,114616,1,0,0:0:0:0:
256,192,114747,1,0,0:0:0:0:
256,192,115008,1,8,0:0:0:0:
256,192,115138,1,0,0:0:0:0:
256,192,115269,1,0,0:0:0:0:
256,192,115334,1,0,0:0:0:0:
256,192,115399,1,0,0:0:0:0:
256,192,115464,1,0,0:0:0:0:
256,192,115530,1,0,0:0:0:0:
256,192,115595,1,0,0:0:0:0:
256,192,115660,1,0,0:0:0:0:
256,192,115725,1,0,0:0:0:0:
256,192,115790,1,8,0:0:0:0:
256,192,115856,1,8,0:0:0:0:
256,192,115921,1,8,0:0:0:0:
256,192,115986,1,8,0:0:0:0:
256,192,116051,1,8,0:0:0:0:
256,192,116116,1,8,0:0:0:0:
256,192,116182,1,8,0:0:0:0:
256,192,116247,1,8,0:0:0:0:
256,192,116312,1,0,0:0:0:0:
256,192,116377,1,0,0:0:0:0:
256,192,116443,1,0,0:0:0:0:
256,192,116508,1,0,0:0:0:0:
256,192,116573,1,0,0:0:0:0:
256,192,116638,1,0,0:0:0:0:
256,192,116703,1,0,0:0:0:0:
256,192,116769,1,0,0:0:0:0:
256,192,116834,1,8,0:0:0:0:
256,192,116899,1,8,0:0:0:0:
256,192,116964,1,8,0:0:0:0:
256,192,117030,1,8,0:0:0:0:
256,192,117095,1,8,0:0:0:0:
256,192,117160,1,8,0:0:0:0:
256,192,117225,1,8,0:0:0:0:
256,192,117290,1,8,0:0:0:0:
256,256,117356,1,4,0:0:0:0:
256,256,117486,1,4,0:0:0:0:
256,256,117747,1,12,0:0:0:0:
256,256,117877,1,12,0:0:0:0:
256,256,118138,1,4,0:0:0:0:
256,256,118269,1,12,0:0:0:0:
256,192,118399,12,0,119182,0:0:0:0:
256,256,119443,5,4,0:0:0:0:
256,192,119573,1,8,0:0:0:0:
256,192,119638,1,8,0:0:0:0:
256,192,119703,1,0,0:0:0:0:
256,192,119834,1,0,0:0:0:0:
256,192,119964,1,8,0:0:0:0:
256,192,120030,1,0,0:0:0:0:
256,192,120095,1,8,0:0:0:0:
256,192,120160,1,8,0:0:0:0:
256,192,120225,1,0,0:0:0:0:
256,192,120290,1,0,0:0:0:0:
256,192,120356,1,8,0:0:0:0:
256,192,120486,1,0,0:0:0:0:
256,192,120616,1,8,0:0:0:0:
256,192,120682,1,0,0:0:0:0:
256,192,120747,1,8,0:0:0:0:
256,192,120877,1,8,0:0:0:0:
256,192,121008,1,0,0:0:0:0:
256,192,121073,1,0,0:0:0:0:
256,192,121138,1,8,0:0:0:0:
256,192,121203,1,0,0:0:0:0:
256,192,121269,1,8,0:0:0:0:
256,192,121334,1,0,0:0:0:0:
256,192,121399,1,8,0:0:0:0:
256,192,121464,1,8,0:0:0:0:
256,192,121530,1,0,0:0:0:0:
256,192,121660,1,8,0:0:0:0:
256,192,121725,1,0,0:0:0:0:
256,192,121790,1,8,0:0:0:0:
256,192,121921,1,0,0:0:0:0:
256,192,122051,1,8,0:0:0:0:
256,192,122116,1,8,0:0:0:0:
256,192,122182,1,0,0:0:0:0:
256,192,122247,1,0,0:0:0:0:
256,192,122312,1,8,0:0:0:0:
256,192,122377,1,0,0:0:0:0:
256,192,122443,1,8,0:0:0:0:
256,192,122573,1,8,0:0:0:0:
256,192,122638,1,0,0:0:0:0:
256,192,122703,1,0,0:0:0:0:
256,192,122769,1,8,0:0:0:0:
256,192,122899,1,8,0:0:0:0:
256,192,122964,1,0,0:0:0:0:
256,192,123095,1,8,0:0:0:0:
256,192,123225,1,0,0:0:0:0:
256,192,123290,1,8,0:0:0:0:
256,192,123421,1,0,0:0:0:0:
256,192,123486,1,8,0:0:0:0:
256,192,123551,1,8,0:0:0:0:
256,192,123616,1,0,0:0:0:0:
256,192,123747,1,8,0:0:0:0:
256,192,123812,1,0,0:0:0:0:
256,192,123877,1,8,0:0:0:0:
256,192,124008,1,0,0:0:0:0:
256,192,124138,1,8,0:0:0:0:
256,192,124203,1,8,0:0:0:0:
256,192,124269,1,0,0:0:0:0:
256,192,124334,1,0,0:0:0:0:
256,192,124399,1,8,0:0:0:0:
256,192,124464,1,0,0:0:0:0:
256,192,124530,1,8,0:0:0:0:
256,192,124595,1,8,0:0:0:0:
256,192,124660,1,0,0:0:0:0:
256,192,124790,1,8,0:0:0:0:
256,192,124921,1,0,0:0:0:0:
256,192,125051,1,0,0:0:0:0:
256,192,125116,1,0,0:0:0:0:
256,192,125182,1,8,0:0:0:0:
256,192,125247,1,8,0:0:0:0:
256,192,125312,1,8,0:0:0:0:
256,192,125377,1,0,0:0:0:0:
256,192,125443,1,8,0:0:0:0:
256,192,125508,1,8,0:0:0:0:
256,192,125573,1,0,0:0:0:0:
256,192,125638,1,0,0:0:0:0:
256,192,125703,1,8,0:0:0:0:
256,192,125834,1,0,0:0:0:0:
256,192,125899,1,0,0:0:0:0:
256,192,125964,1,8,0:0:0:0:
256,192,126095,1,0,0:0:0:0:
256,192,126160,1,0,0:0:0:0:
256,192,126225,1,8,0:0:0:0:
256,192,126290,1,0,0:0:0:0:
256,192,126356,1,8,0:0:0:0:
256,192,126421,1,8,0:0:0:0:
256,192,126486,1,0,0:0:0:0:
256,192,126551,1,8,0:0:0:0:
256,192,126616,1,0,0:0:0:0:
256,192,126682,1,0,0:0:0:0:
256,256,126747,1,12,0:0:0:0:
256,256,126943,1,12,0:0:0:0:
256,256,127138,1,4,0:0:0:0:
256,256,127269,1,12,0:0:0:0:
256,256,127464,1,12,0:0:0:0:
256,256,127660,1,12,0:0:0:0:
256,192,127790,1,0,0:0:0:0:
256,192,127921,1,0,0:0:0:0:
256,256,128051,1,12,0:0:0:0:
256,192,128182,1,0,0:0:0:0:
256,192,128247,1,0,0:0:0:0:
256,192,128312,1,8,0:0:0:0:
256,192,128443,1,0,0:0:0:0:
256,192,128508,1,0,0:0:0:0:
256,192,128573,1,8,0:0:0:0:
256,192,128638,1,0,0:0:0:0:
256,192,128703,1,8,0:0:0:0:
256,192,128769,1,8,0:0:0:0:
256,192,128834,1,0,0:0:0:0:
256,192,128964,1,8,0:0:0:0:
256,192,129095,1,0,0:0:0:0:
256,192,129225,1,8,0:0:0:0:
256,192,129290,1,0,0:0:0:0:
256,192,129356,1,8,0:0:0:0:
256,192,129486,1,0,0:0:0:0:
256,192,129551,1,0,0:0:0:0:
256,192,129616,1,8,0:0:0:0:
256,192,129682,1,8,0:0:0:0:
256,192,129747,1,8,0:0:0:0:
256,192,129812,1,0,0:0:0:0:
256,192,129877,1,8,0:0:0:0:
256,192,130008,1,0,0:0:0:0:
256,192,130073,1,0,0:0:0:0:
256,256,130138,1,12,0:0:0:0:
256,192,130269,1,8,0:0:0:0:
256,192,130334,1,0,0:0:0:0:
256,192,130399,1,8,0:0:0:0:
256,192,130464,1,0,0:0:0:0:
256,192,130530,1,8,0:0:0:0:
256,192,130595,1,8,0:0:0:0:
256,192,130660,1,0,0:0:0:0:
256,192,130725,1,0,0:0:0:0:
256,192,130790,1,8,0:0:0:0:
256,192,130856,1,0,0:0:0:0:
256,256,130921,1,12,0:0:0:0:
256,256,131116,1,12,0:0:0:0:
256,256,131312,1,12,0:0:0:0:
256,256,131443,1,4,0:0:0:0:
256,256,131638,1,12,0:0:0:0:
256,256,131834,1,12,0:0:0:0:
256,256,131964,1,4,0:0:0:0:
256,192,132225,1,8,0:0:0:0:
256,192,132356,1,0,0:0:0:0:
256,192,132421,1,0,0:0:0:0:
256,192,132486,1,8,0:0:0:0:
256,192,132551,1,0,0:0:0:0:
256,192,132616,1,8,0:0:0:0:
256,192,132682,1,0,0:0:0:0:
256,192,132747,1,8,0:0:0:0:
256,192,132812,1,8,0:0:0:0:
256,192,132877,1,0,0:0:0:0:
256,192,132943,1,0,0:0:0:0:
256,192,133008,1,8,0:0:0:0:
256,192,133269,1,8,0:0:0:0:
256,192,133399,1,0,0:0:0:0:
256,192,133464,1,0,0:0:0:0:
256,192,133530,1,8,0:0:0:0:
256,192,133595,1,0,0:0:0:0:
256,192,133660,1,8,0:0:0:0:
256,192,133725,1,8,0:0:0:0:
256,192,133790,1,0,0:0:0:0:
256,192,133856,1,0,0:0:0:0:
256,192,133921,1,8,0:0:0:0:
256,192,133986,1,0,0:0:0:0:
256,192,134051,1,8,0:0:0:0:
256,192,134312,1,8,0:0:0:0:
256,192,134443,1,0,0:0:0:0:
256,192,134508,1,0,0:0:0:0:
256,192,134573,1,8,0:0:0:0:
256,192,134638,1,8,0:0:0:0:
256,192,134704,1,0,0:0:0:0:
256,192,134769,1,0,0:0:0:0:
256,192,134834,1,8,0:0:0:0:
256,192,134899,1,0,0:0:0:0:
256,192,134964,1,8,0:0:0:0:
256,192,135030,1,8,0:0:0:0:
256,192,135095,1,0,0:0:0:0:
256,192,135290,1,8,0:0:0:0:
256,192,135356,1,8,0:0:0:0:
256,192,135486,1,0,0:0:0:0:
256,192,135551,1,0,0:0:0:0:
256,192,135616,1,8,0:0:0:0:
256,192,135747,1,8,0:0:0:0:
256,192,135812,1,8,0:0:0:0:
256,192,135943,1,8,0:0:0:0:
256,192,136008,1,0,0:0:0:0:
256,256,136269,1,4,0:0:0:0:
256,256,136464,1,4,0:0:0:0:
256,256,136660,1,4,0:0:0:0:
256,256,136856,1,4,0:0:0:0:
256,256,137051,1,4,0:0:0:0:
256,256,137247,1,4,0:0:0:0:
256,256,137443,1,4,0:0:0:0:
256,256,137638,1,4,0:0:0:0:
256,256,137834,1,4,0:0:0:0:
256,256,138030,1,4,0:0:0:0:
256,256,138356,1,12,0:0:0:0:
256,256,138551,1,12,0:0:0:0:
256,256,138747,1,12,0:0:0:0:
256,256,138942,1,12,0:0:0:0:
256,256,139138,1,12,0:0:0:0:
256,256,139333,1,12,0:0:0:0:
256,256,139530,1,12,0:0:0:0:
256,256,139725,1,12,0:0:0:0:
256,256,139921,1,12,0:0:0:0:
256,256,140051,1,12,0:0:0:0:
256,256,140182,1,12,0:0:0:0:
256,256,140443,1,4,0:0:0:0:
256,256,140638,1,4,0:0:0:0:
256,256,140834,1,4,0:0:0:0:
256,256,141030,1,4,0:0:0:0:
256,256,141225,1,4,0:0:0:0:
256,256,141420,1,4,0:0:0:0:
256,256,141616,1,4,0:0:0:0:
256,256,141812,1,4,0:0:0:0:
256,256,142008,1,4,0:0:0:0:
256,256,142203,1,4,0:0:0:0:
256,256,142530,1,12,0:0:0:0:
256,256,142725,1,12,0:0:0:0:
256,256,142921,1,12,0:0:0:0:
256,256,143116,1,12,0:0:0:0:
256,256,143312,1,12,0:0:0:0:
256,256,143508,1,12,0:0:0:0:
256,256,143703,1,12,0:0:0:0:
256,256,143834,1,12,0:0:0:0:
256,256,144486,1,4,0:0:0:0:
256,192,144747,1,0,0:0:0:0:
256,192,145008,1,0,0:0:0:0:
256,192,145269,1,0,0:0:0:0:
256,192,145530,1,0,0:0:0:0:
256,192,145790,1,0,0:0:0:0:
256,192,146051,1,0,0:0:0:0:
256,192,146312,1,0,0:0:0:0:
256,192,146573,1,0,0:0:0:0:
256,192,146834,1,0,0:0:0:0:
256,192,147095,1,0,0:0:0:0:
256,192,147356,1,0,0:0:0:0:
256,192,147616,1,0,0:0:0:0:
256,192,147877,1,0,0:0:0:0:
256,192,148138,1,0,0:0:0:0:
256,192,148399,1,0,0:0:0:0:
256,192,148464,1,8,0:0:0:0:
256,192,148530,1,8,0:0:0:0:
256,192,148595,1,8,0:0:0:0:
256,192,148660,1,0,0:0:0:0:
256,192,148921,1,0,0:0:0:0:
256,192,149182,1,0,0:0:0:0:
256,192,149443,1,0,0:0:0:0:
256,192,149703,1,0,0:0:0:0:
256,192,149964,1,0,0:0:0:0:
256,192,150225,1,0,0:0:0:0:
256,192,150486,1,0,0:0:0:0:
256,192,150747,1,0,0:0:0:0:
256,192,151008,1,0,0:0:0:0:
256,192,151269,1,0,0:0:0:0:
256,192,151530,1,0,0:0:0:0:
256,192,151790,1,0,0:0:0:0:
256,192,151921,1,0,0:0:0:0:
256,192,152051,1,0,0:0:0:0:
256,192,152182,1,0,0:0:0:0:
256,192,152834,1,0,0:0:0:0:
256,192,152877,1,0,0:0:0:0:
256,192,152921,1,0,0:0:0:0:
256,192,152964,1,8,0:0:0:0:
256,192,153030,1,8,0:0:0:0:
256,192,153095,1,0,0:0:0:0:
256,192,153160,1,8,0:0:0:0:
256,192,153225,1,0,0:0:0:0:
256,256,153356,1,12,0:0:0:0:
256,256,153551,1,12,0:0:0:0:
256,256,153747,1,4,0:0:0:0:
256,256,153877,1,12,0:0:0:0:
256,256,154073,1,12,0:0:0:0:
256,256,154269,1,4,0:0:0:0:
256,256,154399,1,12,0:0:0:0:
256,256,154530,1,12,0:0:0:0:
256,256,154660,1,4,0:0:0:0:
256,192,154921,1,0,0:0:0:0:
256,192,154964,1,0,0:0:0:0:
256,192,155008,1,0,0:0:0:0:
256,192,155051,1,8,0:0:0:0:
256,192,155116,1,0,0:0:0:0:
256,192,155182,1,8,0:0:0:0:
256,192,155247,1,8,0:0:0:0:
256,192,155312,1,0,0:0:0:0:
256,256,155443,1,12,0:0:0:0:
256,256,155638,1,12,0:0:0:0:
256,256,155834,1,4,0:0:0:0:
256,256,155964,1,12,0:0:0:0:
256,256,156160,1,12,0:0:0:0:
256,256,156356,1,4,0:0:0:0:
256,192,156486,1,8,0:0:0:0:
256,192,156551,1,8,0:0:0:0:
256,192,156616,1,0,0:0:0:0:
256,192,156682,1,0,0:0:0:0:
256,192,156747,1,8,0:0:0:0:
256,192,157008,1,0,0:0:0:0:
256,192,157051,1,0,0:0:0:0:
256,192,157095,1,0,0:0:0:0:
256,192,157138,1,8,0:0:0:0:
256,192,157203,1,8,0:0:0:0:
256,192,157269,1,0,0:0:0:0:
256,192,157334,1,8,0:0:0:0:
256,192,157399,1,0,0:0:0:0:
256,256,157530,1,12,0:0:0:0:
256,256,157725,1,12,0:0:0:0:
256,256,157921,1,4,0:0:0:0:
256,256,158051,1,12,0:0:0:0:
256,256,158247,1,12,0:0:0:0:
256,256,158443,1,4,0:0:0:0:
256,256,158573,1,12,0:0:0:0:
256,256,158703,1,12,0:0:0:0:
256,256,158834,1,4,0:0:0:0:
256,192,159095,1,0,0:0:0:0:
256,192,159138,1,0,0:0:0:0:
256,192,159182,1,0,0:0:0:0:
256,192,159225,1,8,0:0:0:0:
256,192,159290,1,0,0:0:0:0:
256,192,159356,1,8,0:0:0:0:
256,192,159421,1,8,0:0:0:0:
256,192,159486,1,0,0:0:0:0:
256,256,159616,1,12,0:0:0:0:
256,256,159812,1,12,0:0:0:0:
256,256,160008,1,4,0:0:0:0:
256,256,160138,1,12,0:0:0:0:
256,256,160334,1,12,0:0:0:0:
256,256,160530,1,12,0:0:0:0:
256,192,160660,1,0,0:0:0:0:
256,192,160725,1,0,0:0:0:0:
256,192,160790,1,0,0:0:0:0:
256,192,160856,1,0,0:0:0:0:
256,192,160921,1,8,0:0:0:0:
256,192,161182,1,8,0:0:0:0:
256,192,161225,1,8,0:0:0:0:
256,192,161269,1,8,0:0:0:0:
256,192,161312,1,0,0:0:0:0:
256,192,161377,1,0,0:0:0:0:
256,192,161443,1,8,0:0:0:0:
256,192,161508,1,8,0:0:0:0:
256,192,161573,1,0,0:0:0:0:
256,256,161703,1,4,0:0:0:0:
256,256,161899,1,12,0:0:0:0:
256,256,162095,1,4,0:0:0:0:
256,256,162225,1,4,0:0:0:0:
256,256,162421,1,12,0:0:0:0:
256,256,162616,1,4,0:0:0:0:
256,256,162747,1,12,0:0:0:0:
256,256,162877,1,12,0:0:0:0:
256,256,163008,1,4,0:0:0:0:
256,192,163269,1,8,0:0:0:0:
256,192,163312,1,8,0:0:0:0:
256,192,163356,1,8,0:0:0:0:
256,192,163399,1,0,0:0:0:0:
256,192,163464,1,0,0:0:0:0:
256,192,163530,1,8,0:0:0:0:
256,192,163595,1,8,0:0:0:0:
256,192,163660,1,0,0:0:0:0:
256,256,163790,1,4,0:0:0:0:
256,256,163986,1,12,0:0:0:0:
256,256,164182,1,4,0:0:0:0:
256,256,164312,1,4,0:0:0:0:
256,256,164508,1,12,0:0:0:0:
256,256,164703,1,4,0:0:0:0:
256,192,164834,1,8,0:0:0:0:
256,192,164899,1,8,0:0:0:0:
256,192,164964,1,8,0:0:0:0:
256,192,165030,1,8,0:0:0:0:
256,192,165095,1,0,0:0:0:0:
256,192,165356,1,8,0:0:0:0:
256,192,165399,1,8,0:0:0:0:
256,192,165443,1,8,0:0:0:0:
256,192,165486,1,0,0:0:0:0:
256,192,165551,1,0,0:0:0:0:
256,192,165616,1,8,0:0:0:0:
256,192,165682,1,8,0:0:0:0:
256,192,165747,1,0,0:0:0:0:
256,256,165877,1,4,0:0:0:0:
256,256,166073,1,12,0:0:0:0:
256,256,166269,1,4,0:0:0:0:
256,256,166399,1,4,0:0:0:0:
256,256,166595,1,12,0:0:0:0:
256,256,166790,1,4,0:0:0:0:
256,256,166921,1,12,0:0:0:0:
256,256,167051,1,12,0:0:0:0:
256,192,167182,1,0,0:0:0:0:
256,192,167247,1,0,0:0:0:0:
256,192,167312,1,0,0:0:0:0:
256,192,167377,1,0,0:0:0:0:
256,192,167443,1,8,0:0:0:0:
256,192,167508,1,8,0:0:0:0:
256,192,167573,1,0,0:0:0:0:
256,192,167638,1,8,0:0:0:0:
256,192,167703,1,8,0:0:0:0:
256,192,167769,1,0,0:0:0:0:
256,192,167834,1,8,0:0:0:0:
256,192,167899,1,0,0:0:0:0:
256,192,167964,1,8,0:0:0:0:
256,192,168030,1,8,0:0:0:0:
256,192,168095,1,0,0:0:0:0:
256,192,168160,1,0,0:0:0:0:
256,192,168225,1,8,0:0:0:0:
256,192,168290,1,0,0:0:0:0:
256,192,168356,1,8,0:0:0:0:
256,192,168421,1,8,0:0:0:0:
256,192,168486,1,8,0:0:0:0:
256,192,168551,1,0,0:0:0:0:
256,192,168616,1,8,0:0:0:0:
256,192,168682,1,0,0:0:0:0:
256,192,168747,1,8,0:0:0:0:
256,192,168812,1,8,0:0:0:0:
256,192,168877,1,0,0:0:0:0:
256,192,168943,1,8,0:0:0:0:
256,192,169008,1,0,0:0:0:0:
256,192,169269,1,8,0:0:0:0:
256,256,169530,1,4,0:0:0:0:
256,192,182182,12,0,184008,0:0:0:0:
256,256,184138,5,4,0:0:0:0:
256,256,184269,1,4,0:0:0:0:
256,256,184530,1,12,0:0:0:0:
256,256,184660,1,12,0:0:0:0:
256,256,184920,1,4,0:0:0:0:
256,256,185051,1,4,0:0:0:0:
256,256,185312,1,12,0:0:0:0:
256,256,185573,1,12,0:0:0:0:
256,192,186225,1,0,0:0:0:0:
256,192,186356,1,8,0:0:0:0:
256,192,186486,1,8,0:0:0:0:
256,192,186616,1,8,0:0:0:0:
256,192,186747,1,0,0:0:0:0:
256,192,186877,1,8,0:0:0:0:
256,192,187008,1,0,0:0:0:0:
256,192,187138,1,0,0:0:0:0:
256,192,187203,1,0,0:0:0:0:
256,192,187269,1,8,0:0:0:0:
256,192,187399,1,8,0:0:0:0:
256,192,187530,1,0,0:0:0:0:
256,192,187660,1,8,0:0:0:0:
256,192,187790,1,0,0:0:0:0:
256,192,187921,1,0,0:0:0:0:
256,192,188051,1,8,0:0:0:0:
256,192,188182,1,8,0:0:0:0:
256,192,188312,1,0,0:0:0:0:
256,192,188443,1,0,0:0:0:0:
256,192,188573,1,8,0:0:0:0:
256,192,188703,1,8,0:0:0:0:
256,192,188834,1,8,0:0:0:0:
256,192,188964,1,0,0:0:0:0:
256,192,189095,1,8,0:0:0:0:
256,192,189225,1,0,0:0:0:0:
256,192,189290,1,0,0:0:0:0:
256,192,189356,1,8,0:0:0:0:
256,192,189486,1,8,0:0:0:0:
256,192,189616,1,0,0:0:0:0:
256,192,189747,1,8,0:0:0:0:
256,192,189877,1,0,0:0:0:0:
256,192,190008,1,0,0:0:0:0:
256,192,190138,1,8,0:0:0:0:
256,192,190269,1,8,0:0:0:0:
256,192,190399,1,0,0:0:0:0:
256,192,190530,1,0,0:0:0:0:
256,192,190660,1,8,0:0:0:0:
256,192,190790,1,0,0:0:0:0:
256,192,190921,1,8,0:0:0:0:
256,192,191051,1,8,0:0:0:0:
256,192,191182,1,0,0:0:0:0:
256,192,191312,1,0,0:0:0:0:
256,192,191377,1,0,0:0:0:0:
256,192,191443,1,8,0:0:0:0:
256,192,191573,1,8,0:0:0:0:
256,192,191703,1,0,0:0:0:0:
256,192,191834,1,8,0:0:0:0:
256,192,191964,1,0,0:0:0:0:
256,192,192095,1,0,0:0:0:0:
256,192,192225,1,8,0:0:0:0:
256,192,192356,1,8,0:0:0:0:
256,192,192486,1,0,0:0:0:0:
256,192,192616,1,0,0:0:0:0:
256,192,192747,1,8,0:0:0:0:
256,192,192877,1,8,0:0:0:0:
256,192,193008,1,8,0:0:0:0:
256,192,193138,1,0,0:0:0:0:
256,192,193269,1,8,0:0:0:0:
256,192,193399,1,0,0:0:0:0:
256,192,193464,1,0,0:0:0:0:
256,192,193530,1,8,0:0:0:0:
256,192,193660,1,8,0:0:0:0:
256,192,193790,1,0,0:0:0:0:
256,192,193921,1,8,0:0:0:0:
256,192,194182,1,8,0:0:0:0:
256,192,194247,1,8,0:0:0:0:
256,192,194312,1,0,0:0:0:0:
256,192,194377,1,0,0:0:0:0:
256,192,194443,1,8,0:0:0:0:
256,192,194508,1,8,0:0:0:0:
256,192,194573,1,0,0:0:0:0:
256,192,194703,1,0,0:0:0:0:
256,192,194834,1,8,0:0:0:0:
256,192,194964,1,8,0:0:0:0:
256,192,195095,1,0,0:0:0:0:
256,192,195225,1,8,0:0:0:0:
256,192,195356,1,8,0:0:0:0:
256,192,195486,1,0,0:0:0:0:
256,192,195551,1,0,0:0:0:0:
256,192,195616,1,8,0:0:0:0:
256,192,195747,1,8,0:0:0:0:
256,192,195877,1,0,0:0:0:0:
256,192,196008,1,8,0:0:0:0:
256,192,196138,1,0,0:0:0:0:
256,192,196269,1,0,0:0:0:0:
256,192,196399,1,8,0:0:0:0:
256,192,196530,1,8,0:0:0:0:
256,192,196660,1,0,0:0:0:0:
256,192,196790,1,0,0:0:0:0:
256,192,196921,1,8,0:0:0:0:
256,192,197051,1,8,0:0:0:0:
256,192,197182,1,8,0:0:0:0:
256,192,197312,1,0,0:0:0:0:
256,192,197443,1,8,0:0:0:0:
256,192,197573,1,0,0:0:0:0:
256,192,197638,1,0,0:0:0:0:
256,192,197703,1,8,0:0:0:0:
256,192,197834,1,8,0:0:0:0:
256,192,197964,1,0,0:0:0:0:
256,192,198095,1,8,0:0:0:0:
256,192,198225,1,0,0:0:0:0:
256,192,198356,1,0,0:0:0:0:
256,192,198486,1,8,0:0:0:0:
256,192,198616,1,8,0:0:0:0:
256,192,198747,1,0,0:0:0:0:
256,192,198877,1,0,0:0:0:0:
256,192,199008,1,8,0:0:0:0:
256,192,199138,1,0,0:0:0:0:
256,192,199269,1,8,0:0:0:0:
256,192,199399,1,8,0:0:0:0:
256,192,199530,1,8,0:0:0:0:
256,192,199660,1,0,0:0:0:0:
256,192,199725,1,0,0:0:0:0:
256,192,199790,1,8,0:0:0:0:
256,192,199921,1,8,0:0:0:0:
256,192,200051,1,0,0:0:0:0:
256,192,200182,1,8,0:0:0:0:
256,192,200312,1,0,0:0:0:0:
256,192,200443,1,0,0:0:0:0:
256,192,200573,1,8,0:0:0:0:
256,192,200703,1,8,0:0:0:0:
256,192,200834,1,0,0:0:0:0:
256,192,200964,1,0,0:0:0:0:
256,192,201095,1,8,0:0:0:0:
256,192,201225,1,8,0:0:0:0:
256,192,201356,1,8,0:0:0:0:
256,192,201486,1,0,0:0:0:0:
256,192,201616,1,8,0:0:0:0:
256,192,201747,1,0,0:0:0:0:
256,192,201877,1,8,0:0:0:0:
256,192,201943,1,0,0:0:0:0:
256,192,202008,1,0,0:0:0:0:
256,192,202073,1,0,0:0:0:0:
256,192,202138,1,0,0:0:0:0:
256,192,202203,1,0,0:0:0:0:
256,192,202269,1,0,0:0:0:0:
256,192,202334,1,0,0:0:0:0:
256,192,202399,1,8,0:0:0:0:
256,192,202464,1,8,0:0:0:0:
256,192,202530,1,8,0:0:0:0:
256,192,202595,1,8,0:0:0:0:
256,192,202660,1,8,0:0:0:0:
256,192,202725,1,8,0:0:0:0:
256,192,202790,1,8,0:0:0:0:
256,192,202856,1,8,0:0:0:0:
256,256,202921,1,4,0:0:0:0:
256,256,203051,1,4,0:0:0:0:
256,256,203182,1,12,0:0:0:0:
256,256,203312,1,12,0:0:0:0:
256,192,210877,12,0,211790,0:0:0:0:
256,256,212312,5,4,0:0:0:0:
256,256,212964,1,12,0:0:0:0:
256,256,213356,1,4,0:0:0:0:
256,256,214008,1,12,0:0:0:0:
256,256,214203,1,12,0:0:0:0:
256,256,214399,1,4,0:0:0:0:
256,256,214790,1,12,0:0:0:0:
256,256,215182,1,4,0:0:0:0:
256,256,216486,1,4,0:0:0:0:
256,256,217138,1,12,0:0:0:0:
256,256,217530,1,4,0:0:0:0:
256,256,218573,1,4,0:0:0:0:
256,192,218834,1,0,0:0:0:0:
256,192,219095,1,0,0:0:0:0:
256,192,219356,1,0,0:0:0:0:
256,192,219616,1,0,0:0:0:0:
256,192,219877,1,0,0:0:0:0:
256,192,220138,1,0,0:0:0:0:
256,192,220399,1,0,0:0:0:0:
256,192,220660,1,0,0:0:0:0:
256,192,220921,1,0,0:0:0:0:
256,192,221182,1,0,0:0:0:0:
256,192,221443,1,0,0:0:0:0:
256,192,221703,1,0,0:0:0:0:
256,192,221964,1,0,0:0:0:0:
256,192,222225,1,0,0:0:0:0:
256,192,222486,1,0,0:0:0:0:
256,192,222746,1,0,0:0:0:0:
256,192,223007,1,0,0:0:0:0:
256,192,223268,1,0,0:0:0:0:
256,192,223529,1,0,0:0:0:0:
256,192,223790,1,0,0:0:0:0:
256,192,224051,1,0,0:0:0:0:
256,192,224312,1,0,0:0:0:0:
256,192,224573,1,0,0:0:0:0:
256,192,224834,1,0,0:0:0:0:
256,192,225095,1,0,0:0:0:0:
256,192,225356,1,0,0:0:0:0:
256,192,225617,1,0,0:0:0:0:
256,192,225877,1,0,0:0:0:0:
256,192,226138,1,0,0:0:0:0:
256,192,226399,12,0,226790,0:0:0:0:
256,256,226921,5,12,0:0:0:0:
256,192,227182,1,8,0:0:0:0:
256,192,227443,1,0,0:0:0:0:
256,192,227573,1,0,0:0:0:0:
256,192,227703,1,8,0:0:0:0:
256,192,227834,1,8,0:0:0:0:
256,192,227964,1,0,0:0:0:0:
256,192,228225,1,0,0:0:0:0:
256,192,228486,1,8,0:0:0:0:
256,192,228616,1,0,0:0:0:0:
256,192,228747,1,8,0:0:0:0:
256,192,228877,1,8,0:0:0:0:
256,192,229008,1,0,0:0:0:0:
256,192,229269,1,0,0:0:0:0:
256,192,229399,1,8,0:0:0:0:
256,192,229530,1,0,0:0:0:0:
256,192,229790,1,8,0:0:0:0:
256,192,230051,1,0,0:0:0:0:
256,192,230182,1,8,0:0:0:0:
256,192,230312,1,0,0:0:0:0:
256,192,230573,1,8,0:0:0:0:
256,192,230834,1,8,0:0:0:0:
256,192,230964,1,0,0:0:0:0:
256,256,231095,1,12,0:0:0:0:
256,192,231225,1,8,0:0:0:0:
256,192,231356,1,0,0:0:0:0:
256,192,231486,1,0,0:0:0:0:
256,192,231616,1,8,0:0:0:0:
256,192,231747,1,0,0:0:0:0:
256,192,231877,1,8,0:0:0:0:
256,192,232008,1,8,0:0:0:0:
256,192,232138,1,0,0:0:0:0:
256,192,232269,1,0,0:0:0:0:
256,192,232399,1,8,0:0:0:0:
256,192,232530,1,0,0:0:0:0:
256,192,232660,1,8,0:0:0:0:
256,192,232790,1,8,0:0:0:0:
256,192,232921,1,0,0:0:0:0:
256,192,233051,1,8,0:0:0:0:
256,192,233182,1,0,0:0:0:0:
256,192,233247,1,0,0:0:0:0:
256,192,233312,1,0,0:0:0:0:
256,192,233377,1,0,0:0:0:0:
256,192,233443,1,8,0:0:0:0:
256,192,233508,1,8,0:0:0:0:
256,192,233573,1,0,0:0:0:0:
256,192,233638,1,0,0:0:0:0:
256,192,233703,1,8,0:0:0:0:
256,192,233769,1,8,0:0:0:0:
256,192,233834,1,8,0:0:0:0:
256,192,233899,1,8,0:0:0:0:
256,192,233964,1,0,0:0:0:0:
256,192,234030,1,0,0:0:0:0:
256,192,234095,1,8,0:0:0:0:
256,192,234160,1,8,0:0:0:0:
256,256,234225,1,4,0:0:0:0:
256,256,234356,1,4,0:0:0:0:
256,256,234616,1,12,0:0:0:0:
256,256,234747,1,12,0:0:0:0:
256,256,235008,1,4,0:0:0:0:
256,256,235138,1,12,0:0:0:0:
256,192,235269,12,0,239312,0:0:0:0:
256,192,239443,5,0,0:0:0:0:
256,192,239508,1,0,0:0:0:0:
256,192,239573,1,0,0:0:0:0:
256,192,239638,1,0,0:0:0:0:
256,192,239703,1,8,0:0:0:0:
256,192,239769,1,8,0:0:0:0:
256,192,239834,1,0,0:0:0:0:
256,192,239899,1,0,0:0:0:0:
256,192,239964,1,8,0:0:0:0:
256,192,240030,1,0,0:0:0:0:
256,192,240095,1,8,0:0:0:0:
256,192,240160,1,8,0:0:0:0:
256,192,240225,1,0,0:0:0:0:
256,192,240290,1,0,0:0:0:0:
256,192,240356,1,8,0:0:0:0:
256,192,240421,1,8,0:0:0:0:
256,192,240486,1,0,0:0:0:0:
256,192,240551,1,0,0:0:0:0:
256,192,240616,1,8,0:0:0:0:
256,192,240682,1,0,0:0:0:0:
256,192,240747,1,8,0:0:0:0:
256,192,240812,1,8,0:0:0:0:
256,192,240877,1,0,0:0:0:0:
256,192,240943,1,0,0:0:0:0:
256,192,241008,1,8,0:0:0:0:
256,192,241073,1,8,0:0:0:0:
256,192,241138,1,0,0:0:0:0:
256,192,241203,1,0,0:0:0:0:
256,192,241269,1,8,0:0:0:0:
256,192,241334,1,0,0:0:0:0:
256,192,241399,1,8,0:0:0:0:
256,192,241464,1,8,0:0:0:0:
256,192,241530,1,0,0:0:0:0:
256,192,241595,1,8,0:0:0:0:
256,192,241660,1,0,0:0:0:0:
256,192,241725,1,0,0:0:0:0:
256,192,241790,1,8,0:0:0:0:
256,192,241856,1,8,0:0:0:0:
256,192,241921,1,0,0:0:0:0:
256,192,241986,1,0,0:0:0:0:
256,192,242051,1,8,0:0:0:0:
256,192,242116,1,8,0:0:0:0:
256,192,242182,1,8,0:0:0:0:
256,192,242247,1,8,0:0:0:0:
256,192,242312,1,0,0:0:0:0:
256,192,242377,1,0,0:0:0:0:
256,192,242443,1,8,0:0:0:0:
256,192,242508,1,8,0:0:0:0:
256,192,242573,1,0,0:0:0:0:
256,192,242964,1,8,0:0:0:0:
256,192,243030,1,0,0:0:0:0:
256,192,243095,1,8,0:0:0:0:
256,192,243160,1,8,0:0:0:0:
256,192,243225,1,8,0:0:0:0:
256,192,243290,1,0,0:0:0:0:
256,192,243356,1,8,0:0:0:0:
256,192,243421,1,0,0:0:0:0:
256,192,243486,1,8,0:0:0:0:
256,192,243551,1,8,0:0:0:0:
256,256,243616,1,4,0:0:0:0:
256,192,243747,1,0,0:0:0:0:
256,192,243812,1,0,0:0:0:0:
256,192,243877,1,0,0:0:0:0:
256,192,244008,1,8,0:0:0:0:
256,192,244073,1,0,0:0:0:0:
256,192,244138,1,8,0:0:0:0:
256,192,244203,1,8,0:0:0:0:
256,192,244269,1,0,0:0:0:0:
256,192,244334,1,8,0:0:0:0:
256,192,244399,1,0,0:0:0:0:
256,192,244464,1,0,0:0:0:0:
256,192,244530,1,8,0:0:0:0:
256,192,244595,1,8,0:0:0:0:
256,192,244660,1,0,0:0:0:0:
256,192,244790,1,8,0:0:0:0:
256,192,244856,1,8,0:0:0:0:
256,192,244921,1,0,0:0:0:0:
256,192,245051,1,8,0:0:0:0:
256,192,245116,1,0,0:0:0:0:
256,192,245182,1,8,0:0:0:0:
256,192,245247,1,8,0:0:0:0:
256,192,245312,1,0,0:0:0:0:
256,192,245377,1,0,0:0:0:0:
256,192,245443,1,8,0:0:0:0:
256,192,245508,1,0,0:0:0:0:
256,192,245573,1,8,0:0:0:0:
256,192,245638,1,8,0:0:0:0:
256,192,245703,1,0,0:0:0:0:
256,192,245834,1,8,0:0:0:0:
256,192,245899,1,0,0:0:0:0:
256,192,245964,1,8,0:0:0:0:
256,192,246095,1,0,0:0:0:0:
256,192,246160,1,0,0:0:0:0:
256,192,246225,1,8,0:0:0:0:
256,192,246290,1,8,0:0:0:0:
256,192,246356,1,0,0:0:0:0:
256,192,246421,1,0,0:0:0:0:
256,192,246486,1,8,0:0:0:0:
256,192,246551,1,0,0:0:0:0:
256,192,246616,1,8,0:0:0:0:
256,192,246682,1,8,0:0:0:0:
256,192,246747,1,0,0:0:0:0:
256,192,246877,1,0,0:0:0:0:
256,192,246943,1,8,0:0:0:0:
256,192,247073,1,8,0:0:0:0:
256,192,247138,1,0,0:0:0:0:
256,192,247203,1,0,0:0:0:0:
256,192,247269,1,8,0:0:0:0:
256,192,247399,1,0,0:0:0:0:
256,192,247464,1,8,0:0:0:0:
256,192,247595,1,0,0:0:0:0:
256,192,247660,1,8,0:0:0:0:
256,192,247725,1,8,0:0:0:0:
256,192,247790,1,0,0:0:0:0:
256,192,247921,1,8,0:0:0:0:
256,192,247986,1,8,0:0:0:0:
256,192,248051,1,0,0:0:0:0:
256,192,248182,1,8,0:0:0:0:
256,192,248247,1,8,0:0:0:0:
256,192,248312,1,0,0:0:0:0:
256,192,248377,1,0,0:0:0:0:
256,192,248443,1,8,0:0:0:0:
256,192,248508,1,8,0:0:0:0:
256,192,248573,1,8,0:0:0:0:
256,192,248638,1,0,0:0:0:0:
256,192,248703,1,8,0:0:0:0:
256,192,248769,1,8,0:0:0:0:
256,192,248834,1,0,0:0:0:0:
256,192,248964,1,8,0:0:0:0:
256,192,249030,1,0,0:0:0:0:
256,192,249095,1,8,0:0:0:0:
256,192,249225,1,0,0:0:0:0:
256,192,249290,1,0,0:0:0:0:
256,192,249356,1,8,0:0:0:0:
256,192,249421,1,0,0:0:0:0:
256,192,249486,1,8,0:0:0:0:
256,192,249551,1,8,0:0:0:0:
256,192,249616,1,0,0:0:0:0:
256,192,249682,1,0,0:0:0:0:
256,192,249747,1,8,0:0:0:0:
256,192,249812,1,8,0:0:0:0:
256,192,249877,1,0,0:0:0:0:
256,192,250008,1,8,0:0:0:0:
256,192,250073,1,8,0:0:0:0:
256,192,250138,1,0,0:0:0:0:
256,192,250269,1,8,0:0:0:0:
256,192,250334,1,0,0:0:0:0:
256,192,250399,1,8,0:0:0:0:
256,192,250464,1,0,0:0:0:0:
256,192,250530,1,8,0:0:0:0:
256,192,250595,1,8,0:0:0:0:
256,192,250660,1,8,0:0:0:0:
256,192,250725,1,0,0:0:0:0:
256,192,250790,1,8,0:0:0:0:
256,192,250856,1,8,0:0:0:0:
256,256,250921,1,4,0:0:0:0:
256,256,251116,1,12,0:0:0:0:
256,256,251312,1,12,0:0:0:0:
256,256,251443,1,4,0:0:0:0:
256,256,251638,1,12,0:0:0:0:
256,256,251834,1,12,0:0:0:0:
256,192,251964,1,0,0:0:0:0:
256,192,252095,1,0,0:0:0:0:
256,256,252225,1,12,0:0:0:0:
256,192,252356,1,0,0:0:0:0:
256,192,252421,1,0,0:0:0:0:
256,192,252486,1,8,0:0:0:0:
256,192,252551,1,8,0:0:0:0:
256,192,252616,1,8,0:0:0:0:
256,192,252682,1,0,0:0:0:0:
256,192,252747,1,8,0:0:0:0:
256,192,252812,1,0,0:0:0:0:
256,192,252877,1,8,0:0:0:0:
256,192,252943,1,8,0:0:0:0:
256,192,253008,1,0,0:0:0:0:
256,192,253138,1,8,0:0:0:0:
256,192,253203,1,8,0:0:0:0:
256,192,253269,1,0,0:0:0:0:
256,192,253399,1,8,0:0:0:0:
256,192,253464,1,0,0:0:0:0:
256,192,253530,1,8,0:0:0:0:
256,192,253595,1,0,0:0:0:0:
256,192,253660,1,8,0:0:0:0:
256,192,253725,1,8,0:0:0:0:
256,192,253790,1,0,0:0:0:0:
256,192,253856,1,0,0:0:0:0:
256,192,253921,1,8,0:0:0:0:
256,192,253986,1,0,0:0:0:0:
256,192,254051,1,8,0:0:0:0:
256,192,254182,1,0,0:0:0:0:
256,192,254247,1,0,0:0:0:0:
256,256,254312,1,12,0:0:0:0:
256,192,254443,1,0,0:0:0:0:
256,192,254508,1,0,0:0:0:0:
256,192,254573,1,8,0:0:0:0:
256,192,254638,1,0,0:0:0:0:
256,192,254703,1,8,0:0:0:0:
256,192,254769,1,0,0:0:0:0:
256,192,254834,1,8,0:0:0:0:
256,192,254899,1,8,0:0:0:0:
256,192,254964,1,0,0:0:0:0:
256,192,255030,1,0,0:0:0:0:
256,256,255095,1,12,0:0:0:0:
256,256,255290,1,4,0:0:0:0:
256,256,255486,1,12,0:0:0:0:
256,256,255616,1,12,0:0:0:0:
256,256,255812,1,4,0:0:0:0:
256,256,256008,1,12,0:0:0:0:
256,256,256138,1,4,0:0:0:0:
256,192,256399,1,8,0:0:0:0:
256,192,256530,1,0,0:0:0:0:
256,192,256595,1,0,0:0:0:0:
256,192,256660,1,8,0:0:0:0:
256,192,256725,1,0,0:0:0:0:
256,192,256790,1,8,0:0:0:0:
256,192,256856,1,0,0:0:0:0:
256,192,256921,1,8,0:0:0:0:
256,192,256986,1,0,0:0:0:0:
256,192,257051,1,8,0:0:0:0:
256,192,257116,1,8,0:0:0:0:
256,192,257182,1,0,0:0:0:0:
256,192,257443,1,8,0:0:0:0:
256,192,257573,1,0,0:0:0:0:
256,192,257638,1,0,0:0:0:0:
256,192,257703,1,8,0:0:0:0:
256,192,257768,1,0,0:0:0:0:
256,192,257833,1,8,0:0:0:0:
256,192,257899,1,0,0:0:0:0:
256,192,257964,1,8,0:0:0:0:
256,192,258029,1,8,0:0:0:0:
256,192,258095,1,0,0:0:0:0:
256,192,258159,1,0,0:0:0:0:
256,192,258225,1,8,0:0:0:0:
256,192,258486,1,8,0:0:0:0:
256,192,258616,1,0,0:0:0:0:
256,192,258682,1,0,0:0:0:0:
256,192,258747,1,8,0:0:0:0:
256,192,258812,1,0,0:0:0:0:
256,192,258877,1,8,0:0:0:0:
256,192,258943,1,8,0:0:0:0:
256,192,259008,1,0,0:0:0:0:
256,192,259073,1,0,0:0:0:0:
256,192,259138,1,8,0:0:0:0:
256,192,259203,1,0,0:0:0:0:
256,192,259269,1,8,0:0:0:0:
256,192,259334,1,8,0:0:0:0:
256,192,259399,1,0,0:0:0:0:
256,192,259464,1,0,0:0:0:0:
256,192,259530,1,8,0:0:0:0:
256,192,259595,1,8,0:0:0:0:
256,192,259660,1,8,0:0:0:0:
256,192,259725,1,0,0:0:0:0:
256,192,259790,1,8,0:0:0:0:
256,192,259921,1,0,0:0:0:0:
256,192,259986,1,0,0:0:0:0:
256,192,260051,1,8,0:0:0:0:
256,192,260116,1,8,0:0:0:0:
256,192,260182,1,8,0:0:0:0:
256,192,260247,1,8,0:0:0:0:
256,192,260312,1,0,0:0:0:0:
256,192,261356,12,0,262269,0:0:0:0:
256,256,262399,5,12,0:0:0:0:
256,192,262530,1,0,0:0:0:0:
256,192,262595,1,0,0:0:0:0:
256,192,262660,1,8,0:0:0:0:
256,192,262725,1,8,0:0:0:0:
256,192,262790,1,8,0:0:0:0:
256,192,262856,1,0,0:0:0:0:
256,192,262921,1,8,0:0:0:0:
256,192,262986,1,0,0:0:0:0:
256,192,263051,1,8,0:0:0:0:
256,192,263116,1,8,0:0:0:0:
256,192,263182,1,0,0:0:0:0:
256,192,263247,1,0,0:0:0:0:
256,192,263312,1,8,0:0:0:0:
256,192,263377,1,0,0:0:0:0:
256,192,263443,1,8,0:0:0:0:
256,192,263508,1,8,0:0:0:0:
256,256,263573,1,4,0:0:0:0:
256,256,263769,1,12,0:0:0:0:
256,256,263964,1,4,0:0:0:0:
256,256,264160,1,12,0:0:0:0:
256,256,264356,1,12,0:0:0:0:
256,256,264486,1,4,0:0:0:0:
256,192,264747,1,8,0:0:0:0:
256,192,264877,1,0,0:0:0:0:
256,192,264943,1,0,0:0:0:0:
256,192,265008,1,8,0:0:0:0:
256,192,265073,1,0,0:0:0:0:
256,192,265138,1,8,0:0:0:0:
256,192,265203,1,0,0:0:0:0:
256,192,265269,1,8,0:0:0:0:
256,192,265334,1,8,0:0:0:0:
256,192,265399,1,0,0:0:0:0:
256,192,265464,1,0,0:0:0:0:
256,256,265530,1,12,0:0:0:0:
256,192,265790,1,8,0:0:0:0:
256,192,265921,1,0,0:0:0:0:
256,192,265986,1,0,0:0:0:0:
256,192,266052,1,8,0:0:0:0:
256,192,266117,1,0,0:0:0:0:
256,192,266182,1,8,0:0:0:0:
256,192,266247,1,8,0:0:0:0:
256,192,266313,1,0,0:0:0:0:
256,192,266378,1,8,0:0:0:0:
256,192,266443,1,0,0:0:0:0:
256,192,266508,1,0,0:0:0:0:
256,192,266574,1,8,0:0:0:0:
256,256,266834,1,12,0:0:0:0:
256,192,266964,1,0,0:0:0:0:
256,192,267030,1,0,0:0:0:0:
256,192,267095,1,8,0:0:0:0:
256,192,267160,1,8,0:0:0:0:
256,192,267225,1,0,0:0:0:0:
256,192,267290,1,0,0:0:0:0:
256,256,267356,1,12,0:0:0:0:
256,192,267486,1,8,0:0:0:0:
256,256,267616,1,4,0:0:0:0:
256,256,267812,1,12,0:0:0:0:
256,256,268008,1,12,0:0:0:0:
256,256,268138,1,4,0:0:0:0:
256,256,268334,1,12,0:0:0:0:
256,256,268530,1,12,0:0:0:0:
256,192,268660,1,0,0:0:0:0:
256,192,268703,1,0,0:0:0:0:
256,192,268747,1,0,0:0:0:0:
256,192,268790,1,0,0:0:0:0:
256,192,268856,1,0,0:0:0:0:
256,256,268921,1,12,0:0:0:0:
256,192,270747,1,0,0:0:0:0:
256,192,270877,1,0,0:0:0:0:
256,192,270943,1,0,0:0:0:0:
256,256,271008,1,12,0:0:0:0:
256,192,271138,1,0,0:0:0:0:
256,192,271203,1,8,0:0:0:0:
256,192,271269,1,8,0:0:0:0:
256,192,271334,1,0,0:0:0:0:
256,192,271399,1,8,0:0:0:0:
256,192,271464,1,8,0:0:0:0:
256,192,271530,1,0,0:0:0:0:
256,192,271595,1,0,0:0:0:0:
256,192,271660,1,8,0:0:0:0:
256,192,271790,1,0,0:0:0:0:
256,192,271856,1,0,0:0:0:0:
256,192,271921,1,0,0:0:0:0:
256,192,271986,1,0,0:0:0:0:
256,192,272051,1,8,0:0:0:0:
256,192,272182,1,8,0:0:0:0:
256,192,272247,1,8,0:0:0:0:
256,192,272312,1,0,0:0:0:0:
256,192,272443,1,0,0:0:0:0:
256,192,272508,1,8,0:0:0:0:
256,192,272638,1,8,0:0:0:0:
256,192,272703,1,0,0:0:0:0:
256,192,272834,1,8,0:0:0:0:
256,192,272899,1,8,0:0:0:0:
256,192,272964,1,0,0:0:0:0:
256,192,273030,1,0,0:0:0:0:
256,192,273095,1,8,0:0:0:0:
256,192,273160,1,0,0:0:0:0:
256,192,273225,1,8,0:0:0:0:
256,192,273290,1,8,0:0:0:0:
256,192,273356,1,8,0:0:0:0:
256,192,273421,1,0,0:0:0:0:
256,192,273486,1,8,0:0:0:0:
256,192,273551,1,8,0:0:0:0:
256,192,273616,1,0,0:0:0:0:
256,192,273682,1,0,0:0:0:0:
256,192,273747,1,8,0:0:0:0:
256,192,273812,1,0,0:0:0:0:
256,192,273877,1,8,0:0:0:0:
256,192,273943,1,8,0:0:0:0:
256,192,274008,1,8,0:0:0:0:
256,192,274073,1,8,0:0:0:0:
256,192,274138,1,0,0:0:0:0:
256,192,274203,1,0,0:0:0:0:
256,192,274269,1,8,0:0:0:0:
256,192,274334,1,0,0:0:0:0:
256,192,274399,1,8,0:0:0:0:
256,192,274464,1,8,0:0:0:0:
256,192,274530,1,8,0:0:0:0:
256,192,274595,1,0,0:0:0:0:
256,192,274660,1,8,0:0:0:0:
256,192,274725,1,0,0:0:0:0:
256,192,274790,1,8,0:0:0:0:
256,192,274856,1,8,0:0:0:0:
256,192,274921,1,0,0:0:0:0:
256,192,276356,1,8,0:0:0:0:
256,192,276421,1,8,0:0:0:0:
256,192,276486,1,8,0:0:0:0:
256,192,276551,1,0,0:0:0:0:
256,192,276616,1,8,0:0:0:0:
256,192,276682,1,0,0:0:0:0:
256,192,276747,1,8,0:0:0:0:
256,192,276812,1,8,0:0:0:0:
256,192,276877,1,0,0:0:0:0:
256,192,276943,1,0,0:0:0:0:
256,256,277008,1,12,0:0:0:0:
256,192,277399,1,8,0:0:0:0:
256,192,277790,1,8,0:0:0:0:
256,192,278051,1,8,0:0:0:0:
256,192,278443,1,8,0:0:0:0:
256,192,278834,1,8,0:0:0:0:
256,192,279095,1,0,0:0:0:0:
256,192,279486,1,0,0:0:0:0:
256,192,279877,1,0,0:0:0:0:
256,192,280138,1,0,0:0:0:0:
256,192,280530,1,8,0:0:0:0:
256,192,280595,1,8,0:0:0:0:
256,192,280660,1,8,0:0:0:0:
256,192,280725,1,0,0:0:0:0:
256,192,280790,1,8,0:0:0:0:
256,192,280856,1,8,0:0:0:0:
256,192,280921,1,0,0:0:0:0:
256,192,280986,1,8,0:0:0:0:
256,192,281051,1,0,0:0:0:0:
256,192,281116,1,0,0:0:0:0:
256,256,281182,1,12,0:0:0:0:
256,192,281573,1,8,0:0:0:0:
256,192,281964,1,8,0:0:0:0:
256,192,282225,1,8,0:0:0:0:
256,192,282617,1,8,0:0:0:0:
256,192,283008,1,8,0:0:0:0:
256,192,283269,1,0,0:0:0:0:
256,192,283660,1,0,0:0:0:0:
256,192,284051,1,0,0:0:0:0:
256,192,284312,1,0,0:0:0:0:
256,192,284703,1,0,0:0:0:0:
256,192,284834,1,8,0:0:0:0:
256,192,284964,1,0,0:0:0:0:
256,192,285095,1,8,0:0:0:0:
256,192,285225,1,8,0:0:0:0:
256,192,285356,1,0,0:0:0:0:
256,192,286008,1,8,0:0:0:0:
256,192,286138,1,8,0:0:0:0:
256,192,286269,1,0,0:0:0:0:
256,192,286790,1,0,0:0:0:0:
256,192,286921,1,0,0:0:0:0:
256,192,287051,1,8,0:0:0:0:
256,192,287182,1,8,0:0:0:0:
256,192,287312,1,8,0:0:0:0:
256,192,288877,1,8,0:0:0:0:
256,192,289008,1,0,0:0:0:0:
256,192,289138,1,0,0:0:0:0:
256,192,289269,1,8,0:0:0:0:
256,192,289399,1,8,0:0:0:0:
256,192,290182,1,8,0:0:0:0:
256,192,290312,1,0,0:0:0:0:
256,192,290443,1,0,0:0:0:0:
256,192,290964,1,0,0:0:0:0:
256,192,291095,1,0,0:0:0:0:
256,192,291225,1,0,0:0:0:0:
256,192,291356,1,8,0:0:0:0:
256,256,291616,1,4,0:0:0:0:
256,256,291747,1,4,0:0:0:0:
256,256,292008,1,12,0:0:0:0:
256,256,292138,1,12,0:0:0:0:
256,256,292399,1,12,0:0:0:0:
256,256,292530,1,4,0:0:0:0:
256,256,292790,1,12,0:0:0:0:
256,256,293051,1,4,0:0:0:0:
256,256,293182,1,12,0:0:0:0:
256,256,293356,1,12,0:0:0:0:
256,256,293530,1,12,0:0:0:0:
256,192,293703,12,0,295530,0:0:0:0:
256,256,295790,5,12,0:0:0:0:
256,192,295921,1,8,0:0:0:0:
256,192,295986,1,8,0:0:0:0:
256,192,296051,1,0,0:0:0:0:
256,192,296182,1,0,0:0:0:0:
256,192,296312,1,8,0:0:0:0:
256,192,296443,1,0,0:0:0:0:
256,192,296508,1,0,0:0:0:0:
256,192,296573,1,8,0:0:0:0:
256,192,296638,1,0,0:0:0:0:
256,192,296703,1,8,0:0:0:0:
256,192,296769,1,8,0:0:0:0:
256,192,296834,1,0,0:0:0:0:
256,192,296964,1,8,0:0:0:0:
256,192,297030,1,0,0:0:0:0:
256,192,297095,1,8,0:0:0:0:
256,192,297225,1,0,0:0:0:0:
256,192,297356,1,8,0:0:0:0:
256,192,297486,1,0,0:0:0:0:
256,192,297551,1,0,0:0:0:0:
256,192,297616,1,8,0:0:0:0:
256,192,297747,1,0,0:0:0:0:
256,192,297877,1,8,0:0:0:0:
256,192,297943,1,0,0:0:0:0:
256,192,298008,1,8,0:0:0:0:
256,192,298073,1,8,0:0:0:0:
256,192,298138,1,0,0:0:0:0:
256,192,298269,1,8,0:0:0:0:
256,192,298399,1,0,0:0:0:0:
256,192,298530,1,0,0:0:0:0:
256,192,298595,1,0,0:0:0:0:
256,192,298660,1,8,0:0:0:0:
256,192,298790,1,8,0:0:0:0:
256,192,298921,1,0,0:0:0:0:
256,192,298986,1,0,0:0:0:0:
256,192,299051,1,8,0:0:0:0:
256,192,299116,1,0,0:0:0:0:
256,192,299182,1,8,0:0:0:0:
256,192,299312,1,8,0:0:0:0:
256,192,299443,1,0,0:0:0:0:
256,192,299573,1,8,0:0:0:0:
256,192,299638,1,8,0:0:0:0:
256,192,299703,1,0,0:0:0:0:
256,192,299964,1,0,0:0:0:0:
256,192,300030,1,0,0:0:0:0:
256,192,300095,1,8,0:0:0:0:
256,192,300160,1,8,0:0:0:0:
256,192,300225,1,0,0:0:0:0:
256,192,300356,1,0,0:0:0:0:
256,192,300486,1,8,0:0:0:0:
256,192,300616,1,0,0:0:0:0:
256,192,300682,1,0,0:0:0:0:
256,192,300747,1,8,0:0:0:0:
256,192,300812,1,0,0:0:0:0:
256,192,300877,1,8,0:0:0:0:
256,192,300943,1,8,0:0:0:0:
256,192,301008,1,0,0:0:0:0:
256,192,301138,1,8,0:0:0:0:
256,192,301203,1,8,0:0:0:0:
256,192,301269,1,0,0:0:0:0:
256,192,301399,1,0,0:0:0:0:
256,192,301530,1,8,0:0:0:0:
256,192,301595,1,8,0:0:0:0:
256,192,301660,1,0,0:0:0:0:
256,192,301725,1,0,0:0:0:0:
256,192,301790,1,8,0:0:0:0:
256,192,301856,1,0,0:0:0:0:
256,192,301921,1,8,0:0:0:0:
256,192,301986,1,8,0:0:0:0:
256,192,302051,1,0,0:0:0:0:
256,192,302182,1,8,0:0:0:0:
256,192,302247,1,0,0:0:0:0:
256,192,302312,1,8,0:0:0:0:
256,192,302443,1,0,0:0:0:0:
256,192,302508,1,0,0:0:0:0:
256,192,302573,1,8,0:0:0:0:
256,192,302703,1,0,0:0:0:0:
256,192,302769,1,0,0:0:0:0:
256,192,302834,1,8,0:0:0:0:
256,192,302899,1,8,0:0:0:0:
256,192,302964,1,0,0:0:0:0:
256,192,303030,1,0,0:0:0:0:
256,256,303095,1,12,0:0:0:0:
256,192,303356,1,8,0:0:0:0:
256,256,303486,1,4,0:0:0:0:
256,192,303747,1,8,0:0:0:0:
256,192,303877,1,0,0:0:0:0:
256,192,303943,1,0,0:0:0:0:
256,192,304008,1,0,0:0:0:0:
256,192,304073,1,0,0:0:0:0:
256,256,304138,1,12,0:0:0:0:
256,192,304269,1,0,0:0:0:0:
256,192,304334,1,0,0:0:0:0:
256,192,304399,1,8,0:0:0:0:
256,192,304530,1,8,0:0:0:0:
256,192,304595,1,8,0:0:0:0:
256,192,304660,1,0,0:0:0:0:
256,192,304725,1,0,0:0:0:0:
256,192,304790,1,8,0:0:0:0:
256,192,304856,1,0,0:0:0:0:
256,192,304921,1,8,0:0:0:0:
256,192,305051,1,8,0:0:0:0:
256,192,305182,1,0,0:0:0:0:
256,192,305312,1,8,0:0:0:0:
256,192,305377,1,8,0:0:0:0:
256,192,305443,1,0,0:0:0:0:
256,192,305573,1,8,0:0:0:0:
256,192,305703,1,8,0:0:0:0:
256,192,305769,1,8,0:0:0:0:
256,192,305834,1,0,0:0:0:0:
256,192,305899,1,0,0:0:0:0:
256,192,305964,1,8,0:0:0:0:
256,192,306095,1,0,0:0:0:0:
256,192,306225,1,8,0:0:0:0:
256,192,306290,1,0,0:0:0:0:
256,192,306356,1,8,0:0:0:0:
256,192,306421,1,8,0:0:0:0:
256,192,306486,1,0,0:0:0:0:
256,192,306616,1,0,0:0:0:0:
256,192,306747,1,8,0:0:0:0:
256,192,306877,1,0,0:0:0:0:
256,192,306943,1,0,0:0:0:0:
256,192,307008,1,8,0:0:0:0:
256,192,307138,1,8,0:0:0:0:
256,192,307269,1,0,0:0:0:0:
256,192,307334,1,0,0:0:0:0:
256,192,307399,1,8,0:0:0:0:
256,192,307464,1,8,0:0:0:0:
256,192,307530,1,0,0:0:0:0:
256,192,307660,1,0,0:0:0:0:
256,192,307790,1,8,0:0:0:0:
256,192,307921,1,8,0:0:0:0:
256,192,307986,1,8,0:0:0:0:
256,192,308051,1,0,0:0:0:0:
256,256,308312,1,12,0:0:0:0:
256,192,308573,1,0,0:0:0:0:
256,192,308660,1,0,0:0:0:0:
256,192,308747,1,0,0:0:0:0:
256,256,308834,1,12,0:0:0:0:
256,192,309095,1,8,0:0:0:0:
256,192,309182,1,8,0:0:0:0:
256,192,309269,1,8,0:0:0:0:
256,256,309356,1,4,0:0:0:0:
256,256,309616,1,12,0:0:0:0:
256,256,309747,1,4,0:0:0:0:
256,256,310008,1,12,0:0:0:0:
256,192,310269,1,0,0:0:0:0:
256,192,310334,1,0,0:0:0:0:
256,256,310399,1,12,0:0:0:0:
256,192,310530,1,8,0:0:0:0:
256,192,310660,1,8,0:0:0:0:
256,192,310790,1,8,0:0:0:0:
256,256,311443,1,12,0:0:0:0:
256,192,311573,1,8,0:0:0:0:
256,192,311703,1,8,0:0:0:0:
256,192,311834,1,8,0:0:0:0:
256,256,312486,1,12,0:0:0:0:
256,192,312616,1,8,0:0:0:0:
256,192,312746,1,8,0:0:0:0:
256,192,312877,1,8,0:0:0:0:
256,256,313530,1,12,0:0:0:0:
256,192,313660,1,8,0:0:0:0:
256,192,313790,1,8,0:0:0:0:
256,192,313921,1,8,0:0:0:0:
256,192,314573,1,0,0:0:0:0:
256,192,314638,1,0,0:0:0:0:
256,192,314703,1,0,0:0:0:0:
256,192,314769,1,0,0:0:0:0:
256,192,314834,1,0,0:0:0:0:
256,192,314899,1,0,0:0:0:0:
256,192,314964,1,0,0:0:0:0:
256,192,315030,1,0,0:0:0:0:
256,192,315095,1,8,0:0:0:0:
256,192,315160,1,8,0:0:0:0:
256,192,315225,1,8,0:0:0:0:
256,192,315290,1,8,0:0:0:0:
256,192,315356,1,8,0:0:0:0:
256,192,315421,1,8,0:0:0:0:
256,192,315486,1,8,0:0:0:0:
256,192,315551,1,8,0:0:0:0:
256,192,315616,1,0,0:0:0:0:
256,192,315682,1,0,0:0:0:0:
256,192,315747,1,0,0:0:0:0:
256,192,315812,1,0,0:0:0:0:
256,192,315877,1,0,0:0:0:0:
256,192,315943,1,0,0:0:0:0:
256,192,316008,1,0,0:0:0:0:
256,192,316073,1,0,0:0:0:0:
256,192,316138,1,8,0:0:0:0:
256,192,316203,1,8,0:0:0:0:
256,192,316269,1,8,0:0:0:0:
256,192,316334,1,8,0:0:0:0:
256,192,316399,1,8,0:0:0:0:
256,192,316464,1,8,0:0:0:0:
256,192,316530,1,8,0:0:0:0:
256,192,316595,1,8,0:0:0:0:
256,256,316660,1,4,0:0:0:0:
256,256,316790,1,4,0:0:0:0:
256,256,317051,1,12,0:0:0:0:
256,256,317182,1,12,0:0:0:0:
256,256,317443,1,4,0:0:0:0:
256,256,317573,1,12,0:0:0:0:
256,192,317834,1,0,0:0:0:0:
256,192,317964,1,8,0:0:0:0:
256,192,318095,1,8,0:0:0:0:
256,192,318160,1,8,0:0:0:0:
256,192,318225,1,0,0:0:0:0:
256,192,318290,1,0,0:0:0:0:
256,192,318356,1,8,0:0:0:0:
256,192,318399,1,8,0:0:0:0:
256,192,318443,1,8,0:0:0:0:
256,192,318486,1,0,0:0:0:0:
256,192,318616,1,8,0:0:0:0:
256,192,318747,1,0,0:0:0:0:
256,192,318790,1,0,0:0:0:0:
256,192,318834,1,0,0:0:0:0:
256,192,318877,1,8,0:0:0:0:
256,192,318943,1,8,0:0:0:0:
256,192,319008,1,0,0:0:0:0:
256,192,319073,1,8,0:0:0:0:
256,192,319138,1,0,0:0:0:0:
256,256,319269,1,12,0:0:0:0:
256,256,319464,1,12,0:0:0:0:
256,256,319660,1,4,0:0:0:0:
256,256,319790,1,12,0:0:0:0:
256,256,319986,1,12,0:0:0:0:
256,256,320182,1,4,0:0:0:0:
256,256,320312,1,12,0:0:0:0:
256,256,320443,1,12,0:0:0:0:
256,256,320573,1,4,0:0:0:0:
256,192,320834,1,0,0:0:0:0:
256,192,320877,1,0,0:0:0:0:
256,192,320921,1,0,0:0:0:0:
256,192,320964,1,8,0:0:0:0:
256,192,321030,1,0,0:0:0:0:
256,192,321095,1,8,0:0:0:0:
256,192,321160,1,8,0:0:0:0:
256,192,321225,1,0,0:0:0:0:
256,256,321356,1,12,0:0:0:0:
256,256,321551,1,12,0:0:0:0:
256,256,321747,1,4,0:0:0:0:
256,256,321877,1,12,0:0:0:0:
256,256,322073,1,12,0:0:0:0:
256,256,322269,1,4,0:0:0:0:
256,192,322399,1,8,0:0:0:0:
256,192,322464,1,8,0:0:0:0:
256,192,322529,1,0,0:0:0:0:
256,192,322595,1,0,0:0:0:0:
256,192,322660,1,8,0:0:0:0:
256,192,322921,1,0,0:0:0:0:
256,192,322964,1,0,0:0:0:0:
256,192,323008,1,0,0:0:0:0:
256,192,323051,1,8,0:0:0:0:
256,192,323117,1,8,0:0:0:0:
256,192,323182,1,0,0:0:0:0:
256,192,323247,1,8,0:0:0:0:
256,192,323312,1,0,0:0:0:0:
256,256,323443,1,12,0:0:0:0:
256,256,323638,1,12,0:0:0:0:
256,256,323834,1,4,0:0:0:0:
256,256,323964,1,12,0:0:0:0:
256,256,324160,1,12,0:0:0:0:
256,256,324356,1,4,0:0:0:0:
256,256,324486,1,12,0:0:0:0:
256,256,324616,1,12,0:0:0:0:
256,256,324747,1,4,0:0:0:0:
256,192,325008,1,0,0:0:0:0:
256,192,325051,1,0,0:0:0:0:
256,192,325095,1,0,0:0:0:0:
256,192,325138,1,8,0:0:0:0:
256,192,325203,1,0,0:0:0:0:
256,192,325269,1,8,0:0:0:0:
256,192,325334,1,8,0:0:0:0:
256,192,325399,1,0,0:0:0:0:
256,256,325529,1,12,0:0:0:0:
256,256,325725,1,12,0:0:0:0:
256,256,325921,1,4,0:0:0:0:
256,256,326051,1,12,0:0:0:0:
256,256,326247,1,12,0:0:0:0:
256,256,326443,1,12,0:0:0:0:
256,192,326573,1,0,0:0:0:0:
256,192,326638,1,0,0:0:0:0:
256,192,326703,1,0,0:0:0:0:
256,192,326769,1,0,0:0:0:0:
256,192,326834,1,8,0:0:0:0:
256,192,327095,1,8,0:0:0:0:
256,192,327138,1,8,0:0:0:0:
256,192,327182,1,8,0:0:0:0:
256,192,327225,1,0,0:0:0:0:
256,192,327290,1,0,0:0:0:0:
256,192,327356,1,8,0:0:0:0:
256,192,327421,1,8,0:0:0:0:
256,192,327486,1,0,0:0:0:0:
256,256,327616,1,4,0:0:0:0:
256,256,327812,1,12,0:0:0:0:
256,256,328008,1,4,0:0:0:0:
256,256,328138,1,4,0:0:0:0:
256,256,328334,1,12,0:0:0:0:
256,256,328529,1,4,0:0:0:0:
256,256,328660,1,12,0:0:0:0:
256,256,328790,1,12,0:0:0:0:
256,256,328921,1,4,0:0:0:0:
256,192,329182,1,8,0:0:0:0:
256,192,329225,1,8,0:0:0:0:
256,192,329269,1,8,0:0:0:0:
256,192,329312,1,0,0:0:0:0:
256,192,329377,1,0,0:0:0:0:
256,192,329443,1,8,0:0:0:0:
256,192,329508,1,8,0:0:0:0:
256,192,329573,1,0,0:0:0:0:
256,256,329703,1,4,0:0:0:0:
256,256,329899,1,12,0:0:0:0:
256,256,330095,1,4,0:0:0:0:
256,256,330225,1,4,0:0:0:0:
256,256,330421,1,12,0:0:0:0:
256,256,330616,1,4,0:0:0:0:
256,192,330747,1,8,0:0:0:0:
256,192,330812,1,8,0:0:0:0:
256,192,330877,1,8,0:0:0:0:
256,192,330943,1,8,0:0:0:0:
256,192,331008,1,0,0:0:0:0:
256,192,331269,1,8,0:0:0:0:
256,192,331312,1,8,0:0:0:0:
256,192,331356,1,8,0:0:0:0:
256,192,331399,1,0,0:0:0:0:
256,192,331464,1,0,0:0:0:0:
256,192,331530,1,8,0:0:0:0:
256,192,331595,1,8,0:0:0:0:
256,192,331660,1,0,0:0:0:0:
256,256,331790,1,4,0:0:0:0:
256,256,331986,1,12,0:0:0:0:
256,256,332182,1,4,0:0:0:0:
256,256,332312,1,4,0:0:0:0:
256,256,332508,1,12,0:0:0:0:
256,256,332703,1,4,0:0:0:0:
256,256,332834,1,12,0:0:0:0:
256,256,332964,1,12,0:0:0:0:
256,192,333095,1,0,0:0:0:0:
256,192,333160,1,0,0:0:0:0:
256,192,333225,1,0,0:0:0:0:
256,192,333290,1,0,0:0:0:0:
256,192,333356,1,8,0:0:0:0:
256,192,333421,1,0,0:0:0:0:
256,192,333486,1,8,0:0:0:0:
256,192,333551,1,8,0:0:0:0:
256,192,333616,1,0,0:0:0:0:
256,192,333682,1,0,0:0:0:0:
256,192,333747,1,8,0:0:0:0:
256,192,333812,1,0,0:0:0:0:
256,192,333877,1,8,0:0:0:0:
256,192,333943,1,8,0:0:0:0:
256,192,334008,1,8,0:0:0:0:
256,192,334073,1,0,0:0:0:0:
256,192,334138,1,8,0:0:0:0:
256,192,334203,1,0,0:0:0:0:
256,192,334269,1,8,0:0:0:0:
256,192,334334,1,8,0:0:0:0:
256,192,334399,1,0,0:0:0:0:
256,192,334464,1,0,0:0:0:0:
256,192,334529,1,8,0:0:0:0:
256,192,334595,1,0,0:0:0:0:
256,192,334660,1,8,0:0:0:0:
256,192,334725,1,8,0:0:0:0:
256,192,334790,1,0,0:0:0:0:
256,192,334856,1,8,0:0:0:0:
256,192,334921,1,0,0:0:0:0:
256,256,335573,1,4,0:0:0:0:
256,256,335768,1,4,0:0:0:0:
256,256,335964,1,4,0:0:0:0:
256,256,336160,1,4,0:0:0:0:
256,256,336355,1,4,0:0:0:0:
256,256,336551,1,4,0:0:0:0:
256,256,336747,1,4,0:0:0:0:
256,256,336942,1,4,0:0:0:0:
256,256,337138,1,4,0:0:0:0:
256,256,337334,1,4,0:0:0:0:
256,256,337660,1,12,0:0:0:0:
256,256,337855,1,12,0:0:0:0:
256,256,338051,1,12,0:0:0:0:
256,256,338246,1,12,0:0:0:0:
256,256,338442,1,12,0:0:0:0:
256,256,338637,1,12,0:0:0:0:
256,256,338834,1,12,0:0:0:0:
256,256,339029,1,12,0:0:0:0:
256,256,339225,1,12,0:0:0:0:
256,256,339355,1,12,0:0:0:0:
256,256,339486,1,12,0:0:0:0:
256,256,339747,1,4,0:0:0:0:
256,256,339942,1,4,0:0:0:0:
256,256,340138,1,4,0:0:0:0:
256,256,340334,1,4,0:0:0:0:
256,256,340529,1,4,0:0:0:0:
256,256,340724,1,4,0:0:0:0:
256,256,340920,1,4,0:0:0:0:
256,256,341116,1,4,0:0:0:0:
256,256,341312,1,4,0:0:0:0:
256,256,341507,1,4,0:0:0:0:
256,256,341834,1,12,0:0:0:0:
256,256,342029,1,12,0:0:0:0:
256,256,342225,1,12,0:0:0:0:
256,256,342420,1,12,0:0:0:0:
256,256,342616,1,12,0:0:0:0:
256,256,342812,1,12,0:0:0:0:
256,256,343007,1,12,0:0:0:0:
256,256,343138,1,12,0:0:0:0:
256,256,343399,1,12,0:0:0:0:
256,256,343530,1,12,0:0:0:0:
256,192,343660,12,0,345877,0:0:0:0:
