osu file format v14

[General]
AudioFilename: audio.mp3
AudioLeadIn: 0
PreviewTime: 97927
Countdown: 0
SampleSet: Soft
StackLeniency: 1
Mode: 0
LetterboxInBreaks: 0
WidescreenStoryboard: 1

[Editor]
Bookmarks: 22337,33124,43910,53180,53348,53433,53601,53686,53854,53938,54107,54275,54360,54528,54697,65483,76270,87056,97843,108629,119416,130202,140989,151775,162562,173348,184135,194922,205708,223236,234023,244809,255596,266382
DistanceSpacing: 1
BeatDivisor: 4
GridSize: 8
TimelineZoom: 1.7

[Metadata]
Title:Kimi ga Shinu no o Nagamete Iru yo
TitleUnicode:君が死ぬのを眺めているよ
Artist:Camellia
ArtistUnicode:かめりあ
Creator:pishifat
Version:Normal
Source:osu!
Tags:watching you die i will witness your end Featured Artist vocaloid hatsune miku seto kousuke noffy vocaparty Novelty Japanese mappers' guild
BeatmapID:2003150
BeatmapSetID:945476

[Difficulty]
HPDrainRate:4
CircleSize:3
OverallDifficulty:5
ApproachRate:5
SliderMultiplier:1
SliderTickRate:2

[Events]
//Background and Video events
0,0,"Alice_paopaopaon_201903041518.png",0,0
//Break Periods
2,90037,96727
2,176329,183019
//Storyboard Layer 0 (Background)
//Storyboard Layer 1 (Fail)
//Storyboard Layer 2 (Pass)
//Storyboard Layer 3 (Foreground)
//Storyboard Sound Samples

[TimingPoints]
849,337.078651685393,4,2,1,85,1,0
22422,-100,4,2,1,85,0,0
23096,-100,4,2,1,65,0,0
23264,-100,4,2,1,65,0,0
24023,-100,4,2,1,5,0,0
24107,-100,4,2,1,65,0,0
25118,-100,4,2,1,65,0,0
25371,-100,4,2,1,5,0,0
25455,-100,4,2,1,65,0,0
27056,-100,4,2,1,65,0,0
27815,-100,4,2,1,85,0,0
28489,-100,4,2,1,65,0,0
28826,-100,4,2,1,65,0,0
29416,-100,4,2,1,5,0,0
29500,-100,4,2,1,65,0,0
30848,-100,4,2,1,65,0,0
31691,-100,4,2,1,65,0,0
32450,-100,4,2,1,70,0,0
32702,-100,4,2,1,75,0,0
32955,-100,4,2,1,80,0,0
33208,-100,4,2,1,85,0,0
33882,-100,4,2,1,65,0,0
34219,-100,4,2,1,65,0,0
34893,-100,4,2,1,65,0,0
35905,-100,4,2,1,65,0,0
36157,-100,4,2,1,5,0,0
36242,-100,4,2,1,65,0,0
38011,-100,4,2,1,65,0,0
38601,-100,4,2,1,85,0,0
39275,-100,4,2,1,65,0,0
39444,-100,4,2,1,65,0,0
39528,-100,4,2,1,5,0,0
39613,-100,4,2,1,65,0,0
40287,-100,4,2,1,65,0,0
41466,-100,4,2,1,65,0,0
42478,-100,4,2,1,65,0,0
43152,-100,4,2,1,65,0,0
43995,-100,4,2,1,85,0,0
44669,-100,4,2,1,65,0,0
44837,-100,4,2,1,65,0,0
45680,-100,4,2,1,65,0,0
46691,-100,4,2,1,65,0,0
47028,-100,4,2,1,60,0,0
47365,-100,4,2,1,55,0,0
47702,-100,4,2,1,65,0,0
48545,-100,4,2,1,65,0,0
49388,-100,4,2,1,65,0,0
50989,-100,4,2,1,5,0,0
51073,-100,4,2,1,65,0,0
52084,-100,4,2,1,65,0,0
53264,-100,4,2,1,80,0,0
53433,-100,4,2,1,80,0,0
53686,-100,4,2,1,5,0,0
53770,-100,4,2,1,80,0,0
53938,-100,4,2,1,80,0,0
54697,-100,4,2,1,80,0,0
54781,-100,4,2,1,85,0,0
55455,-100,4,2,1,65,0,0
55961,-100,4,2,1,65,0,0
56466,-100,4,2,1,65,0,0
57478,-100,4,2,1,65,0,0
57815,-100,4,2,1,60,0,0
58152,-100,4,2,1,55,0,0
58489,-100,4,2,1,65,0,0
59332,-100,4,2,1,65,0,0
60174,-100,4,2,1,55,0,0
61523,-100,4,2,1,57,0,0
61860,-100,4,2,1,60,0,0
62197,-100,4,2,1,63,0,0
62534,-100,4,2,1,65,0,0
62871,-100,4,2,1,67,0,0
63208,-100,4,2,1,70,0,0
63545,-100,4,2,1,72,0,0
63882,-100,4,2,1,75,0,0
64219,-100,4,2,1,70,0,0
64556,-100,4,2,1,75,0,0
64893,-100,4,2,1,80,0,0
65231,-100,4,2,1,85,0,0
65483,-100,4,2,1,5,0,0
65568,-100,4,2,1,85,0,1
65905,-100,4,2,1,85,0,1
66157,-100,4,2,1,5,0,1
66242,-100,4,2,1,70,0,1
67590,-100,4,2,1,70,0,1
68264,-100,4,2,1,70,0,1
69191,-100,4,2,1,5,0,1
69275,-100,4,2,1,70,0,1
69865,-100,4,2,1,70,0,1
70961,-100,4,2,1,85,0,1
71214,-100,4,2,1,5,0,1
71298,-100,4,2,1,85,0,1
71551,-100,4,2,1,5,0,1
71635,-100,4,2,1,70,0,1
72815,-100,4,2,1,70,0,1
73152,-100,4,2,1,70,0,1
73657,-100,4,2,1,70,0,1
73910,-100,4,2,1,5,0,1
73995,-100,4,2,1,70,0,1
74163,-100,4,2,1,85,0,1
74837,-100,4,2,1,70,0,1
75259,-100,4,2,1,70,0,1
75596,-100,4,2,1,70,0,1
75764,-100,4,2,1,70,0,1
76017,-100,4,2,1,70,0,0
76354,-100,4,2,1,85,0,1
76691,-100,4,2,1,85,0,1
76944,-100,4,2,1,5,0,1
77028,-100,4,2,1,70,0,1
78377,-100,4,2,1,70,0,1
79051,-100,4,2,1,70,0,1
79978,-100,4,2,1,5,0,1
80062,-100,4,2,1,70,0,1
80736,-100,4,2,1,70,0,1
81747,-100,4,2,1,85,0,1
82000,-100,4,2,1,5,0,1
82084,-100,4,2,1,85,0,1
82337,-100,4,2,1,5,0,1
82422,-100,4,2,1,70,0,1
83686,-100,4,2,1,70,0,1
84444,-100,4,2,1,70,0,1
84697,-100,4,2,1,5,0,1
84781,-100,4,2,1,70,0,1
84950,-100,4,2,1,85,0,1
85624,-100,4,2,1,70,0,1
85792,-100,4,2,1,70,0,1
87141,-100,4,2,1,85,0,0
87815,-100,4,2,1,70,0,0
97927,-100,4,2,1,85,0,0
98601,-100,4,2,1,65,0,0
98938,-100,4,2,1,65,0,0
99613,-100,4,2,1,65,0,0
100792,-100,4,2,1,65,0,0
101972,-100,4,2,1,65,0,0
102478,-100,4,2,1,65,0,0
103320,-100,4,2,1,70,0,0
103995,-100,4,2,1,70,0,0
104332,-100,4,2,1,60,0,0
104669,-100,4,2,1,60,0,0
105006,-100,4,2,1,63,0,0
105343,-100,4,2,1,65,0,0
105680,-100,4,2,1,67,0,0
106017,-100,4,2,1,70,0,0
106691,-100,4,2,1,75,0,0
107365,-100,4,2,1,70,0,0
107702,-100,4,2,1,72,0,0
108040,-100,4,2,1,75,0,0
108377,-100,4,2,1,70,0,0
108714,-117.647058823529,4,2,1,80,0,0
109388,-117.647058823529,4,2,1,50,0,0
111242,-117.647058823529,4,2,1,60,0,0
111326,-117.647058823529,4,2,1,5,0,0
111410,-117.647058823529,4,2,1,70,0,0
111579,-117.647058823529,4,2,1,5,0,0
111635,-117.647058823529,4,2,1,33,0,0
111747,-117.647058823529,4,2,1,70,0,0
111916,-117.647058823529,4,2,1,5,0,0
111972,-117.647058823529,4,2,1,33,0,0
113264,-117.647058823529,4,2,1,70,0,0
113433,-117.647058823529,4,2,1,5,0,0
113601,-117.647058823529,4,2,1,70,0,0
113938,-117.647058823529,4,2,1,44,0,0
114107,-117.647058823529,4,2,1,70,0,0
114781,-117.647058823529,4,2,1,44,0,0
116635,-117.647058823529,4,2,1,70,0,0
116747,-117.647058823529,4,2,1,33,0,0
117983,-117.647058823529,4,2,1,70,0,0
118040,-117.647058823529,4,2,1,33,0,0
118152,-117.647058823529,4,2,1,70,0,0
118264,-117.647058823529,4,2,1,33,0,0
118405,-117.647058823529,4,2,1,70,0,0
118517,-117.647058823529,4,2,1,33,0,0
118657,-117.647058823529,4,2,1,70,0,0
118770,-117.647058823529,4,2,1,33,0,0
118826,-117.647058823529,4,2,1,33,0,0
118995,-117.647058823529,4,2,1,43,0,0
119163,-117.647058823529,4,2,1,53,0,0
119332,-117.647058823529,4,2,1,63,0,0
119500,-117.647058823529,4,2,1,70,0,0
120174,-117.647058823529,4,2,1,50,0,0
120511,-117.647058823529,4,2,1,50,0,0
122028,-117.647058823529,4,2,1,70,0,0
122113,-117.647058823529,4,2,1,33,0,0
122197,-117.647058823529,4,2,1,50,0,0
124051,-117.647058823529,4,2,1,50,0,0
124893,-117.647058823529,4,2,1,70,0,0
125399,-117.647058823529,4,2,1,70,0,0
125736,-117.647058823529,4,2,1,60,0,0
126242,-117.647058823529,4,2,1,50,0,0
128264,-117.647058823529,4,2,1,50,0,0
129444,-117.647058823529,4,2,1,60,0,0
129781,-117.647058823529,4,2,1,60,0,0
130287,-100,4,2,1,85,0,0
130961,-100,4,2,1,65,0,0
131972,-100,4,2,1,65,0,0
132983,-100,4,2,1,65,0,0
133320,-100,4,2,1,60,0,0
133657,-100,4,2,1,55,0,0
133995,-100,4,2,1,65,0,0
135090,-100,4,2,1,65,0,0
135680,-100,4,2,1,65,0,0
137281,-100,4,2,1,5,0,0
137365,-100,4,2,1,65,0,0
138377,-100,4,2,1,65,0,0
139556,-100,4,2,1,80,0,0
139725,-100,4,2,1,80,0,0
139978,-100,4,2,1,5,0,0
140062,-100,4,2,1,80,0,0
140483,-100,4,2,1,80,0,0
140989,-100,4,2,1,80,0,0
141073,-100,4,2,1,85,0,0
141747,-100,4,2,1,65,0,0
142759,-100,4,2,1,65,0,0
143770,-100,4,2,1,65,0,0
144107,-100,4,2,1,60,0,0
144444,-100,4,2,1,55,0,0
144613,-100,4,2,1,60,0,0
144781,-100,4,2,1,65,0,0
145371,-100,4,2,1,5,0,0
145455,-100,4,2,1,65,0,0
145877,-100,4,2,1,65,0,0
146466,-100,4,2,1,60,0,0
146804,-100,4,2,1,62,0,0
147141,-100,4,2,1,65,0,0
147478,-100,4,2,1,67,0,0
147815,-100,4,2,1,70,0,0
148152,-100,4,2,1,72,0,0
148489,-100,4,2,1,75,0,0
148826,-100,4,2,1,77,0,0
149163,-100,4,2,1,74,0,0
149500,-100,4,2,1,76,0,0
149837,-100,4,2,1,77,0,0
150174,-100,4,2,1,78,0,0
150511,-100,4,2,1,70,0,0
150848,-100,4,2,1,33,0,0
151017,-100,4,2,1,52,0,0
151186,-100,4,2,1,52,0,0
151354,-100,4,2,1,52,0,0
151523,-100,4,2,1,70,0,0
151860,-100,4,2,1,85,0,1
152197,-100,4,2,1,85,0,1
152450,-100,4,2,1,5,0,1
152534,-100,4,2,1,70,0,1
155483,-100,4,2,1,5,0,1
155568,-100,4,2,1,70,0,1
156242,-100,4,2,1,70,0,1
157253,-100,4,2,1,85,0,1
157506,-100,4,2,1,5,0,1
157590,-100,4,2,1,85,0,1
157843,-100,4,2,1,5,0,1
157927,-100,4,2,1,70,0,1
158096,-100,4,2,1,70,0,1
159191,-100,4,2,1,70,0,1
159950,-100,4,2,1,70,0,1
160202,-100,4,2,1,5,0,1
160287,-100,4,2,1,70,0,1
160455,-100,4,2,1,85,0,1
161129,-100,4,2,1,70,0,1
161298,-100,4,2,1,70,0,1
161635,-100,4,2,1,70,0,1
161888,-100,4,2,1,70,0,1
161972,-100,4,2,1,70,0,1
162309,-100,4,2,1,70,0,0
162646,-100,4,2,1,85,0,1
162983,-100,4,2,1,85,0,1
163236,-100,4,2,1,5,0,1
163320,-100,4,2,1,70,0,1
164669,-100,4,2,1,70,0,1
165343,-100,4,2,1,70,0,1
166270,-100,4,2,1,5,0,1
166354,-100,4,2,1,70,0,1
167028,-100,4,2,1,70,0,1
168040,-100,4,2,1,85,0,1
168292,-100,4,2,1,5,0,1
168377,-100,4,2,1,85,0,1
168629,-100,4,2,1,5,0,1
168714,-100,4,2,1,70,0,1
168882,-100,4,2,1,70,0,1
169978,-100,4,2,1,70,0,1
170736,-100,4,2,1,70,0,1
170989,-100,4,2,1,5,0,1
171073,-100,4,2,1,70,0,1
171242,-100,4,2,1,85,0,1
171916,-100,4,2,1,70,0,1
172422,-100,4,2,1,70,0,1
172674,-100,4,2,1,70,0,1
172843,-100,4,2,1,70,0,1
173433,-100,4,2,1,85,0,0
174107,-100,4,2,1,70,0,0
184219,-100,4,2,1,85,0,0
184893,-100,4,2,1,65,0,0
185231,-100,4,2,1,65,0,0
185905,-100,4,2,1,65,0,0
186916,-100,4,2,1,65,0,0
188264,-100,4,2,1,65,0,0
188770,-100,4,2,1,65,0,0
189613,-100,4,2,1,80,0,0
190287,-100,4,2,1,60,0,0
190961,-100,4,2,1,65,0,0
191298,-100,4,2,1,68,0,0
191635,-100,4,2,1,70,0,0
191972,-100,4,2,1,72,0,0
192309,-100,4,2,1,75,0,0
192983,-100,4,2,1,80,0,0
193657,-100,4,2,1,70,0,0
195006,-111.111111111111,4,2,1,55,0,0
196354,-111.111111111111,4,2,1,50,0,0
205792,-111.111111111111,4,2,1,70,0,0
206298,-111.111111111111,4,2,1,55,0,0
206466,-111.111111111111,4,2,1,55,0,0
211860,-111.111111111111,4,2,1,55,0,0
212534,-111.111111111111,4,2,1,58,0,0
213208,-111.111111111111,4,2,1,58,0,0
213882,-111.111111111111,4,2,1,60,0,0
214556,-111.111111111111,4,2,1,60,0,0
215231,-111.111111111111,4,2,1,62,0,0
215905,-111.111111111111,4,2,1,62,0,0
216579,-111.111111111111,4,2,1,65,0,0
217927,-111.111111111111,4,2,1,67,0,0
218264,-111.111111111111,4,2,1,68,0,0
218601,-111.111111111111,4,2,1,69,0,0
218938,-111.111111111111,4,2,1,70,0,0
219275,-111.111111111111,4,2,1,70,0,0
219950,-111.111111111111,4,2,1,75,0,0
220624,-111.111111111111,4,2,1,70,0,0
221298,-111.111111111111,4,2,1,75,0,0
221635,-111.111111111111,4,2,1,80,0,0
221972,-111.111111111111,4,2,1,60,0,0
222141,-111.111111111111,4,2,1,50,0,0
222478,-111.111111111111,4,2,1,70,0,0
222983,-100,4,2,1,70,0,0
223320,-100,4,2,1,85,0,1
223657,-100,4,2,1,85,0,1
223910,-100,4,2,1,5,0,1
223995,-100,4,2,1,70,0,1
225343,-100,4,2,1,70,0,1
226017,-100,4,2,1,70,0,1
227702,-100,4,2,1,70,0,1
228714,-100,4,2,1,85,0,1
228966,-100,4,2,1,5,0,1
229051,-100,4,2,1,85,0,1
229304,-100,4,2,1,5,0,1
229388,-100,4,2,1,70,0,1
229556,-100,4,2,1,70,0,1
230568,-100,4,2,1,70,0,1
231410,-100,4,2,1,70,0,1
231916,-100,4,2,1,85,0,1
232590,-100,4,2,1,70,0,1
232927,-100,4,2,1,70,0,1
233770,-100,4,2,1,70,0,0
234107,-100,4,2,1,85,0,1
234444,-100,4,2,1,85,0,1
234697,-100,4,2,1,5,0,1
234781,-100,4,2,1,70,0,1
236129,-100,4,2,1,70,0,1
236804,-100,4,2,1,70,0,1
238489,-100,4,2,1,70,0,1
239500,-100,4,2,1,85,0,1
239753,-100,4,2,1,5,0,1
239837,-100,4,2,1,85,0,1
240090,-100,4,2,1,5,0,1
240174,-100,4,2,1,70,0,1
240343,-100,4,2,1,70,0,1
241438,-100,4,2,1,70,0,1
243882,-100,4,2,1,70,0,1
244051,-100,4,2,1,70,0,1
244893,-100,4,2,1,85,0,0
245231,-100,4,2,1,70,0,0

[Colours]
Combo1 : 238,189,98
Combo2 : 65,226,137
Combo3 : 255,193,6
Combo4 : 62,172,155

[HitObjects]
512,28,22422,6,2,B|462:32|462:32|430:71|430:71|381:81|381:81|346:137,1,200,4|2,1:1|0:0,1:0:0:0:
360,172,23264,1,0,1:0:0:0:
371,220,23433,1,8,0:0:0:0:
307,297,23770,1,0,1:0:0:0:
268,204,24107,2,0,L|250:125,2,75,8|8|0,0:0|0:0|1:0,0:0:0:0:
228,235,24781,1,8,0:0:0:0:
154,167,25118,6,0,P|106:181|74:219,1,100,0|8,1:0|0:0,0:0:0:0:
73,269,25624,1,2,0:0:0:0:
162,312,25961,2,0,L|152:369,2,50,0|8|0,1:0|0:0|0:0,0:0:0:0:
199,278,26466,1,0,1:0:0:0:
259,358,26804,2,0,P|294:348|328:324,1,75,8|0,0:0|1:0,0:0:0:0:
354,286,27225,2,0,P|366:243|367:206,1,75,8|8,0:0|0:0,0:0:0:0:
340,116,27815,6,2,B|299:87|299:87|251:94|251:94|208:66|208:66|152:76,1,200,0|2,1:0|0:0,1:0:0:0:
110,88,28657,1,0,1:0:0:0:
62,102,28826,1,8,0:0:0:0:
131,173,29163,1,0,1:0:0:0:
76,257,29500,2,0,L|-6:241,2,75,8|8|0,0:0|0:0|1:0,0:0:0:0:
124,271,30174,1,8,0:0:0:0:
195,340,30511,6,0,L|306:318,1,100,0|8,1:0|0:0,0:0:0:0:
338,341,31017,2,0,P|415:329|465:277,1,150,2|8,0:0|0:0,0:0:0:0:
320,63,32365,2,0,L|244:48,2,75,0|8|8,1:0|0:0|0:0,0:0:0:0:
304,163,33208,6,2,B|274:204|274:204|289:251|289:251|261:290|261:290|278:346,1,200,4|2,1:1|0:0,1:0:0:0:
324,356,34051,1,0,1:0:0:0:
372,365,34219,2,0,L|436:348,2,50,8|0|0,0:0|0:0|1:0,0:0:0:0:
398,268,34893,2,0,L|480:252,2,75,8|8|0,0:0|0:0|1:0,0:0:0:0:
358,236,35568,1,8,0:0:0:0:
283,169,35905,6,0,P|216:182|187:211,1,100,0|8,1:0|0:0,0:0:0:0:
171,248,36410,2,0,L|60:229,2,100,2|0|2,0:0|1:0|0:0,0:0:0:0:
204,285,37253,1,0,1:0:0:0:
117,334,37590,2,0,L|35:320,1,75,8|0,0:0|1:0,0:0:0:0:
2,291,38011,2,0,P|-17:247|-16:204,1,75,8|8,0:0|0:0,0:0:0:0:
28,127,38601,6,2,B|68:97|68:97|118:103|118:103|154:69|154:69|215:77,1,200,0|0,1:0|0:0,1:0:0:0:
252,88,39444,1,2,1:1:0:0:
300,100,39613,2,0,L|311:46,2,50,8|2|0,0:0|0:0|1:0,0:0:0:0:
377,163,40287,2,0,P|432:192|444:211,2,75,8|8|0,0:0|0:0|1:0,0:0:0:0:
337,194,40961,2,0,L|268:203,1,50,8|2,0:0|0:0,0:0:0:0:
239,186,41298,6,0,P|193:241|189:278,1,100,0|8,1:0|0:0,0:0:0:0:
196,316,41804,2,0,P|129:285|91:197,1,150,2|8,0:0|0:0,0:0:0:0:
203,10,43152,2,0,L|113:27,1,75,0|8,1:0|0:0,0:0:0:0:
80,33,43573,1,8,0:0:0:0:
15,140,43995,6,2,B|65:148|65:148|95:197|151:189|151:189|197:235,1,200,4|2,1:0|0:2,1:0:0:0:
191,272,44837,1,0,1:0:0:0:
199,321,45006,2,0,P|260:346|305:339,1,100,8|0,0:0|1:0,0:0:0:0:
377,290,45680,2,0,L|391:369,2,75,8|8|0,0:0|0:0|1:0,0:0:0:0:
402,246,46354,1,8,0:0:0:0:
408,146,46691,6,0,B|386:60|315:49|266:93|285:129|336:130,1,200,2|2,1:2|0:0,0:0:0:0:
308,227,47702,1,8,0:0:0:0:
230,290,48040,2,0,P|183:280|129:237,1,100,0|8,1:0|0:0,0:0:0:0:
127,203,48545,2,0,B|70:154|70:154|-5:185,1,150,0|8,1:0|0:0,0:0:0:0:
50,269,49388,5,0,1:0:0:0:
216,154,50062,2,0,P|291:174|318:198,1,100,2|8,0:0|0:0,0:0:0:0:
368,266,50736,1,0,1:0:0:0:
465,244,51073,2,0,P|487:188|484:158,2,75,8|8|0,0:0|0:0|1:0,0:0:0:0:
467,294,51747,1,8,0:0:0:0:
368,266,52084,6,0,B|253:277|316:355|190:365,1,200,0|2,1:0|0:0,0:0:0:0:
132,293,53096,2,0,L|122:237,1,50,8|2,0:0|0:1,0:0:0:0:
160,210,53433,2,2,P|181:158|173:107,1,100,2|8,1:0|0:0,1:0:0:0:
174,65,53938,2,0,L|261:50,1,75,0|8,1:0|0:0,0:0:0:0:
298,47,54360,1,8,0:0:0:0:
421,67,54781,6,2,B|388:106|388:106|389:162|342:186|342:186|332:239,1,200,4|2,1:0|0:2,1:0:0:0:
352,282,55624,1,0,1:0:0:0:
380,323,55792,2,0,P|318:356|273:350,1,100,8|0,0:0|1:0,0:0:0:0:
224,279,56466,2,0,L|234:194,2,75,8|8|0,0:0|0:0|1:0,0:0:0:0:
177,297,57141,1,8,0:0:0:0:
91,245,57478,6,0,B|45:247|8:291|-4:341|48:384|83:332,1,200,2|2,1:2|0:0,0:0:0:0:
177,297,58489,1,8,0:0:0:0:
244,370,58826,2,0,L|346:384,1,100,0|8,1:0|0:0,0:0:0:0:
361,336,59332,2,0,L|461:324,1,100,2|2,0:0|0:0,0:0:0:0:
478,277,59837,1,8,0:0:0:0:
386,236,60174,5,0,1:0:0:0:
386,236,60511,1,0,1:0:0:0:
386,236,60848,2,0,L|402:118,1,100,0|0,1:0|1:0,0:0:0:0:
299,133,61523,1,0,1:0:0:0:
299,133,61860,1,0,1:0:0:0:
299,133,62197,2,0,L|283:251,1,100,0|0,1:0|1:0,0:0:0:0:
205,291,62871,6,0,L|194:222,1,50,0|0,1:0|1:0,0:0:0:0:
192,191,63208,1,0,1:0:0:0:
100,230,63545,2,0,L|89:161,1,50,0|0,1:0|1:0,0:0:0:0:
85,130,63882,1,0,1:0:0:0:
87,30,64219,6,0,L|19:22,2,50,0|0|0,1:0|1:0|1:0,0:0:0:0:
126,61,64725,1,0,1:0:0:0:
166,90,64893,2,0,L|231:98,2,50,2|2|0,1:0|1:0|1:0,0:0:0:0:
222,4,65568,6,2,B|286:14|286:14|345:81|306:154,1,200,6|2,1:0|0:0,1:0:0:0:
384,209,66579,2,0,P|417:183|428:159,2,50,8|2|0,0:0|0:0|1:0,0:0:0:0:
288,238,67253,1,8,0:0:0:0:
360,306,67590,2,0,P|417:304|447:290,2,75,2|2|2,0:0|0:0|0:0,0:0:0:0:
318,334,68264,6,0,L|257:343,1,50,0|2,1:0|0:0,0:0:0:0:
224,317,68601,1,8,0:0:0:0:
130,353,68938,1,2,0:0:0:0:
72,271,69275,2,0,P|69:225|101:161,1,100,8|0,0:0|1:0,0:0:0:0:
142,91,69950,2,0,L|49:80,1,75,8|0,0:0|1:0,0:0:0:0:
73,32,70371,2,0,L|147:40,1,75,8|8,0:0|0:0,0:0:0:0:
238,83,70961,6,2,B|304:76|304:76|336:10|409:4,1,200,0|2,1:0|0:0,1:0:0:0:
453,26,71804,2,0,L|466:132,1,100,0|2,1:0|0:0,0:0:0:0:
439,168,72309,1,0,1:0:0:0:
488,254,72646,1,8,0:0:0:0:
450,346,72983,1,0,0:0:0:0:
400,336,73152,2,0,L|289:319,1,100,0|2,1:0|0:0,0:0:0:0:
255,341,73657,5,0,1:0:0:0:
177,277,73995,1,8,0:0:0:0:
128,288,74163,2,2,B|106:242|106:242|123:196|123:196|103:146,1,150,2|8,0:0|0:0,1:0:0:0:
57,62,75006,2,0,P|96:49|145:55,2,75,0|0|0,1:0|1:0|1:0,0:0:0:0:
20,95,75680,2,0,P|7:121|20:198,1,100,0|8,0:0|0:0,0:0:0:0:
98,244,76354,6,2,B|150:236|150:236|135:289|162:339|212:353,1,200,6|2,1:1|0:0,1:0:0:0:
295,299,77365,2,0,L|306:236,2,50,8|0|0,0:0|0:0|1:0,0:0:0:0:
377,356,78040,1,8,0:0:0:0:
456,296,78377,2,0,P|451:245|418:192,1,100,2|8,0:0|0:0,0:0:0:0:
388,172,78882,1,2,0:0:0:0:
338,163,79051,5,0,1:0:0:0:
386,75,79388,2,0,L|324:65,1,50,8|2,0:0|0:0,0:0:0:0:
300,32,79725,2,0,P|234:47|202:82,1,100,2|8,0:0|0:0,0:0:0:0:
168,157,80399,1,0,1:0:0:0:
80,108,80736,2,0,L|69:29,1,75,8|0,0:0|1:0,0:0:0:0:
19,39,81157,2,0,L|29:113,1,75,8|8,0:0|0:0,0:0:0:0:
62,207,81747,6,2,B|22:234|3:286|31:328|31:328|105:339,1,200,0|2,1:0|0:0,1:0:0:0:
136,315,82590,2,0,P|179:290|239:294,1,100,0|2,1:0|0:0,0:0:0:0:
272,312,83096,1,0,1:0:0:0:
338,237,83433,2,0,P|322:208|270:177,2,75,8|8|0,0:0|0:0|1:0,0:0:0:0:
376,269,84107,2,0,L|433:274,1,50,8|2,0:0|0:0,0:0:0:0:
475,281,84444,5,0,1:0:0:0:
462,131,84950,2,2,B|457:87|457:87|411:121|356:105,1,150,2|8,0:0|0:0,1:0:0:0:
273,50,85792,2,0,P|242:38|182:38,2,75,0|2|0,1:0|0:0|1:0,0:0:0:0:
256,200,86804,6,0,L|256:312,1,100,8|4,0:0|1:0,0:0:0:0:
256,192,87225,12,0,89837,1:0:0:0:
481,242,97927,6,2,B|429:239|404:275|404:275|406:297|406:297|384:335|331:340,1,200,4|2,1:0|0:2,1:0:0:0:
284,321,98770,2,0,L|220:311,1,50,0|8,1:0|0:0,0:0:0:0:
135,298,99275,1,0,1:0:0:0:
36,279,99613,2,0,P|17:326|18:364,2,75,8|8|0,0:0|0:0|1:0,0:0:0:0:
73,245,100287,2,0,L|61:135,1,100,8|0,0:0|1:0,0:0:0:0:
98,111,100792,6,0,L|106:45,1,50,2|8,0:0|0:0,0:0:0:0:
200,32,101298,1,2,0:0:0:0:
245,52,101466,2,0,L|359:33,1,100,0|2,1:0|0:0,0:0:0:0:
393,27,101972,2,0,P|448:38|485:79,1,100,0|8,1:0|0:0,0:0:0:0:
495,114,102478,1,0,1:0:0:0:
402,151,102815,2,0,L|343:140,2,50,0|8|0,1:0|0:0|1:0,0:0:0:0:
439,184,103320,5,0,1:0:0:0:
465,280,103657,1,0,1:0:0:0:
367,256,103995,2,0,L|250:273,1,100,0|2,1:0|1:2,0:0:0:0:
191,335,104669,1,0,1:0:0:0:
171,237,105006,1,0,1:0:0:0:
96,304,105343,2,0,L|-22:286,1,100,0|0,1:0|1:0,0:0:0:0:
8,189,106017,6,0,L|66:178,1,50,0|0,1:0|1:0,0:0:0:0:
95,147,106354,1,0,1:0:0:0:
194,155,106691,2,0,L|252:144,1,50,0|0,1:0|1:0,0:0:0:0:
281,113,107028,1,0,1:0:0:0:
380,122,107365,6,0,P|387:93|404:58,2,50,0|0|0,1:0|1:0|1:0,0:0:0:0:
410,161,107871,1,0,1:0:0:0:
439,201,108040,2,0,P|432:230|415:265,2,50,0|0|8,1:0|1:0|0:0,0:0:0:0:
339,210,108714,6,2,B|309:236|281:232|281:232|234:267|255:344,1,170.000003242493,0|2,1:0|0:2,1:0:0:0:
15,218,111242,5,0,1:0:0:0:
64,230,111410,1,2,1:0:0:0:
162,254,111747,1,2,1:0:0:0:
503,139,113601,6,2,L|410:161,1,85.0000016212464,0|0,1:0|0:0,1:0:0:0:
370,171,114107,2,2,B|325:161|325:161|279:217|206:185,1,170.000003242493,0|2,1:0|0:0,1:0:0:0:
54,39,116635,6,2,L|61:80,1,42.5000008106232,0|0,1:0|0:0,1:0:0:0:
433,2,117983,5,2,1:0:0:0:
422,52,118152,2,2,L|408:119,2,63.7500012159348,0|0|0,1:0|1:0|1:0,1:0:0:0:
144,87,119500,6,2,B|142:137|180:157|180:157|220:137|276:159,1,170.000003242493,0|2,1:0|0:0,1:0:0:0:
417,289,120848,1,2,0:0:0:0:
221,353,121523,1,2,0:0:0:0:
264,154,122197,2,0,P|332:164|393:206,1,127.50000243187,2|2,0:0|0:0,0:0:0:0:
474,151,123040,2,0,P|447:86|431:70,1,85.0000016212464,2|2,0:0|0:0,0:0:0:0:
392,53,123545,2,0,L|381:-4,1,42.5000008106232,2|2,0:0|0:0,0:0:0:0:
288,49,124051,2,0,B|152:70,1,127.50000243187,2|2,0:0|0:0,0:0:0:0:
60,59,124893,6,2,B|46:78|46:78|46:96,1,42.5000008106232,2|2,1:0|1:0,1:0:0:0:
79,136,125231,2,2,B|93:155|93:155|92:173,1,42.5000008106232,2|2,1:0|1:0,1:0:0:0:
189,350,126242,5,2,0:0:0:0:
289,368,126579,2,0,P|330:362|366:339,1,85.0000016212464,0|2,0:0|0:0,0:0:0:0:
398,300,127084,2,0,L|408:206,2,85.0000016212464,2|2|2,0:0|0:0|2:0,0:0:0:0:
477,364,128096,1,2,0:0:0:0:
477,364,129781,2,0,L|467:322,1,42.5000008106232,0|8,1:0|0:0,0:0:0:0:
391,256,130287,6,2,B|410:210|410:210|401:163|401:163|423:115|423:115|407:64,1,200,0|2,1:0|0:0,1:0:0:0:
374,31,131129,1,0,1:0:0:0:
326,13,131298,2,0,P|276:12|232:34,1,100,8|0,0:0|1:0,0:0:0:0:
146,85,131972,2,0,L|132:11,2,75,8|8|0,0:0|0:0|1:0,0:0:0:0:
122,129,132646,1,8,0:0:0:0:
204,185,132983,6,0,B|229:162|267:177|258:242|196:279|124:228,1,200,2|2,1:2|0:0,0:0:0:0:
51,168,133994,1,8,0:0:0:0:
29,266,134332,2,0,P|50:310|86:344,1,100,0|8,1:0|0:0,0:0:0:0:
131,366,134837,2,0,L|233:350,1,100,0|2,1:0|0:0,0:0:0:0:
254,306,135343,1,10,0:0:0:0:
196,224,135680,5,0,1:0:0:0:
348,353,136354,2,0,P|423:333|450:309,1,100,2|8,0:0|0:0,0:0:0:0:
425,221,137028,1,0,1:0:0:0:
337,171,137365,2,0,L|327:82,2,75,8|8|0,0:0|0:0|1:0,0:0:0:0:
324,214,138039,1,8,0:0:0:0:
246,277,138376,6,0,B|361:288|298:366|424:376,1,200,0|2,1:0|0:0,0:0:0:0:
485,307,139388,2,0,L|475:251,1,50,8|2,0:0|0:1,0:0:0:0:
440,223,139725,2,2,P|419:171|427:120,1,100,2|8,1:1|0:0,1:0:0:0:
431,79,140230,2,0,L|357:91,1,75,0|8,1:0|0:0,0:0:0:0:
306,95,140652,1,0,1:0:0:0:
220,186,141073,6,2,B|181:153|181:153|125:154|101:107|101:107|48:97,1,200,4|2,1:0|0:0,1:0:0:0:
15,133,141916,1,0,1:0:0:0:
0,179,142084,2,0,L|25:289,1,100,8|0,0:0|1:0,0:0:0:0:
86,353,142758,2,0,P|53:371|16:377,2,75,8|8|0,0:0|0:0|1:0,0:0:0:0:
122,318,143433,1,8,0:0:0:0:
218,344,143770,6,0,B|172:342|135:298|123:248|175:205|210:257,1,200,2|2,1:2|0:0,0:0:0:0:
305,281,144781,1,8,0:0:0:0:
387,224,145118,2,0,L|486:210,1,100,0|8,1:0|0:0,0:0:0:0:
494,160,145624,2,0,L|386:175,1,100,0|2,1:0|0:0,0:0:0:0:
364,134,146129,1,8,0:0:0:0:
416,48,146466,5,0,1:0:0:0:
416,48,146803,1,0,1:0:0:0:
416,48,147140,2,0,L|298:32,1,100,0|0,1:0|1:0,0:0:0:0:
261,109,147815,1,0,1:0:0:0:
261,109,148152,1,0,1:0:0:0:
261,109,148489,2,0,L|143:92,1,100,0|0,1:0|1:0,0:0:0:0:
103,176,149163,6,0,L|92:245,1,50,0|0,1:0|1:0,0:0:0:0:
90,276,149500,1,0,1:0:0:0:
188,295,149837,2,0,L|199:226,1,50,0|0,1:0|1:0,0:0:0:0:
203,195,150174,1,0,1:0:0:0:
295,232,150511,6,2,B|331:220|331:220|347:225|347:225|389:210,1,100,2|0,1:0|0:0,1:0:0:0:
482,14,151523,1,8,0:0:0:0:
497,61,151691,1,8,0:0:0:0:
512,108,151860,6,2,B|463:74|463:74|409:134|320:96,1,200,6|2,1:0|0:0,1:0:0:0:
258,166,152871,2,0,P|284:199|308:210,2,50,8|2|0,0:0|0:0|1:0,0:0:0:0:
183,99,153545,1,8,0:0:0:0:
129,183,153882,2,0,P|131:240|145:270,2,75,2|2|2,0:0|0:0|0:0,0:0:0:0:
97,144,154556,6,0,P|78:129|36:118,1,50,0|0,1:0|0:0,0:0:0:0:
4,126,154893,1,8,0:0:0:0:
24,223,155230,1,2,0:0:0:0:
47,320,155567,2,0,P|83:353|130:368,1,100,8|0,0:0|1:0,0:0:0:0:
212,310,156242,2,0,L|305:299,1,75,8|0,0:0|1:0,0:0:0:0:
290,351,156663,2,0,L|364:359,1,75,8|8,0:0|0:0,0:0:0:0:
455,315,157253,6,2,B|448:249|448:249|382:217|376:144,1,200,0|2,1:0|0:0,1:0:0:0:
387,95,158096,2,0,L|281:108,1,100,0|2,1:0|0:0,0:0:0:0:
255,144,158601,1,0,1:0:0:0:
298,234,158938,1,8,0:0:0:0:
226,304,159275,1,0,0:0:0:0:
176,297,159444,2,0,L|77:281,1,100,0|2,1:0|0:0,0:0:0:0:
27,274,159949,5,0,1:0:0:0:
55,177,160287,1,8,0:0:0:0:
73,130,160455,2,2,B|93:110|129:109|129:109|154:121|154:121|186:123|215:105,1,150,2|8,0:0|0:0,1:0:0:0:
292,46,161298,2,0,P|319:15|364:-4,2,75,0|2|0,1:0|0:0|1:0,0:0:0:0:
316,89,161972,2,0,P|317:118|367:178,1,100,0|8,0:0|0:0,0:0:0:0:
453,205,162646,6,2,B|401:197|401:197|416:250|389:300|339:314,1,200,6|2,1:0|0:0,1:0:0:0:
247,275,163657,2,0,L|238:324,2,50,8|2|0,0:0|0:0|1:0,0:0:0:0:
193,190,164332,1,8,0:0:0:0:
113,251,164669,2,0,P|63:246|19:223,1,100,2|8,0:0|0:0,0:0:0:0:
7,174,165174,1,2,0:0:0:0:
38,134,165343,5,0,1:0:0:0:
136,119,165680,2,0,L|198:109,1,50,8|2,0:0|0:0,0:0:0:0:
218,73,166017,2,0,P|257:43|306:37,1,100,2|8,0:0|0:0,0:0:0:0:
395,83,166691,1,0,1:0:0:0:
354,174,167028,2,0,L|364:248,1,75,8|0,0:0|1:0,0:0:0:0:
414,246,167449,2,0,L|404:320,1,75,8|8,0:0|0:0,0:0:0:0:
308,351,168039,6,2,B|296:304|253:268|204:280|204:280|175:334,1,200,0|2,1:0|0:0,1:0:0:0:
125,336,168882,2,0,P|99:293|104:233,1,100,0|2,1:0|0:0,0:0:0:0:
129,203,169388,1,0,1:0:0:0:
170,111,169725,2,0,P|154:82|102:51,2,75,8|8|0,0:0|0:0|1:0,0:0:0:0:
215,132,170399,2,0,L|272:137,1,50,8|2,0:0|0:0,0:0:0:0:
302,169,170736,5,0,1:0:0:0:
385,290,171242,2,2,B|390:246|390:246|436:280|491:264,1,150,2|8,0:0|0:0,1:0:0:0:
456,169,172084,2,0,L|448:83,2,75,0|2|0,1:0|0:0|1:0,0:0:0:0:
307,192,173096,6,0,L|207:192,1,100,8|4,0:0|1:0,0:0:0:0:
256,192,173517,12,0,176129,1:0:0:0:
81,315,184219,6,2,B|99:275|81:232|81:232|95:215|95:215|66:172|105:118,1,200,4|2,1:0|0:0,1:0:0:0:
143,104,185062,2,0,L|207:94,1,50,0|8,1:0|0:0,0:0:0:0:
281,50,185567,1,0,1:0:0:0:
345,126,185905,2,0,L|431:139,2,75,8|8|0,0:0|0:0|1:0,0:0:0:0:
303,153,186579,1,8,0:0:0:0:
368,228,186916,6,0,P|389:261|391:309,1,75,0|2,1:0|0:0,0:0:0:0:
338,358,187422,2,0,P|298:359|256:337,1,75,2|2,0:0|0:0,0:0:0:0:
248,265,187927,2,0,P|258:244|283:228,1,50,8|2,0:0|0:0,0:0:0:0:
281,179,188264,2,0,P|243:146|195:138,1,100,0|8,1:0|0:0,0:0:0:0:
153,165,188770,1,2,0:0:0:0:
61,205,189107,2,0,L|11:214,2,50,0|8|2,1:0|0:0|0:0,0:0:0:0:
82,249,189612,5,0,1:0:0:0:
129,337,189949,1,0,0:0:0:0:
227,317,190287,2,0,L|325:302,1,100,0|2,1:0|1:2,0:0:0:0:
422,276,190961,1,0,1:0:0:0:
376,186,191298,1,0,1:0:0:0:
278,208,191635,2,0,L|160:190,1,100,0|0,1:0|1:0,0:0:0:0:
85,157,192309,6,0,L|75:107,1,50,0|0,1:0|1:0,0:0:0:0:
104,67,192646,1,0,1:0:0:0:
200,91,192983,2,0,L|228:49,1,50,0|0,1:0|1:0,0:0:0:0:
277,43,193320,1,0,1:0:0:0:
360,97,193657,2,0,L|409:87,2,50,0|0|0,1:0|1:0|1:0,0:0:0:0:
341,143,194163,1,0,1:0:0:0:
321,189,194332,2,0,L|271:198,2,50,0|0|8,1:0|1:0|0:0,0:0:0:0:
399,249,195006,5,0,1:0:0:0:
309,290,195343,2,0,P|293:337|287:386,2,89.9999972534181,2|2|2,0:0|0:0|0:0,0:0:0:0:
399,249,196354,1,2,0:0:0:0:
271,172,196860,1,2,0:0:0:0:
227,195,197028,2,0,P|213:209|194:251,2,44.999998626709,2|0|2,0:0|0:0|0:0,0:0:0:0:
183,106,197702,2,0,P|118:120|55:169,1,134.999995880127,2|2,0:0|0:0,0:0:0:0:
457,56,200062,5,2,0:0:0:0:
398,135,200399,2,0,L|345:128,1,44.999998626709,2|2,0:0|0:0,0:0:0:0:
157,98,201242,2,0,L|94:106,2,44.999998626709,2|2|0,0:0|0:0|0:0,0:0:0:0:
202,116,201747,2,0,P|227:169|236:213,1,89.9999972534181,2|2,0:0|0:0,0:0:0:0:
309,263,202422,2,0,P|284:316|256:351,1,89.9999972534181,2|2,0:0|0:0,0:0:0:0:
171,311,203096,2,0,P|92:324|39:348,1,134.999995880127,2|0,0:0|0:0,0:0:0:0:
54,43,205455,6,0,L|107:53,1,44.999998626709,2|0,0:0|0:0,0:0:0:0:
145,66,205792,2,0,B|164:49|164:49|251:48|321:110,1,179.999994506836,4|2,1:2|0:0,0:0:0:0:
468,214,207141,2,0,L|461:307,1,89.9999972534181,2|0,0:0|0:0,0:0:0:0:
374,255,207815,2,0,L|367:348,1,89.9999972534181,2|0,0:0|0:0,0:0:0:0:
283,291,208489,2,0,P|223:315|190:320,1,89.9999972534181,2|0,0:0|0:0,0:0:0:0:
148,316,208995,2,0,P|77:293|25:256,1,134.999995880127,2|0,0:0|0:0,0:0:0:0:
404,380,210848,6,0,L|395:335,1,44.999998626709,2|0,0:0|0:0,0:0:0:0:
385,287,211186,1,4,1:2:0:0:
202,348,211860,1,0,1:0:0:0:
65,204,212534,5,0,1:0:0:0:
251,268,213208,1,0,1:0:0:0:
393,130,213882,5,0,1:0:0:0:
201,181,214556,1,0,1:0:0:0:
54,48,215230,5,0,1:0:0:0:
247,90,215905,1,0,1:0:0:0:
431,19,216579,5,0,1:0:0:0:
448,116,216916,1,0,1:0:0:0:
470,212,217253,1,0,1:0:0:0:
496,307,217590,1,0,1:0:0:0:
399,285,217927,5,0,1:0:0:0:
302,308,218264,1,0,1:0:0:0:
205,331,218601,1,0,1:0:0:0:
108,354,218938,1,0,1:0:0:0:
36,285,219275,6,0,L|43:232,1,44.999998626709,0|0,1:0|1:0,0:0:0:0:
86,217,219613,1,0,1:0:0:0:
51,124,219950,2,0,L|58:71,1,44.999998626709,0|0,1:0|1:0,0:0:0:0:
101,56,220288,1,0,1:0:0:0:
189,100,220624,6,0,L|245:89,2,44.999998626709,0|0|0,1:0|1:0|1:0,0:0:0:0:
216,195,221298,2,0,L|272:184,1,44.999998626709,0|0,1:0|1:0,0:0:0:0:
306,205,221635,1,8,0:0:0:0:
352,223,221804,1,8,0:0:0:0:
398,240,221972,1,0,1:0:0:0:
256,384,222983,5,0,1:0:0:0:
256,384,223320,6,2,L|256:184,1,200,6|2,1:0|0:0,1:0:0:0:
310,100,224331,2,0,P|343:126|354:150,2,50,8|2|0,0:0|0:0|1:0,0:0:0:0:
231,37,225005,1,8,0:0:0:0:
138,73,225343,2,0,P|99:61|59:30,2,75,2|2|2,0:0|0:0|0:0,0:0:0:0:
166,114,226017,6,0,L|175:168,1,50,0|2,1:0|0:0,0:0:0:0:
182,212,226353,1,8,0:0:0:0:
104,274,226690,1,2,0:0:0:0:
154,360,227027,2,0,P|199:379|249:376,1,100,8|0,0:0|1:0,0:0:0:0:
318,304,227702,2,0,B|351:287|351:287|392:295,1,75,8|0,0:0|1:0,0:0:0:0:
397,244,228124,2,0,B|359:238|359:238|334:210,1,75,8|8,0:0|0:0,0:0:0:0:
317,112,228713,6,2,B|288:92|251:105|251:105|228:39|146:33,1,200,0|2,1:0|0:0,1:0:0:0:
104,52,229556,2,0,P|126:95|117:158,1,100,0|2,1:0|0:0,0:0:0:0:
94,186,230061,1,0,1:0:0:0:
12,243,230398,1,0,0:0:0:0:
73,321,230735,1,0,0:0:0:0:
122,313,230904,2,0,L|233:296,1,100,0|2,1:0|0:0,0:0:0:0:
267,316,231409,5,0,1:0:0:0:
357,273,231747,1,8,0:0:0:0:
404,287,231916,2,2,B|432:259|426:227|426:227|413:210|413:210|409:174|444:140,1,150,2|8,0:0|0:0,1:0:0:0:
413,54,232758,2,0,L|496:63,2,75,0|0|0,1:0|1:0|1:0,0:0:0:0:
367,32,233432,2,0,P|338:38|288:98,1,100,0|8,0:0|0:0,0:0:0:0:
250,179,234106,6,2,B|224:202|198:187|198:187|213:134|186:84|136:70,1,200,6|2,1:0|0:0,1:0:0:0:
104,164,235118,2,0,L|95:213,2,50,8|2|0,0:0|0:0|1:0,0:0:0:0:
38,88,235792,1,8,0:0:0:0:
0,177,236129,2,0,L|-20:286,1,100,2|8,0:0|0:0,0:0:0:0:
23,302,236634,1,2,0:0:0:0:
65,328,236803,5,0,1:0:0:0:
162,305,237140,2,0,L|211:297,1,50,8|2,0:0|0:0,0:0:0:0:
247,261,237477,2,0,P|296:267|335:296,1,100,2|8,0:0|0:0,0:0:0:0:
391,379,238151,1,0,1:0:0:0:
443,293,238489,2,0,B|436:255|436:255|454:222,1,75,8|0,0:0|1:0,0:0:0:0:
482,181,238910,2,0,B|499:148|499:148|493:110,1,75,8|8,0:0|0:0,0:0:0:0:
403,66,239499,6,2,B|388:88|394:126|394:126|357:153|300:135|273:95,1,200,0|2,1:0|0:0,1:0:0:0:
229,71,240342,2,0,P|179:70|136:95,1,100,0|2,1:0|0:0,0:0:0:0:
120,143,240848,1,0,1:0:0:0:
28,182,241185,2,0,P|7:151|0:114,2,75,8|8|0,0:0|0:0|1:0,0:0:0:0:
63,217,241859,2,0,L|69:276,1,50,8|2,0:0|0:0,0:0:0:0:
44,310,242196,5,0,1:0:0:0:
170,384,242702,2,8,P|221:358|244:322,1,100,2|0,0:0|1:0,0:0:0:0:
243,273,243208,1,8,0:0:0:0:
331,226,243545,2,0,L|426:240,2,75,0|2|0,1:0|0:0|1:0,0:0:0:0:
298,187,244219,1,0,1:0:0:0:
256,96,244556,6,0,L|256:-8,1,100,8|4,0:0|0:1,0:0:0:0:
256,192,244978,12,0,247590,1:0:0:0:
