osu file format v14

[General]
AudioFilename: audio.mp3
AudioLeadIn: 0
PreviewTime: 65525
Countdown: 0
SampleSet: Soft
StackLeniency: 0.7
Mode: 2
LetterboxInBreaks: 0
WidescreenStoryboard: 1

[Editor]
Bookmarks: 10287,22422,65062,97927,130287,151860,173433,195006,205792,223320,244893,255680,261073,267141,286691
DistanceSpacing: 1
BeatDivisor: 4
GridSize: 16
TimelineZoom: 1.9

[Metadata]
Title:Kimi ga Shinu no o Nagamete Iru yo
TitleUnicode:君が死ぬのを眺めているよ
Artist:Camellia
ArtistUnicode:かめりあ
Creator:Spectator
Version:Sinnoh's Rain
Source:osu!
Tags:Sinnoh i will witness your end electronic japanese featured artist fa mappers' guild mg hatsune miku 初音ミク vocaloid jpop j-pop drum and bass dnb
BeatmapID:2699820
BeatmapSetID:1295992

[Difficulty]
HPDrainRate:6
CircleSize:3.9
OverallDifficulty:9
ApproachRate:9
SliderMultiplier:3
SliderTickRate:1

[Events]
//Background and Video events
0,0,"miku2.jpg",0,0
//Break Periods
2,90037,94968
2,176329,180923
//Storyboard Layer 0 (Background)
//Storyboard Layer 1 (Fail)
//Storyboard Layer 2 (Pass)
//Storyboard Layer 3 (Foreground)
//Storyboard Layer 4 (Overlay)
//Storyboard Sound Samples

[TimingPoints]
849,337.078651685393,4,2,1,90,1,0
10287,-142.857142857143,4,2,1,30,0,0
10624,-142.857142857143,4,2,1,35,0,0
10961,-142.857142857143,4,2,1,40,0,0
11635,-142.857142857143,4,2,1,50,0,0
17028,-142.857142857143,4,2,1,55,0,0
18377,-142.857142857143,4,2,1,60,0,0
19725,-117.647058823529,4,2,1,65,0,0
20399,-117.647058823529,4,2,1,70,0,0
21747,-117.647058823529,4,2,1,80,0,0
22422,-64.5161290322581,4,2,1,90,0,0
22759,-64.5161290322581,4,2,1,90,0,0
22843,-64.5161290322581,4,2,1,90,0,0
23096,-117.647058823529,4,2,1,90,0,0
27815,-64.5161290322581,4,2,1,90,0,0
28152,-64.5161290322581,4,2,1,90,0,0
28236,-117.647058823529,4,2,1,90,0,0
28657,-117.647058823529,4,2,1,90,0,0
33208,-64.5161290322581,4,2,1,90,0,0
33545,-64.5161290322581,4,2,1,90,0,0
33629,-64.5161290322581,4,2,1,90,0,0
34051,-117.647058823529,4,2,1,90,0,0
38601,-64.5161290322581,4,2,1,90,0,0
38938,-64.5161290322581,4,2,1,90,0,0
39022,-64.5161290322581,4,2,1,90,0,0
39613,-117.647058823529,4,2,1,90,0,0
43995,-64.5161290322581,4,2,1,90,0,0
44332,-64.5161290322581,4,2,1,90,0,0
44416,-117.647058823529,4,2,1,90,0,0
44837,-125,4,2,1,90,0,0
46691,-125,4,2,1,80,0,0
47028,-125,4,2,1,70,0,0
47365,-125,4,2,1,60,0,0
47702,-125,4,2,1,90,0,0
54781,-64.5161290322581,4,2,1,90,0,0
55118,-64.5161290322581,4,2,1,90,0,0
55202,-64.5161290322581,4,2,1,90,0,0
55623,-125,4,2,1,90,0,0
57478,-125,4,2,1,80,0,0
57815,-125,4,2,1,70,0,0
58152,-125,4,2,1,60,0,0
58489,-125,4,2,1,90,0,0
60174,-125,4,2,1,90,0,0
62871,-111.111111111111,4,2,1,90,0,0
63545,-100,4,2,1,90,0,0
65568,-64.5161290322581,4,2,1,90,0,1
65652,-64.5161290322581,4,2,1,90,0,0
65905,-64.5161290322581,4,2,1,90,0,0
65989,-64.5161290322581,4,2,1,90,0,0
66410,-117.647058823529,4,2,1,90,0,0
70961,-64.5161290322581,4,2,1,90,0,0
71298,-64.5161290322581,4,2,1,90,0,0
71382,-64.5161290322581,4,2,1,90,0,0
71972,-117.647058823529,4,2,1,90,0,0
76354,-64.5161290322581,4,2,1,90,0,0
76691,-64.5161290322581,4,2,1,90,0,0
76775,-64.5161290322581,4,2,1,90,0,0
77196,-117.647058823529,4,2,1,90,0,0
81747,-64.5161290322581,4,2,1,90,0,0
82084,-64.5161290322581,4,2,1,90,0,0
82168,-64.5161290322581,4,2,1,90,0,0
82590,-117.647058823529,4,2,1,90,0,0
87141,-117.647058823529,4,2,1,90,0,1
87225,-117.647058823529,4,2,1,75,0,0
87815,-117.647058823529,4,2,1,70,0,0
88489,-117.647058823529,4,2,1,65,0,0
89163,-117.647058823529,4,2,1,60,0,0
95736,-64.5161290322581,4,2,1,60,0,0
95905,-117.647058823529,4,2,1,60,0,0
97927,-64.5161290322581,4,2,1,90,0,0
98264,-64.5161290322581,4,2,1,90,0,0
98348,-64.5161290322581,4,2,1,90,0,0
98601,-117.647058823529,4,2,1,90,0,0
103320,-64.5161290322581,4,2,1,90,0,0
103657,-64.5161290322581,4,2,1,90,0,0
103741,-64.5161290322581,4,2,1,90,0,0
103995,-117.647058823529,4,2,1,90,0,0
106691,-105.263157894737,4,2,1,90,0,0
108714,-64.5161290322581,4,2,1,80,0,0
111410,-64.5161290322581,4,2,1,70,0,0
113264,-125,4,2,1,70,0,0
113433,-64.5161290322581,4,2,1,70,0,0
114107,-64.5161290322581,4,2,1,70,0,0
116635,-64.5161290322581,4,2,1,70,0,0
118152,-52.6315789473684,4,2,1,70,0,0
118657,-100,4,2,1,70,0,0
118826,-52.6315789473684,4,2,1,60,0,0
119163,-52.6315789473684,4,2,1,70,0,0
119500,-64.5161290322581,4,2,1,70,0,0
120427,-142.857142857143,4,2,1,70,0,0
124893,-40,4,2,1,90,0,0
125736,-125,4,2,1,70,0,0
130287,-62.5,4,2,1,90,0,0
130624,-64.5161290322581,4,2,1,90,0,0
130708,-64.5161290322581,4,2,1,90,0,0
131129,-125,4,2,1,90,0,0
132983,-125,4,2,1,80,0,0
133320,-125,4,2,1,70,0,0
133657,-125,4,2,1,60,0,0
133995,-125,4,2,1,90,0,0
141073,-64.5161290322581,4,2,1,90,0,0
141410,-64.5161290322581,4,2,1,90,0,0
141494,-64.5161290322581,4,2,1,90,0,0
141747,-125,4,2,1,90,0,0
143770,-125,4,2,1,80,0,0
144107,-125,4,2,1,70,0,0
144444,-125,4,2,1,60,0,0
144782,-125,4,2,1,90,0,0
151017,-125,4,2,1,80,0,0
151523,-125,4,2,1,90,0,0
151860,-62.5,4,2,1,90,0,1
151944,-62.5,4,2,1,90,0,0
152197,-64.5161290322581,4,2,1,90,0,0
152281,-64.5161290322581,4,2,1,90,0,0
152534,-117.647058823529,4,2,1,90,0,0
157253,-62.5,4,2,1,90,0,0
157590,-64.5161290322581,4,2,1,90,0,0
157674,-64.5161290322581,4,2,1,90,0,0
157927,-117.647058823529,4,2,1,90,0,0
162646,-64.5161290322581,4,2,1,90,0,0
162983,-64.5161290322581,4,2,1,90,0,0
163067,-64.5161290322581,4,2,1,90,0,0
163320,-117.647058823529,4,2,1,90,0,0
168040,-64.5161290322581,4,2,1,90,0,0
168377,-64.5161290322581,4,2,1,90,0,0
168461,-64.5161290322581,4,2,1,90,0,0
168714,-117.647058823529,4,2,1,90,0,0
173433,-117.647058823529,4,2,1,90,0,1
173517,-117.647058823529,4,2,1,75,0,0
174107,-117.647058823529,4,2,1,70,0,0
174781,-117.647058823529,4,2,1,65,0,0
175455,-117.647058823529,4,2,1,60,0,0
182028,-62.5,4,2,1,90,0,0
182365,-117.647058823529,4,2,1,90,0,0
184219,-64.5161290322581,4,2,1,90,0,0
184556,-64.5161290322581,4,2,1,90,0,0
184640,-64.5161290322581,4,2,1,90,0,0
184893,-117.647058823529,4,2,1,90,0,0
189613,-125,4,2,1,90,0,0
189950,-125,4,2,1,90,0,0
190034,-125,4,2,1,90,0,0
190455,-117.647058823529,4,2,1,90,0,0
191635,-105.263157894737,4,2,1,90,0,0
192983,-95.2380952380952,4,2,1,90,0,0
195006,-133.333333333333,4,2,1,70,0,0
205792,-125,4,2,1,60,0,0
211186,-125,4,2,1,65,0,0
213882,-125,4,2,1,70,0,0
216579,-125,4,2,1,75,0,0
217927,-125,4,2,1,80,0,0
219275,-111.111111111111,4,2,1,85,0,0
219950,-100,4,2,1,85,0,0
223320,-64.5161290322581,4,2,1,90,0,1
223405,-64.5161290322581,4,2,1,90,0,0
223657,-64.5161290322581,4,2,1,90,0,0
223741,-64.5161290322581,4,2,1,90,0,0
223995,-117.647058823529,4,2,1,90,0,0
228714,-64.5161290322581,4,2,1,90,0,0
229051,-64.5161290322581,4,2,1,90,0,0
229135,-64.5161290322581,4,2,1,90,0,0
229388,-117.647058823529,4,2,1,90,0,0
234107,-64.5161290322581,4,2,1,90,0,0
234444,-64.5161290322581,4,2,1,90,0,0
234528,-64.5161290322581,4,2,1,90,0,0
234781,-117.647058823529,4,2,1,90,0,0
239500,-62.5,4,2,1,90,0,0
239837,-64.5161290322581,4,2,1,90,0,0
239921,-64.5161290322581,4,2,1,90,0,0
240174,-117.647058823529,4,2,1,90,0,0
242197,-100,4,2,1,90,0,0
242534,-100,4,2,1,90,0,0
242618,-100,4,2,1,90,0,0
243040,-117.647058823529,4,2,1,90,0,0
244893,-125,4,2,1,90,0,1
244978,-43.4782608695652,4,2,1,80,0,0
245568,-125,4,2,1,75,0,0
246242,-125,4,2,1,70,0,0
246916,-125,4,2,1,65,0,0
247590,-125,4,2,1,90,0,0
250624,-64.5161290322581,4,2,1,90,0,0
250708,-64.5161290322581,4,2,1,90,0,0
251129,-125,4,2,1,90,0,0
253489,-66.6666666666667,4,2,1,90,0,0
253826,-125,4,2,1,90,0,0
256017,-125,4,2,1,90,0,0
256101,-125,4,2,1,90,0,0
256691,-125,4,2,1,90,0,0
261410,-125,4,2,1,90,0,0
261494,-125,4,2,1,90,0,0
262084,-125,4,2,1,90,0,0
263770,-105.263157894737,4,2,1,90,0,0
264444,-95.2380952380952,4,2,1,90,0,0
266466,-66.6666666666667,4,2,1,100,0,1
266804,-64.5161290322581,4,2,1,100,0,0
266888,-64.5161290322581,4,2,1,100,0,0
267141,-117.647058823529,4,2,1,100,0,0
267309,-125,4,2,1,70,0,0
271860,-64.5161290322581,4,2,1,70,0,0
272197,-76.9230769230769,4,2,1,70,0,0
272281,-76.9230769230769,4,2,1,70,0,0
272534,-125,4,2,1,70,0,0
277253,-64.5161290322581,4,2,1,70,0,0
277506,-125,4,2,1,70,0,0
277590,-125,4,2,1,70,0,0
277674,-125,4,2,1,70,0,0
282646,-90.9090909090909,4,2,1,70,0,0
282983,-90.9090909090909,4,2,1,70,0,0
283068,-90.9090909090909,4,2,1,70,0,0
283489,-125,4,2,1,70,0,0

[Colours]
Combo1 : 74,186,189
Combo2 : 90,239,191
Combo3 : 89,138,213

[HitObjects]
302,356,11635,6,0,L|305:19,1,314.999990386963,4|2,0:0|0:0,0:0:0:0:
160,136,12309,1,0,0:0:0:0:
272,209,12477,2,0,L|352:87,2,104.999996795654,0|2|0,0:0|0:0|0:0,0:0:0:0:
142,240,12983,5,2,0:0:0:0:
274,199,13152,2,0,L|333:186,1,52.4999983978272
252,158,13320,2,0,L|248:78,1,52.4999983978272,2|0,0:0|0:0,0:0:0:0:
317,75,13489,2,0,L|371:62,1,52.4999983978272
332,257,13657,2,0,L|143:233,1,157.499995193482,2|2,0:0|0:0,0:0:0:0:
231,200,13995,1,0,0:0:0:0:
294,183,14079,2,0,L|364:171,1,52.4999983978272,0|2,0:0|0:0,0:0:0:0:
226,95,14332,5,2,0:0:0:0:
345,113,14500,2,0,L|347:36,1,52.4999983978272
189,168,14837,1,0,0:0:0:0:
348,227,15006,1,2,0:0:0:0:
220,286,15174,2,0,L|214:146,1,104.999996795654,2|0,0:0|0:0,0:0:0:0:
329,142,15511,2,0,L|399:132,1,52.4999983978272,2|0,0:0|0:0,0:0:0:0:
313,75,15680,6,0,L|166:78,1,104.999996795654,0|0,3:0|0:0,0:0:0:0:
161,78,15933,1,0,0:0:0:0:
269,269,16101,1,0,0:0:0:0:
291,223,16185,1,0,0:0:0:0:
275,174,16269,1,0,0:0:0:0:
230,150,16354,2,0,L|52:111,1,157.499995193482,2|2,0:0|0:0,0:0:0:0:
233,248,16860,2,0,L|332:242,1,52.4999983978272,2|0,0:0|0:0,0:0:0:0:
106,228,17028,6,0,L|93:112,1,104.999996795654,4|2,3:2|0:0,0:0:0:0:
229,199,17365,2,0,L|234:67,1,104.999996795654,0|2,3:0|0:0,0:0:0:0:
384,193,17702,1,2,3:0:0:0:
408,130,17814,1,2,0:0:0:0:
374,71,17926,1,2,0:0:0:0:
307,62,18040,2,0,L|191:83,1,104.999996795654,2|2,2:0|0:0,0:0:0:0:
470,294,18377,6,0,L|481:157,1,104.999996795654,4|2,3:2|0:0,0:0:0:0:
338,200,18714,2,0,L|339:88,1,104.999996795654,0|2,3:0|0:0,0:0:0:0:
206,236,19050,2,0,B|162:191|162:191|182:127,1,104.999996795654,2|0,0:0|0:0,0:0:0:0:
316,219,19388,2,0,L|428:159,1,104.999996795654,2|0,0:0|0:0,0:0:0:0:
148,341,19725,5,2,0:0:0:0:
67,247,19893,1,0,3:0:0:0:
93,127,20062,1,0,3:0:0:0:
204,75,20230,1,0,3:0:0:0:
373,331,20399,1,2,0:0:0:0:
454,237,20567,1,0,3:0:0:0:
428,117,20736,1,0,3:0:0:0:
317,65,20904,1,0,3:0:0:0:
169,297,21073,5,2,2:0:0:0:
145,239,21157,1,0,3:0:0:0:
173,185,21241,1,0,3:0:0:0:
233,171,21325,1,0,3:0:0:0:
295,130,21410,1,0,3:0:0:0:
231,124,21494,1,0,3:0:0:0:
167,119,21578,1,0,3:0:0:0:
104,114,21662,1,0,3:0:0:0:
37,72,21747,1,2,2:0:0:0:
100,66,21831,1,0,3:0:0:0:
164,61,21915,1,2,3:0:0:0:
227,56,21999,1,2,3:0:0:0:
407,196,22084,1,8,0:0:0:0:
456,286,22422,6,0,L|7:46,1,465.000003547668,4|8,1:1|0:0,0:0:0:0:
236,227,23011,1,0,0:0:0:0:
245,165,23096,2,0,L|65:125,1,127.50000243187,2|0,0:0|3:0,0:0:0:0:
246,80,23433,2,0,L|386:84,1,127.50000243187,8|0,0:0|0:0,0:0:0:0:
135,290,23770,6,0,P|60:211|153:121,1,255.000004863739,2|8,3:0|0:0,0:0:0:0:
319,209,24360,2,0,L|321:146,1,63.7500012159348,8|0,0:0|0:0,0:0:0:0:
182,130,24613,1,0,3:0:0:0:
317,90,24781,2,0,L|485:113,1,127.50000243187,8|0,0:0|0:0,0:0:0:0:
139,260,25118,6,0,L|407:224,2,255.000004863739,2|8|0,3:0|0:0|0:0,0:0:0:0:
269,163,25961,1,2,3:0:0:0:
133,191,26129,2,0,L|125:19,1,127.50000243187,10|2,0:0|0:0,0:0:0:0:
272,129,26466,6,0,L|24:-13,1,255.000004863739,2|8,3:0|0:0,0:0:0:0:
159,260,26972,2,0,L|159:178,1,63.7500012159348,2|0,0:0|0:0,0:0:0:0:
53,117,27225,2,0,L|126:109,1,63.7500012159348,8|2,0:0|3:0,0:0:0:0:
264,82,27477,2,0,L|127:73,1,127.50000243187,10|2,0:0|0:0,0:0:0:0:
56,286,27815,6,0,L|505:46,2,465.000003547668,4|8|0,1:0|0:0|0:0,0:0:0:0:
186,55,28657,1,2,3:0:0:0:
235,170,28826,1,10,0:0:0:0:
187,284,28994,1,2,0:0:0:0:
72,330,29163,6,0,P|80:228|237:148,1,255.000004863739,2|10,3:0|0:0,0:0:0:0:
349,189,29669,1,2,0:0:0:0:
347,125,29753,1,8,0:0:0:0:
345,61,29837,1,2,0:0:0:0:
194,193,30006,2,0,L|207:61,1,127.50000243187,0|10,3:0|0:0,0:0:0:0:
351,118,30343,1,2,0:0:0:0:
95,251,30511,6,0,P|78:178|229:92,1,255.000004863739,0|10,3:0|0:0,0:0:0:0:
368,199,31101,1,0,0:0:0:0:
306,186,31186,2,0,L|174:156,1,127.50000243187,0|0,0:0|3:0,0:0:0:0:
312,255,31523,1,8,0:0:0:0:
342,200,31607,1,0,0:0:0:0:
331,138,31691,1,2,0:0:0:0:
284,96,31775,1,0,0:0:0:0:
222,93,31860,6,0,L|357:67,2,127.50000243187,0|2|8,3:0|0:0|0:0,0:0:0:0:
105,219,32365,2,0,L|106:134,1,63.7500012159348,2|2,3:0|3:0,0:0:0:0:
351,229,32618,2,0,L|358:147,1,63.7500012159348,10|2,0:0|3:0,0:0:0:0:
105,155,32871,2,0,L|104:85,1,63.7500012159348,10|10,0:0|0:0,0:0:0:0:
445,122,33124,1,2,3:0:0:0:
448,63,33208,6,0,L|37:282,1,465.000003547668,4|8,1:1|0:0,0:0:0:0:
258,301,33798,1,0,0:0:0:0:
312,290,33882,2,0,L|314:46,1,232.500001773834,2|0,0:0|3:0,0:0:0:0:
191,114,34219,2,0,L|331:56,1,127.50000243187,8|0,0:0|0:0,0:0:0:0:
44,240,34556,6,0,L|320:157,1,255.000004863739,2|8,3:0|0:0,0:0:0:0:
127,166,35146,2,0,L|119:79,1,63.7500012159348,8|0,0:0|0:0,0:0:0:0:
261,204,35399,2,0,L|268:51,1,127.50000243187,0|8,3:0|0:0,0:0:0:0:
151,113,35736,2,0,L|77:67,1,63.7500012159348
335,304,35905,6,0,P|391:246|279:125,1,255.000004863739,2|8,3:0|0:0,0:0:0:0:
160,205,36411,2,0,L|140:50,1,127.50000243187,2|0,0:0|0:0,0:0:0:0:
290,189,36747,2,0,L|296:12,1,127.50000243187,2|8,3:0|0:0,0:0:0:0:
148,45,37084,1,2,0:0:0:0:
417,310,37253,5,2,3:0:0:0:
286,293,37422,2,0,L|286:140,1,127.50000243187,2|8,0:0|0:0,0:0:0:0:
430,226,37759,1,2,0:0:0:0:
475,182,37843,1,0,0:0:0:0:
483,120,37927,1,0,0:0:0:0:
452,66,38011,1,8,0:0:0:0:
394,42,38096,1,0,3:0:0:0:
288,133,38264,2,0,L|275:46,2,63.7500012159348,10|0|2,0:0|0:0|0:0,0:0:0:0:
413,296,38601,6,0,L|11:45,2,465.000003547668,4|8|0,1:0|0:0|0:0,0:0:0:0:
250,301,39444,2,0,L|180:64,2,232.500001773834,2|10|2,3:0|0:0|0:0,0:0:0:0:
480,233,39950,6,0,P|476:144|340:72,1,255.000004863739,2|10,3:0|0:0,0:0:0:0:
174,217,40540,2,0,L|167:135,1,63.7500012159348,8|2,0:0|2:0,0:0:0:0:
318,140,40793,1,0,3:0:0:0:
176,95,40961,2,0,L|34:61,1,127.50000243187,10|2,0:0|0:0,0:0:0:0:
213,191,41298,6,0,L|474:237,1,255.000004863739,0|10,3:0|0:0,0:0:0:0:
309,311,41804,2,0,L|285:153,1,127.50000243187,2|0,0:0|0:0,0:0:0:0:
421,146,42141,1,0,3:0:0:0:
284,102,42309,6,0,L|4:54,2,255.000004863739,8|0|8,0:0|3:0|0:0,0:0:0:0:
409,169,43152,2,0,L|420:116,3,42.5000008106232,0|0|0|0,3:0|0:0|0:0|3:0,0:0:0:0:
221,201,43405,2,0,L|128:168,1,63.7500012159348,8|0,0:0|3:0,0:0:0:0:
303,152,43573,1,8,0:0:0:0:
320,92,43657,1,10,0:0:0:0:
288,39,43741,1,8,0:0:0:0:
227,26,43825,1,8,0:0:0:0:
95,83,43995,6,0,L|495:321,1,465.000003547668,4|8,1:0|0:0,0:0:0:0:
310,357,44584,1,0,0:0:0:0:
260,318,44668,1,0,0:0:0:0:
240,258,44752,1,0,2:0:0:0:
255,197,44836,1,2,3:0:0:0:
301,154,44921,1,0,0:0:0:0:
363,143,45005,1,10,0:0:0:0:
486,183,45174,1,2,0:0:0:0:
359,347,45343,6,0,L|344:210,1,120,2|2,3:0|0:0,0:0:0:0:
204,198,45680,1,10,0:0:0:0:
341,175,45848,2,0,L|348:82,1,60,2|8,0:0|0:0,0:0:0:0:
280,108,46017,2,0,L|129:53,1,120,2|2,0:0|3:0,0:0:0:0:
280,213,46354,2,0,L|411:245,1,120,10|0,0:0|0:0,0:0:0:0:
121,283,46691,5,2,0:0:0:0:
94,230,46775,1,2,0:0:0:0:
101,171,46859,1,2,0:0:0:0:
139,125,46943,1,2,0:0:0:0:
217,128,47028,2,0,L|237:38,3,60,10|2|2|2,0:0|0:0|0:0|0:0,0:0:0:0:
159,92,47365,2,0,L|24:30,1,120,2|2,0:0|3:0,0:0:0:0:
165,194,47702,6,0,L|305:246,1,120,10|0,0:0|0:0,0:0:0:0:
42,218,48040,2,0,L|154:259,2,120,2|2|10,3:0|0:0|0:0,0:0:0:0:
174,286,48545,2,0,L|247:239,1,60,2|8,0:0|0:0,0:0:0:0:
338,98,48798,2,0,L|265:145,1,60,0|2,0:0|3:0,0:0:0:0:
162,203,49051,2,0,L|166:80,1,120,10|0,0:0|0:0,0:0:0:0:
447,217,49388,6,0,L|165:177,1,240,0|8,3:0|0:0,0:0:0:0:
335,111,49893,1,0,0:0:0:0:
82,252,50062,2,0,L|71:94,1,120,2|0,0:0|0:0,0:0:0:0:
227,166,50399,2,0,L|233:29,1,120,10|0,0:0|0:0,0:0:0:0:
80,172,50736,6,0,L|373:188,1,240,2|8,3:0|0:0,0:0:0:0:
198,278,51242,2,0,L|180:183,1,60,0|8,0:0|0:0,0:0:0:0:
249,185,51410,2,0,L|416:170,1,120,2|0,0:0|3:0,0:0:0:0:
247,108,51747,2,0,L|90:111,1,120,10|0,0:0|0:0,0:0:0:0:
431,236,52084,6,0,L|171:207,2,240,2|8|2,3:0|0:0|0:0,0:0:0:0:
307,305,52927,1,0,3:0:0:0:
433,290,53096,1,8,0:0:0:0:
200,227,53264,2,0,L|130:214,1,60,2|0,0:0|0:0,0:0:0:0:
208,260,53433,6,0,P|335:209|300:96,1,240,2|8,3:0|0:0,0:0:0:0:
192,99,53938,2,0,L|183:26,1,60,0|0,3:0|0:0,0:0:0:0:
451,47,54191,2,0,L|476:146,1,60,8|0,0:0|0:0,0:0:0:0:
309,270,54360,1,8,0:0:0:0:
262,236,54444,1,8,0:0:0:0:
266,179,54528,1,8,0:0:0:0:
317,152,54612,1,8,0:0:0:0:
451,281,54781,6,0,L|13:57,2,465.000003547668,4|8|0,1:0|0:0|0:0,0:0:0:0:
322,312,55624,2,0,L|305:147,1,120,2|10,3:0|0:0,0:0:0:0:
432,138,55961,6,0,L|168:128,1,240,2|2,0:0|0:0,0:0:0:0:
334,233,56466,1,10,0:0:0:0:
191,257,56635,2,0,L|176:157,2,60,2|8|2,0:0|0:0|0:0,0:0:0:0:
330,241,56972,1,2,3:0:0:0:
214,249,57141,2,0,L|63:217,1,120,10|0,2:0|0:0,0:0:0:0:
407,312,57478,5,2,0:0:0:0:
428,257,57562,1,2,0:0:0:0:
411,201,57646,1,2,0:0:0:0:
362,168,57730,1,2,0:0:0:0:
303,175,57815,2,0,L|207:176,1,60,10|2,0:0|0:0,0:0:0:0:
308,97,57983,2,0,L|367:103,1,60,2|2,0:0|0:0,0:0:0:0:
292,280,58152,2,0,L|270:115,1,120,2|2,0:0|3:0,0:0:0:0:
439,211,58489,2,0,L|445:63,1,120,8|0,0:0|0:0,0:0:0:0:
138,151,58826,6,0,L|292:141,2,120,2|2|10,3:0|0:0|0:0,0:0:0:0:
276,226,59332,2,0,L|282:150,1,60,2|8,0:0|0:0,0:0:0:0:
45,137,59584,2,0,L|44:57,1,60,0|2,0:0|3:0,0:0:0:0:
182,230,59837,2,0,L|187:79,1,120,10|0,0:0|0:0,0:0:0:0:
466,269,60174,6,0,P|496:197|350:117,1,240,2|0,2:0|3:0,0:0:0:0:
168,254,60848,2,0,P|138:182|284:102,1,240,0|0,3:0|3:0,0:0:0:0:
360,182,61354,1,0,3:0:0:0:
89,321,61523,6,0,L|79:51,1,240,2|0,0:0|3:0,0:0:0:0:
347,310,62197,2,0,L|365:38,1,240,0|0,3:0|3:0,0:0:0:0:
227,95,62702,1,0,3:0:0:0:
467,206,62871,6,0,L|296:173,3,134.999995880127,2|0|0|0,0:0|3:0|3:0|3:0,0:0:0:0:
192,177,63545,2,0,L|45:206,3,150,2|0|0|0,2:0|3:0|3:0|3:0,0:0:0:0:
197,309,64219,5,2,2:2:0:0:
246,256,64303,1,0,3:0:0:0:
230,186,64387,1,0,3:0:0:0:
163,161,64471,1,0,3:0:0:0:
87,159,64556,1,0,3:0:0:0:
152,143,64640,1,0,3:0:0:0:
218,129,64724,1,0,3:0:0:0:
284,114,64808,1,0,3:0:0:0:
347,97,64893,1,2,2:2:0:0:
279,94,64977,1,0,3:0:0:0:
212,91,65061,1,0,3:0:0:0:
144,88,65145,1,0,3:0:0:0:
202,225,65231,2,0,L|191:45,1,150,8|0,2:2|0:0,0:0:0:0:
39,104,65568,6,0,L|455:334,2,465.000003547668,4|8|0,1:0|0:0|0:0,0:0:0:0:
186,290,66411,1,0,3:0:0:0:
49,290,66579,2,0,L|46:115,1,127.50000243187,10|2,0:0|0:0,0:0:0:0:
190,163,66916,6,0,L|466:100,1,255.000004863739,2|8,3:0|0:0,0:0:0:0:
271,225,67506,2,0,L|257:117,1,63.7500012159348,8|2,0:0|0:0,0:0:0:0:
375,141,67759,1,2,3:0:0:0:
234,96,67927,2,0,L|92:149,1,127.50000243187,8|0,0:0|0:0,0:0:0:0:
359,276,68264,6,0,L|485:189,1,127.50000243187,0|0,3:0|0:0,0:0:0:0:
329,180,68601,1,10,0:0:0:0:
452,137,68770,1,2,0:0:0:0:
303,202,68938,2,0,L|289:47,1,127.50000243187,2|0,0:0|3:0,0:0:0:0:
468,231,69275,2,0,L|477:99,1,127.50000243187,10|0,0:0|0:0,0:0:0:0:
180,275,69613,5,2,3:0:0:0:
327,255,69781,1,2,0:0:0:0:
182,223,69950,1,10,0:0:0:0:
318,212,70118,1,2,0:0:0:0:
319,148,70202,1,0,0:0:0:0:
321,84,70286,1,2,0:0:0:0:
167,99,70371,2,0,L|75:86,1,63.7500012159348,8|2,0:0|3:0,0:0:0:0:
227,215,70624,2,0,L|195:74,1,127.50000243187,10|2,0:0|0:0,0:0:0:0:
56,67,70961,6,8,L|479:323,1,465.000003547668,4|8,1:0|0:0,0:0:0:0:
176,283,71635,1,2,0:0:0:0:
315,272,71804,2,0,L|296:-11,1,232.500001773834,2|8,3:0|0:0,0:0:0:0:
165,52,72141,1,2,0:0:0:0:
426,227,72309,6,0,L|127:235,1,255.000004863739,0|8,3:0|0:0,0:0:0:0:
298,186,72815,2,0,L|306:81,1,63.7500012159348,2|8,0:0|0:0,0:0:0:0:
107,284,72983,1,2,0:0:0:0:
82,163,73151,1,2,3:0:0:0:
162,68,73320,1,8,0:0:0:0:
285,71,73488,1,2,0:0:0:0:
50,257,73657,6,0,L|354:223,1,255.000004863739,2|10,3:0|0:0,0:0:0:0:
65,262,74163,2,0,L|53:83,1,127.50000243187,2|0,0:0|0:0,0:0:0:0:
202,194,74500,2,0,L|214:16,1,127.50000243187,2|8,3:0|0:0,0:0:0:0:
76,64,74837,2,0,L|9:2,1,63.7500012159348,2|0,0:0|0:0,0:0:0:0:
258,297,75006,6,0,P|340:245|339:130,1,191.250003647804,2|2,3:0|0:0,0:0:0:0:
305,108,75343,1,8,0:0:0:0:
168,118,75511,2,0,L|110:69,1,63.7500012159348,2|0,0:0|0:0,0:0:0:0:
388,192,75764,2,0,L|442:129,1,63.7500012159348,8|0,0:0|3:0,0:0:0:0:
225,211,75933,2,0,L|175:149,2,63.7500012159348,8|10|10,0:0|0:0|0:0,0:0:0:0:
288,221,76186,1,10,0:0:0:0:
432,293,76354,6,0,L|22:56,2,465.000003547668,4|8|0,1:0|0:0|0:0,0:0:0:0:
311,272,77197,1,0,3:0:0:0:
177,286,77365,2,0,L|183:118,1,127.50000243187,10|2,0:0|0:0,0:0:0:0:
458,249,77702,6,0,P|465:180|319:93,1,255.000004863739,2|8,3:0|0:0,0:0:0:0:
139,258,78292,1,8,0:0:0:0:
130,192,78377,1,2,0:0:0:0:
254,170,78545,1,2,3:0:0:0:
379,194,78714,2,0,L|382:49,1,127.50000243187,10|0,0:0|0:0,0:0:0:0:
90,270,79051,6,0,L|81:94,1,127.50000243187,0|0,3:0|0:0,0:0:0:0:
234,126,79388,1,10,0:0:0:0:
86,106,79556,1,2,0:0:0:0:
243,251,79725,2,0,L|249:70,1,127.50000243187,2|0,0:0|3:0,0:0:0:0:
426,264,80062,2,0,L|418:94,1,127.50000243187,10|2,0:0|0:0,0:0:0:0:
169,204,80399,6,0,L|318:178,2,127.50000243187,2|2|8,3:0|0:0|0:0,0:0:0:0:
39,218,80905,2,0,L|39:129,1,63.7500012159348,2|0,0:0|0:0,0:0:0:0:
219,120,81073,1,0,0:0:0:0:
280,104,81157,1,8,0:0:0:0:
342,89,81241,1,0,3:0:0:0:
211,199,81410,2,0,L|341:288,1,127.50000243187,10|2,0:0|2:0,0:0:0:0:
460,304,81747,6,0,L|34:76,1,465.000003547668,4|8,1:0|0:0,0:0:0:0:
255,307,82337,1,0,0:0:0:0:
295,253,82422,2,0,L|154:7,2,232.500001773834,2|2|8,0:0|3:0|0:0,0:0:0:0:
426,288,82927,1,2,0:0:0:0:
162,299,83096,6,0,P|88:215|195:133,1,255.000004863739,0|8,3:0|0:0,0:0:0:0:
307,170,83601,2,0,L|321:74,1,63.7500012159348,0|8,0:0|0:0,0:0:0:0:
234,104,83770,2,0,L|96:154,1,127.50000243187,2|0,0:0|3:0,0:0:0:0:
235,262,84107,1,10,0:0:0:0:
110,219,84275,1,2,0:0:0:0:
402,343,84444,6,0,L|374:72,1,255.000004863739,2|8,3:0|0:0,0:0:0:0:
231,82,84950,1,2,0:0:0:0:
490,103,85118,1,2,0:0:0:0:
355,284,85287,2,0,L|338:126,1,127.50000243187,2|8,3:0|0:0,0:0:0:0:
211,161,85624,2,0,L|183:68,1,63.7500012159348,2|0,0:0|0:0,0:0:0:0:
353,85,85792,6,0,L|488:130,2,127.50000243187,2|0|10,3:0|0:0|0:0,0:0:0:0:
218,243,86298,2,0,L|190:164,1,63.7500012159348,2|0,0:0|0:0,0:0:0:0:
349,138,86466,2,0,L|434:111,2,63.7500012159348,0|8|0,0:0|0:0|3:0,0:0:0:0:
198,167,86719,2,0,L|137:132,2,63.7500012159348,8|10|8,0:0|0:0|0:0,0:0:0:0:
353,86,86972,2,0,L|433:58,1,63.7500012159348,8|0,0:0|0:0,0:0:0:0:
171,213,87141,5,0,1:2:0:0:
256,192,87309,12,0,89837,0:0:0:0:
176,282,95568,5,8,0:0:0:0:
418,328,95736,2,0,P|480:204|305:-32,1,465.000003547668,0|2,1:0|0:0,0:0:0:0:
185,261,96242,2,0,L|172:142,1,63.7500012159348,8|0,0:0|0:0,0:0:0:0:
249,189,96410,2,0,L|236:70,1,63.7500012159348
91,299,96579,5,0,1:0:0:0:
64,265,96635,1,0,0:0:0:0:
54,224,96691,1,0,0:0:0:0:
62,183,96747,1,2,0:0:0:0:
86,148,96803,1,0,0:0:0:0:
123,127,96859,1,0,0:0:0:0:
164,122,96916,1,8,0:0:0:0:
302,188,97084,2,0,L|308:85,1,63.7500012159348,0|0,3:0|3:0,0:0:0:0:
74,154,97337,2,0,L|82:65,1,63.7500012159348,0|8,3:0|0:0,0:0:0:0:
258,217,97506,1,8,0:0:0:0:
276,157,97590,1,8,0:0:0:0:
250,100,97674,1,8,0:0:0:0:
193,75,97758,1,8,0:0:0:0:
79,90,97927,6,0,L|489:331,1,465.000003547668,4|8,1:0|0:0,0:0:0:0:
312,340,98433,2,0,L|300:104,1,232.500001773834,0|2,0:0|0:0,0:0:0:0:
456,195,98770,2,0,L|465:94,1,63.7500012159348,0|0,3:0|0:0,0:0:0:0:
388,130,98938,2,0,L|386:34,1,63.7500012159348,10|0,0:0|0:0,0:0:0:0:
316,140,99107,2,0,L|302:36,1,63.7500012159348,2|0,0:0|0:0,0:0:0:0:
382,61,99275,5,2,3:0:0:0:
277,267,99444,1,0,0:0:0:0:
260,205,99528,1,0,0:0:0:0:
276,193,99613,1,0,0:0:0:0:
332,163,99697,1,0,0:0:0:0:
152,237,99781,2,0,L|136:170,1,63.7500012159348,2|8,0:0|0:0,0:0:0:0:
207,139,99950,1,0,0:0:0:0:
349,148,100118,1,2,3:0:0:0:
225,332,100287,1,10,0:0:0:0:
221,268,100371,1,2,0:0:0:0:
218,204,100455,1,0,0:0:0:0:
215,140,100539,1,0,0:0:0:0:
390,209,100624,6,0,L|400:43,1,127.50000243187,0|2,3:0|0:0,0:0:0:0:
264,182,100961,2,0,L|521:71,1,255.000004863739,8|2,0:0|0:0,0:0:0:0:
401,242,101466,2,0,L|255:249,1,127.50000243187,2|8,3:0|0:0,0:0:0:0:
408,171,101804,2,0,L|413:84,1,63.7500012159348,2|0,0:0|0:0,0:0:0:0:
239,282,101972,6,0,P|152:179|250:102,1,255.000004863739,0|8,3:0|0:0,0:0:0:0:
330,125,102478,2,0,L|341:54,1,63.7500012159348,2|2,0:0|0:0,0:0:0:0:
187,195,102646,2,0,L|90:154,2,63.7500012159348,0|8|0,0:0|0:0|3:0,0:0:0:0:
319,219,102983,1,8,0:0:0:0:
178,295,103152,2,0,L|108:241,1,63.7500012159348,2|0,0:0|0:0,0:0:0:0:
77,313,103320,6,0,L|542:99,2,465.000003547668,4|8|0,1:0|0:0|3:0,0:0:0:0:
49,237,104107,1,0,0:0:0:0:
82,154,104219,1,0,0:0:0:0:
160,115,104332,2,0,L|321:130,1,127.50000243187,2|2,3:2|0:0,0:0:0:0:
130,313,104669,6,0,L|118:153,1,127.50000243187,0|0,3:0|0:0,0:0:0:0:
248,137,105006,2,0,L|90:68,1,127.50000243187,0|0,3:0|0:0,0:0:0:0:
127,155,105343,2,0,L|409:125,1,255.000004863739,0|2,3:0|3:2,0:0:0:0:
263,226,105849,1,0,0:0:0:0:
423,325,106017,5,2,2:2:0:0:
438,201,106185,1,0,3:0:0:0:
362,103,106354,1,0,3:0:0:0:
239,86,106522,1,0,3:0:0:0:
112,249,106691,1,2,2:2:0:0:
248,208,106859,1,0,3:0:0:0:
385,168,107028,1,0,3:0:0:0:
248,208,107197,1,0,3:0:0:0:
123,316,107365,5,2,3:2:0:0:
99,250,107449,1,2,3:2:0:0:
122,184,107533,1,0,3:0:0:0:
181,147,107617,1,2,3:2:0:0:
264,235,107702,1,0,3:0:0:0:
329,212,107786,1,0,3:0:0:0:
358,149,107870,1,2,3:2:0:0:
331,85,107954,1,2,3:2:0:0:
254,78,108040,2,0,L|165:72,1,71.2499980974198,2|2,0:0|0:0,0:0:0:0:
258,306,108208,2,0,L|347:312,1,71.2499980974198,2|2,0:0|0:0,0:0:0:0:
116,300,108377,2,0,L|101:117,1,142.49999619484,10|2,0:0|0:0,0:0:0:0:
457,355,108714,6,0,B|199:-46|199:-46|487:363,1,930.000007095337,4|0,1:1|0:0,0:0:0:0:
160,196,110905,2,0,L|315:-42,2,232.500001773834,2|2|2,0:0|0:0|0:0,0:0:0:0:
62,361,111410,6,0,L|389:-4,1,465.000003547668,0|0,1:0|1:0,0:0:0:0:
125,335,113264,2,0,L|119:163,1,120
117,17,113601,2,0,L|428:377,1,465.000003547668,2|0,0:0|0:0,0:0:0:0:
414,376,114107,6,0,B|118:8|118:8|444:384,1,930.000007095337,0|0,1:0|0:0,0:0:0:0:
113,246,116635,2,0,L|249:36,1,232.500001773834,0|0,1:0|0:0,0:0:0:0:
386,207,117983,5,0,1:0:0:0:
144,323,118152,2,0,L|117:-37,1,284.999992389679,0|0,1:0|0:0,0:0:0:0:
323,338,118405,2,0,L|338:22,1,284.999992389679,0|0,1:0|0:0,0:0:0:0:
138,352,118657,5,0,1:0:0:0:
100,288,118741,1,0,0:0:0:0:
101,214,118825,1,2,0:0:0:0:
143,153,118909,1,2,0:0:0:0:
211,123,118994,1,2,0:0:0:0:
284,134,119078,1,2,0:0:0:0:
339,183,119162,1,2,0:0:0:0:
360,254,119246,1,2,0:0:0:0:
340,325,119331,1,2,0:0:0:0:
284,374,119415,1,2,0:0:0:0:
55,355,119500,6,0,B|313:-46|313:-46|25:363,1,930.000007095337,0|2,1:0|0:0,0:0:0:0:
213,340,120427,2,0,L|217:139,1,157.499995193482
360,127,120848,6,0,L|516:32,2,157.499995193482,2|0|0,0:0|0:0|0:0,0:0:0:0:
231,290,121523,2,0,L|220:153,1,104.999996795654,2|0,0:0|0:0,0:0:0:0:
354,264,121859,2,0,L|361:121,1,104.999996795654,0|2,0:0|0:0,0:0:0:0:
215,238,122197,6,0,P|164:165|267:95,1,209.999993591309,2|0,0:0|0:0,0:0:0:0:
362,98,122702,2,0,L|110:73,2,209.999993591309,2|2|2,0:0|0:0|0:0,0:0:0:0:
244,262,123545,5,2,0:0:0:0:
368,261,123714,2,0,L|366:126,1,104.999996795654,2|0,0:0|0:0,0:0:0:0:
239,166,124051,2,0,L|36:49,1,209.999993591309,2|0,0:0|0:0,0:0:0:0:
173,209,124556,2,0,L|297:263,1,104.999996795654,2|2,0:0|0:0,0:0:0:0:
28,267,124893,5,0,1:0:0:0:
161,188,125062,1,0,1:0:0:0:
301,268,125231,1,0,1:0:0:0:
445,174,125399,1,0,1:0:0:0:
200,334,125736,5,2,0:0:0:0:
134,238,125904,1,0,0:0:0:0:
163,125,126073,1,0,0:0:0:0:
267,279,126242,2,0,L|279:39,1,240,2|0,0:0|0:0,0:0:0:0:
159,268,126747,2,0,L|148:91,1,120,0|2,0:0|0:0,0:0:0:0:
290,151,127084,2,0,L|437:92,1,120,2|2,0:0|0:0,0:0:0:0:
269,241,127422,1,2,0:0:0:0:
395,289,127590,6,0,L|400:10,1,240,0|2,0:0|0:0,0:0:0:0:
271,315,128096,2,0,P|280:182|484:92,1,360,2|2,0:0|0:0,0:0:0:0:
286,250,128938,2,0,L|52:144,1,240,0|2,0:0|0:0,0:0:0:0:
194,182,129444,2,0,L|202:114,2,40,2|0|0,0:0|0:0|0:0,0:0:0:0:
157,212,129613,2,0,L|82:218,1,60,2|2,0:0|0:0,0:0:0:0:
309,182,129781,2,0,L|376:160,1,60
169,181,129950,2,0,L|20:163,1,120,8|0,0:0|0:0,0:0:0:0:
58,60,130287,6,0,L|489:338,2,480,4|8|0,1:1|0:0|0:0,0:0:0:0:
189,233,131129,2,0,L|203:81,1,120,2|10,3:0|0:0,0:0:0:0:
61,146,131466,1,2,0:0:0:0:
213,312,131635,5,2,3:0:0:0:
292,228,131803,1,2,0:0:0:0:
268,116,131972,1,10,0:0:0:0:
162,72,132141,2,0,L|103:12,2,60,2|8|2,0:0|0:0|0:0,0:0:0:0:
299,250,132478,2,0,L|286:101,1,120,2|10,3:0|0:0,0:0:0:0:
148,158,132815,1,0,0:0:0:0:
412,311,132984,5,2,0:0:0:0:
434,256,133068,1,2,0:0:0:0:
420,198,133152,1,2,0:0:0:0:
375,160,133236,1,2,0:0:0:0:
322,151,133320,2,0,L|305:65,3,60,10|2|2|2,0:0|0:0|0:0|0:0,0:0:0:0:
372,83,133657,2,0,L|498:139,1,120,2|2,0:0|3:0,0:0:0:0:
350,244,133994,1,8,0:0:0:0:
480,265,134163,1,2,0:0:0:0:
235,257,134332,6,0,L|103:199,2,120,2|2|10,3:0|0:0|0:0,0:0:0:0:
359,232,134837,2,0,L|362:128,1,60,2|0,0:0|0:0,0:0:0:0:
213,137,135006,2,0,L|136:119,2,60,0|8|2,0:0|0:0|3:0,0:0:0:0:
339,186,135343,2,0,L|343:14,1,120,10|0,0:0|0:0,0:0:0:0:
87,261,135680,6,0,L|367:219,1,240,0|8,3:0|0:0,0:0:0:0:
458,183,136186,1,0,0:0:0:0:
301,134,136354,2,0,L|162:69,1,120,2|0,0:0|0:0,0:0:0:0:
316,233,136691,2,0,L|455:168,1,120,10|0,0:0|0:0,0:0:0:0:
152,206,137028,6,0,L|441:131,1,240,2|8,3:0|0:0,0:0:0:0:
253,240,137534,1,0,0:0:0:0:
247,180,137618,1,8,0:0:0:0:
242,120,137702,1,0,0:0:0:0:
364,86,137871,1,0,3:0:0:0:
222,85,138040,2,0,L|52:129,1,120,10|0,0:0|0:0,0:0:0:0:
383,342,138377,6,0,P|456:252|343:176,1,240,2|8,3:0|0:0,0:0:0:0:
251,160,138882,1,0,0:0:0:0:
122,337,139051,2,0,L|107:192,1,120,2|0,0:0|3:0,0:0:0:0:
264,205,139388,2,0,L|273:62,1,120,10|0,0:0|0:0,0:0:0:0:
39,55,139725,6,0,L|314:111,1,240,2|8,3:0|0:0,0:0:0:0:
159,224,140231,2,0,L|150:137,1,60
430,182,140483,2,0,L|427:86,1,60,8|0,0:0|0:0,0:0:0:0:
260,225,140652,1,8,0:0:0:0:
238,169,140736,1,8,0:0:0:0:
264,118,140820,1,8,0:0:0:0:
320,101,140904,1,8,0:0:0:0:
435,301,141073,6,0,L|6:97,1,465.000003547668,4|8,1:0|0:0,0:0:0:0:
164,312,141579,2,0,L|166:37,1,232.500001773834
46,242,141916,1,2,3:0:0:0:
44,182,142000,1,0,0:0:0:0:
42,122,142084,1,10,0:0:0:0:
182,178,142253,1,2,0:0:0:0:
193,64,142422,5,2,3:0:0:0:
331,228,142590,1,0,0:0:0:0:
316,96,142759,1,10,0:0:0:0:
449,232,142927,1,2,0:0:0:0:
453,172,143011,1,8,0:0:0:0:
457,112,143095,1,2,0:0:0:0:
307,163,143264,1,2,3:0:0:0:
451,66,143433,2,0,L|300:63,1,120,10|0,0:0|0:0,0:0:0:0:
85,298,143770,5,2,0:0:0:0:
58,245,143854,1,2,0:0:0:0:
69,187,143938,1,2,0:0:0:0:
113,148,144022,1,2,0:0:0:0:
172,145,144107,1,10,0:0:0:0:
229,131,144191,1,2,0:0:0:0:
258,81,144275,1,2,0:0:0:0:
243,25,144359,1,2,0:0:0:0:
187,34,144444,2,0,L|43:23,1,120,2|2,0:0|3:0,0:0:0:0:
195,203,144781,2,0,L|357:216,1,120,8|2,0:0|0:0,0:0:0:0:
67,265,145118,6,0,L|323:290,1,240,2|10,3:0|0:0,0:0:0:0:
176,210,145624,2,0,L|162:95,1,60
299,125,145877,2,0,L|292:37,1,60,8|2,0:0|3:0,0:0:0:0:
146,78,146129,2,0,L|15:40,1,120,10|0,0:0|0:0,0:0:0:0:
394,310,146466,6,0,P|435:227|295:148,1,240,2|0,1:2|3:0,0:0:0:0:
110,294,147141,2,0,P|69:211|209:132,1,240,0|0,3:0|3:0,0:0:0:0:
297,135,147646,1,0,3:0:0:0:
63,305,147815,2,0,L|53:155,1,120,2|0,1:2|3:0,0:0:0:0:
305,255,148152,2,0,L|320:132,1,120,2|0,3:2|3:0,0:0:0:0:
57,122,148489,2,0,L|297:63,1,240,0|0,3:0|3:0,0:0:0:0:
176,139,148995,1,0,3:0:0:0:
434,308,149163,5,2,1:2:0:0:
456,191,149331,1,0,3:0:0:0:
350,115,149500,1,0,3:0:0:0:
221,116,149669,1,0,3:0:0:0:
473,82,149837,1,0,3:0:0:0:
206,325,150006,1,0,3:0:0:0:
169,277,150090,1,0,3:0:0:0:
158,219,150174,1,0,3:0:0:0:
174,161,150258,1,0,3:0:0:0:
214,117,150343,1,0,3:0:0:0:
269,95,150427,1,0,3:0:0:0:
469,326,150511,6,0,L|480:78,1,240,2|0,3:2|0:0,0:0:0:0:
334,222,151017,2,0,L|237:159,2,60,2|0|2,0:0|0:0|0:0,0:0:0:0:
403,206,151270,1,0,0:0:0:0:
453,159,151354,2,0,L|390:119,1,60,2|0,0:0|0:0,0:0:0:0:
196,206,151523,2,0,L|118:180,1,60,8|8,0:0|0:0,0:0:0:0:
349,96,151691,2,0,L|427:70,1,60,8|8,0:0|2:2,0:0:0:0:
440,342,151860,6,0,L|-5:94,2,480,4|8|0,1:0|0:0|0:0,0:0:0:0:
305,238,152702,1,0,3:0:0:0:
437,154,152871,2,0,L|300:89,1,127.50000243187,10|2,0:0|0:0,0:0:0:0:
184,295,153208,6,0,P|137:235|274:115,1,255.000004863739,2|8,3:0|0:0,0:0:0:0:
403,155,153798,1,8,0:0:0:0:
414,88,153882,2,0,L|244:28,1,127.50000243187,2|2,0:0|3:0,0:0:0:0:
183,235,154219,2,0,L|329:166,1,127.50000243187,8|0,0:0|0:0,0:0:0:0:
39,132,154556,6,0,L|163:83,1,127.50000243187,0|0,3:0|0:0,0:0:0:0:
299,226,154893,1,10,0:0:0:0:
165,170,155062,1,2,0:0:0:0:
307,297,155231,2,0,L|321:140,1,127.50000243187,2|0,0:0|3:0,0:0:0:0:
167,132,155568,1,10,0:0:0:0:
313,88,155736,1,2,0:0:0:0:
79,297,155905,6,0,L|68:115,1,127.50000243187,2|2,3:0|0:0,0:0:0:0:
209,119,156242,1,10,0:0:0:0:
70,96,156410,2,0,L|133:69,1,63.7500012159348,2|8,0:0|0:0,0:0:0:0:
306,233,156579,1,2,0:0:0:0:
308,169,156663,1,8,0:0:0:0:
311,105,156747,1,2,3:0:0:0:
163,88,156916,2,0,L|34:150,1,127.50000243187,10|2,0:0|0:0,0:0:0:0:
76,300,157253,6,0,L|500:14,2,480,4|8|0,1:0|0:0|0:0,0:0:0:0:
214,300,158096,2,0,L|219:138,1,127.50000243187,2|8,3:0|0:0,0:0:0:0:
83,141,158433,1,2,0:0:0:0:
352,376,158601,6,0,L|340:104,1,255.000004863739,0|8,3:0|0:0,0:0:0:0:
199,136,159107,2,0,L|212:44,1,63.7500012159348,2|8,0:0|0:0,0:0:0:0:
288,62,159275,1,2,0:0:0:0:
162,286,159444,2,0,L|152:110,1,127.50000243187,2|8,3:0|0:0,0:0:0:0:
288,163,159781,1,2,0:0:0:0:
42,151,159950,6,0,L|309:219,1,255.000004863739,2|10,3:0|0:0,0:0:0:0:
432,205,160455,2,0,L|165:273,1,255.000004863739,2|2,0:0|3:0,0:0:0:0:
334,315,160961,2,0,L|344:147,1,127.50000243187,8|2,0:0|0:0,0:0:0:0:
109,227,161298,6,0,P|96:122|206:79,1,191.250003647804,2|2,3:0|0:0,0:0:0:0:
225,69,161635,1,8,0:0:0:0:
345,172,161804,2,0,L|351:73,1,63.7500012159348,2|0,3:0|0:0,0:0:0:0:
121,201,162056,2,0,L|121:108,1,63.7500012159348,10|2,0:0|3:0,0:0:0:0:
270,215,162225,1,10,0:0:0:0:
294,158,162309,1,10,0:0:0:0:
267,102,162393,1,10,0:0:0:0:
208,85,162477,1,10,0:0:0:0:
72,79,162646,6,0,L|479:306,2,465.000003547668,4|8|0,1:0|0:0|0:0,0:0:0:0:
190,213,163489,1,0,3:0:0:0:
61,205,163658,2,0,L|92:41,1,127.50000243187,10|2,0:0|0:0,0:0:0:0:
234,91,163995,6,0,L|505:183,1,255.000004863739,2|8,3:0|0:0,0:0:0:0:
280,285,164584,1,8,0:0:0:0:
275,226,164669,1,2,0:0:0:0:
408,181,164837,1,2,3:0:0:0:
271,152,165006,2,0,L|133:85,1,127.50000243187,10|0,0:0|0:0,0:0:0:0:
269,229,165343,6,0,L|434:298,1,127.50000243187,0|0,3:0|0:0,0:0:0:0:
239,322,165680,1,10,0:0:0:0:
373,258,165848,1,2,0:0:0:0:
225,233,166017,2,0,P|159:169|291:73,1,255.000004863739,2|10,0:0|0:0,0:0:0:0:
375,69,166523,1,2,0:0:0:0:
109,254,166691,6,0,L|101:105,1,127.50000243187,2|2,3:0|0:0,0:0:0:0:
241,123,167028,1,8,0:0:0:0:
96,168,167197,1,2,0:0:0:0:
352,239,167365,2,0,L|200:208,2,127.50000243187,2|2|10,0:0|3:0|0:0,0:0:0:0:
469,145,167871,1,2,0:0:0:0:
463,330,168040,6,0,L|-7:120,1,465.000003547668,4|8,1:0|0:0,0:0:0:0:
247,289,168714,1,2,2:2:0:0:
132,264,168882,2,0,P|101:196|246:85,1,255.000004863739,2|2,3:2|2:0,0:0:0:0:
339,139,169388,6,0,L|62:30,1,255.000004863739,0|8,3:0|0:0,0:0:0:0:
241,243,169893,2,0,L|263:123,1,63.7500012159348,0|8,0:0|0:0,0:0:0:0:
125,134,170146,2,0,L|141:55,1,63.7500012159348,0|0,0:0|3:0,0:0:0:0:
260,79,170399,1,10,0:0:0:0:
372,73,170568,1,2,0:0:0:0:
128,290,170736,6,0,P|104:194|234:122,1,255.000004863739,2|8,3:0|0:0,0:0:0:0:
324,165,171242,1,2,0:0:0:0:
71,217,171410,1,2,0:0:0:0:
220,177,171579,2,0,L|228:18,1,127.50000243187,2|8,3:0|0:0,0:0:0:0:
88,51,171916,1,2,0:0:0:0:
345,215,172084,6,0,L|220:242,2,127.50000243187,2|0|8,3:0|0:0|0:0,0:0:0:0:
463,143,172590,2,0,L|457:206,1,63.7500012159348,2|2,0:0|0:0,0:0:0:0:
285,186,172759,2,0,L|190:153,2,63.7500012159348,0|8|0,0:0|0:0|0:0,0:0:0:0:
443,205,173011,1,8,0:0:0:0:
463,145,173095,1,10,0:0:0:0:
442,86,173179,1,8,0:0:0:0:
390,52,173263,1,8,0:0:0:0:
330,39,173348,1,0,3:0:0:0:
123,160,173433,5,0,1:2:0:0:
256,192,173601,12,0,176129,0:0:0:0:
297,263,181523,5,2,0:0:0:0:
317,203,181607,1,0,0:0:0:0:
304,142,181691,1,2,0:0:0:0:
261,96,181775,1,0,0:0:0:0:
200,80,181860,1,10,0:0:0:0:
68,57,182028,2,0,L|499:346,1,480,2|2,1:0|0:0,0:0:0:0:
337,315,182534,2,0,L|319:130,1,127.50000243187,10|0,0:0|0:0,0:0:0:0:
397,158,182787,6,0,L|470:143,1,63.7500012159348,2|0,0:0|0:0,0:0:0:0:
329,83,183040,1,2,0:0:0:0:
451,233,183208,2,0,L|441:157,1,63.7500012159348,8|0,0:0|0:0,0:0:0:0:
370,155,183377,2,0,L|363:71,1,63.7500012159348
480,62,183629,2,0,L|410:43,1,63.7500012159348,10|2,0:0|0:0,0:0:0:0:
259,259,183798,1,10,0:0:0:0:
236,200,183882,1,10,0:0:0:0:
264,146,183966,1,10,0:0:0:0:
325,133,184050,1,10,0:0:0:0:
457,319,184219,6,0,L|31:66,1,465.000003547668,4|8,1:0|0:0,0:0:0:0:
216,340,184725,2,0,L|233:54,1,232.500001773834
103,216,185062,2,0,L|92:112,1,63.7500012159348,2|0,3:0|0:0,0:0:0:0:
170,154,185231,2,0,L|173:33,1,63.7500012159348,10|0,0:0|0:0,0:0:0:0:
252,126,185399,2,0,L|265:44,1,63.7500012159348,2|2,0:0|0:0,0:0:0:0:
186,32,185568,5,2,3:0:0:0:
144,249,185736,2,0,L|253:223,1,63.7500012159348,0|2,0:0|0:0,0:0:0:0:
268,222,185905,2,0,L|350:205,1,63.7500012159348,10|2,0:0|0:0,0:0:0:0:
396,194,186073,1,2,0:0:0:0:
261,288,186242,1,2,0:0:0:0:
397,305,186410,1,2,3:0:0:0:
428,250,186494,1,0,0:0:0:0:
423,188,186578,1,8,0:0:0:0:
383,139,186662,1,2,0:0:0:0:
322,123,186747,1,0,0:0:0:0:
195,311,186916,6,0,L|181:166,1,127.50000243187,2|0,3:0|0:0,0:0:0:0:
249,161,187169,2,0,L|376:89,1,127.50000243187,2|0,0:0|0:0,0:0:0:0:
301,210,187422,2,0,L|176:139,1,127.50000243187,2|0,0:0|0:0,0:0:0:0:
249,161,187674,2,0,L|376:89,1,127.50000243187,2|0,0:0|0:0,0:0:0:0:
301,210,187927,2,0,L|176:139,1,127.50000243187,10|0,0:0|0:0,0:0:0:0:
263,187,188180,1,2,0:0:0:0:
327,306,188264,5,0,3:0:0:0:
371,262,188348,1,0,0:0:0:0:
375,200,188432,1,2,0:0:0:0:
337,151,188516,1,0,0:0:0:0:
275,142,188601,1,8,0:0:0:0:
209,189,188686,2,0,L|198:98,2,63.7500012159348,2|2|0,0:0|0:0|0:0,0:0:0:0:
282,210,188938,2,0,L|428:132,1,127.50000243187,2|0,0:0|3:0,0:0:0:0:
447,130,189191,2,0,L|452:89,2,31.8750006079674,2|0|8,0:0|0:0|0:0,0:0:0:0:
313,121,189444,2,0,L|312:77,2,31.8750006079674,2|0|0,0:0|0:0|0:0,0:0:0:0:
477,296,189613,6,0,P|491:204|344:126,1,240,4|8,1:0|0:0,0:0:0:0:
247,183,190118,1,0,0:0:0:0:
382,280,190287,1,2,0:0:0:0:
402,204,190399,1,0,0:0:0:0:
364,136,190511,1,0,0:0:0:0:
277,146,190624,2,0,L|270:-11,1,127.50000243187,10|2,0:0|0:0,0:0:0:0:
29,263,190961,5,0,0:0:0:0:
152,299,191129,2,0,L|166:14,1,255.000004863739,2|0,2:0|0:0,0:0:0:0:
224,36,191551,1,0,0:0:0:0:
271,176,191635,2,0,L|393:93,1,142.49999619484,0|0,3:0|3:0,0:0:0:0:
256,222,191972,2,0,L|134:139,1,142.49999619484,10|0,0:0|0:0,0:0:0:0:
440,335,192309,5,2,0:0:0:0:
476,200,192477,1,0,3:0:0:0:
340,260,192646,1,0,3:0:0:0:
341,142,192814,1,0,3:0:0:0:
72,335,192983,5,2,0:0:0:0:
36,200,193152,1,0,3:0:0:0:
172,260,193320,1,0,3:0:0:0:
171,142,193489,1,0,3:0:0:0:
400,230,193657,6,0,L|452:157,2,78.7499975967408,2|0|0,0:0|3:0|3:0,0:0:0:0:
253,232,193911,2,0,L|192:168,2,78.7499975967408,2|0|0,0:0|3:0|3:0,0:0:0:0:
408,277,194163,2,0,L|423:147,1,78.7499975967408,2|0,0:0|3:0,0:0:0:0:
247,268,194332,2,0,L|222:176,1,78.7499975967408,2|2,3:2|3:2,0:0:0:0:
308,189,194500,2,0,L|326:88,1,78.7499975967408,2|2,3:2|3:2,0:0:0:0:
121,226,194669,1,2,3:2:0:0:
93,198,194711,1,2,3:2:0:0:
80,161,194753,1,2,3:2:0:0:
82,122,194795,1,2,3:2:0:0:
100,87,194837,1,2,3:2:0:0:
130,63,194879,1,2,3:2:0:0:
168,52,194921,1,2,3:2:0:0:
338,144,195006,5,4,0:0:0:0:
377,301,195343,1,0,0:0:0:0:
159,306,195680,1,2,0:0:0:0:
133,190,196017,1,0,0:0:0:0:
362,317,196354,1,2,0:0:0:0:
166,315,196860,5,0,0:0:0:0:
293,295,197028,2,0,L|301:151,1,112.500004291535,2|0,0:0|0:0,0:0:0:0:
173,174,197365,1,0,0:0:0:0:
300,130,197534,1,0,0:0:0:0:
160,292,197702,2,0,P|97:231|207:146,1,225.000008583069,2|0,0:0|0:0,0:0:0:0:
272,279,198208,6,0,P|344:128|268:279,1,562.500021457673,0|2,0:0|0:0,0:0:0:0:
345,326,199219,1,0,0:0:0:0:
386,271,199388,1,2,0:0:0:0:
393,168,199556,1,0,0:0:0:0:
346,78,199725,1,2,0:0:0:0:
284,35,199893,2,0,L|288:104,2,56.2500021457673
115,230,200399,5,2,0:0:0:0:
254,290,200568,2,0,L|271:26,1,225.000008583069,0|2,0:0|0:0,0:0:0:0:
52,98,201242,2,0,L|201:70,2,112.500004291535,0|2|0,0:0|0:0|0:0,0:0:0:0:
179,266,201747,2,0,L|417:213,1,225.000008583069,2|0,0:0|0:0,0:0:0:0:
169,303,202422,2,0,L|157:61,1,225.000008583069,0|2,0:0|0:0,0:0:0:0:
389,281,203096,6,0,P|413:183|307:165,1,225.000008583069,2|0,0:0|0:0,0:0:0:0:
217,333,203601,2,0,P|359:227|115:37,1,562.500021457673,2|2,0:0|0:0,0:0:0:0:
131,200,204697,1,2,0:0:0:0:
306,198,204949,1,2,0:0:0:0:
321,288,205203,1,2,0:0:0:0:
134,310,205455,2,0,L|125:178,1,112.500004291535,2|0,0:0|0:0,0:0:0:0:
426,327,205792,6,0,P|508:219|264:43,1,480,4|2,0:0|0:0,0:0:0:0:
116,205,206972,1,0,0:0:0:0:
96,213,207141,2,0,P|113:98|216:44,1,240,2|2,0:0|0:0,0:0:0:0:
413,265,207815,2,0,P|395:150|292:96,1,240,2|2,0:0|0:0,0:0:0:0:
190,175,208320,1,0,0:0:0:0:
302,326,208489,6,0,L|317:66,1,240,2|0,0:0|0:0,0:0:0:0:
172,367,208995,2,0,P|144:269|490:5,1,600,0|2,0:0|0:0,0:0:0:0:
264,47,210174,1,0,0:0:0:0:
224,119,210286,1,0,0:0:0:0:
242,187,210398,1,0,0:0:0:0:
302,118,210511,1,0,0:0:0:0:
341,277,210623,1,0,0:0:0:0:
322,116,210735,1,0,0:0:0:0:
254,62,210848,1,2,0:0:0:0:
70,279,211186,6,0,L|411:84,1,360,4|2,0:0|0:0,0:0:0:0:
274,335,211860,2,0,L|263:55,1,240,2|2,3:2|0:0,0:0:0:0:
371,114,212365,1,0,0:0:0:0:
264,302,212534,2,0,P|260:147|451:59,1,360,2|2,3:2|0:0,0:0:0:0:
318,231,213208,2,0,L|70:340,1,240,2|2,3:2|0:0,0:0:0:0:
374,336,213882,6,0,P|410:220|206:86,1,360,2|2,3:2|0:0,0:0:0:0:
163,200,214556,2,0,L|396:103,2,240,2|0|2,3:2|0:0|3:2,0:0:0:0:
131,231,215315,1,2,2:2:0:0:
129,172,215399,1,2,2:2:0:0:
160,122,215483,1,2,2:2:0:0:
215,100,215568,1,2,2:2:0:0:
423,326,215905,1,2,0:0:0:0:
143,237,216241,1,2,0:0:0:0:
464,277,216579,6,0,P|465:155|333:91,1,240,2|0,3:2|3:0,0:0:0:0:
127,250,217253,2,0,P|119:164|276:90,1,240,0|0,3:0|3:0,0:0:0:0:
367,96,217758,1,0,0:0:0:0:
53,292,217927,2,0,P|45:195|192:101,1,240,2|0,3:2|3:0,0:0:0:0:
367,273,218601,2,0,P|352:141|226:110,1,240,2|0,3:2|3:0,0:0:0:0:
142,109,219107,1,0,0:0:0:0:
381,329,219275,6,0,L|399:180,1,134.999995880127,2|0,3:2|3:0,0:0:0:0:
266,138,219612,2,0,L|421:232,1,134.999995880127,0|0,3:0|3:0,0:0:0:0:
141,257,219950,2,0,L|17:143,1,150,2|0,2:0|3:0,0:0:0:0:
186,229,220287,2,0,L|199:26,1,150,0|0,3:0|3:0,0:0:0:0:
352,263,220624,5,2,2:0:0:0:
399,206,220708,1,0,3:0:0:0:
396,133,220792,1,0,3:0:0:0:
344,81,220876,1,0,3:0:0:0:
261,78,220961,1,0,3:0:0:0:
193,111,221045,1,0,3:0:0:0:
126,143,221129,1,0,3:0:0:0:
58,176,221213,1,0,3:0:0:0:
130,210,221298,5,0,3:0:0:0:
197,242,221382,1,0,3:0:0:0:
265,275,221466,1,0,3:0:0:0:
332,308,221550,1,0,3:0:0:0:
122,292,221635,1,8,0:0:0:0:
92,225,221719,1,8,0:0:0:0:
120,158,221803,1,8,0:0:0:0:
188,131,221887,1,8,0:0:0:0:
261,135,221972,6,0,L|272:52,1,75,0|0,3:0|3:0,0:0:0:0:
179,125,222141,2,0,L|171:76,2,37.5,2|0|0,0:0|0:0|0:0,0:0:0:0:
261,135,222309,2,0,L|267:172,2,37.5,2|0|0,0:0|0:0|0:0,0:0:0:0:
80,197,222478,2,0,L|74:131,4,37.5,2|0|0|0|2,0:0|0:0|0:0|0:0|0:0,0:0:0:0:
162,143,222731,2,0,L|202:60,2,75,0|0|0,3:0|3:0|3:0,0:0:0:0:
83,217,222983,2,0,L|66:52,1,150,2|0,3:3|0:0,0:0:0:0:
92,19,223320,6,0,L|505:232,1,465.000003547668,4|8,1:0|0:0,0:0:0:0:
340,289,223911,1,0,0:0:0:0:
275,278,223995,2,0,L|283:119,1,127.50000243187,0|0,0:0|3:0,0:0:0:0:
424,88,224332,1,10,0:0:0:0:
289,87,224500,1,2,0:0:0:0:
420,169,224669,6,0,L|427:32,1,127.50000243187,2|0,0:0|0:0,0:0:0:0:
268,208,225006,2,0,L|44:105,1,191.250003647804,8|8,0:0|0:0,0:0:0:0:
156,94,225343,1,2,0:0:0:0:
290,73,225511,1,2,3:0:0:0:
159,264,225680,2,0,L|152:127,1,127.50000243187,8|0,0:0|0:0,0:0:0:0:
430,179,226017,6,0,L|264:115,1,127.50000243187,0|0,1:0|0:0,0:0:0:0:
175,177,226354,1,10,0:0:0:0:
307,202,226523,1,2,0:0:0:0:
169,280,226691,2,0,L|156:116,1,127.50000243187,2|0,0:0|3:0,0:0:0:0:
452,96,227028,2,0,L|291:149,1,127.50000243187,8|2,0:0|0:0,0:0:0:0:
97,219,227365,5,2,0:0:0:0:
216,258,227534,2,0,L|220:104,1,127.50000243187,2|10,0:0|0:0,0:0:0:0:
82,160,227871,1,2,0:0:0:0:
213,68,228040,2,0,L|299:56,1,63.7500012159348,2|8,0:0|0:0,0:0:0:0:
86,255,228208,2,0,L|79:109,1,127.50000243187,2|10,3:0|0:0,0:0:0:0:
209,131,228545,1,2,0:0:0:0:
67,48,228714,6,0,L|499:294,2,465.000003547668,4|8|0,1:0|0:0|0:0,0:0:0:0:
203,296,229556,2,0,L|205:118,1,127.50000243187,2|8,3:0|0:0,0:0:0:0:
75,126,229893,6,0,L|377:112,1,255.000004863739,2|0,0:0|0:0,0:0:0:0:
199,259,230399,2,0,L|191:83,1,127.50000243187,8|2,0:0|0:0,0:0:0:0:
349,184,230736,1,2,0:0:0:0:
202,107,230905,2,0,L|331:20,1,127.50000243187,2|8,3:0|0:0,0:0:0:0:
439,65,231242,1,2,0:0:0:0:
203,302,231410,6,0,P|97:261|104:98,1,255.000004863739,2|10,3:0|0:0,0:0:0:0:
217,152,231916,2,0,L|349:110,1,127.50000243187,2|0,0:0|0:0,0:0:0:0:
200,93,232253,2,0,L|68:51,1,127.50000243187,2|8,3:0|0:0,0:0:0:0:
206,246,232590,1,2,0:0:0:0:
460,279,232759,6,0,L|441:63,1,191.250003647804,2|2,0:0|0:0,0:0:0:0:
381,81,233096,2,0,L|216:44,1,127.50000243187,8|2,0:0|0:0,0:0:0:0:
192,43,233348,1,0,0:0:0:0:
440,270,233517,2,0,L|412:167,1,63.7500012159348,8|0,0:0|3:0,0:0:0:0:
273,183,233686,1,8,0:0:0:0:
241,129,233770,1,10,0:0:0:0:
262,70,233854,1,8,0:0:0:0:
319,49,233938,1,8,0:0:0:0:
441,131,234107,6,0,L|21:357,1,465.000003547668,4|8,1:0|0:0,0:0:0:0:
341,321,234781,2,0,L|348:140,1,127.50000243187,0|0,0:0|3:0,0:0:0:0:
204,129,235118,1,10,0:0:0:0:
339,114,235287,1,2,0:0:0:0:
191,257,235455,6,0,P|120:194|240:99,1,255.000004863739,2|8,3:0|0:0,0:0:0:0:
400,130,236045,1,8,0:0:0:0:
381,74,236129,1,2,0:0:0:0:
257,61,236298,1,2,3:0:0:0:
136,52,236466,2,0,L|117:195,1,127.50000243187,10|0,0:0|0:0,0:0:0:0:
398,267,236804,6,0,L|407:121,1,127.50000243187,0|0,3:0|0:0,0:0:0:0:
268,99,237141,1,10,0:0:0:0:
405,69,237309,1,2,0:0:0:0:
262,195,237478,2,0,L|118:235,1,127.50000243187,2|0,0:0|3:0,0:0:0:0:
271,274,237815,2,0,L|426:237,1,127.50000243187,10|2,0:0|0:0,0:0:0:0:
103,104,238152,6,0,L|259:72,2,127.50000243187,2|2|8,3:0|0:0|0:0,0:0:0:0:
237,202,238657,1,2,2:0:0:0:
80,220,238826,1,2,0:0:0:0:
76,156,238910,1,8,0:0:0:0:
73,92,238994,1,2,3:0:0:0:
220,102,239163,2,0,L|51:70,1,127.50000243187,10|2,0:0|0:0,0:0:0:0:
59,52,239500,6,0,L|485:323,2,480,4|8|2,1:0|0:0|0:0,0:0:0:0:
224,296,240343,2,0,L|234:147,1,127.50000243187,2|8,3:0|0:0,0:0:0:0:
103,191,240680,6,0,P|84:116|232:37,1,255.000004863739,2|0,0:0|0:0,0:0:0:0:
346,176,241186,1,8,0:0:0:0:
218,240,241354,1,0,0:0:0:0:
213,176,241438,1,8,0:0:0:0:
209,112,241522,1,0,0:0:0:0:
348,60,241691,1,0,3:0:0:0:
208,141,241860,2,0,L|63:209,1,127.50000243187,10|0,0:0|0:0,0:0:0:0:
385,285,242197,6,0,L|391:117,1,150,2|0,0:0|0:0,0:0:0:0:
335,132,242450,1,0,0:0:0:0:
276,122,242534,1,8,0:0:0:0:
425,264,242702,2,0,P|462:174|305:57,1,300,0|0,0:0|3:0,0:0:0:0:
203,73,243208,1,8,0:0:0:0:
321,175,243377,2,0,L|394:109,1,63.7500012159348,0|0,3:0|3:0,0:0:0:0:
180,293,243545,6,0,L|176:144,1,127.50000243187,2|0,3:0|0:0,0:0:0:0:
238,141,243798,1,2,2:0:0:0:
297,123,243882,1,8,0:0:0:0:
159,94,244050,2,0,L|96:140,1,63.7500012159348
282,235,244219,2,0,L|344:180,2,63.7500012159348,2|8|0,0:0|0:0|0:0,0:0:0:0:
106,280,244472,1,0,0:0:0:0:
78,223,244556,1,8,0:0:0:0:
84,160,244640,1,8,0:0:0:0:
122,110,244724,1,8,0:0:0:0:
180,87,244809,1,0,3:0:0:0:
383,291,244893,6,0,P|440:211|316:141,1,240,0|8,1:0|0:0,0:0:0:0:
177,208,245483,1,0,0:0:0:0:
162,138,245568,2,0,L|329:97,1,120,0|0,3:0|3:0,3:0:0:0:
415,83,245905,1,8,0:0:0:0:
281,218,246073,2,0,L|197:239,1,60
303,255,246242,6,0,L|314:100,1,120,0|0,3:0|0:0,0:0:0:0:
190,83,246579,1,8,0:0:0:0:
305,60,246747,2,0,L|413:46,1,60,0|8,3:0|0:0,0:0:0:0:
134,279,246916,2,0,L|126:58,1,180,0|0,3:0|0:0,0:0:0:0:
124,43,247253,1,8,0:0:0:0:
259,201,247422,2,0,L|349:191,1,60
126,279,247590,6,0,B|39:261|39:261|67:199|182:171,1,240,2|8,0:0|0:0,0:0:0:0:
308,198,248096,2,0,L|301:67,1,120
168,64,248433,1,0,0:0:0:0:
299,176,248601,1,8,0:0:0:0:
178,190,248770,2,0,L|141:100,1,60,2|0,0:0|0:0,0:0:0:0:
349,271,248938,6,0,P|378:198|240:129,1,240,0|8,0:0|0:0,0:0:0:0:
132,183,249444,2,0,L|123:110,1,60
269,172,249697,2,0,L|261:89,1,60,8|0,0:0|0:0,0:0:0:0:
129,149,249950,2,0,L|0:74,1,120,8|0,0:0|0:0,0:0:0:0:
276,195,250287,6,0,B|374:188|374:188|503:74,1,240,4|8,1:0|0:0,0:0:0:0:
331,309,250792,1,0,0:0:0:0:
325,192,250876,1,0,0:0:0:0:
320,76,250960,1,0,0:0:0:0:
462,167,251129,1,0,3:0:0:0:
321,194,251298,2,0,L|175:114,1,120,8|0,0:0|0:0,0:0:0:0:
471,241,251635,6,0,L|207:300,1,240,2|8,3:0|0:0,0:0:0:0:
354,197,252141,2,0,L|360:89,2,60,0|8|2,0:0|0:0|0:0,0:0:0:0:
235,199,252478,1,0,3:0:0:0:
352,264,252646,2,0,L|469:320,1,120,8|0,0:0|0:0,0:0:0:0:
210,315,252983,2,0,P|208:213|353:147,1,240,2|10,3:0|0:0,0:0:0:0:
426,305,253489,6,0,L|-12:78,1,450.000017166138,0|0,1:0|0:0,0:0:0:0:
134,302,253995,2,0,L|151:124,1,120,8|0,0:0|0:0,0:0:0:0:
86,159,254247,1,0,0:0:0:0:
32,142,254332,1,0,0:0:0:0:
160,113,254500,1,0,0:0:0:0:
217,97,254584,1,0,0:0:0:0:
275,81,254668,1,8,0:0:0:0:
154,247,254837,6,0,L|165:167,1,60
391,167,255090,2,0,L|384:227,1,60,10|2,0:0|0:0,0:0:0:0:
210,292,255259,1,10,0:0:0:0:
169,249,255343,1,10,0:0:0:0:
161,190,255427,1,10,0:0:0:0:
190,139,255511,1,10,0:0:0:0:
243,114,255596,1,2,0:0:0:0:
406,310,255680,6,0,P|404:216|254:143,1,240,4|8,1:0|0:0,0:0:0:0:
145,263,256186,2,0,L|156:105,1,120
258,180,256523,2,0,L|254:88,1,60,2|0,3:0|0:0,0:0:0:0:
81,133,256691,2,0,L|76:65,1,60,10|0,0:0|0:0,0:0:0:0:
154,87,256860,2,0,L|166:6,1,60,2|0,0:0|0:0,0:0:0:0:
78,51,257028,5,2,0:0:0:0:
254,292,257281,2,0,L|266:220,1,60,2|8,0:0|0:0,0:0:0:0:
147,190,257534,2,0,L|158:122,1,60,2|8,0:0|0:0,0:0:0:0:
280,146,257787,2,0,L|289:68,1,60,0|0,0:0|3:0,0:0:0:0:
168,92,258040,2,0,L|179:24,1,60,10|0,0:0|0:0,0:0:0:0:
312,241,258292,1,0,0:0:0:0:
317,210,258377,6,0,L|328:50,1,120,2|0,1:2|0:0,0:0:0:0:
263,92,258629,2,0,L|185:104,1,60,2|8,0:0|0:0,0:0:0:0:
354,284,258882,1,0,0:0:0:0:
208,264,259051,2,0,L|201:161,1,60,2|2,0:0|0:0,0:0:0:0:
329,181,259304,2,0,L|337:91,1,60,2|8,0:0|0:0,0:0:0:0:
211,95,259556,2,0,L|131:72,1,60,2|2,0:0|0:0,0:0:0:0:
344,302,259725,5,2,3:0:0:0:
373,250,259809,1,0,0:0:0:0:
362,193,259893,1,2,0:0:0:0:
317,155,259977,1,0,0:0:0:0:
252,153,260062,2,0,L|237:81,1,60,8|0,0:0|0:0,0:0:0:0:
311,86,260231,2,0,L|320:4,1,60,2|8,0:0|0:0,0:0:0:0:
251,284,260399,1,0,0:0:0:0:
223,232,260483,1,0,0:0:0:0:
238,175,260567,1,10,0:0:0:0:
287,144,260651,1,0,0:0:0:0:
354,147,260736,2,0,L|411:99,1,60,10|0,0:0|0:0,0:0:0:0:
331,99,260905,2,0,L|241:83,1,60,2|2,0:0|0:0,0:0:0:0:
468,301,261073,6,0,P|492:220|380:128,1,240,4|8,1:0|0:0,0:0:0:0:
151,251,261747,1,0,0:0:0:0:
126,176,261859,1,0,0:0:0:0:
159,106,261971,1,0,0:0:0:0:
237,86,262084,2,0,L|349:170,1,120,10|2,0:0|0:0,0:0:0:0:
196,299,262422,6,0,L|187:150,1,120,2|0,0:0|0:0,0:0:0:0:
334,152,262759,2,0,L|345:6,1,120,8|0,0:0|0:0,0:0:0:0:
197,266,263096,2,0,P|93:223|84:73,1,240,2|10,0:0|0:0,0:0:0:0:
176,65,263601,1,0,0:0:0:0:
441,332,263770,5,2,2:2:0:0:
445,192,263938,1,0,3:0:0:0:
361,80,264107,1,0,3:0:0:0:
226,45,264275,1,0,3:0:0:0:
351,34,264444,5,2,2:2:0:0:
216,69,264612,1,0,3:0:0:0:
132,181,264781,1,0,3:0:0:0:
136,321,264949,1,0,3:0:0:0:
406,295,265118,6,0,L|433:197,2,78.7499975967408,2|0|0,2:0|3:0|3:0,0:0:0:0:
241,275,265371,2,0,L|214:177,2,78.7499975967408,2|0|0,2:0|3:0|3:0,0:0:0:0:
406,295,265624,2,0,L|390:193,1,78.7499975967408,0|0,2:0|3:0,0:0:0:0:
230,281,265792,1,2,3:2:0:0:
177,225,265876,1,2,3:2:0:0:
180,148,265960,1,2,3:2:0:0:
236,96,266044,1,2,3:2:0:0:
385,301,266129,1,8,3:2:0:0:
456,270,266213,1,8,3:2:0:0:
493,202,266297,1,8,3:2:0:0:
480,126,266381,1,8,3:2:0:0:
423,92,266466,6,0,L|15:289,2,450.000017166138,4|8|2,1:0|0:0|2:0,0:0:0:0:
312,283,267309,2,0,L|303:107,1,120,0|8,3:0|0:0,0:0:0:0:
427,172,267646,1,0,0:0:0:0:
291,130,267815,6,0,L|96:67,1,180,0|0,1:0|0:0,0:0:0:0:
63,61,268152,1,8,0:0:0:0:
182,248,268320,2,0,L|197:154,1,60,0|8,0:0|0:0,0:0:0:0:
42,195,268657,2,0,L|52:54,1,120,0|8,3:0|0:0,0:0:0:0:
309,115,268995,6,0,L|428:126,2,120,2|0|0,0:0|0:0|0:0,0:0:0:0:
189,202,269500,2,0,L|454:210,1,240,8|2,0:0|0:0,0:0:0:0:
293,282,270006,1,0,3:0:0:0:
435,294,270174,2,0,L|420:156,1,120,8|0,0:0|0:0,0:0:0:0:
298,182,270511,6,0,P|288:113|428:35,1,240,0|8,3:0|0:0,0:0:0:0:
311,254,271017,2,0,L|306:146,1,60,0|8,0:0|0:0,0:0:0:0:
434,209,271270,2,0,L|439:125,1,60,8|0,0:0|3:0,0:0:0:0:
314,151,271523,2,0,L|295:43,2,60,8|0|0,0:0|0:0|0:0,0:0:0:0:
425,300,271860,6,0,L|-1:91,1,465.000003547668,4|8,1:0|0:0,0:0:0:0:
238,276,272534,1,0,0:0:0:0:
246,176,272702,1,0,3:0:0:0:
107,121,272871,2,0,L|253:85,1,120,8|0,0:0|0:0,0:0:0:0:
357,169,273208,6,0,L|211:135,1,120,0|0,1:0|0:0,0:0:0:0:
179,133,273461,2,0,L|177:54,1,60,0|8,0:0|0:0,0:0:0:0:
295,205,273714,2,0,L|302:106,1,60,0|8,0:0|0:0,0:0:0:0:
234,124,273882,1,0,0:0:0:0:
119,59,274051,2,0,L|237:41,2,120,0|8|0,3:0|0:0|0:0,0:0:0:0:
380,189,274556,6,0,L|498:207,2,120,0|0|8,3:0|0:0|0:0,0:0:0:0:
248,177,275062,1,0,0:0:0:0:
382,284,275231,2,0,L|370:148,1,120,0|0,0:0|3:0,0:0:0:0:
230,175,275568,6,0,L|0:88,2,240,8|0|8,0:0|3:0|0:0,0:0:0:0:
360,211,276410,2,0,L|346:135,1,60,2|8,0:0|0:0,0:0:0:0:
100,181,276663,2,0,L|89:107,1,60,8|2,0:0|0:0,0:0:0:0:
257,314,276832,1,8,0:0:0:0:
282,261,276916,1,8,0:0:0:0:
264,205,277000,1,8,0:0:0:0:
213,176,277084,1,8,0:0:0:0:
65,233,277253,6,0,L|503:42,1,465.000003547668,4|8,1:0|0:0,0:0:0:0:
258,280,277927,2,0,L|289:123,1,120,0|0,0:0|3:0,0:0:0:0:
401,174,278264,1,8,0:0:0:0:
263,124,278433,1,0,0:0:0:0:
411,323,278601,6,0,L|399:158,1,120,0|0,3:0|0:0,0:0:0:0:
330,190,278854,2,0,L|245:158,1,60,0|8,0:0|0:0,0:0:0:0:
403,86,279107,2,0,L|496:61,2,60,0|8|0,0:0|0:0|0:0,0:0:0:0:
278,123,279444,1,0,3:0:0:0:
401,206,279613,1,8,0:0:0:0:
132,274,279781,6,0,L|139:141,1,120,2|0,0:0|0:0,0:0:0:0:
382,196,280287,1,8,0:0:0:0:
119,154,280624,2,0,L|267:114,2,120,0|0|8,0:0|3:0|0:0,0:0:0:0:
389,300,281298,6,0,P|401:219|255:134,1,240,0|8,3:0|0:0,0:0:0:0:
159,236,281804,2,0,L|143:148,1,60,0|8,0:0|0:0,0:0:0:0:
279,116,282056,2,0,L|288:175,1,60,8|0,2:0|3:0,0:0:0:0:
153,239,282309,1,8,0:0:0:0:
102,208,282393,1,0,0:0:0:0:
76,155,282477,1,0,3:0:0:0:
83,96,282561,1,0,3:0:0:0:
120,50,282646,6,0,L|465:46,2,330.000010070801,4|8|0,1:0|0:0|0:0,0:0:0:0:
235,258,283489,2,0,L|244:120,1,120,0|8,3:0|0:0,0:0:0:0:
116,125,283826,1,0,0:0:0:0:
241,91,283995,6,0,L|397:74,1,120,0|0,3:0|0:0,0:0:0:0:
409,107,284247,2,0,L|405:41,1,60,0|8,0:0|0:0,0:0:0:0:
297,260,284500,2,0,L|290:164,1,60,0|8,0:0|0:0,0:0:0:0:
448,169,284837,1,0,3:0:0:0:
306,133,285006,2,0,L|158:107,1,120,8|0,0:0|0:0,0:0:0:0:
349,297,285343,6,0,L|359:10,1,240,0|8,3:0|0:0,0:0:0:0:
192,245,285848,1,0,0:0:0:0:
151,202,285932,1,8,0:0:0:0:
147,143,286016,1,0,0:0:0:0:
180,95,286100,1,8,0:0:0:0:
237,79,286186,2,0,L|307:74,1,60,0|8,0:0|0:0,0:0:0:0:
242,142,286354,2,0,L|174:143,1,60,8|8,0:0|0:0,0:0:0:0:
337,106,286523,2,0,L|347:166,1,60,0|8,3:0|0:0,0:0:0:0:
156,248,286691,1,4,0:0:0:0:
