osu file format v14

[General]
AudioFilename: audio.mp3
AudioLeadIn: 0
PreviewTime: 65525
Countdown: 0
SampleSet: Soft
StackLeniency: 0.7
Mode: 2
LetterboxInBreaks: 0
WidescreenStoryboard: 0

[Editor]
Bookmarks: 10287,22422,65062,97927,130287,151860,173433,195006,205792,223320,244893,255680,261073,267141,286691
DistanceSpacing: 1
BeatDivisor: 4
GridSize: 16
TimelineZoom: 4.499998

[Metadata]
Title:Kimi ga Shinu no o Nagamete Iru yo
TitleUnicode:君が死ぬのを眺めているよ
Artist:Camellia
ArtistUnicode:かめりあ
Creator:Spectator
Version:Overdose
Source:osu!
Tags:Sinnoh i will witness your end electronic japanese featured artist fa mappers' guild mg hatsune miku 初音ミク vocaloid jpop j-pop drum and bass dnb
BeatmapID:2688927
BeatmapSetID:1295992

[Difficulty]
HPDrainRate:6
CircleSize:3.9
OverallDifficulty:9.3
ApproachRate:9.3
SliderMultiplier:3
SliderTickRate:2

[Events]
//Background and Video events
0,0,"miku2.jpg",0,0
//Break Periods
2,90037,94677
2,176329,180969
//Storyboard Layer 0 (Background)
//Storyboard Layer 1 (Fail)
//Storyboard Layer 2 (Pass)
//Storyboard Layer 3 (Foreground)
//Storyboard Layer 4 (Overlay)
//Storyboard Sound Samples

[TimingPoints]
849,337.078651685393,4,2,1,90,1,0
10287,-142.857142857143,4,2,1,30,0,0
10624,-142.857142857143,4,2,1,35,0,0
10961,-142.857142857143,4,2,1,40,0,0
11635,-142.857142857143,4,2,1,50,0,0
15195,-142.857142857143,4,2,1,30,0,0
15511,-142.857142857143,4,2,1,50,0,0
17028,-142.857142857143,4,2,1,55,0,0
18377,-142.857142857143,4,2,1,60,0,0
19725,-117.647058823529,4,2,1,65,0,0
20399,-117.647058823529,4,2,1,70,0,0
21747,-117.647058823529,4,2,1,80,0,0
22422,-64.5161290322581,4,2,1,90,0,0
22759,-64.5161290322581,4,2,2,90,0,0
22843,-64.5161290322581,4,2,1,90,0,0
23096,-117.647058823529,4,2,1,90,0,0
27815,-64.5161290322581,4,2,1,90,0,0
28152,-64.5161290322581,4,2,2,90,0,0
28236,-64.5161290322581,4,2,1,90,0,0
28657,-117.647058823529,4,2,1,90,0,0
33208,-40,4,2,1,90,0,0
33545,-64.5161290322581,4,2,2,90,0,0
33629,-64.5161290322581,4,2,1,90,0,0
34051,-117.647058823529,4,2,1,90,0,0
38601,-40,4,2,1,90,0,0
38938,-64.5161290322581,4,2,2,90,0,0
39022,-64.5161290322581,4,2,1,90,0,0
39613,-117.647058823529,4,2,1,90,0,0
43995,-43.4782608695652,4,2,1,90,0,0
44332,-64.5161290322581,4,2,2,90,0,0
44416,-64.5161290322581,4,2,1,90,0,0
44837,-125,4,2,1,90,0,0
46691,-125,4,2,1,80,0,0
47028,-125,4,2,1,70,0,0
47365,-125,4,2,1,60,0,0
47702,-125,4,2,1,90,0,0
54781,-43.4782608695652,4,2,1,90,0,0
55118,-64.5161290322581,4,2,2,90,0,0
55202,-64.5161290322581,4,2,1,90,0,0
55623,-125,4,2,1,90,0,0
57478,-125,4,2,1,80,0,0
57815,-125,4,2,1,70,0,0
58152,-125,4,2,1,60,0,0
58489,-125,4,2,1,90,0,0
60174,-76.9230769230769,4,2,1,90,0,0
61523,-62.5,4,2,1,90,0,0
62197,-1000,4,2,1,90,0,0
62871,-111.111111111111,4,2,1,90,0,0
63545,-100,4,2,1,90,0,0
65231,-50,4,2,1,90,0,0
65568,-64.5161290322581,4,2,1,90,0,1
65652,-64.5161290322581,4,2,1,90,0,0
65905,-64.5161290322581,4,2,2,90,0,0
65989,-64.5161290322581,4,2,1,90,0,0
66410,-117.647058823529,4,2,1,90,0,0
70961,-64.5161290322581,4,2,1,90,0,0
71298,-64.5161290322581,4,2,2,90,0,0
71382,-64.5161290322581,4,2,1,90,0,0
71972,-117.647058823529,4,2,1,90,0,0
76354,-64.5161290322581,4,2,1,90,0,0
76691,-64.5161290322581,4,2,2,90,0,0
76775,-64.5161290322581,4,2,1,90,0,0
77196,-117.647058823529,4,2,1,90,0,0
81747,-64.5161290322581,4,2,1,90,0,0
82084,-64.5161290322581,4,2,2,90,0,0
82168,-64.5161290322581,4,2,1,90,0,0
82590,-117.647058823529,4,2,1,90,0,0
87141,-117.647058823529,4,2,1,90,0,1
87225,-117.647058823529,4,2,1,75,0,0
87815,-117.647058823529,4,2,1,70,0,0
88489,-117.647058823529,4,2,1,65,0,0
89163,-117.647058823529,4,2,1,60,0,0
95736,-90.9090909090909,4,2,1,60,0,0
95905,-117.647058823529,4,2,1,60,0,0
97927,-64.5161290322581,4,2,1,90,0,0
98264,-64.5161290322581,4,2,2,90,0,0
98348,-64.5161290322581,4,2,1,90,0,0
98601,-117.647058823529,4,2,1,90,0,0
103320,-64.5161290322581,4,2,1,90,0,0
103657,-64.5161290322581,4,2,2,90,0,0
103741,-64.5161290322581,4,2,1,90,0,0
103995,-117.647058823529,4,2,1,90,0,0
106691,-105.263157894737,4,2,1,90,0,0
108714,-64.5161290322581,4,2,1,80,0,0
111410,-64.5161290322581,4,2,1,70,0,0
113433,-64.5161290322581,4,2,1,70,0,0
114107,-64.5161290322581,4,2,1,70,0,0
116635,-64.5161290322581,4,2,1,70,0,0
118152,-52.6315789473684,4,2,1,70,0,0
118826,-52.6315789473684,4,2,1,60,0,0
119163,-52.6315789473684,4,2,1,70,0,0
119500,-64.5161290322581,4,2,1,70,0,0
120427,-142.857142857143,4,2,1,70,0,0
124893,-40,4,2,1,90,0,0
125736,-125,4,2,1,70,0,0
130287,-62.5,4,2,1,90,0,0
130624,-64.5161290322581,4,2,2,90,0,0
130708,-64.5161290322581,4,2,1,90,0,0
131129,-125,4,2,1,90,0,0
132983,-125,4,2,1,80,0,0
133320,-125,4,2,1,70,0,0
133657,-125,4,2,1,60,0,0
133995,-125,4,2,1,90,0,0
141073,-64.5161290322581,4,2,1,90,0,0
141410,-64.5161290322581,4,2,2,90,0,0
141494,-64.5161290322581,4,2,1,90,0,0
141747,-125,4,2,1,90,0,0
143770,-125,4,2,1,80,0,0
144107,-125,4,2,1,70,0,0
144444,-125,4,2,1,60,0,0
144782,-125,4,2,1,90,0,0
146466,-76.9230769230769,4,2,1,90,0,0
148489,-1000,4,2,1,90,0,0
149163,-83.3333333333333,4,2,1,90,0,0
151017,-125,4,2,1,80,0,0
151523,-125,4,2,1,90,0,0
151860,-62.5,4,2,1,90,0,1
151944,-62.5,4,2,1,90,0,0
152197,-64.5161290322581,4,2,2,90,0,0
152281,-64.5161290322581,4,2,1,90,0,0
152534,-117.647058823529,4,2,1,90,0,0
157253,-62.5,4,2,1,90,0,0
157590,-64.5161290322581,4,2,2,90,0,0
157674,-64.5161290322581,4,2,1,90,0,0
157927,-117.647058823529,4,2,1,90,0,0
162646,-64.5161290322581,4,2,1,90,0,0
162983,-64.5161290322581,4,2,2,90,0,0
163067,-64.5161290322581,4,2,1,90,0,0
163320,-117.647058823529,4,2,1,90,0,0
168040,-64.5161290322581,4,2,1,90,0,0
168377,-64.5161290322581,4,2,2,90,0,0
168461,-64.5161290322581,4,2,1,90,0,0
168714,-117.647058823529,4,2,1,90,0,0
173433,-117.647058823529,4,2,1,90,0,1
173517,-117.647058823529,4,2,1,75,0,0
174107,-117.647058823529,4,2,1,70,0,0
174781,-117.647058823529,4,2,1,65,0,0
175455,-117.647058823529,4,2,1,60,0,0
182028,-62.5,4,2,1,90,0,0
182365,-117.647058823529,4,2,1,90,0,0
184219,-43.4782608695652,4,2,1,90,0,0
184556,-64.5161290322581,4,2,2,90,0,0
184640,-64.5161290322581,4,2,1,90,0,0
184893,-117.647058823529,4,2,1,90,0,0
189613,-64.5161290322581,4,2,1,90,0,0
189950,-64.5161290322581,4,2,2,90,0,0
190034,-64.5161290322581,4,2,1,90,0,0
190455,-117.647058823529,4,2,1,90,0,0
191635,-105.263157894737,4,2,1,90,0,0
192983,-95.2380952380952,4,2,1,90,0,0
195006,-133.333333333333,4,2,1,70,0,0
205792,-125,4,2,1,60,0,0
211186,-125,4,2,1,65,0,0
213882,-125,4,2,1,70,0,0
216579,-125,4,2,1,75,0,0
217927,-125,4,2,1,80,0,0
219275,-111.111111111111,4,2,1,85,0,0
219950,-100,4,2,1,85,0,0
223320,-64.5161290322581,4,2,1,90,0,1
223405,-64.5161290322581,4,2,1,90,0,0
223657,-64.5161290322581,4,2,2,90,0,0
223741,-64.5161290322581,4,2,1,90,0,0
223995,-117.647058823529,4,2,1,90,0,0
228714,-64.5161290322581,4,2,1,90,0,0
229051,-64.5161290322581,4,2,2,90,0,0
229135,-64.5161290322581,4,2,1,90,0,0
229388,-117.647058823529,4,2,1,90,0,0
234107,-64.5161290322581,4,2,1,90,0,0
234444,-64.5161290322581,4,2,2,90,0,0
234528,-64.5161290322581,4,2,1,90,0,0
234781,-117.647058823529,4,2,1,90,0,0
239500,-62.5,4,2,1,90,0,0
239837,-64.5161290322581,4,2,2,90,0,0
239921,-64.5161290322581,4,2,1,90,0,0
240174,-117.647058823529,4,2,1,90,0,0
242197,-100,4,2,1,90,0,0
242534,-64.5161290322581,4,2,2,90,0,0
242618,-64.5161290322581,4,2,1,90,0,0
243040,-117.647058823529,4,2,1,90,0,0
244893,-43.4782608695652,4,2,1,90,0,1
244978,-43.4782608695652,4,2,1,80,0,0
245568,-43.4782608695652,4,2,1,75,0,0
246242,-43.4782608695652,4,2,1,70,0,0
246916,-43.4782608695652,4,2,1,65,0,0
247590,-125,4,2,1,90,0,0
250287,-64.5161290322581,4,2,1,90,0,0
250624,-64.5161290322581,4,2,2,90,0,0
250708,-64.5161290322581,4,2,1,90,0,0
251129,-125,4,2,1,90,0,0
253489,-50,4,2,1,90,0,0
253826,-125,4,2,1,90,0,0
255680,-62.5,4,2,1,90,0,0
256017,-64.5161290322581,4,2,2,90,0,0
256101,-64.5161290322581,4,2,1,90,0,0
256691,-125,4,2,1,90,0,0
261073,-64.5161290322581,4,2,1,90,0,0
261410,-64.5161290322581,4,2,2,90,0,0
261494,-64.5161290322581,4,2,1,90,0,0
262084,-125,4,2,1,90,0,0
263770,-105.263157894737,4,2,1,90,0,0
264444,-95.2380952380952,4,2,1,90,0,0
266466,-5,4,2,1,100,0,1
266804,-64.5161290322581,4,2,2,100,0,0
266888,-64.5161290322581,4,2,1,100,0,0
267141,-117.647058823529,4,2,1,100,0,0
267309,-125,4,2,1,70,0,0
271860,-76.9230769230769,4,2,1,70,0,0
272197,-76.9230769230769,4,2,2,70,0,0
272281,-76.9230769230769,4,2,1,70,0,0
272534,-125,4,2,1,70,0,0
277253,-76.9230769230769,4,2,1,70,0,0
277506,-125,4,2,1,70,0,0
277590,-125,4,2,2,70,0,0
277674,-125,4,2,1,70,0,0
282646,-90.9090909090909,4,2,1,70,0,0
282983,-90.9090909090909,4,2,2,70,0,0
283068,-90.9090909090909,4,2,1,70,0,0
283489,-125,4,2,1,70,0,0

[Colours]
Combo1 : 74,186,189
Combo2 : 90,239,191
Combo3 : 89,138,213

[HitObjects]
256,192,10287,12,0,11298,0:0:0:0:
390,260,11635,6,0,P|367:172|242:129,1,209.999993591309,4|0,0:0|0:0,0:0:0:0:
114,197,12141,2,0,P|51:157|130:66,1,209.999993591309,2|0,0:0|0:0,0:0:0:0:
260,64,12646,2,0,L|277:212,1,104.999996795654,2|0,0:0|0:0,0:0:0:0:
118,152,12983,6,0,L|101:300,1,104.999996795654,2|0,0:0|0:0,0:0:0:0:
274,238,13320,2,0,L|356:238,2,52.4999983978272,2|0|0,0:0|0:0|0:0,0:0:0:0:
127,297,13657,1,2,0:0:0:0:
336,348,13910,2,0,L|346:198,1,104.999996795654,2|0,0:0|0:0,0:0:0:0:
270,225,14163,1,2,0:0:0:0:
121,184,14332,6,0,L|251:165,1,104.999996795654,2|0,0:0|0:0,0:0:0:0:
391,184,14669,2,0,L|261:165,1,104.999996795654,2|0,0:0|0:0,0:0:0:0:
149,232,15006,1,2,0:0:0:0:
291,165,15174,2,0,L|294:151,8,13.1249995994568,2|0|0|0|0|0|0|0|0,0:0|0:0|0:0|0:0|0:0|0:0|0:0|0:0|0:0,0:0:0:0:
135,129,15511,6,0,L|124:263,1,104.999996795654,2|0,0:0|3:0,0:0:0:0:
270,235,15848,1,2,0:0:0:0:
128,327,16017,2,0,L|117:236,3,52.4999983978272,2|0|0|0,0:0|0:0|0:0|0:0,0:0:0:0:
211,294,16354,1,2,0:0:0:0:
40,247,16607,1,2,0:0:0:0:
209,209,16860,2,0,L|260:209,2,34.9999989318848,2|0|0,0:0|0:0|0:0,0:0:0:0:
77,57,17028,6,0,L|64:179,1,104.999996795654,4|2,3:2|0:0,0:0:0:0:
229,58,17365,2,0,L|216:180,1,104.999996795654,0|2,3:0|0:0,0:0:0:0:
369,107,17702,1,2,3:0:0:0:
436,108,17815,1,2,0:0:0:0:
369,107,17927,1,2,0:0:0:0:
271,161,18040,2,0,L|139:161,1,104.999996795654,2|2,2:0|0:0,0:0:0:0:
435,57,18377,6,0,L|448:179,1,104.999996795654,4|2,3:2|0:0,0:0:0:0:
283,58,18714,2,0,L|296:180,1,104.999996795654,0|2,3:0|0:0,0:0:0:0:
126,114,19051,2,0,L|242:112,1,104.999996795654,2|0,0:0|0:0,0:0:0:0:
409,150,19388,2,0,L|293:148,1,104.999996795654,2|0,0:0|0:0,0:0:0:0:
54,199,19725,6,0,L|217:198,3,127.50000243187,2|0|0|0,0:0|3:0|3:0|3:0,0:0:0:0:
458,199,20399,2,0,L|295:198,3,127.50000243187,2|0|0|0,0:0|3:0|3:0|3:0,0:0:0:0:
174,284,21073,5,2,2:0:0:0:
127,263,21157,1,0,3:0:0:0:
111,211,21242,1,0,3:0:0:0:
135,156,21326,1,0,3:0:0:0:
338,284,21410,1,0,3:0:0:0:
385,263,21494,1,0,3:0:0:0:
401,211,21579,1,0,3:0:0:0:
377,156,21663,1,0,3:0:0:0:
175,104,21747,1,2,2:0:0:0:
119,84,21832,1,0,3:0:0:0:
119,84,21916,1,2,3:0:0:0:
175,104,22000,1,2,3:0:0:0:
368,104,22084,1,8,0:0:0:0:
488,192,22422,6,0,B|23:192|23:192|23:192|23:192|488:192,1,930.000010643004,12|2,1:1|0:0,0:0:0:0:
206,251,23264,1,0,3:0:0:0:
340,200,23433,2,0,L|346:347,1,127.50000243187,8|0,0:0|0:0,0:0:0:0:
71,92,23770,6,0,L|65:239,1,127.50000243187,2|0,3:0|0:0,0:0:0:0:
210,152,24107,1,8,0:0:0:0:
66,221,24275,1,0,0:0:0:0:
141,200,24360,2,0,P|131:131|15:73,1,191.250003647804,8|0,0:0|3:0,2:0:0:0:
185,99,24781,2,0,L|314:84,1,127.50000243187,8|0,0:0|0:0,0:0:0:0:
52,332,25118,6,0,L|44:195,1,127.50000243187,2|0,3:0|0:0,0:0:0:0:
184,195,25455,1,8,0:0:0:0:
472,230,25624,2,0,L|480:93,1,127.50000243187,2|0,2:0|0:0,0:0:0:0:
333,85,25961,2,0,L|459:31,2,127.50000243187,2|10|2,3:0|0:0|0:0,0:0:0:0:
92,231,26466,6,0,P|26:169|112:44,1,255.000004863739,2|8,3:0|0:0,0:0:0:0:
238,66,26972,2,0,L|150:41,1,63.7500012159348,2|0,0:0|0:0,0:0:0:0:
302,155,27225,2,0,L|390:130,1,63.7500012159348,8|2,0:0|3:0,0:0:0:0:
179,125,27478,1,10,0:0:0:0:
361,60,27646,1,2,0:0:0:0:
24,192,27815,6,0,B|489:192|489:192|10:192,1,930.000007095337,4|0,1:0|0:0,0:0:0:0:
171,224,28657,2,0,L|31:266,2,127.50000243187,2|10|2,3:0|0:0|0:0,0:0:0:0:
300,131,29163,6,0,L|311:262,1,127.50000243187,2|0,3:0|0:0,0:0:0:0:
242,256,29416,1,0,0:0:0:0:
310,258,29500,1,10,0:0:0:0:
444,235,29669,2,0,L|453:317,1,63.7500012159348,2|8,0:0|0:0,0:0:0:0:
376,298,29837,1,2,0:0:0:0:
197,360,30006,2,0,L|332:360,2,127.50000243187,0|10|2,3:0|0:0|0:0,0:0:0:0:
474,240,30511,6,0,P|452:165|295:86,1,255.000004863739,0|10,3:0|0:0,0:0:0:0:
454,58,31017,1,2,0:0:0:0:
305,88,31186,2,0,L|448:117,1,127.50000243187,0|0,0:0|3:0,0:0:0:0:
165,202,31523,1,8,0:0:0:0:
292,260,31691,6,0,L|435:289,1,127.50000243187,0|0,0:0|3:0,0:0:0:0:
145,350,32028,2,0,L|122:210,1,127.50000243187,0|8,0:0|0:0,0:0:0:0:
309,178,32365,1,2,3:0:0:0:
370,157,32450,1,2,3:0:0:0:
309,178,32534,1,2,0:0:0:0:
201,91,32618,1,10,0:0:0:0:
141,108,32702,1,2,3:0:0:0:
201,91,32787,1,2,0:0:0:0:
343,343,32871,1,10,0:0:0:0:
406,347,32955,1,10,0:0:0:0:
156,341,33040,1,2,0:0:0:0:
93,345,33124,1,2,3:0:0:0:
351,17,33208,6,0,B|491:368|491:368|491:368|491:368|254:78|254:78|254:78|254:78|17:368|17:368|17:368|17:368|17:368|17:368|159:18,1,1500,12|2,1:1|0:0,0:0:0:0:
13,12,34051,1,0,3:0:0:0:
144,64,34219,2,0,L|282:65,1,127.50000243187,8|0,0:0|0:0,0:0:0:0:
28,329,34556,6,0,P|44:237|211:178,1,255.000004863739,2|8,3:0|0:0,0:0:0:0:
332,120,35062,2,0,L|338:200,1,63.7500012159348,0|8,0:0|0:0,0:0:0:0:
171,255,35315,2,0,L|165:335,1,63.7500012159348,0|0,0:0|3:0,0:0:0:0:
481,233,35568,1,8,0:0:0:0:
337,233,35736,1,0,0:0:0:0:
31,249,35905,6,0,P|46:181|205:103,1,255.000004863739,2|8,3:0|0:0,0:0:0:0:
346,63,36410,2,0,L|209:43,1,127.50000243187,2|0,0:0|0:0,0:0:0:0:
54,163,36747,2,0,L|191:143,1,127.50000243187,2|8,3:0|0:0,0:0:0:0:
345,185,37084,1,2,0:0:0:0:
65,338,37253,6,0,L|54:204,1,127.50000243187,2|2,3:0|0:0,0:0:0:0:
187,187,37590,1,8,0:0:0:0:
327,243,37759,2,0,L|239:221,1,63.7500012159348,2|0,0:0|0:0,0:0:0:0:
386,135,38011,2,0,L|474:113,1,63.7500012159348,8|0,0:0|3:0,0:0:0:0:
300,31,38264,2,0,L|449:28,1,127.50000243187,10|2,0:0|0:0,0:0:0:0:
160,17,38601,6,0,B|20:368|20:368|20:368|20:368|257:78|257:78|257:78|257:78|494:368|494:368|494:368|494:368|494:368|494:368|352:18,1,1500,4|0,1:0|0:0,0:0:0:0:
496,19,39444,1,2,3:0:0:0:
253,232,39613,2,0,L|123:255,1,127.50000243187,10|2,0:0|0:0,0:0:0:0:
277,167,39950,5,2,3:0:0:0:
127,205,40118,2,0,L|36:181,2,63.7500012159348,0|0|10,0:0|0:0|0:0,0:0:0:0:
286,254,40455,2,0,L|289:350,1,63.7500012159348,0|8,0:0|0:0,0:0:0:0:
203,332,40624,2,0,L|363:366,1,127.50000243187,2|0,2:0|3:0,0:0:0:0:
163,259,40961,2,0,L|3:293,1,127.50000243187,10|2,0:0|0:0,0:0:0:0:
343,216,41298,6,0,P|326:149|147:61,1,255.000004863739,0|10,3:0|0:0,0:0:0:0:
326,60,41804,2,0,L|468:119,2,127.50000243187,2|0|0,0:0|0:0|3:0,0:0:0:0:
86,178,42309,1,8,0:0:0:0:
213,236,42477,2,0,L|356:265,1,127.50000243187,0|0,0:0|3:0,0:0:0:0:
66,326,42814,6,0,L|43:186,1,127.50000243187,0|8,0:0|0:0,0:0:0:0:
289,112,43152,1,0,3:0:0:0:
329,102,43194,1,0,3:0:0:0:
289,112,43236,1,0,3:0:0:0:
113,178,43320,1,0,3:0:0:0:
105,115,43405,1,8,0:0:0:0:
295,264,43489,1,0,3:0:0:0:
303,201,43574,1,8,0:0:0:0:
110,264,43657,1,10,0:0:0:0:
41,264,43742,1,8,0:0:0:0:
110,264,43826,1,8,0:0:0:0:
179,263,43910,1,0,3:0:0:0:
464,348,43995,6,0,B|464:3|464:3|304:67|304:67|144:1|144:1|144:347|144:347|304:281|304:281|494:351,1,1380.00002632141,12|0,1:0|0:0,0:0:0:0:
318,282,44837,2,0,L|175:310,2,120,2|10|2,3:0|0:0|0:0,0:0:0:0:
460,194,45343,6,0,L|469:326,1,120,2|2,3:0|0:0,0:0:0:0:
320,282,45680,1,10,0:0:0:0:
468,315,45848,2,0,L|377:309,1,60,2|8,0:0|0:0,0:0:0:0:
309,343,46017,2,0,L|144:331,1,120,2|2,0:0|3:0,0:0:0:0:
341,228,46354,2,0,L|506:216,1,120,10|0,0:0|0:0,0:0:0:0:
176,252,46691,5,2,3:2:0:0:
97,237,46775,1,2,0:0:0:0:
65,183,46860,1,2,0:0:0:0:
96,131,46944,1,2,0:0:0:0:
187,163,47028,1,10,0:0:0:0:
261,147,47112,1,2,0:0:0:0:
287,92,47197,1,2,0:0:0:0:
262,41,47281,1,2,0:0:0:0:
195,124,47365,1,2,0:0:0:0:
128,109,47449,1,2,0:0:0:0:
108,56,47534,1,2,3:0:0:0:
130,3,47618,1,2,0:0:0:0:
203,31,47702,2,0,L|359:38,1,120,10|0,0:0|0:0,0:0:0:0:
29,228,48040,6,0,L|182:217,2,120,2|2|10,3:0|0:0|0:0,0:0:0:0:
174,196,48545,2,0,L|179:291,1,60,2|8,0:0|0:0,0:0:0:0:
389,213,48714,2,0,L|484:223,2,60,0|8|2,0:0|2:0|3:0,0:0:0:0:
154,364,49051,2,0,L|27:376,1,120,10|0,0:0|0:0,0:0:0:0:
336,347,49388,6,0,L|341:222,1,120,0|0,3:0|0:0,0:0:0:0:
197,229,49725,1,8,0:0:0:0:
341,227,49893,1,0,0:0:0:0:
37,231,50062,2,0,P|56:158|206:97,1,240,2|10,0:0|0:0,0:0:0:0:
66,94,50568,1,0,0:0:0:0:
213,177,50736,6,0,P|278:149|196:38,1,240,2|8,3:0|0:0,0:0:0:0:
106,98,51242,2,0,L|101:183,1,60,0|8,0:0|0:0,0:0:0:0:
196,137,51410,2,0,L|324:128,1,120,2|0,0:0|3:0,0:0:0:0:
472,233,51747,2,0,L|344:224,1,120,10|0,0:0|0:0,0:0:0:0:
46,281,52084,6,0,P|60:211|208:132,1,240,2|8,3:0|0:0,0:0:0:0:
356,129,52590,1,0,0:0:0:0:
51,240,52759,2,0,L|40:102,1,120,2|0,0:0|3:0,0:0:0:0:
174,85,53096,1,8,0:0:0:0:
406,162,53264,1,2,0:0:0:0:
130,308,53433,6,0,L|121:174,1,120,2|0,3:0|0:0,0:0:0:0:
205,203,53686,2,0,P|265:180|205:70,1,180
126,128,54107,2,0,L|24:128,1,60,2|8,0:0|0:0,0:0:0:0:
227,183,54360,1,8,0:0:0:0:
392,255,54444,2,0,L|452:255,2,60,8|8|8,0:0|0:0|0:0,0:0:0:0:
48,347,54781,6,0,B|48:2|48:2|208:66|208:66|368:0|368:0|368:346|368:346|208:280|208:280|18:350,1,1380.00002632141,12|0,1:0|0:0,0:0:0:0:
316,80,55624,2,0,L|325:235,1,120,2|10,3:0|0:0,0:0:0:0:
185,197,55961,1,2,0:0:0:0:
342,263,56129,6,0,L|477:242,2,120,2|2|10,3:0|0:0|0:0,0:0:0:0:
191,330,56635,2,0,L|189:250,1,60,2|8,0:0|0:0,0:0:0:0:
272,229,56804,2,0,L|137:208,1,120,2|2,0:0|3:0,0:0:0:0:
309,130,57141,2,0,L|444:109,1,120,10|0,2:0|0:0,0:0:0:0:
176,252,57478,5,2,0:0:0:0:
97,237,57562,1,2,0:0:0:0:
65,183,57647,1,2,0:0:0:0:
96,131,57731,1,2,0:0:0:0:
187,163,57815,1,10,0:0:0:0:
261,147,57899,1,2,0:0:0:0:
287,92,57984,1,2,0:0:0:0:
262,41,58068,1,2,0:0:0:0:
195,124,58152,1,2,0:0:0:0:
128,109,58236,1,2,0:0:0:0:
108,56,58321,1,2,3:0:0:0:
130,3,58405,1,2,0:0:0:0:
203,31,58489,2,0,L|359:38,1,120,8|0,0:0|0:0,0:0:0:0:
70,349,58826,6,0,L|62:195,1,120,2|2,3:0|0:0,0:0:0:0:
202,197,59163,1,10,0:0:0:0:
58,149,59332,2,0,L|159:143,1,60,2|8,0:0|0:0,0:0:0:0:
300,243,59500,1,0,0:0:0:0:
359,239,59584,1,8,0:0:0:0:
419,236,59668,1,2,3:0:0:0:
170,144,59837,1,10,0:0:0:0:
338,132,60006,1,0,0:0:0:0:
53,334,60174,6,0,B|53:188|53:188|254:18,3,389.999982147218,2|0|0|0,0:0|3:0|3:0|3:0,0:0:0:0:
401,66,61354,1,0,3:0:0:0:
167,171,61523,5,2,0:0:0:0:
28,172,61691,1,0,3:0:0:0:
345,171,61860,1,0,3:0:0:0:
484,172,62028,1,0,3:0:0:0:
211,320,62197,6,0,L|211:296,1,22.5,0|0,3:0|3:0,0:0:0:0:
302,295,62534,2,0,L|302:309,1,15,0|0,3:0|3:0,0:0:0:0:
34,137,62871,6,0,L|218:136,3,134.999995880127,2|0|0|0,0:0|3:0|3:0|3:0,0:0:0:0:
478,137,63545,2,0,L|294:136,3,150,2|0|0|0,2:0|3:0|3:0|3:0,3:0:0:0:
80,346,64219,6,0,L|76:250,1,75,2|0,2:2|3:0,3:0:0:0:
159,263,64388,2,0,L|154:165,1,75,0|0,3:0|3:0,3:0:0:0:
327,81,64556,2,0,L|420:103,1,75,0|0,3:0|3:0,3:0:0:0:
185,81,64725,2,0,L|92:103,1,75,0|0,3:0|3:0,3:0:0:0:
424,209,64893,2,0,L|349:209,1,75,2|0,2:2|3:0,3:0:0:0:
88,209,65062,2,0,L|163:209,1,75,0|0,3:0|3:0,3:0:0:0:
485,303,65231,2,0,L|19:304,1,450,8|0,2:2|0:0,0:0:0:0:
256,192,65568,6,0,B|489:192|489:192|488:192|488:192|23:192|23:192|23:192|23:192|256:192,1,930.500012416838,12|0,1:0|0:0,0:0:0:0:
396,142,66410,1,0,3:0:0:0:
127,314,66579,2,0,L|112:176,1,127.50000243187,10|2,0:0|0:0,0:0:0:0:
269,147,66916,6,0,L|111:130,2,127.50000243187,2|0|8,3:0|0:0|0:0,0:0:0:0:
414,83,67422,2,0,L|421:155,1,63.7500012159348,0|8,0:0|0:0,0:0:0:0:
269,147,67590,2,0,L|111:130,1,127.50000243187,2|2,0:0|3:0,0:0:0:0:
314,334,67843,2,0,L|445:276,1,127.50000243187
346,283,68096,1,0,0:0:0:0:
52,243,68264,5,0,3:0:0:0:
191,190,68433,2,0,L|203:341,1,127.50000243187,0|10,0:0|0:0,0:0:0:0:
58,341,68770,1,2,0:0:0:0:
213,340,68938,2,0,P|271:308|174:174,1,255.000004863739,2|10,0:0|0:0,0:0:0:0:
475,118,69444,6,0,L|334:96,1,127.50000243187,0|2,0:0|3:0,0:0:0:0:
185,200,69781,2,0,L|326:178,1,127.50000243187,2|10,0:0|0:0,0:0:0:0:
466,194,70118,2,0,L|472:267,1,63.7500012159348,2|0,0:0|0:0,0:0:0:0:
382,281,70287,2,0,L|267:268,2,63.7500012159348,2|8|2,0:0|0:0|3:0,0:0:0:0:
233,359,70624,2,0,L|374:344,1,127.50000243187,10|2,0:0|0:0,0:0:0:0:
24,352,70961,6,0,B|256:352|256:352|489:353|489:353|257:352|257:352|503:353,1,930.000007095337,4|2,1:0|0:0,0:0:0:0:
338,161,71804,1,2,3:0:0:0:
474,224,71972,2,0,L|485:398,1,127.50000243187,8|2,0:0|0:0,0:0:0:0:
157,283,72309,6,0,L|-16:258,2,127.50000243187,0|0|8,3:0|0:0|0:0,0:0:0:0:
314,155,72815,2,0,L|322:63,1,63.7500012159348,2|8,0:0|0:0,0:0:0:0:
146,155,72983,2,0,L|-14:117,1,127.50000243187,2|2,0:0|3:0,0:0:0:0:
161,76,73320,2,0,L|321:38,1,127.50000243187,8|2,0:0|0:0,0:0:0:0:
145,249,73657,6,0,P|73:211|162:97,1,255.000004863739,2|10,3:0|0:0,0:0:0:0:
434,303,74163,2,0,L|445:174,1,127.50000243187,2|0,0:0|0:0,0:0:0:0:
290,137,74500,2,0,L|166:168,1,127.50000243187,2|8,3:0|0:0,0:0:0:0:
314,240,74837,2,0,L|405:250,1,63.7500012159348,2|0,0:0|0:0,0:0:0:0:
226,312,75006,6,0,L|92:331,1,127.50000243187,2|0,3:0|0:0,0:0:0:0:
273,119,75259,2,0,L|399:169,1,127.50000243187,2|0,0:0|0:0,0:0:0:0:
313,202,75511,2,0,L|305:112,1,63.7500012159348,2|0,0:0|0:0,0:0:0:0:
392,166,75680,1,2,0:0:0:0:
452,142,75764,1,8,0:0:0:0:
465,89,75848,1,0,3:0:0:0:
440,29,75933,1,8,0:0:0:0:
275,72,76017,2,0,L|188:71,1,63.7500012159348,10|10,0:0|0:0,0:0:0:0:
427,224,76186,2,0,L|514:223,1,63.7500012159348,10|2,0:0|0:0,0:0:0:0:
256,192,76354,6,0,B|23:192|23:192|24:192|24:192|489:192|489:192|489:192|489:192|256:192,1,930.500012416838,12|0,1:0|0:0,0:0:0:0:
116,142,77196,1,0,3:0:0:0:
409,67,77365,2,0,L|425:230,1,127.50000243187,10|2,0:0|0:0,0:0:0:0:
135,311,77702,6,0,P|63:273|152:159,1,255.000004863739,2|8,3:0|0:0,0:0:0:0:
275,240,78208,2,0,L|273:160,1,63.7500012159348,0|8,0:0|0:0,0:0:0:0:
355,138,78377,2,0,L|219:110,1,127.50000243187,2|2,0:0|3:0,0:0:0:0:
66,159,78714,2,0,L|198:134,1,127.50000243187,10|0,0:0|0:0,0:0:0:0:
458,84,79051,6,0,L|471:239,1,127.50000243187,0|0,3:0|0:0,0:0:0:0:
333,230,79388,1,10,0:0:0:0:
471,210,79556,1,2,0:0:0:0:
182,237,79725,2,0,P|186:158|348:81,1,255.000004863739,2|10,0:0|0:0,0:0:0:0:
463,73,80231,1,2,0:0:0:0:
206,197,80399,6,0,L|64:166,1,127.50000243187,2|2,3:0|0:0,0:0:0:0:
160,161,80652,2,0,L|302:130,1,127.50000243187
75,284,80905,2,0,L|68:198,1,63.7500012159348,2|0,0:0|0:0,0:0:0:0:
277,102,81073,2,0,L|356:103,2,63.7500012159348,2|8|2,0:0|0:0|3:0,0:0:0:0:
111,196,81410,2,0,L|239:197,1,127.50000243187,10|2,0:0|0:0,0:0:0:0:
488,352,81747,6,0,B|256:352|256:352|23:353|23:353|255:352|255:352|9:353,1,930.000007095337,4|2,1:0|0:0,0:0:0:0:
389,146,82590,2,0,L|249:144,2,127.50000243187,2|8|2,3:0|0:0|0:0,0:0:0:0:
94,186,83096,6,0,L|86:47,1,127.50000243187,0|0,3:0|0:0,0:0:0:0:
243,301,83433,2,0,P|299:264|230:184,1,191.250003647804,8|8,0:0|0:0,0:0:0:0:
168,170,83770,2,0,L|323:131,1,127.50000243187,2|0,0:0|3:0,0:0:0:0:
443,163,84107,1,10,0:0:0:0:
292,137,84275,1,2,0:0:0:0:
48,290,84444,6,0,L|48:148,1,127.50000243187,2|0,3:0|0:0,0:0:0:0:
199,188,84781,1,8,0:0:0:0:
48,162,84949,1,2,0:0:0:0:
373,164,85118,1,2,0:0:0:0:
48,162,85287,2,0,L|195:163,1,127.50000243187,2|8,3:0|0:0,0:0:0:0:
328,279,85624,2,0,L|235:277,1,63.7500012159348,2|0,0:0|0:0,0:0:0:0:
79,347,85792,6,0,P|28:302|94:212,1,191.250003647804,2|0,3:0|0:0,0:0:0:0:
157,223,86129,1,10,0:0:0:0:
271,53,86298,2,0,L|362:54,1,63.7500012159348,2|0,0:0|0:0,0:0:0:0:
129,106,86466,2,0,L|114:210,1,63.7500012159348,0|8,0:0|0:0,0:0:0:0:
285,187,86635,2,0,L|300:291,1,63.7500012159348,0|8,3:0|0:0,0:0:0:0:
33,314,86804,2,0,L|134:313,1,63.7500012159348,10|8,0:0|0:0,0:0:0:0:
262,351,86972,2,0,L|326:351,1,63.7500012159348,8|0,0:0|0:0,0:0:0:0:
96,226,87141,5,8,1:2:0:0:
256,192,87225,12,0,89837,0:0:0:0:
329,77,95231,6,0,L|339:210,1,127.50000243187,2|0,0:0|0:0,0:0:0:0:
182,199,95568,1,8,0:0:0:0:
487,217,95736,2,0,B|329:169|329:169|503:217,1,330.000010070801,0|2,1:0|0:0,0:0:0:0:
178,117,96242,2,0,L|181:203,1,63.7500012159348,8|0,0:0|0:0,0:0:0:0:
100,173,96410,2,0,L|95:259,1,63.7500012159348
273,180,96579,6,0,L|282:51,1,127.50000243187,0|2,1:0|0:0,0:0:0:0:
431,205,96916,1,8,0:0:0:0:
190,220,97084,1,0,3:0:0:0:
120,201,97168,2,0,L|117:67,1,127.50000243187,0|0,3:0|3:0,0:0:0:0:
295,83,97422,2,0,L|297:179,1,63.7500012159348,8|8,0:0|0:0,0:0:0:0:
108,291,97590,2,0,L|26:296,2,63.7500012159348,8|8|8,0:0|0:0|0:0,0:0:0:0:
488,192,97927,6,0,B|23:192|23:192|23:192|23:192|488:192,1,930.000010643004,4|2,1:0|0:0,0:0:0:0:
350,260,98770,2,0,L|334:114,1,127.50000243187,0|10,3:0|0:0,0:0:0:0:
186,172,99107,2,0,L|195:92,1,63.7500012159348,2|0,0:0|0:0,0:0:0:0:
274,90,99275,5,2,3:0:0:0:
132,111,99444,2,0,L|123:31,1,63.7500012159348,2|0,0:0|0:0,0:0:0:0:
300,189,99613,2,0,L|208:188,1,63.7500012159348,10|0,0:0|0:0,0:0:0:0:
39,195,99781,2,0,L|131:194,1,63.7500012159348,2|8,0:0|0:0,0:0:0:0:
262,272,99950,2,0,L|399:272,1,127.50000243187,0|2,0:0|3:0,0:0:0:0:
249,352,100287,2,2,L|240:266,1,63.7500012159348,10|2,0:0|0:0,0:0:0:0:
412,178,100455,2,2,L|323:178,1,63.7500012159348,0|0,0:0|0:0,0:0:0:0:
145,176,100624,5,0,3:0:0:0:
278,116,100792,2,0,L|294:254,1,127.50000243187,2|8,0:0|0:0,0:0:0:0:
445,267,101129,1,0,0:0:0:0:
312,207,101297,2,0,L|296:345,1,127.50000243187,2|2,0:0|3:0,0:0:0:0:
155,290,101635,1,8,0:0:0:0:
309,286,101804,1,2,0:0:0:0:
76,120,101972,6,0,L|-6:107,2,63.7500012159348,0|0|2,3:0|0:0|0:0,0:0:0:0:
180,84,102225,2,0,L|191:176,1,63.7500012159348,0|8,0:0|0:0,0:0:0:0:
57,249,102478,2,0,L|140:237,1,63.7500012159348,2|2,0:0|0:0,0:0:0:0:
267,235,102646,2,0,L|350:223,2,63.7500012159348,0|8|0,0:0|0:0|3:0,0:0:0:0:
108,284,102983,2,0,L|98:153,1,127.50000243187,8|2,0:0|0:0,0:0:0:0:
488,192,103320,6,0,B|23:192|23:192|23:192|23:192|257:192|257:192|7:193,1,930.000007095337,4|0,1:0|3:0,0:0:0:0:
313,192,104163,1,0,3:0:0:0:
177,193,104332,1,2,3:2:0:0:
313,192,104500,1,2,0:0:0:0:
41,288,104669,6,0,L|186:275,1,127.50000243187,0|0,3:0|0:0,0:0:0:0:
412,341,105006,2,0,P|406:261|244:179,1,255.000004863739,0|0,3:0|3:0,0:0:0:0:
128,217,105511,1,2,2:0:0:0:
270,176,105680,1,2,3:2:0:0:
28,108,105848,1,0,0:0:0:0:
354,78,106017,6,0,L|488:78,3,127.50000243187,2|0|0|0,2:2|3:0|3:0|3:0,0:0:0:0:
168,78,106691,2,0,L|24:78,3,142.49999619484,2|0|0|0,2:2|3:0|3:0|3:0,0:0:0:0:
93,79,107281,1,0,3:0:0:0:
332,252,107365,6,2,L|338:161,1,71.2499980974198,2|2,3:2|3:2,3:2:0:0:
266,149,107534,1,0,3:0:0:0:
96,208,107618,2,0,L|14:186,2,71.2499980974198,2|0|0,3:2|3:0|3:0,3:0:0:0:
266,307,107871,2,2,L|344:306,1,71.2499980974198,2|2,3:2|3:2,3:2:0:0:
109,319,108040,5,2,0:0:0:0:
34,296,108124,1,2,0:0:0:0:
109,319,108208,1,2,0:0:0:0:
184,343,108292,1,2,0:0:0:0:
365,223,108377,1,10,0:0:0:0:
295,233,108461,1,2,0:0:0:0:
135,151,108545,1,2,0:0:0:0:
65,161,108629,1,2,0:0:0:0:
292,179,108714,6,0,B|455:13|455:13|129:346|129:346|293:177,1,930.000007095337,12|0,1:1|0:0,0:0:0:0:
247,77,110905,1,2,0:0:0:0:
135,147,111073,1,2,0:0:0:0:
247,77,111242,1,2,0:0:0:0:
484,226,111410,6,0,P|349:273|303:205,1,232.500001773834,0|0,1:0|0:0,0:0:0:0:
306,219,111747,2,0,P|219:152|128:212,1,232.500001773834,0|0,1:0|0:0,0:0:0:0:
374,140,113264,2,0,L|375:381,1,232.500001773834
43,284,113601,2,0,B|203:115|203:115|203:115|203:115|43:284,1,465.00000812281,2|0,0:0|0:0,0:0:0:0:
361,287,114107,6,0,B|204:116|204:116|204:116|204:116|361:287|361:287|361:287|361:287|361:287|361:287|204:116|204:116|204:116|204:116|361:287,1,930.000070432096,0|0,1:0|0:0,0:0:0:0:
49,234,116635,6,0,P|136:167|227:227,1,232.500001773834,0|0,1:0|0:0,0:0:0:0:
43,224,117983,5,0,1:0:0:0:
42,320,118152,2,0,L|477:320,2,427.499988584519,0|0|0,1:0|1:0|1:0,1:0:0:0:
291,319,118826,5,2,0:0:0:0:
343,294,118910,1,2,0:0:0:0:
364,244,118995,1,2,0:0:0:0:
340,193,119079,1,2,0:0:0:0:
255,175,119163,1,2,0:0:0:0:
247,102,119247,1,2,0:0:0:0:
402,80,119332,1,2,0:0:0:0:
467,81,119416,1,2,0:0:0:0:
257,200,119500,6,0,B|98:29|98:29|416:368|416:368|237:178,1,930.000007095337,8|2,1:0|0:0,0:0:0:0:
425,248,120511,5,0,0:0:0:0:
437,140,120680,1,0,0:0:0:0:
272,174,120848,6,0,L|78:146,2,157.499995193482,2|0|0,0:0|0:0|0:0,0:0:0:0:
437,228,121523,2,0,L|196:275,1,209.999993591309,2|0,0:0|0:0,0:0:0:0:
371,232,122028,1,2,0:0:0:0:
138,228,122197,6,0,P|67:189|154:134,1,209.999993591309,2|0,0:0|0:0,0:0:0:0:
306,77,122702,2,0,L|98:54,2,209.999993591309,2|2|2,0:0|0:0|0:0,0:0:0:0:
441,245,123545,5,2,0:0:0:0:
453,137,123714,1,2,0:0:0:0:
235,229,124051,2,0,P|183:204|245:96,1,209.999993591309,2|0,0:0|0:0,0:0:0:0:
395,162,124556,1,2,0:0:0:0:
407,54,124725,1,2,0:0:0:0:
96,262,124893,6,0,L|463:16,3,375,0|0|0|0,1:0|1:0|1:0|1:0,1:0:0:0:
184,217,125736,6,0,P|120:184|200:68,1,240,2|0,0:0|0:0,0:0:0:0:
340,164,126242,2,0,L|139:128,2,180,2|0|0,0:0|0:0|0:0,0:0:0:0:
190,207,126916,2,0,L|335:190,2,120,2|2|2,0:0|0:0|0:0,0:0:0:0:
339,259,127422,6,0,P|325:183|160:123,1,240,2|2,0:0|0:0,0:0:0:0:
51,180,127927,1,2,0:0:0:0:
40,67,128096,1,2,0:0:0:0:
352,143,128601,5,2,0:0:0:0:
213,200,128770,2,0,L|204:69,1,120,2|0,0:0|0:0,0:0:0:0:
364,175,129107,1,2,0:0:0:0:
200,108,129275,1,2,0:0:0:0:
364,175,129444,5,2,0:0:0:0:
426,152,129529,1,2,0:0:0:0:
444,95,129613,1,2,0:0:0:0:
426,44,129697,1,2,0:0:0:0:
251,80,129781,2,0,L|203:80,2,40,2|0|0,3:2|3:0|3:0,3:0:0:0:
454,190,129950,2,0,L|298:194,1,120,8|0,0:0|0:0,0:0:0:0:
23,184,130287,6,0,B|263:184|263:184|23:184|23:184|264:184|264:184|23:184,1,960,12|0,1:1|0:0,0:0:0:0:
275,331,131129,1,2,3:0:0:0:
123,318,131298,2,0,L|107:195,1,120,10|2,0:0|0:0,0:0:0:0:
269,173,131635,6,2,L|399:184,2,120,2|2|10,3:0|0:0|0:0,0:0:0:0:
120,90,132141,2,0,L|115:163,1,60,2|8,0:0|0:0,0:0:0:0:
193,205,132309,2,0,L|60:224,1,120,2|2,0:0|3:0,0:0:0:0:
251,302,132646,2,0,L|384:321,1,120,10|0,0:0|0:0,0:0:0:0:
85,352,132983,5,2,0:0:0:0:
51,308,133068,1,2,0:0:0:0:
82,258,133152,1,2,0:0:0:0:
154,249,133236,1,2,0:0:0:0:
241,245,133320,1,10,0:0:0:0:
272,200,133405,1,2,0:0:0:0:
244,151,133489,1,2,0:0:0:0:
178,142,133573,1,2,0:0:0:0:
100,164,133657,1,2,0:0:0:0:
71,119,133742,1,2,0:0:0:0:
97,70,133826,1,2,3:0:0:0:
161,61,133910,1,2,0:0:0:0:
240,79,133995,2,0,L|96:86,1,120,8|2,0:0|0:0,0:0:0:0:
426,307,134332,6,2,L|437:172,1,120,2|2,3:0|0:0,0:0:0:0:
296,153,134669,1,10,0:0:0:0:
447,158,134837,2,0,L|458:78,1,60,2|0,0:0|0:0,0:0:0:0:
278,75,135006,2,0,L|208:78,2,60,0|8|2,0:0|0:0|3:0,0:0:0:0:
50,235,135343,2,0,L|40:98,1,120,10|0,0:0|0:0,0:0:0:0:
334,334,135680,5,0,3:0:0:0:
185,289,135848,1,0,0:0:0:0:
334,334,136017,2,0,L|348:176,1,120,8|0,0:0|0:0,0:0:0:0:
50,235,136354,2,0,P|60:172|216:90,1,240,2|10,0:0|0:0,0:0:0:0:
44,67,136860,1,0,0:0:0:0:
197,63,137028,6,0,P|260:104|179:226,1,240,2|8,3:0|0:0,0:0:0:0:
47,310,137534,2,0,L|123:300,1,60,0|8,0:0|0:0,0:0:0:0:
223,358,137787,2,0,L|147:348,1,60,0|0,0:0|3:0,0:0:0:0:
23,232,138040,2,0,L|15:86,1,120,10|0,0:0|0:0,0:0:0:0:
277,216,138377,6,0,P|345:171|261:62,1,240,2|8,3:0|0:0,0:0:0:0:
124,99,138882,1,0,0:0:0:0:
445,102,139051,2,0,L|456:249,1,120,2|0,0:0|3:0,0:0:0:0:
306,198,139388,1,10,0:0:0:0:
459,222,139556,1,0,0:0:0:0:
182,273,139725,6,0,L|48:288,1,120,2|0,3:0|0:0,0:0:0:0:
137,278,139978,2,0,P|197:255|137:145,1,180,0|0,3:0|3:0,0:0:0:0:
52,124,140399,2,0,L|133:121,1,60,2|8,0:0|0:0,0:0:0:0:
250,65,140652,1,8,0:0:0:0:
402,139,140736,2,0,L|487:136,2,60,8|8|8,0:0|0:0|0:0,0:0:0:0:
26,340,141073,6,0,B|257:342|257:342|491:342|491:342|258:342|258:342|496:342,1,930.000007095337,12|0,1:0|0:0,0:0:0:0:
261,367,141916,2,0,L|252:283,1,60,2|0,3:0|0:0,0:0:0:0:
338,286,142084,2,0,L|481:272,1,120,10|2,0:0|0:0,0:0:0:0:
302,206,142422,6,0,P|239:167|323:47,1,240,2|10,3:0|0:0,0:0:0:0:
440,89,142927,2,0,L|449:186,1,60,2|8,0:0|0:0,0:0:0:0:
237,133,143096,2,0,L|68:148,1,120,2|2,0:0|3:0,0:0:0:0:
274,234,143433,2,0,L|443:249,1,120,10|0,0:0|0:0,0:0:0:0:
85,352,143770,5,2,3:2:0:0:
51,308,143855,1,2,0:0:0:0:
82,258,143939,1,2,0:0:0:0:
154,249,144023,1,2,0:0:0:0:
241,245,144107,1,10,0:0:0:0:
272,200,144192,1,2,0:0:0:0:
244,151,144276,1,2,0:0:0:0:
178,142,144360,1,2,0:0:0:0:
100,164,144444,1,2,0:0:0:0:
71,119,144529,1,2,0:0:0:0:
97,70,144613,1,2,3:0:0:0:
161,61,144697,1,2,0:0:0:0:
240,79,144782,2,0,L|96:86,1,120,8|2,0:0|0:0,0:0:0:0:
378,186,145118,6,0,L|233:174,2,120,2|2|10,3:0|0:0|0:0,0:0:0:0:
222,303,145624,2,2,L|215:204,1,60,0|0,0:0|0:0,0:0:0:0:
54,233,145792,2,0,L|48:136,1,60,0|8,0:0|0:0,0:0:0:0:
126,149,145961,1,2,3:0:0:0:
370,74,146129,1,10,0:0:0:0:
202,62,146298,1,0,0:0:0:0:
464,317,146466,6,0,P|447:212|214:12,3,389.999982147218,2|0|0|0,1:2|3:0|3:0|3:0,3:0:0:0:
412,43,147646,1,0,3:0:0:0:
167,171,147815,5,2,1:2:0:0:
28,172,147983,1,0,3:0:0:0:
345,171,148152,1,2,3:2:0:0:
484,172,148320,1,0,3:0:0:0:
210,267,148489,2,0,L|210:292,1,22.5,0|0,3:0|3:0,3:0:0:0:
301,264,148826,2,0,L|301:280,1,15,0|0,3:0|3:0,3:0:0:0:
35,115,149163,6,0,L|195:26,3,179.999994506836,2|0|0|0,1:2|3:0|3:0|3:0,3:0:0:0:
474,115,149837,1,0,3:0:0:0:
390,91,149921,1,0,3:0:0:0:
307,67,150005,1,0,3:0:0:0:
390,91,150090,1,0,3:0:0:0:
474,115,150174,1,0,3:0:0:0:
390,91,150258,1,0,3:0:0:0:
307,67,150342,1,0,3:0:0:0:
390,91,150427,1,0,3:0:0:0:
103,119,150511,1,2,3:2:0:0:
184,274,151017,6,0,L|171:181,1,60,2|0,0:0|0:0,0:0:0:0:
260,189,151186,1,2,0:0:0:0:
67,118,151270,2,0,L|7:111,2,60,0|2|0,0:0|0:0|0:0,0:0:0:0:
303,89,151523,1,8,0:0:0:0:
239,101,151607,1,8,0:0:0:0:
18,219,151691,1,8,0:0:0:0:
82,231,151775,1,8,2:2:0:0:
265,298,151860,6,0,B|505:298|505:298|265:298|265:298|506:298|506:298|265:298,1,960,12|0,1:0|0:0,0:0:0:0:
408,261,152702,1,0,3:0:0:0:
114,316,152871,2,0,L|100:180,1,127.50000243187,10|2,0:0|0:0,0:0:0:0:
260,153,153208,6,0,L|103:135,2,127.50000243187,2|0|8,3:0|0:0|0:0,0:0:0:0:
414,89,153714,2,0,L|422:173,1,63.7500012159348,0|8,0:0|0:0,0:0:0:0:
236,165,153882,2,0,L|78:148,1,127.50000243187,2|2,0:0|3:0,0:0:0:0:
281,352,154135,2,0,L|412:294,1,127.50000243187
313,301,154388,1,0,3:0:0:0:
37,246,154556,5,0,3:0:0:0:
183,308,154725,2,0,L|344:284,1,127.50000243187,0|10,0:0|0:0,0:0:0:0:
146,249,155062,1,2,0:0:0:0:
407,101,155231,2,0,L|418:238,1,127.50000243187,2|0,0:0|3:0,0:0:0:0:
281,229,155568,1,10,0:0:0:0:
27,73,155736,6,0,L|205:71,2,127.50000243187,2|2|2,0:0|3:0|0:0,0:0:0:0:
310,82,156242,2,0,L|334:225,1,127.50000243187,10|2,0:0|0:0,0:0:0:0:
174,219,156495,2,0,L|95:236,2,63.7500012159348,8|2|0,0:0|0:0|0:0,0:0:0:0:
362,260,156747,2,0,L|500:277,2,127.50000243187,2|10|2,3:0|0:0|0:0,0:0:0:0:
34,326,157253,6,0,B|274:326|274:326|34:326|34:326|275:326|275:326|34:326,1,960,4|0,1:0|0:0,0:0:0:0:
185,298,158096,1,2,3:0:0:0:
36,261,158264,2,0,L|22:113,1,127.50000243187,8|2,0:0|0:0,0:0:0:0:
348,136,158601,6,0,L|510:121,2,127.50000243187,0|0|8,3:0|0:0|0:0,0:0:0:0:
198,211,159107,2,0,L|268:218,1,63.7500012159348,2|8,0:0|0:0,0:0:0:0:
459,328,159275,2,0,L|450:180,1,127.50000243187,2|2,0:0|3:0,0:0:0:0:
321,86,159613,2,0,L|447:106,1,127.50000243187,8|2,0:0|0:0,0:0:0:0:
155,287,159950,6,0,P|70:220|170:153,1,255.000004863739,2|10,3:0|0:0,0:0:0:0:
466,356,160455,2,0,L|475:173,1,127.50000243187,2|0,0:0|0:0,0:0:0:0:
304,302,160792,2,0,L|157:285,1,127.50000243187,2|8,3:0|0:0,0:0:0:0:
333,227,161129,2,0,L|338:116,1,63.7500012159348,2|0,0:0|0:0,0:0:0:0:
159,305,161298,6,0,L|25:324,1,127.50000243187,2|0,3:0|0:0,0:0:0:0:
206,112,161551,2,0,L|332:162,1,127.50000243187,2|0,0:0|0:0,0:0:0:0:
242,167,161803,2,0,L|231:233,1,63.7500012159348,2|0,0:0|0:0,0:0:0:0:
396,328,161972,1,2,0:0:0:0:
456,313,162056,1,10,0:0:0:0:
456,313,162141,1,2,3:0:0:0:
396,328,162225,1,10,0:0:0:0:
246,88,162309,2,0,L|159:87,1,63.7500012159348,10|10,0:0|0:0,0:0:0:0:
398,240,162478,2,0,L|485:239,1,63.7500012159348,10|2,0:0|0:0,0:0:0:0:
253,192,162646,6,0,B|22:192|22:192|22:192|22:192|487:192|487:192|488:192|488:192|255:192,1,930.500012416838,12|0,1:0|0:0,0:0:0:0:
116,142,163489,1,0,3:0:0:0:
409,67,163658,2,0,L|425:230,1,127.50000243187,10|2,0:0|0:0,0:0:0:0:
110,68,163995,6,0,P|38:106|127:220,1,255.000004863739,2|8,3:0|0:0,0:0:0:0:
250,139,164501,2,0,L|248:219,1,63.7500012159348,0|8,0:0|0:0,0:0:0:0:
330,241,164670,2,0,L|194:269,1,127.50000243187,2|2,0:0|3:0,0:0:0:0:
354,141,165007,2,0,L|486:166,1,127.50000243187,10|0,0:0|0:0,0:0:0:0:
147,142,165344,6,0,L|292:160,1,127.50000243187,0|0,3:0|0:0,0:0:0:0:
409,116,165680,1,10,0:0:0:0:
273,157,165849,1,2,0:0:0:0:
419,254,166018,2,0,P|415:175|253:98,1,255.000004863739,2|10,0:0|0:0,0:0:0:0:
427,77,166524,1,2,0:0:0:0:
76,308,166691,6,0,L|64:132,1,127.50000243187,2|2,3:0|0:0,0:0:0:0:
157,223,166944,2,0,L|324:193,1,127.50000243187
133,174,167197,2,0,L|41:156,1,63.7500012159348,2|0,3:0|0:0,0:0:0:0:
286,83,167366,2,0,L|365:84,2,63.7500012159348,2|8|2,0:0|0:0|3:0,0:0:0:0:
37,291,167703,2,0,L|21:143,1,127.50000243187,10|2,0:0|0:0,0:0:0:0:
259,192,168040,6,0,B|490:192|490:192|490:192|490:192|25:192|25:192|24:192|24:192|257:192,1,930.500012416838,4|2,1:0|2:2,0:0:0:0:
22,80,168882,2,0,L|168:81,2,127.50000243187,2|8|2,3:2|2:0|2:0,3:0:0:0:
282,52,169388,6,0,L|301:189,1,127.50000243187,0|0,3:0|0:0,0:0:0:0:
146,306,169725,2,0,P|161:222|289:170,1,191.250003647804,8|8,0:0|0:0,0:0:0:0:
325,191,170062,2,0,L|488:202,1,127.50000243187,2|0,0:0|3:0,0:0:0:0:
284,292,170399,2,0,L|121:303,1,127.50000243187,10|2,0:0|0:0,0:0:0:0:
455,298,170736,6,0,P|446:231|274:141,1,255.000004863739,2|8,3:0|0:0,0:0:0:0:
442,139,171242,1,2,0:0:0:0:
139,136,171410,1,2,0:0:0:0:
442,139,171579,2,0,L|456:-10,1,127.50000243187,2|8,3:0|0:0,0:0:0:0:
315,56,171916,2,0,L|242:47,1,63.7500012159348,2|0,0:0|0:0,0:0:0:0:
75,285,172084,6,0,L|62:156,1,127.50000243187,2|0,3:0|0:0,0:0:0:0:
232,288,172337,2,0,L|245:159,1,127.50000243187,2|0,0:0|0:0,0:0:0:0:
88,103,172590,2,0,L|189:95,1,63.7500012159348,2|2,3:0|0:0,0:0:0:0:
339,167,172759,2,0,L|434:161,1,63.7500012159348,0|8,0:0|0:0,0:0:0:0:
312,133,172927,2,0,L|307:57,1,63.7500012159348,0|8,0:0|0:0,0:0:0:0:
108,201,173096,2,0,L|0:193,1,63.7500012159348,10|8,0:0|0:0,0:0:0:0:
235,261,173264,2,0,L|343:253,1,63.7500012159348,8|0,0:0|3:0,0:0:0:0:
41,318,173433,5,8,1:1:0:0:
256,192,173517,12,0,176129,0:0:0:0:
169,141,181523,6,2,L|171:236,1,63.7500012159348,2|0,0:0|0:0,0:0:0:0:
86,203,181691,2,2,L|84:298,1,63.7500012159348,2|0,0:0|0:0,0:0:0:0:
172,284,181860,1,10,0:0:0:0:
26,314,182028,2,0,L|322:306,1,240,2|0,1:0|0:0,0:0:0:0:
129,255,182365,1,2,0:0:0:0:
361,254,182534,6,0,L|369:89,1,127.50000243187,10|0,0:0|0:0,0:0:0:0:
295,137,182787,1,2,0:0:0:0:
145,175,182871,2,0,L|137:10,1,127.50000243187,2|0,0:0|0:0,0:0:0:0:
211,58,183124,1,0,0:0:0:0:
339,184,183208,2,0,L|258:177,1,63.7500012159348,8|0,0:0|0:0,0:0:0:0:
169,155,183377,2,0,L|262:150,1,63.7500012159348
78,318,183545,6,2,L|76:229,1,63.7500012159348,2|10,0:0|0:0,0:0:0:0:
255,244,183714,2,2,L|351:238,1,63.7500012159348,2|10,0:0|0:0,0:0:0:0:
151,141,183882,2,2,L|75:137,1,63.7500012159348,10|10,0:0|0:0,0:0:0:0:
341,89,184051,2,2,L|278:93,1,63.7500012159348,10|2,0:0|0:0,0:0:0:0:
17,346,184219,6,0,B|256:97|256:97|496:348|496:348|256:104|256:104|256:368|256:368|256:261,1,1380.00002632141,12|0,1:0|0:0,0:0:0:0:
121,206,185062,2,0,L|250:241,1,127.50000243187,2|10,3:0|0:0,0:0:0:0:
96,306,185399,2,0,L|89:216,1,63.7500012159348,2|2,0:0|0:0,0:0:0:0:
318,171,185568,6,0,L|447:206,1,127.50000243187,2|0,3:0|0:0,0:0:0:0:
371,216,185820,1,2,0:0:0:0:
201,159,185905,2,2,L|132:158,2,63.7500012159348,10|2|2,0:0|0:0|0:0,0:0:0:0:
341,82,186242,2,0,L|347:215,1,127.50000243187,2|2,0:0|3:0,0:0:0:0:
279,195,186495,1,0,0:0:0:0:
113,268,186579,2,0,L|108:348,1,63.7500012159348,8|2,0:0|0:0,0:0:0:0:
275,292,186747,2,0,L|423:275,1,127.50000243187,0|2,0:0|3:0,0:0:0:0:
224,197,187084,5,0,0:0:0:0:
149,189,187169,1,2,0:0:0:0:
76,181,187253,2,0,L|69:40,1,127.50000243187,8|2,0:0|0:0,0:0:0:0:
404,69,187590,2,0,L|501:58,2,63.7500012159348,0|2|0,0:0|0:0|3:0,0:0:0:0:
257,35,187927,1,10,0:0:0:0:
405,69,188096,2,0,L|412:164,1,63.7500012159348,0|2,0:0|0:0,0:0:0:0:
251,162,188264,6,0,L|170:152,1,63.7500012159348,0|0,3:0|0:0,0:0:0:0:
259,243,188433,2,0,L|367:256,1,63.7500012159348,2|0,0:0|0:0,0:0:0:0:
146,314,188601,2,0,L|138:216,1,63.7500012159348,8|2,0:0|0:0,0:0:0:0:
355,166,188770,2,0,L|463:179,1,63.7500012159348,2|0,0:0|0:0,0:0:0:0:
232,38,188938,2,0,L|221:131,1,63.7500012159348,2|8,0:0|0:0,0:0:0:0:
310,82,189107,2,0,L|300:169,1,63.7500012159348,0|2,3:0|0:0,0:0:0:0:
96,236,189275,2,0,L|256:224,1,127.50000243187,8|2,0:0|0:0,0:0:0:0:
488,192,189613,6,0,B|23:192|23:192|23:192|23:192|488:192,1,930.000010643004,4|2,1:0|0:0,0:0:0:0:
132,147,190455,1,2,3:0:0:0:
359,273,190624,2,0,L|508:274,1,127.50000243187,10|2,0:0|0:0,0:0:0:0:
242,368,190961,6,0,L|93:369,1,127.50000243187,0|2,3:0|0:0,0:0:0:0:
381,300,191298,2,0,P|456:260|346:158,1,255.000004863739,8|0,0:0|0:0,0:0:0:0:
251,153,191804,1,0,3:0:0:0:
384,147,191972,1,10,0:0:0:0:
97,158,192141,1,0,0:0:0:0:
366,283,192309,6,0,L|512:283,3,142.49999619484,2|0|0|0,0:0|3:0|3:0|3:0,0:0:0:0:
165,281,192983,2,0,L|0:283,3,157.499995193482,2|0|0|0,0:0|3:0|3:0|3:0,0:0:0:0:
68,267,193573,1,0,3:0:0:0:
254,188,193657,5,2,0:0:0:0:
318,167,193742,1,0,3:0:0:0:
319,104,193826,1,0,3:0:0:0:
137,131,193910,1,2,0:0:0:0:
73,110,193995,1,0,3:0:0:0:
72,47,194079,1,0,3:0:0:0:
266,65,194163,1,2,0:0:0:0:
202,44,194248,1,0,3:0:0:0:
373,280,194332,5,2,3:2:0:0:
380,219,194416,1,2,3:2:0:0:
172,185,194500,1,2,3:2:0:0:
165,124,194584,1,2,3:2:0:0:
377,147,194669,1,2,3:2:0:0:
413,137,194711,1,2,3:2:0:0:
435,116,194753,1,2,3:2:0:0:
442,88,194795,1,2,3:2:0:0:
436,61,194837,1,2,3:2:0:0:
415,39,194879,1,2,3:2:0:0:
379,28,194921,1,2,3:2:0:0:
165,124,195006,6,0,P|97:140|27:274,1,225.000008583069,4|0,0:0|0:0,0:0:0:0:
205,197,195680,2,0,P|273:213|343:347,1,225.000008583069,2|0,0:0|0:0,0:0:0:0:
46,340,196354,2,0,L|295:277,3,225.000008583069,2|0|2|0,0:0|0:0|0:0|0:0,0:0:0:0:
478,338,197702,6,0,P|440:235|339:194,1,225.000008583069,2|0,0:0|0:0,0:0:0:0:
188,259,198208,2,0,P|225:156|326:115,1,225.000008583069,2|0,0:0|0:0,0:0:0:0:
178,114,198714,1,2,0:0:0:0:
474,184,199051,5,2,0:0:0:0:
474,184,199219,1,0,0:0:0:0:
474,184,199388,1,2,0:0:0:0:
474,184,199556,1,0,0:0:0:0:
474,184,199725,1,2,0:0:0:0:
474,184,199893,1,0,0:0:0:0:
354,186,200062,1,2,0:0:0:0:
474,184,200231,1,0,0:0:0:0:
209,285,200399,6,0,P|136:250|166:120,1,225.000008583069,2|0,0:0|0:0,0:0:0:0:
303,285,200905,2,0,P|376:250|346:120,1,225.000008583069,2|0,0:0|0:0,0:0:0:0:
204,129,201410,1,2,0:0:0:0:
399,268,201747,6,0,L|139:227,1,225.000008583069,2|0,0:0|0:0,0:0:0:0:
335,151,202253,2,0,L|113:116,1,225.000008583069,2|0,0:0|0:0,0:0:0:0:
277,84,202759,1,2,0:0:0:0:
65,319,203096,6,0,P|70:256|212:174,1,225.000008583069,2|0,0:0|0:0,0:0:0:0:
341,170,203601,2,0,P|336:107|194:25,1,225.000008583069,2|0,0:0|0:0,0:0:0:0:
371,23,204107,1,2,0:0:0:0:
141,23,204444,5,2,0:0:0:0:
141,23,204697,1,2,0:0:0:0:
141,23,204950,1,2,0:0:0:0:
141,23,205202,1,2,0:0:0:0:
142,107,205455,1,2,0:0:0:0:
15,109,205624,1,0,0:0:0:0:
315,267,205792,6,0,P|382:241|332:99,1,240,4|0,0:0|0:0,0:0:0:0:
197,267,206466,2,0,P|130:241|180:99,1,240,2|0,0:0|0:0,0:0:0:0:
372,152,207141,2,0,L|115:89,3,240,2|2|2|2,0:0|0:0|0:0|0:0,0:0:0:0:
366,263,208489,6,0,P|423:229|357:100,1,240,2|0,0:0|0:0,0:0:0:0:
219,202,208995,2,0,P|162:168|236:41,1,240,2|0,0:0|0:0,0:0:0:0:
380,37,209500,1,2,2:0:0:0:
136,89,209837,2,0,L|376:90,3,240,2|0|0|2,0:0|0:0|0:0|0:0,0:0:0:0:
40,294,211186,6,0,P|41:113|211:58,1,360,4|2,0:0|0:0,0:0:0:0:
49,53,211860,2,0,L|296:51,1,240,2|2,3:2|0:0,0:0:0:0:
472,294,212534,6,0,P|471:113|301:58,1,360,2|2,3:2|0:0,0:0:0:0:
479,53,213208,2,0,L|232:51,1,240,2|2,3:2|0:0,0:0:0:0:
99,225,213882,6,2,L|496:225,1,360,2|2,3:2|0:0,0:0:0:0:
297,169,214556,2,2,L|36:168,1,240,2|0,3:2|0:0,0:0:0:0:
232,294,215231,5,2,3:2:0:0:
282,292,215315,1,2,2:2:0:0:
232,294,215399,1,2,2:2:0:0:
282,292,215483,1,2,2:2:0:0:
232,294,215568,1,2,2:2:0:0:
459,258,215905,1,2,0:0:0:0:
56,254,216242,1,2,0:0:0:0:
459,258,216579,6,0,L|465:90,1,120,2|0,3:2|0:0,0:0:0:0:
296,254,216916,2,0,L|290:86,1,120,0|0,3:0|0:0,0:0:0:0:
459,258,217253,2,0,L|465:90,1,120,0|0,3:0|0:0,0:0:0:0:
296,254,217590,2,0,L|290:86,1,120,0|0,3:0|0:0,0:0:0:0:
53,258,217927,6,0,L|47:90,1,120,2|0,3:2|0:0,0:0:0:0:
236,253,218264,2,0,L|242:85,1,120,0|0,3:0|0:0,0:0:0:0:
53,258,218601,2,0,L|47:90,1,120,2|0,3:2|0:0,0:0:0:0:
236,253,218938,2,0,L|242:85,1,120,0|0,3:0|0:0,0:0:0:0:
476,198,219275,6,0,L|301:198,3,134.999995880127,2|0|0|0,3:2|3:0|3:0|3:0,3:0:0:0:
36,198,219950,2,0,L|211:198,3,150,2|0|0|0,2:0|3:0|3:0|3:0,3:0:0:0:
329,274,220624,5,2,2:0:0:0:
393,262,220708,1,0,3:0:0:0:
416,217,220792,1,0,3:0:0:0:
393,171,220877,1,0,3:0:0:0:
183,274,220961,1,0,3:0:0:0:
119,262,221045,1,0,3:0:0:0:
96,217,221129,1,0,3:0:0:0:
119,171,221214,1,0,3:0:0:0:
332,169,221298,1,0,3:0:0:0:
342,110,221382,1,0,3:0:0:0:
186,169,221466,1,0,3:0:0:0:
176,110,221550,1,0,3:0:0:0:
350,29,221635,1,8,0:0:0:0:
413,29,221719,1,8,0:0:0:0:
162,29,221804,1,8,0:0:0:0:
99,29,221888,1,8,0:0:0:0:
305,299,221972,5,0,3:0:0:0:
311,242,222056,1,0,3:0:0:0:
128,322,222141,5,2,0:0:0:0:
119,284,222162,1,0,0:0:0:0:
128,322,222183,1,0,0:0:0:0:
119,284,222204,1,0,0:0:0:0:
128,322,222225,1,0,0:0:0:0:
119,284,222246,1,0,0:0:0:0:
128,322,222267,1,0,0:0:0:0:
273,167,222309,5,2,0:0:0:0:
296,167,222330,1,0,0:0:0:0:
273,167,222351,1,0,0:0:0:0:
296,167,222372,1,0,0:0:0:0:
273,167,222393,1,0,0:0:0:0:
296,167,222415,1,0,0:0:0:0:
273,167,222436,1,0,0:0:0:0:
131,194,222478,5,2,0:0:0:0:
112,185,222499,1,0,0:0:0:0:
100,176,222520,1,0,0:0:0:0:
95,158,222541,1,0,0:0:0:0:
99,141,222562,1,0,0:0:0:0:
113,131,222583,1,0,0:0:0:0:
130,122,222604,1,0,0:0:0:0:
322,66,222646,5,2,0:0:0:0:
384,68,222731,1,0,3:0:0:0:
150,347,222815,1,0,3:0:0:0:
88,349,222900,1,0,3:0:0:0:
317,338,222983,1,2,3:3:0:0:
490,340,223320,6,0,B|257:341|257:341|489:339|489:339|13:342|13:342,1,930.000007095337,12|0,1:0|0:0,0:0:0:0:
181,277,224163,1,0,3:0:0:0:
25,293,224332,2,0,L|6:142,1,127.50000243187,10|2,0:0|0:0,0:0:0:0:
333,126,224669,6,0,L|475:109,2,127.50000243187,2|0|8,0:0|0:0|0:0,0:0:0:0:
185,177,225174,2,0,L|284:189,1,63.7500012159348,0|8,0:0|0:0,0:0:0:0:
63,145,225343,2,0,L|230:124,1,127.50000243187,2|2,0:0|3:0,0:0:0:0:
387,298,225596,2,0,L|220:277,1,127.50000243187,0|0,1:0|0:0,0:0:0:0:
94,305,225848,1,8,0:0:0:0:
427,187,226017,5,0,1:0:0:0:
273,244,226186,2,0,L|131:226,1,127.50000243187,0|10,0:0|0:0,0:0:0:0:
302,201,226523,1,2,0:0:0:0:
47,224,226691,2,0,P|57:152|207:56,1,255.000004863739,2|8,0:0|0:0,0:0:0:0:
441,147,227197,2,0,L|451:301,1,127.50000243187,2|2,2:0|3:0,0:0:0:0:
292,212,227534,6,0,L|451:232,1,127.50000243187,2|10,0:0|0:0,0:0:0:0:
129,319,227871,2,0,L|139:223,1,63.7500012159348,2|0,0:0|0:0,0:0:0:0:
221,257,228040,2,0,L|301:247,2,63.7500012159348,2|8|2,0:0|0:0|3:0,0:0:0:0:
43,183,228377,2,0,L|202:165,1,127.50000243187,10|2,0:0|0:0,0:0:0:0:
488,192,228714,6,0,B|23:192|23:192|23:192|23:192|488:192,1,930.000010643004,4|0,1:0|0:0,0:0:0:0:
333,102,229556,2,0,L|324:252,1,127.50000243187,2|8,3:0|0:0,0:0:0:0:
473,238,229893,1,2,0:0:0:0:
164,182,230062,6,0,L|300:163,2,127.50000243187,0|0|8,3:0|0:0|0:0,0:0:0:0:
28,281,230568,2,0,L|103:269,1,63.7500012159348,2|8,0:0|0:0,0:0:0:0:
283,352,230736,2,0,L|288:214,1,127.50000243187,2|2,0:0|3:0,0:0:0:0:
122,198,231073,2,0,L|258:179,1,127.50000243187,8|2,0:0|0:0,0:0:0:0:
480,278,231410,6,0,P|472:200|306:116,1,255.000004863739,2|10,3:0|0:0,0:0:0:0:
76,133,231916,2,0,L|236:164,1,127.50000243187,2|0,0:0|0:0,0:0:0:0:
463,99,232253,2,0,L|471:247,1,127.50000243187,2|8,3:0|0:0,0:0:0:0:
320,287,232590,2,0,L|383:295,1,63.7500012159348,2|0,0:0|0:0,0:0:0:0:
228,314,232759,6,0,L|86:311,1,127.50000243187,2|0,0:0|0:0,0:0:0:0:
276,206,233011,2,0,L|430:183,1,127.50000243187,2|0,0:0|0:0,0:0:0:0:
232,127,233264,2,0,L|144:117,1,63.7500012159348,2|0,0:0|0:0,0:0:0:0:
313,201,233433,1,2,0:0:0:0:
371,172,233517,1,8,0:0:0:0:
388,120,233601,1,0,3:0:0:0:
369,65,233686,1,8,0:0:0:0:
197,41,233770,1,10,0:0:0:0:
259,40,233854,1,8,0:0:0:0:
83,200,233938,1,8,0:0:0:0:
21,199,234022,1,0,0:0:0:0:
257,191,234107,6,0,B|490:191|490:191|489:191|489:191|24:191|24:191|24:191|24:191|257:191,1,930.500012416838,12|0,1:0|0:0,0:0:0:0:
391,145,234950,1,0,3:0:0:0:
71,114,235118,2,0,L|59:267,1,127.50000243187,10|2,0:0|0:0,0:0:0:0:
327,351,235455,6,0,P|318:274|162:191,1,255.000004863739,2|8,3:0|0:0,0:0:0:0:
323,161,235961,2,0,L|406:150,1,63.7500012159348,0|8,0:0|0:0,0:0:0:0:
187,107,236129,2,0,L|24:94,1,127.50000243187,2|2,0:0|3:0,0:0:0:0:
209,218,236466,2,0,L|362:201,1,127.50000243187,10|0,0:0|0:0,0:0:0:0:
68,340,236804,6,0,L|53:193,1,127.50000243187,0|0,3:0|0:0,0:0:0:0:
205,211,237141,1,10,0:0:0:0:
55,213,237309,1,2,0:0:0:0:
342,274,237478,2,0,P|397:244|335:97,1,255.000004863739,2|10,0:0|0:0,0:0:0:0:
187,99,237983,1,2,0:0:0:0:
476,244,238152,6,0,L|352:208,1,127.50000243187,2|2,3:0|0:0,0:0:0:0:
272,258,238405,2,0,L|440:207,1,127.50000243187,2|0,0:0|0:0,0:0:0:0:
230,198,238657,2,0,L|160:186,1,63.7500012159348,2|0,3:0|0:0,0:0:0:0:
384,77,238826,2,0,L|473:78,2,63.7500012159348,2|8|2,0:0|0:0|3:0,0:0:0:0:
232,151,239163,2,0,L|359:152,1,127.50000243187,10|2,0:0|0:0,0:0:0:0:
23,184,239500,6,0,B|263:184|263:184|23:184|23:184|264:184|264:184|23:184,1,960,4|2,1:0|0:0,0:0:0:0:
306,46,240343,2,0,L|322:208,1,127.50000243187,2|8,3:0|0:0,0:0:0:0:
178,174,240680,1,2,0:0:0:0:
455,161,240848,6,0,L|471:323,1,127.50000243187,0|0,3:0|0:0,0:0:0:0:
318,341,241186,2,0,P|254:309|329:248,1,191.250003647804,8|8,0:0|0:0,0:0:0:0:
392,213,241523,2,0,L|256:180,1,127.50000243187,0|0,0:0|3:0,0:0:0:0:
28,114,241860,2,0,L|164:81,1,127.50000243187,10|0,0:0|0:0,0:0:0:0:
464,214,242197,6,0,B|317:213|317:213|164:214|164:214|316:214|316:214|488:214,1,600,2|0,0:0|0:0,0:0:0:0:
178,256,243040,2,0,L|338:257,1,127.50000243187,0|8,3:0|0:0,0:0:0:0:
148,359,243377,2,0,L|148:265,1,63.7500012159348,0|0,3:0|3:0,3:0:0:0:
311,184,243545,6,0,L|448:164,1,127.50000243187,2|0,3:0|0:0,0:0:0:0:
232,215,243798,2,0,P|167:173|247:128,1,191.250003647804,2|0,2:0|3:0,0:0:0:0:
385,268,244219,1,2,3:0:0:0:
200,323,244304,2,0,L|54:287,1,127.50000243187,8|0,0:0|0:0,0:0:0:0:
261,238,244556,2,0,L|351:218,1,63.7500012159348,8|8,0:0|0:0,0:0:0:0:
125,159,244725,2,0,L|35:139,1,63.7500012159348,8|0,0:0|3:0,0:0:0:0:
302,99,244893,5,8,1:0:0:0:
256,192,244978,12,8,247253,0:0:0:0:
300,237,247590,6,0,L|420:229,1,120,2|0,0:0|0:0,0:0:0:0:
190,253,247927,2,0,P|122:205|219:96,1,240,8|0,0:0|0:0,0:0:0:0:
332,131,248433,1,0,0:0:0:0:
189,92,248601,1,8,0:0:0:0:
441,240,248770,6,0,P|435:165|259:80,1,240,2|0,0:0|0:0,0:0:0:0:
51,267,249275,2,0,L|39:121,1,120,8|0,0:0|0:0,0:0:0:0:
105,120,249528,1,0,0:0:0:0:
270,175,249613,2,0,L|378:191,2,60,0|8|0,0:0|0:0|0:0,0:0:0:0:
124,295,249950,2,0,L|265:273,1,120,8|0,0:0|0:0,0:0:0:0:
488,192,250287,6,0,B|23:192|23:192|488:192,1,930.000007095337,4|0,1:0|0:0,0:0:0:0:
178,197,251129,1,0,3:0:0:0:
332,161,251298,2,0,L|351:327,1,120,8|0,0:0|0:0,0:0:0:0:
194,301,251635,5,2,3:0:0:0:
346,305,251804,1,0,0:0:0:0:
96,252,251972,2,0,P|31:214|105:186,1,180,8|8,0:0|0:0,0:0:0:0:
176,123,252309,2,0,L|28:135,1,120,2|0,0:0|3:0,0:0:0:0:
226,205,252646,2,0,L|374:217,1,120,8|0,0:0|0:0,0:0:0:0:
39,319,252983,6,0,L|39:179,1,120,2|0,3:0|0:0,0:0:0:0:
171,197,253320,1,10,0:0:0:0:
467,236,253489,2,0,L|117:96,1,300,0|0,1:0|0:0,0:0:0:0:
337,106,253826,2,0,L|337:195,1,60
182,232,253995,2,0,L|53:258,1,120,8|0,0:0|0:0,0:0:0:0:
135,269,254247,1,0,0:0:0:0:
293,303,254332,6,0,P|348:264|279:192,1,180
217,188,254669,1,8,0:0:0:0:
384,73,254837,2,2,L|472:85,1,60,0|0,0:0|0:0,0:0:0:0:
289,139,255006,2,2,L|201:151,1,60,2|10,0:0|0:0,0:0:0:0:
328,178,255174,2,2,L|333:261,1,60,2|10,0:0|0:0,0:0:0:0:
187,242,255343,2,2,L|99:254,1,60,10|10,0:0|0:0,0:0:0:0:
392,323,255511,2,2,L|480:335,1,60,10|2,0:0|0:0,0:0:0:0:
258,343,255680,6,0,B|18:343|18:343|258:343|258:343|17:343|17:343|258:343,1,960,4|2,1:0|0:0,0:0:0:0:
420,294,256523,1,2,3:0:0:0:
133,309,256691,2,0,L|121:166,1,120,10|2,0:0|0:0,0:0:0:0:
397,229,257028,6,0,P|442:191|377:88,1,180,2|2,0:0|0:0,0:0:0:0:
327,92,257365,1,8,0:0:0:0:
185,169,257534,2,0,L|184:84,1,60,2|8,0:0|0:0,0:0:0:0:
263,99,257702,2,0,L|419:125,1,120,0|0,0:0|3:0,0:0:0:0:
218,238,258040,2,0,L|62:264,1,120,10|2,0:0|0:0,0:0:0:0:
388,157,258377,6,0,L|389:358,1,180,2|2,1:2|0:0,0:0:0:0:
143,176,258714,1,8,0:0:0:0:
141,47,258882,1,0,0:0:0:0:
300,192,259051,1,2,0:0:0:0:
379,195,259135,2,0,L|393:318,1,120,2|2,0:0|0:0,0:0:0:0:
216,266,259388,2,0,L|86:265,1,120,8|2,0:0|0:0,0:0:0:0:
169,244,259641,1,2,0:0:0:0:
325,257,259725,5,2,3:0:0:0:
391,241,259809,1,0,0:0:0:0:
412,186,259893,1,2,0:0:0:0:
392,126,259978,1,0,0:0:0:0:
230,203,260062,2,0,L|214:69,1,120,8|2,0:0|0:0,0:0:0:0:
373,135,260315,2,0,L|506:137,1,120,8|0,0:0|0:0,0:0:0:0:
299,218,260568,2,0,L|208:217,1,60,10|0,0:0|0:0,0:0:0:0:
456,318,260736,1,10,0:0:0:0:
493,275,260820,1,0,0:0:0:0:
467,227,260905,1,2,0:0:0:0:
403,211,260989,1,2,0:0:0:0:
253,192,261073,6,0,B|22:192|22:192|22:192|22:192|487:192|487:192|488:192|488:192|255:192,1,930.500012416838,12|0,1:0|0:0,0:0:0:0:
402,275,261916,1,2,3:0:0:0:
49,156,262084,2,0,L|44:281,1,120,10|2,0:0|0:0,0:0:0:0:
287,145,262422,6,0,L|436:111,1,120,2|0,0:0|0:0,0:0:0:0:
153,274,262759,2,0,P|86:230|167:116,1,240,8|2,0:0|0:0,0:0:0:0:
292,117,263264,1,0,3:0:0:0:
146,195,263433,2,0,L|-3:161,1,120,10|0,0:0|0:0,0:0:0:0:
344,161,263770,6,0,L|503:162,3,142.49999619484,2|0|0|0,2:2|3:0|3:0|3:0,0:0:0:0:
168,161,264444,2,0,L|9:162,3,157.499995193482,2|0|0|0,2:2|3:0|3:0|3:0,0:0:0:0:
83,162,265034,1,0,3:0:0:0:
315,327,265118,5,2,2:0:0:0:
380,309,265202,1,0,3:0:0:0:
384,256,265287,1,0,3:0:0:0:
189,322,265371,1,2,2:0:0:0:
127,320,265455,1,0,3:0:0:0:
189,322,265539,1,0,3:0:0:0:
388,173,265624,1,0,2:0:0:0:
387,120,265708,1,0,3:0:0:0:
188,118,265791,5,2,3:2:0:0:
126,117,265876,1,2,3:2:0:0:
317,119,265960,1,2,3:2:0:0:
379,120,266045,1,2,3:2:0:0:
110,245,266128,1,8,3:2:0:0:
180,246,266213,1,8,3:2:0:0:
396,243,266298,1,8,3:2:0:0:
326,244,266383,1,8,3:2:0:0:
16,25,266466,6,0,B|33:329|33:329|88:329|88:329|87:29|87:29|151:29|151:29|157:333|157:333|207:335|207:335|209:24|209:24|256:25|256:25|256:89|256:89|282:368|282:368|323:371|323:371|324:23|324:23|398:21|398:21|407:368|407:368|468:365|468:365|496:17|496:17|496:17|496:17|468:365|468:365|407:368|407:368|398:21|398:21|324:23|324:23|323:371|323:371|282:368|282:368|256:89|256:89|256:25|256:25|209:24|209:24|207:335|207:335|157:333|157:333|151:29|151:29|87:29|87:29|88:329|88:329|33:329|33:329|16:25,1,6000.25484098458,12|0,1:0|0:0,0:0:0:0:
292,267,267309,1,0,3:0:0:0:
432,214,267478,2,0,L|441:359,1,120,8|0,0:0|0:0,0:0:0:0:
165,296,267815,6,0,P|106:256|174:191,1,180,0|0,1:0|0:0,0:0:0:0:
234,202,268152,1,8,0:0:0:0:
362,107,268320,2,0,L|370:199,1,60,0|8,0:0|0:0,0:0:0:0:
294,171,268489,1,0,0:0:0:0:
142,172,268657,2,0,L|131:305,1,120,0|8,3:0|0:0,0:0:0:0:
414,245,268995,6,0,L|273:226,1,120,2|0,0:0|0:0,0:0:0:0:
132,247,269332,1,0,0:0:0:0:
275,120,269500,2,0,L|261:291,1,120,8|0,0:0|0:0,0:0:0:0:
403,204,269837,1,2,0:0:0:0:
264,248,270006,1,0,3:0:0:0:
425,212,270174,2,0,L|439:383,1,120,8|0,0:0|0:0,0:0:0:0:
172,309,270511,6,0,L|42:279,2,120,0|0|8,3:0|0:0|0:0,0:0:0:0:
312,184,271017,2,0,L|323:290,1,60,0|8,0:0|0:0,0:0:0:0:
165,278,271270,2,0,L|176:384,1,60,8|0,0:0|3:0,0:0:0:0:
323,288,271523,2,0,L|463:298,1,120,8|0,0:0|0:0,0:0:0:0:
110,330,271860,6,0,B|402:70|402:70|402:70|402:70|110:330,1,779.999995069973,4|0,1:0|0:0,0:0:0:0:
258,270,272702,1,0,3:0:0:0:
108,259,272871,2,0,L|96:126,1,120,8|0,0:0|0:0,0:0:0:0:
375,186,273208,6,0,P|441:174|482:59,1,180,0|0,1:0|0:0,0:0:0:0:
415,77,273545,1,8,0:0:0:0:
266,146,273714,2,0,L|168:134,2,60,0|8|0,0:0|0:0|0:0,0:0:0:0:
411,139,274051,2,0,L|286:154,2,120,0|8|0,3:0|0:0|0:0,0:0:0:0:
155,323,274556,6,0,L|148:188,1,120,0|0,3:0|0:0,0:0:0:0:
294,243,274893,2,0,P|355:210|291:86,1,240,8|0,0:0|0:0,0:0:0:0:
151,166,275399,2,0,L|291:130,2,120,0|8|0,3:0|0:0|0:0,0:0:0:0:
405,79,275905,6,0,L|409:230,1,120,0|0,3:0|0:0,0:0:0:0:
276,197,276242,1,8,0:0:0:0:
101,325,276410,1,2,0:0:0:0:
53,303,276495,1,8,0:0:0:0:
34,252,276579,1,2,0:0:0:0:
53,202,276663,1,8,0:0:0:0:
110,172,276747,1,2,0:0:0:0:
174,170,276832,1,8,0:0:0:0:
342,90,276916,1,8,0:0:0:0:
405,89,277000,1,8,0:0:0:0:
177,84,277084,1,8,0:0:0:0:
114,83,277168,1,8,0:0:0:0:
402,330,277253,6,0,B|110:70|110:70|110:70|110:70|402:330,1,779.999995069973,4|0,1:0|0:0,0:0:0:0:
254,270,278096,1,0,3:0:0:0:
404,259,278265,2,0,L|416:126,1,120,8|0,0:0|0:0,0:0:0:0:
99,225,278601,6,0,P|41:174|119:117,1,180,0|0,3:0|0:0,0:0:0:0:
166,129,278938,1,8,0:0:0:0:
307,91,279107,2,0,L|302:185,1,60,0|8,0:0|0:0,0:0:0:0:
163,198,279360,2,0,L|158:292,1,60,0|0,0:0|3:0,0:0:0:0:
302,232,279613,1,8,0:0:0:0:
45,336,279781,6,0,L|189:314,1,120,2|0,0:0|0:0,0:0:0:0:
302,238,280118,2,0,L|308:371,1,120,0|8,0:0|0:0,0:0:0:0:
160,316,280455,1,0,0:0:0:0:
303,238,280624,2,0,L|376:244,2,60,0|0|0,0:0|0:0|3:0,0:0:0:0:
149,234,280961,2,0,L|143:367,1,120,8|0,0:0|0:0,0:0:0:0:
426,259,281298,6,0,P|412:183|257:109,1,240,0|8,3:0|0:0,0:0:0:0:
145,69,281804,2,0,L|76:77,1,60,0|8,0:0|0:0,0:0:0:0:
228,199,282056,2,0,L|235:110,1,60,8|0,2:0|3:0,0:0:0:0:
51,193,282309,2,0,L|43:66,1,120,8|0,0:0|0:0,0:0:0:0:
323,157,282646,6,0,B|489:157|489:157|323:158|323:158|489:156|489:156|288:157,1,660.000020141602,4|0,1:0|0:0,0:0:0:0:
176,106,283489,1,0,3:0:0:0:
336,104,283657,2,0,L|345:277,1,120,8|0,0:0|0:0,0:0:0:0:
62,320,283995,6,0,L|63:124,1,180,0|0,3:0|0:0,0:0:0:0:
132,138,284332,1,8,0:0:0:0:
272,214,284500,2,0,L|341:207,1,60,0|8,0:0|0:0,0:0:0:0:
190,80,284753,2,0,L|121:73,1,60,8|0,2:0|0:0,0:0:0:0:
274,49,285006,2,0,L|404:30,1,120,8|0,0:0|0:0,0:0:0:0:
66,192,285343,6,0,L|56:348,1,120,0|0,3:0|0:0,0:0:0:0:
201,312,285680,1,8,0:0:0:0:
57,313,285848,1,0,0:0:0:0:
121,312,285933,1,8,0:0:0:0:
326,249,286017,1,0,0:0:0:0:
380,223,286101,1,8,0:0:0:0:
399,165,286186,1,0,0:0:0:0:
377,104,286270,1,8,0:0:0:0:
186,249,286354,1,8,0:0:0:0:
129,249,286438,1,8,0:0:0:0:
326,249,286523,1,8,0:0:0:0:
383,249,286607,1,8,0:0:0:0:
152,131,286691,1,4,0:0:0:0:
