osu file format v14

[General]
AudioFilename: audio.mp3
AudioLeadIn: 0
PreviewTime: 109219
Countdown: 1
SampleSet: Normal
StackLeniency: 0.7
Mode: 1
LetterboxInBreaks: 0
WidescreenStoryboard: 0

[Editor]
DistanceSpacing: 1
BeatDivisor: 4
GridSize: 32
TimelineZoom: 2.2

[Metadata]
Title:Kimi ga Shinu no o Nagamete Iru yo
TitleUnicode:君が死ぬのを眺めているよ
Artist:Camellia
ArtistUnicode:かめりあ
Creator:[_Chichinya_]
Version:Reaching to the Sky
Source:osu!
Tags:fa Shinsekai- Electronic Novelty Japanese watching you die i will witness your end Featured Artist vocaloid 初音ミク hatsune miku
BeatmapID:2238856
BeatmapSetID:1033067

[Difficulty]
HPDrainRate:6
CircleSize:2
OverallDifficulty:6
ApproachRate:10
SliderMultiplier:1.4
SliderTickRate:2

[Events]
//Background and Video events
0,0,"wallhaven-neep9w.jpg",0,0
//Break Periods
//Storyboard Layer 0 (Background)
//Storyboard Layer 1 (Fail)
//Storyboard Layer 2 (Pass)
//Storyboard Layer 3 (Foreground)
//Storyboard Layer 4 (Overlay)
//Storyboard Sound Samples

[TimingPoints]
849,337.078651685393,4,1,0,45,1,0
11635,-100,4,1,0,50,0,0
22422,-100,4,1,0,80,0,0
65568,-100,4,1,0,80,0,1
76017,-100,4,1,0,80,0,0
76354,-100,4,1,0,80,0,1
87141,-100,4,1,0,80,0,0
151860,-100,4,1,0,80,0,1
162309,-100,4,1,0,80,0,0
162646,-100,4,1,0,80,0,1
173433,-100,4,1,0,80,0,0
195174,-100,4,1,0,70,0,0
195680,-100,4,1,0,60,0,0
196354,-100,4,1,0,50,0,0
205708,-100,4,1,0,80,0,0
205877,-100,4,1,0,50,0,0
211186,-100,4,1,0,52,0,0
211860,-100,4,1,0,54,0,0
212534,-100,4,1,0,56,0,0
213208,-100,4,1,0,58,0,0
213882,-100,4,1,0,60,0,0
214556,-100,4,1,0,62,0,0
215231,-100,4,1,0,64,0,0
216579,-100,4,1,0,66,0,0
217927,-100,4,1,0,68,0,0
219275,-100,4,1,0,70,0,0
221972,-100,4,1,0,55,0,0
223320,-100,4,1,0,80,0,1
233770,-100,4,1,0,80,0,0
234107,-100,4,1,0,80,0,1
244893,-100,4,1,0,80,0,0

[Colours]
Combo1 : 238,189,98
Combo2 : 65,226,137
Combo3 : 255,193,6
Combo4 : 62,172,155

[HitObjects]
256,192,849,5,4,0:0:0:0:
256,192,2113,1,8,0:0:0:0:
256,192,2197,1,8,0:0:0:0:
256,192,2787,1,8,0:0:0:0:
256,192,2871,1,8,0:0:0:0:
256,192,3461,1,8,0:0:0:0:
256,192,3545,1,0,0:0:0:0:
256,192,4809,1,8,0:0:0:0:
256,192,4893,1,0,0:0:0:0:
256,192,5399,1,8,0:0:0:0:
256,192,5568,1,8,0:0:0:0:
256,192,5736,1,0,0:0:0:0:
256,192,5905,1,0,0:0:0:0:
256,192,6073,1,0,0:0:0:0:
256,192,6157,1,0,0:0:0:0:
256,192,6242,1,8,0:0:0:0:
256,192,7506,1,0,0:0:0:0:
256,192,7590,1,0,0:0:0:0:
256,192,8180,1,8,0:0:0:0:
256,192,8264,1,8,0:0:0:0:
256,192,8938,1,0,0:0:0:0:
256,192,9613,1,8,0:0:0:0:
256,192,9781,1,0,0:0:0:0:
256,192,10287,1,8,0:0:0:0:
256,192,10792,1,0,0:0:0:0:
256,192,10877,1,0,0:0:0:0:
256,192,10961,1,8,0:0:0:0:
256,192,11045,1,0,0:0:0:0:
256,192,11129,1,8,0:0:0:0:
256,192,11214,1,0,0:0:0:0:
256,192,11298,1,8,0:0:0:0:
256,192,11382,1,8,0:0:0:0:
256,192,11466,1,8,0:0:0:0:
256,192,11551,1,8,0:0:0:0:
256,192,11635,1,0,0:0:0:0:
256,192,12309,1,0,0:0:0:0:
256,192,12983,1,0,0:0:0:0:
256,192,13657,1,0,0:0:0:0:
256,192,14332,1,0,0:0:0:0:
256,192,15006,1,0,0:0:0:0:
256,192,15680,1,0,0:0:0:0:
256,192,16354,1,0,0:0:0:0:
256,192,17028,1,8,0:0:0:0:
256,192,17365,1,0,0:0:0:0:
256,192,17702,1,0,0:0:0:0:
256,192,18040,1,0,0:0:0:0:
256,192,18377,1,8,0:0:0:0:
256,192,18714,1,0,0:0:0:0:
256,192,19051,1,0,0:0:0:0:
256,192,19388,1,0,0:0:0:0:
256,192,19725,1,8,0:0:0:0:
256,192,19893,1,0,0:0:0:0:
256,192,20062,1,0,0:0:0:0:
256,192,20231,1,0,0:0:0:0:
256,192,20399,1,8,0:0:0:0:
256,192,20568,1,0,0:0:0:0:
256,192,20736,1,0,0:0:0:0:
256,192,20905,1,0,0:0:0:0:
256,192,21073,1,8,0:0:0:0:
256,192,21157,1,0,0:0:0:0:
256,192,21242,1,0,0:0:0:0:
256,192,21326,1,0,0:0:0:0:
256,192,21410,1,8,0:0:0:0:
256,192,21495,1,0,0:0:0:0:
256,192,21579,1,0,0:0:0:0:
256,192,21663,1,0,0:0:0:0:
256,192,21747,1,8,0:0:0:0:
256,192,21832,1,8,0:0:0:0:
256,192,21916,1,0,0:0:0:0:
256,192,22000,1,0,0:0:0:0:
256,192,22084,1,12,0:0:0:0:
256,192,22422,1,4,0:0:0:0:
256,192,22759,1,8,0:0:0:0:
256,192,23096,1,8,0:0:0:0:
256,192,23264,1,0,0:0:0:0:
256,192,23433,1,8,0:0:0:0:
256,192,23601,1,0,0:0:0:0:
256,192,23770,1,0,0:0:0:0:
256,192,23938,1,0,0:0:0:0:
256,192,24023,1,0,0:0:0:0:
256,192,24107,1,8,0:0:0:0:
256,192,24275,1,0,0:0:0:0:
256,192,24360,1,8,0:0:0:0:
256,192,24613,1,0,0:0:0:0:
256,192,24697,1,0,0:0:0:0:
256,192,24781,1,8,0:0:0:0:
256,192,24950,1,12,0:0:0:0:
256,192,25118,1,0,0:0:0:0:
256,192,25455,1,8,0:0:0:0:
256,192,25624,1,8,0:0:0:0:
256,192,25708,1,8,0:0:0:0:
256,192,25792,1,8,0:0:0:0:
256,192,25961,1,0,0:0:0:0:
256,192,26129,1,8,0:0:0:0:
256,192,26466,1,0,0:0:0:0:
256,192,26804,1,8,0:0:0:0:
256,192,26972,1,0,0:0:0:0:
256,192,27056,1,8,0:0:0:0:
256,192,27225,1,8,0:0:0:0:
256,192,27309,1,0,0:0:0:0:
256,192,27478,1,8,0:0:0:0:
256,192,27646,1,8,0:0:0:0:
256,192,27731,1,8,0:0:0:0:
256,192,27815,1,4,0:0:0:0:
256,192,28152,1,8,0:0:0:0:
256,192,28320,1,0,0:0:0:0:
256,192,28405,1,8,0:0:0:0:
256,192,28489,1,0,0:0:0:0:
256,192,28657,1,0,0:0:0:0:
256,192,28826,1,8,0:0:0:0:
256,192,28995,1,0,0:0:0:0:
256,192,29163,1,8,0:0:0:0:
256,192,29416,1,0,0:0:0:0:
256,192,29500,1,8,0:0:0:0:
256,192,29669,1,8,0:0:0:0:
256,192,29753,1,8,0:0:0:0:
256,192,29837,1,0,0:0:0:0:
256,192,30006,1,0,0:0:0:0:
256,192,30174,1,8,0:0:0:0:
256,192,30343,1,0,0:0:0:0:
256,192,30427,1,0,0:0:0:0:
256,192,30511,1,0,0:0:0:0:
256,192,30680,1,0,0:0:0:0:
256,192,30848,1,8,0:0:0:0:
256,192,31017,1,8,0:0:0:0:
256,192,31101,1,8,0:0:0:0:
256,192,31186,1,0,0:0:0:0:
256,192,31354,1,0,0:0:0:0:
256,192,31523,1,8,0:0:0:0:
256,192,31691,1,0,0:0:0:0:
256,192,31860,1,0,0:0:0:0:
256,192,31944,1,0,0:0:0:0:
256,192,32028,1,0,0:0:0:0:
256,192,32197,1,8,0:0:0:0:
256,192,32365,1,0,0:0:0:0:
256,192,32450,1,0,0:0:0:0:
256,192,32534,1,8,0:0:0:0:
256,192,32618,1,0,0:0:0:0:
256,192,32702,1,8,0:0:0:0:
256,192,32787,1,0,0:0:0:0:
256,192,32871,1,8,0:0:0:0:
256,192,32955,1,8,0:0:0:0:
256,192,33040,1,8,0:0:0:0:
256,192,33124,1,8,0:0:0:0:
256,192,33208,1,4,0:0:0:0:
256,192,33545,1,8,0:0:0:0:
256,192,33714,1,0,0:0:0:0:
256,192,33882,1,8,0:0:0:0:
256,192,33966,1,8,0:0:0:0:
256,192,34051,1,0,0:0:0:0:
256,192,34219,1,8,0:0:0:0:
256,192,34388,1,0,0:0:0:0:
256,192,34556,1,8,0:0:0:0:
256,192,34641,1,0,0:0:0:0:
256,192,34809,1,0,0:0:0:0:
256,192,34893,1,8,0:0:0:0:
256,192,35062,1,0,0:0:0:0:
256,192,35146,1,8,0:0:0:0:
256,192,35231,1,0,0:0:0:0:
256,192,35399,1,0,0:0:0:0:
256,192,35568,1,8,0:0:0:0:
256,192,35736,1,12,0:0:0:0:
256,192,35905,1,0,0:0:0:0:
256,192,36242,1,8,0:0:0:0:
256,192,36410,1,8,0:0:0:0:
256,192,36495,1,0,0:0:0:0:
256,192,36579,1,0,0:0:0:0:
256,192,36663,1,8,0:0:0:0:
256,192,36747,1,0,0:0:0:0:
256,192,36916,1,8,0:0:0:0:
256,192,37084,1,8,0:0:0:0:
256,192,37253,1,0,0:0:0:0:
256,192,37422,1,0,0:0:0:0:
256,192,37506,1,0,0:0:0:0:
256,192,37590,1,8,0:0:0:0:
256,192,37759,1,0,0:0:0:0:
256,192,37843,1,8,0:0:0:0:
256,192,38011,1,0,0:0:0:0:
256,192,38096,1,8,0:0:0:0:
256,192,38180,1,0,0:0:0:0:
256,192,38264,1,8,0:0:0:0:
256,192,38433,1,8,0:0:0:0:
256,192,38601,1,4,0:0:0:0:
256,192,38938,1,8,0:0:0:0:
256,192,39107,1,0,0:0:0:0:
256,192,39191,1,0,0:0:0:0:
256,192,39275,1,0,0:0:0:0:
256,192,39360,1,8,0:0:0:0:
256,192,39444,1,0,0:0:0:0:
256,192,39613,1,8,0:0:0:0:
256,192,39781,1,8,0:0:0:0:
256,192,39865,1,8,0:0:0:0:
256,192,39950,1,0,0:0:0:0:
256,192,40118,1,0,0:0:0:0:
256,192,40202,1,0,0:0:0:0:
256,192,40287,1,8,0:0:0:0:
256,192,40455,1,0,0:0:0:0:
256,192,40540,1,8,0:0:0:0:
256,192,40624,1,0,0:0:0:0:
256,192,40708,1,8,0:0:0:0:
256,192,40792,1,0,0:0:0:0:
256,192,40877,1,0,0:0:0:0:
256,192,40961,1,8,0:0:0:0:
256,192,41129,1,0,0:0:0:0:
256,192,41298,1,0,0:0:0:0:
256,192,41635,1,8,0:0:0:0:
256,192,41804,1,8,0:0:0:0:
256,192,41888,1,8,0:0:0:0:
256,192,41972,1,0,0:0:0:0:
256,192,42141,1,0,0:0:0:0:
256,192,42309,1,8,0:0:0:0:
256,192,42478,1,0,0:0:0:0:
256,192,42646,1,0,0:0:0:0:
256,192,42983,1,8,0:0:0:0:
256,192,43152,1,0,0:0:0:0:
256,192,43208,1,0,0:0:0:0:
256,192,43264,1,0,0:0:0:0:
256,192,43320,1,8,0:0:0:0:
256,192,43405,1,8,0:0:0:0:
256,192,43489,1,0,0:0:0:0:
256,192,43573,1,8,0:0:0:0:
256,192,43657,1,8,0:0:0:0:
256,192,43742,1,8,0:0:0:0:
256,192,43826,1,8,0:0:0:0:
256,192,43995,1,4,0:0:0:0:
256,192,44332,1,8,0:0:0:0:
256,192,44837,1,0,0:0:0:0:
256,192,45006,1,8,0:0:0:0:
256,192,45174,1,0,0:0:0:0:
256,192,45259,1,0,0:0:0:0:
256,192,45343,1,0,0:0:0:0:
256,192,45511,1,0,0:0:0:0:
256,192,45680,1,8,0:0:0:0:
256,192,45764,1,0,0:0:0:0:
256,192,45848,1,0,0:0:0:0:
256,192,45933,1,8,0:0:0:0:
256,192,46017,1,0,0:0:0:0:
256,192,46186,1,0,0:0:0:0:
256,192,46354,1,8,0:0:0:0:
256,192,46523,1,8,0:0:0:0:
256,192,46607,1,8,0:0:0:0:
256,192,46691,1,0,0:0:0:0:
256,192,46775,1,0,0:0:0:0:
256,192,46860,1,8,0:0:0:0:
256,192,46944,1,0,0:0:0:0:
256,192,47028,1,8,0:0:0:0:
256,192,47113,1,8,0:0:0:0:
256,192,47197,1,0,0:0:0:0:
256,192,47281,1,0,0:0:0:0:
256,192,47365,1,8,0:0:0:0:
256,192,47534,1,0,0:0:0:0:
256,192,47702,1,8,0:0:0:0:
256,192,47871,1,8,0:0:0:0:
256,192,47955,1,8,0:0:0:0:
256,192,48040,1,0,0:0:0:0:
256,192,48208,1,0,0:0:0:0:
256,192,48377,1,8,0:0:0:0:
256,192,48545,1,0,0:0:0:0:
256,192,48629,1,8,0:0:0:0:
256,192,48714,1,0,0:0:0:0:
256,192,48798,1,0,0:0:0:0:
256,192,48882,1,8,0:0:0:0:
256,192,48966,1,0,0:0:0:0:
256,192,49051,1,8,0:0:0:0:
256,192,49219,1,0,0:0:0:0:
256,192,49388,1,0,0:0:0:0:
256,192,49725,1,8,0:0:0:0:
256,192,49893,1,0,0:0:0:0:
256,192,49978,1,0,0:0:0:0:
256,192,50062,1,0,0:0:0:0:
256,192,50231,1,0,0:0:0:0:
256,192,50399,1,8,0:0:0:0:
256,192,50483,1,8,0:0:0:0:
256,192,50568,1,0,0:0:0:0:
256,192,50652,1,8,0:0:0:0:
256,192,50736,1,0,0:0:0:0:
256,192,50905,1,0,0:0:0:0:
256,192,51073,1,8,0:0:0:0:
256,192,51242,1,0,0:0:0:0:
256,192,51326,1,8,0:0:0:0:
256,192,51410,1,0,0:0:0:0:
256,192,51579,1,0,0:0:0:0:
256,192,51747,1,8,0:0:0:0:
256,192,51916,1,0,0:0:0:0:
256,192,52000,1,0,0:0:0:0:
256,192,52084,1,8,0:0:0:0:
256,192,52422,1,0,0:0:0:0:
256,192,52590,1,8,0:0:0:0:
256,192,52674,1,8,0:0:0:0:
256,192,52759,1,0,0:0:0:0:
256,192,52927,1,0,0:0:0:0:
256,192,53096,1,8,0:0:0:0:
256,192,53264,1,8,0:0:0:0:
256,192,53348,1,8,0:0:0:0:
256,192,53433,1,0,0:0:0:0:
256,192,53601,1,8,0:0:0:0:
256,192,53686,1,0,0:0:0:0:
256,192,53770,1,8,0:0:0:0:
256,192,53938,1,0,0:0:0:0:
256,192,54023,1,0,0:0:0:0:
256,192,54107,1,0,0:0:0:0:
256,192,54191,1,8,0:0:0:0:
256,192,54275,1,0,0:0:0:0:
256,192,54360,1,0,0:0:0:0:
256,192,54444,1,8,0:0:0:0:
256,192,54528,1,8,0:0:0:0:
256,192,54613,1,8,0:0:0:0:
256,192,54781,1,4,0:0:0:0:
256,192,54950,1,8,0:0:0:0:
256,192,55034,1,0,0:0:0:0:
256,192,55118,1,8,0:0:0:0:
256,192,55202,1,8,0:0:0:0:
256,192,55287,1,0,0:0:0:0:
256,192,55371,1,0,0:0:0:0:
256,192,55455,1,8,0:0:0:0:
256,192,55624,1,0,0:0:0:0:
256,192,55708,1,0,0:0:0:0:
256,192,55792,1,8,0:0:0:0:
256,192,55961,1,0,0:0:0:0:
256,192,56129,1,0,0:0:0:0:
256,192,56298,1,0,0:0:0:0:
256,192,56382,1,0,0:0:0:0:
256,192,56466,1,8,0:0:0:0:
256,192,56635,1,8,0:0:0:0:
256,192,56719,1,0,0:0:0:0:
256,192,56804,1,8,0:0:0:0:
256,192,56888,1,8,0:0:0:0:
256,192,56972,1,0,0:0:0:0:
256,192,57056,1,0,0:0:0:0:
256,192,57141,1,8,0:0:0:0:
256,192,57309,1,8,0:0:0:0:
256,192,57478,1,0,0:0:0:0:
256,192,57562,1,0,0:0:0:0:
256,192,57646,1,8,0:0:0:0:
256,192,57731,1,0,0:0:0:0:
256,192,57815,1,8,0:0:0:0:
256,192,57899,1,8,0:0:0:0:
256,192,57983,1,0,0:0:0:0:
256,192,58068,1,0,0:0:0:0:
256,192,58152,1,8,0:0:0:0:
256,192,58320,1,0,0:0:0:0:
256,192,58489,1,8,0:0:0:0:
256,192,58657,1,0,0:0:0:0:
256,192,58742,1,0,0:0:0:0:
256,192,58826,1,0,0:0:0:0:
256,192,58995,1,0,0:0:0:0:
256,192,59163,1,8,0:0:0:0:
256,192,59332,1,0,0:0:0:0:
256,192,59416,1,8,0:0:0:0:
256,192,59500,1,8,0:0:0:0:
256,192,59584,1,0,0:0:0:0:
256,192,59669,1,8,0:0:0:0:
256,192,59837,1,8,0:0:0:0:
256,192,60006,1,0,0:0:0:0:
256,192,60174,1,12,0:0:0:0:
256,192,60511,1,0,0:0:0:0:
256,192,60848,1,0,0:0:0:0:
256,192,61186,1,0,0:0:0:0:
256,192,61523,1,8,0:0:0:0:
256,192,61860,1,0,0:0:0:0:
256,192,62197,1,0,0:0:0:0:
256,192,62534,1,0,0:0:0:0:
256,192,62871,1,8,0:0:0:0:
256,192,63040,1,0,0:0:0:0:
256,192,63208,1,0,0:0:0:0:
256,192,63377,1,0,0:0:0:0:
256,192,63545,1,8,0:0:0:0:
256,192,63714,1,0,0:0:0:0:
256,192,63882,1,0,0:0:0:0:
256,192,64051,1,0,0:0:0:0:
256,192,64219,1,8,0:0:0:0:
256,192,64304,1,8,0:0:0:0:
256,192,64388,1,0,0:0:0:0:
256,192,64472,1,0,0:0:0:0:
256,192,64556,1,8,0:0:0:0:
256,192,64641,1,0,0:0:0:0:
256,192,64725,1,8,0:0:0:0:
256,192,64809,1,0,0:0:0:0:
256,192,64893,1,8,0:0:0:0:
256,192,64978,1,8,0:0:0:0:
256,192,65062,1,0,0:0:0:0:
256,192,65146,1,0,0:0:0:0:
256,192,65231,1,8,0:0:0:0:
256,192,65568,1,4,0:0:0:0:
256,192,65820,1,0,0:0:0:0:
256,192,65905,1,8,0:0:0:0:
256,192,66073,1,0,0:0:0:0:
256,192,66242,1,0,0:0:0:0:
256,192,66326,1,8,0:0:0:0:
256,192,66410,1,0,0:0:0:0:
256,192,66495,1,0,0:0:0:0:
256,192,66579,1,8,0:0:0:0:
256,192,66747,1,8,0:0:0:0:
256,192,66832,1,8,0:0:0:0:
256,192,66916,1,0,0:0:0:0:
256,192,67084,1,0,0:0:0:0:
256,192,67169,1,0,0:0:0:0:
256,192,67253,1,8,0:0:0:0:
256,192,67337,1,0,0:0:0:0:
256,192,67422,1,8,0:0:0:0:
256,192,67506,1,8,0:0:0:0:
256,192,67590,1,0,0:0:0:0:
256,192,67759,1,8,0:0:0:0:
256,192,67843,1,0,0:0:0:0:
256,192,67927,1,8,0:0:0:0:
256,192,68096,1,0,0:0:0:0:
256,192,68264,1,8,0:0:0:0:
256,192,68433,1,8,0:0:0:0:
256,192,68517,1,0,0:0:0:0:
256,192,68601,1,8,0:0:0:0:
256,192,68686,1,8,0:0:0:0:
256,192,68770,1,0,0:0:0:0:
256,192,68854,1,8,0:0:0:0:
256,192,68938,1,0,0:0:0:0:
256,192,69107,1,0,0:0:0:0:
256,192,69191,1,0,0:0:0:0:
256,192,69275,1,8,0:0:0:0:
256,192,69444,1,12,0:0:0:0:
256,192,69613,1,0,0:0:0:0:
256,192,69781,1,0,0:0:0:0:
256,192,69865,1,0,0:0:0:0:
256,192,69950,1,8,0:0:0:0:
256,192,70118,1,8,0:0:0:0:
256,192,70202,1,8,0:0:0:0:
256,192,70287,1,0,0:0:0:0:
256,192,70371,1,8,0:0:0:0:
256,192,70455,1,0,0:0:0:0:
256,192,70540,1,0,0:0:0:0:
256,192,70624,1,8,0:0:0:0:
256,192,70792,1,0,0:0:0:0:
256,192,70961,1,0,0:0:0:0:
256,192,71214,1,0,0:0:0:0:
256,192,71298,1,8,0:0:0:0:
256,192,71382,1,8,0:0:0:0:
256,192,71466,1,0,0:0:0:0:
256,192,71635,1,0,0:0:0:0:
256,192,71804,1,8,0:0:0:0:
256,192,71888,1,0,0:0:0:0:
256,192,71972,1,8,0:0:0:0:
256,192,72056,1,0,0:0:0:0:
256,192,72141,1,0,0:0:0:0:
256,192,72225,1,8,0:0:0:0:
256,192,72309,1,0,0:0:0:0:
256,192,72478,1,0,0:0:0:0:
256,192,72562,1,0,0:0:0:0:
256,192,72646,1,8,0:0:0:0:
256,192,72815,1,8,0:0:0:0:
256,192,72899,1,0,0:0:0:0:
256,192,73068,1,8,0:0:0:0:
256,192,73236,1,0,0:0:0:0:
256,192,73320,1,8,0:0:0:0:
256,192,73489,1,8,0:0:0:0:
256,192,73573,1,8,0:0:0:0:
256,192,73657,1,0,0:0:0:0:
256,192,73742,1,0,0:0:0:0:
256,192,73826,1,8,0:0:0:0:
256,192,73910,1,0,0:0:0:0:
256,192,73995,1,8,0:0:0:0:
256,192,74163,1,0,0:0:0:0:
256,192,74247,1,0,0:0:0:0:
256,192,74332,1,8,0:0:0:0:
256,192,74416,1,0,0:0:0:0:
256,192,74500,1,8,0:0:0:0:
256,192,74584,1,8,0:0:0:0:
256,192,74669,1,0,0:0:0:0:
256,192,74837,1,0,0:0:0:0:
256,192,75006,1,0,0:0:0:0:
256,192,75090,1,8,0:0:0:0:
256,192,75259,1,8,0:0:0:0:
256,192,75343,1,0,0:0:0:0:
256,192,75511,1,0,0:0:0:0:
256,192,75596,1,8,0:0:0:0:
256,192,75680,1,0,0:0:0:0:
256,192,75764,1,8,0:0:0:0:
256,192,75848,1,0,0:0:0:0:
256,192,75933,1,0,0:0:0:0:
256,192,76017,1,8,0:0:0:0:
256,192,76101,1,8,0:0:0:0:
256,192,76186,1,8,0:0:0:0:
256,192,76270,1,8,0:0:0:0:
256,192,76354,1,4,0:0:0:0:
256,192,76607,1,0,0:0:0:0:
256,192,76691,1,8,0:0:0:0:
256,192,76860,1,8,0:0:0:0:
256,192,76944,1,8,0:0:0:0:
256,192,77028,1,0,0:0:0:0:
256,192,77113,1,8,0:0:0:0:
256,192,77197,1,0,0:0:0:0:
256,192,77365,1,8,0:0:0:0:
256,192,77534,1,0,0:0:0:0:
256,192,77618,1,8,0:0:0:0:
256,192,77702,1,0,0:0:0:0:
256,192,77871,1,8,0:0:0:0:
256,192,78040,1,8,0:0:0:0:
256,192,78208,1,0,0:0:0:0:
256,192,78292,1,0,0:0:0:0:
256,192,78377,1,8,0:0:0:0:
256,192,78545,1,0,0:0:0:0:
256,192,78714,1,8,0:0:0:0:
256,192,78798,1,8,0:0:0:0:
256,192,78882,1,0,0:0:0:0:
256,192,78966,1,8,0:0:0:0:
256,192,79051,1,0,0:0:0:0:
256,192,79219,1,0,0:0:0:0:
256,192,79388,1,8,0:0:0:0:
256,192,79556,1,0,0:0:0:0:
256,192,79641,1,0,0:0:0:0:
256,192,79725,1,0,0:0:0:0:
256,192,79893,1,0,0:0:0:0:
256,192,80062,1,8,0:0:0:0:
256,192,80231,1,12,0:0:0:0:
256,192,80399,1,0,0:0:0:0:
256,192,80568,1,0,0:0:0:0:
256,192,80652,1,0,0:0:0:0:
256,192,80736,1,8,0:0:0:0:
256,192,80905,1,8,0:0:0:0:
256,192,80989,1,0,0:0:0:0:
256,192,81157,1,8,0:0:0:0:
256,192,81242,1,0,0:0:0:0:
256,192,81410,1,8,0:0:0:0:
256,192,81495,1,8,0:0:0:0:
256,192,81579,1,0,0:0:0:0:
256,192,81663,1,0,0:0:0:0:
256,192,81747,1,12,0:0:0:0:
256,192,82084,1,8,0:0:0:0:
256,192,82253,1,0,0:0:0:0:
256,192,82337,1,8,0:0:0:0:
256,192,82422,1,0,0:0:0:0:
256,192,82506,1,8,0:0:0:0:
256,192,82590,1,0,0:0:0:0:
256,192,82759,1,8,0:0:0:0:
256,192,82927,1,8,0:0:0:0:
256,192,83011,1,8,0:0:0:0:
256,192,83096,1,0,0:0:0:0:
256,192,83264,1,0,0:0:0:0:
256,192,83433,1,8,0:0:0:0:
256,192,83601,1,0,0:0:0:0:
256,192,83686,1,8,0:0:0:0:
256,192,83770,1,0,0:0:0:0:
256,192,83854,1,0,0:0:0:0:
256,192,83938,1,8,0:0:0:0:
256,192,84023,1,0,0:0:0:0:
256,192,84107,1,8,0:0:0:0:
256,192,84275,1,8,0:0:0:0:
256,192,84444,1,0,0:0:0:0:
256,192,84781,1,8,0:0:0:0:
256,192,84950,1,8,0:0:0:0:
256,192,85034,1,0,0:0:0:0:
256,192,85118,1,8,0:0:0:0:
256,192,85202,1,8,0:0:0:0:
256,192,85287,1,0,0:0:0:0:
256,192,85455,1,8,0:0:0:0:
256,192,85624,1,0,0:0:0:0:
256,192,85708,1,0,0:0:0:0:
256,192,85792,1,0,0:0:0:0:
256,192,85961,1,0,0:0:0:0:
256,192,86045,1,0,0:0:0:0:
256,192,86129,1,8,0:0:0:0:
256,192,86298,1,0,0:0:0:0:
256,192,86382,1,0,0:0:0:0:
256,192,86466,1,0,0:0:0:0:
256,192,86551,1,8,0:0:0:0:
256,192,86635,1,0,0:0:0:0:
256,192,86719,1,8,0:0:0:0:
256,192,86804,1,8,0:0:0:0:
256,192,86888,1,8,0:0:0:0:
256,192,86972,1,8,0:0:0:0:
256,192,87141,1,4,0:0:0:0:
256,192,87478,1,8,0:0:0:0:
256,192,87983,1,0,0:0:0:0:
256,192,88152,1,8,0:0:0:0:
256,192,88489,1,0,0:0:0:0:
256,192,88826,1,8,0:0:0:0:
256,192,88995,1,0,0:0:0:0:
256,192,89079,1,8,0:0:0:0:
256,192,89247,1,8,0:0:0:0:
256,192,89332,1,0,0:0:0:0:
256,192,89500,1,8,0:0:0:0:
256,192,89669,1,0,0:0:0:0:
256,192,89837,1,0,0:0:0:0:
256,192,90174,1,8,0:0:0:0:
256,192,90343,1,8,0:0:0:0:
256,192,90680,1,0,0:0:0:0:
256,192,90848,1,8,0:0:0:0:
256,192,91017,1,0,0:0:0:0:
256,192,91101,1,8,0:0:0:0:
256,192,91186,1,0,0:0:0:0:
256,192,91523,1,8,0:0:0:0:
256,192,91691,1,0,0:0:0:0:
256,192,91775,1,8,0:0:0:0:
256,192,91860,1,0,0:0:0:0:
256,192,91944,1,8,0:0:0:0:
256,192,92028,1,0,0:0:0:0:
256,192,92197,1,8,0:0:0:0:
256,192,92365,1,0,0:0:0:0:
256,192,92534,1,4,0:0:0:0:
256,192,92871,1,8,0:0:0:0:
256,192,93040,1,8,0:0:0:0:
256,192,93377,1,0,0:0:0:0:
256,192,93545,1,8,0:0:0:0:
256,192,93798,1,8,0:0:0:0:
256,192,93882,1,0,0:0:0:0:
256,192,94219,1,8,0:0:0:0:
256,192,94388,1,0,0:0:0:0:
256,192,94472,1,8,0:0:0:0:
256,192,94641,1,8,0:0:0:0:
256,192,94725,1,0,0:0:0:0:
256,192,94893,1,8,0:0:0:0:
256,192,95062,1,0,0:0:0:0:
256,192,95231,1,0,0:0:0:0:
256,192,95568,1,8,0:0:0:0:
256,192,95736,1,12,0:0:0:0:
256,192,96073,1,0,0:0:0:0:
256,192,96242,1,8,0:0:0:0:
256,192,96326,1,8,0:0:0:0:
256,192,96410,1,8,0:0:0:0:
256,192,96495,1,8,0:0:0:0:
256,192,96579,1,0,0:0:0:0:
256,192,96747,1,0,0:0:0:0:
256,192,96916,1,8,0:0:0:0:
256,192,97084,1,0,0:0:0:0:
256,192,97169,1,8,0:0:0:0:
256,192,97253,1,0,0:0:0:0:
256,192,97337,1,8,0:0:0:0:
256,192,97422,1,0,0:0:0:0:
256,192,97506,1,0,0:0:0:0:
256,192,97590,1,8,0:0:0:0:
256,192,97674,1,8,0:0:0:0:
256,192,97759,1,8,0:0:0:0:
256,192,97927,1,4,0:0:0:0:
256,192,98264,1,8,0:0:0:0:
256,192,98433,1,0,0:0:0:0:
256,192,98770,1,0,0:0:0:0:
256,192,98938,1,8,0:0:0:0:
256,192,99107,1,0,0:0:0:0:
256,192,99191,1,0,0:0:0:0:
256,192,99275,1,0,0:0:0:0:
256,192,99444,1,8,0:0:0:0:
256,192,99528,1,0,0:0:0:0:
256,192,99613,1,8,0:0:0:0:
256,192,99697,1,8,0:0:0:0:
256,192,99781,1,0,0:0:0:0:
256,192,99865,1,8,0:0:0:0:
256,192,99950,1,0,0:0:0:0:
256,192,100118,1,8,0:0:0:0:
256,192,100287,1,8,0:0:0:0:
256,192,100371,1,8,0:0:0:0:
256,192,100455,1,8,0:0:0:0:
256,192,100540,1,8,0:0:0:0:
256,192,100624,1,0,0:0:0:0:
256,192,100792,1,0,0:0:0:0:
256,192,100961,1,8,0:0:0:0:
256,192,101298,1,8,0:0:0:0:
256,192,101466,1,0,0:0:0:0:
256,192,101635,1,8,0:0:0:0:
256,192,101804,1,0,0:0:0:0:
256,192,101888,1,0,0:0:0:0:
256,192,101972,1,0,0:0:0:0:
256,192,102141,1,0,0:0:0:0:
256,192,102309,1,8,0:0:0:0:
256,192,102393,1,8,0:0:0:0:
256,192,102478,1,0,0:0:0:0:
256,192,102562,1,8,0:0:0:0:
256,192,102646,1,0,0:0:0:0:
256,192,102731,1,8,0:0:0:0:
256,192,102815,1,0,0:0:0:0:
256,192,102899,1,0,0:0:0:0:
256,192,102983,1,8,0:0:0:0:
256,192,103152,1,0,0:0:0:0:
256,192,103320,1,12,0:0:0:0:
256,192,103657,1,0,0:0:0:0:
256,192,103995,1,0,0:0:0:0:
256,192,104332,1,0,0:0:0:0:
256,192,104669,1,8,0:0:0:0:
256,192,105006,1,0,0:0:0:0:
256,192,105343,1,0,0:0:0:0:
256,192,105680,1,0,0:0:0:0:
256,192,106017,1,8,0:0:0:0:
256,192,106186,1,0,0:0:0:0:
256,192,106354,1,0,0:0:0:0:
256,192,106523,1,0,0:0:0:0:
256,192,106691,1,8,0:0:0:0:
256,192,106860,1,0,0:0:0:0:
256,192,107028,1,0,0:0:0:0:
256,192,107197,1,0,0:0:0:0:
256,192,107365,1,8,0:0:0:0:
256,192,107450,1,0,0:0:0:0:
256,192,107534,1,0,0:0:0:0:
256,192,107618,1,0,0:0:0:0:
256,192,107702,1,8,0:0:0:0:
256,192,107787,1,0,0:0:0:0:
256,192,107871,1,8,0:0:0:0:
256,192,107955,1,0,0:0:0:0:
256,192,108040,1,8,0:0:0:0:
256,192,108124,1,8,0:0:0:0:
256,192,108208,1,8,0:0:0:0:
256,192,108292,1,8,0:0:0:0:
256,192,108377,1,0,0:0:0:0:
256,192,108433,1,0,0:0:0:0:
256,192,108489,1,0,0:0:0:0:
256,192,108545,1,8,0:0:0:0:
256,192,108629,1,8,0:0:0:0:
256,192,108714,1,4,0:0:0:0:
256,192,109388,1,8,0:0:0:0:
256,192,110062,1,0,0:0:0:0:
256,192,110736,1,8,0:0:0:0:
256,192,111242,1,12,0:0:0:0:
256,192,111410,1,4,0:0:0:0:
256,192,111747,1,4,0:0:0:0:
256,192,112084,1,8,0:0:0:0:
256,192,112422,1,8,0:0:0:0:
256,192,112590,1,8,0:0:0:0:
256,192,112759,1,0,0:0:0:0:
256,192,112927,1,8,0:0:0:0:
256,192,113264,1,0,0:0:0:0:
256,192,113601,1,12,0:0:0:0:
256,192,114107,1,4,0:0:0:0:
256,192,114950,1,8,0:0:0:0:
256,192,115118,1,0,0:0:0:0:
256,192,115287,1,0,0:0:0:0:
256,192,115455,1,8,0:0:0:0:
256,192,115792,1,0,0:0:0:0:
256,192,115961,1,8,0:0:0:0:
256,192,116129,1,8,0:0:0:0:
256,192,116466,1,8,0:0:0:0:
256,192,116635,1,12,0:0:0:0:
256,192,117983,1,12,0:0:0:0:
256,192,118152,1,4,0:0:0:0:
256,192,118405,1,4,0:0:0:0:
256,192,118657,1,12,0:0:0:0:
256,192,119500,1,4,0:0:0:0:
256,192,120174,1,8,0:0:0:0:
256,192,120511,1,8,0:0:0:0:
256,192,120680,1,0,0:0:0:0:
256,192,120848,1,8,0:0:0:0:
256,192,121101,1,0,0:0:0:0:
256,192,121186,1,8,0:0:0:0:
256,192,121354,1,0,0:0:0:0:
256,192,121523,1,8,0:0:0:0:
256,192,121691,1,0,0:0:0:0:
256,192,121860,1,8,0:0:0:0:
256,192,122028,1,4,0:0:0:0:
256,192,122197,1,8,0:0:0:0:
256,192,122534,1,0,0:0:0:0:
256,192,122871,1,0,0:0:0:0:
256,192,123208,1,8,0:0:0:0:
256,192,123545,1,8,0:0:0:0:
256,192,123882,1,8,0:0:0:0:
256,192,124051,1,0,0:0:0:0:
256,192,124219,1,8,0:0:0:0:
256,192,124388,1,0,0:0:0:0:
256,192,124472,1,0,0:0:0:0:
256,192,124556,1,8,0:0:0:0:
256,192,124725,1,8,0:0:0:0:
256,192,124893,1,12,0:0:0:0:
256,192,125062,1,0,0:0:0:0:
256,192,125231,1,0,0:0:0:0:
256,192,125399,1,0,0:0:0:0:
256,192,125483,1,0,0:0:0:0:
256,192,125568,1,8,0:0:0:0:
256,192,125736,1,0,0:0:0:0:
256,192,125905,1,8,0:0:0:0:
256,192,126073,1,8,0:0:0:0:
256,192,126242,1,8,0:0:0:0:
256,192,126495,1,0,0:0:0:0:
256,192,126579,1,8,0:0:0:0:
256,192,126747,1,0,0:0:0:0:
256,192,126916,1,8,0:0:0:0:
256,192,127084,1,0,0:0:0:0:
256,192,127253,1,8,0:0:0:0:
256,192,127422,1,0,0:0:0:0:
256,192,127590,1,0,0:0:0:0:
256,192,127927,1,0,0:0:0:0:
256,192,128264,1,0,0:0:0:0:
256,192,128601,1,8,0:0:0:0:
256,192,128686,1,8,0:0:0:0:
256,192,128770,1,0,0:0:0:0:
256,192,128938,1,8,0:0:0:0:
256,192,129107,1,0,0:0:0:0:
256,192,129191,1,0,0:0:0:0:
256,192,129275,1,8,0:0:0:0:
256,192,129444,1,8,0:0:0:0:
256,192,129500,1,8,0:0:0:0:
256,192,129556,1,8,0:0:0:0:
256,192,129613,1,8,0:0:0:0:
256,192,129697,1,8,0:0:0:0:
256,192,129781,1,0,0:0:0:0:
256,192,129837,1,0,0:0:0:0:
256,192,129893,1,0,0:0:0:0:
256,192,129950,1,8,0:0:0:0:
256,192,130287,1,4,0:0:0:0:
256,192,130624,1,8,0:0:0:0:
256,192,130792,1,8,0:0:0:0:
256,192,130877,1,8,0:0:0:0:
256,192,130961,1,0,0:0:0:0:
256,192,131045,1,8,0:0:0:0:
256,192,131129,1,0,0:0:0:0:
256,192,131298,1,8,0:0:0:0:
256,192,131466,1,8,0:0:0:0:
256,192,131551,1,8,0:0:0:0:
256,192,131635,1,0,0:0:0:0:
256,192,131804,1,0,0:0:0:0:
256,192,131972,1,8,0:0:0:0:
256,192,132141,1,0,0:0:0:0:
256,192,132225,1,8,0:0:0:0:
256,192,132309,1,0,0:0:0:0:
256,192,132478,1,0,0:0:0:0:
256,192,132646,1,8,0:0:0:0:
256,192,132815,1,8,0:0:0:0:
256,192,132983,1,0,0:0:0:0:
256,192,133068,1,0,0:0:0:0:
256,192,133152,1,8,0:0:0:0:
256,192,133236,1,0,0:0:0:0:
256,192,133320,1,8,0:0:0:0:
256,192,133405,1,8,0:0:0:0:
256,192,133489,1,0,0:0:0:0:
256,192,133573,1,0,0:0:0:0:
256,192,133657,1,8,0:0:0:0:
256,192,133826,1,0,0:0:0:0:
256,192,133995,1,8,0:0:0:0:
256,192,134163,1,8,0:0:0:0:
256,192,134247,1,8,0:0:0:0:
256,192,134332,1,0,0:0:0:0:
256,192,134500,1,0,0:0:0:0:
256,192,134669,1,8,0:0:0:0:
256,192,134837,1,0,0:0:0:0:
256,192,134922,1,8,0:0:0:0:
256,192,135006,1,0,0:0:0:0:
256,192,135090,1,0,0:0:0:0:
256,192,135174,1,8,0:0:0:0:
256,192,135343,1,8,0:0:0:0:
256,192,135511,1,0,0:0:0:0:
256,192,135596,1,0,0:0:0:0:
256,192,135680,1,0,0:0:0:0:
256,192,135848,1,8,0:0:0:0:
256,192,136017,1,8,0:0:0:0:
256,192,136186,1,0,0:0:0:0:
256,192,136270,1,8,0:0:0:0:
256,192,136354,1,0,0:0:0:0:
256,192,136438,1,8,0:0:0:0:
256,192,136523,1,0,0:0:0:0:
256,192,136691,1,8,0:0:0:0:
256,192,136860,1,8,0:0:0:0:
256,192,136944,1,8,0:0:0:0:
256,192,137028,1,0,0:0:0:0:
256,192,137365,1,8,0:0:0:0:
256,192,137534,1,0,0:0:0:0:
256,192,137618,1,8,0:0:0:0:
256,192,137702,1,0,0:0:0:0:
224,192,137787,1,0,0:0:0:0:
256,192,137871,1,0,0:0:0:0:
256,192,138040,1,8,0:0:0:0:
224,192,138208,1,8,0:0:0:0:
224,192,138292,1,8,0:0:0:0:
256,192,138377,1,0,0:0:0:0:
224,192,138545,1,0,0:0:0:0:
256,192,138714,1,8,0:0:0:0:
224,192,138882,1,0,0:0:0:0:
224,192,138966,1,0,0:0:0:0:
224,192,139051,1,8,0:0:0:0:
256,192,139219,1,0,0:0:0:0:
256,192,139388,1,8,0:0:0:0:
224,192,139556,1,8,0:0:0:0:
256,192,139725,1,0,0:0:0:0:
224,192,139893,1,8,0:0:0:0:
256,192,140062,1,8,0:0:0:0:
256,192,140231,1,0,0:0:0:0:
256,192,140315,1,0,0:0:0:0:
256,192,140399,1,0,0:0:0:0:
256,192,140483,1,8,0:0:0:0:
256,192,140568,1,0,0:0:0:0:
256,192,140652,1,0,0:0:0:0:
256,192,140736,1,8,0:0:0:0:
256,192,140820,1,8,0:0:0:0:
256,192,140905,1,8,0:0:0:0:
256,192,141073,1,4,0:0:0:0:
256,192,141242,1,8,0:0:0:0:
256,192,141326,1,0,0:0:0:0:
256,192,141410,1,8,0:0:0:0:
256,192,141495,1,8,0:0:0:0:
256,192,141579,1,0,0:0:0:0:
256,192,141663,1,0,0:0:0:0:
256,192,141747,1,8,0:0:0:0:
256,192,141916,1,0,0:0:0:0:
256,192,142084,1,8,0:0:0:0:
256,192,142253,1,0,0:0:0:0:
256,192,142337,1,0,0:0:0:0:
256,192,142422,1,0,0:0:0:0:
256,192,142590,1,0,0:0:0:0:
256,192,142759,1,8,0:0:0:0:
256,192,142927,1,0,0:0:0:0:
256,192,143011,1,8,0:0:0:0:
256,192,143096,1,8,0:0:0:0:
256,192,143180,1,0,0:0:0:0:
256,192,143264,1,8,0:0:0:0:
256,192,143433,1,8,0:0:0:0:
256,192,143601,1,0,0:0:0:0:
256,192,143770,1,0,0:0:0:0:
256,192,143854,1,0,0:0:0:0:
256,192,143938,1,8,0:0:0:0:
256,192,144023,1,0,0:0:0:0:
256,192,144107,1,8,0:0:0:0:
256,192,144191,1,8,0:0:0:0:
256,192,144275,1,0,0:0:0:0:
256,192,144360,1,0,0:0:0:0:
256,192,144444,1,8,0:0:0:0:
256,192,144613,1,0,0:0:0:0:
256,192,144781,1,8,0:0:0:0:
256,192,144950,1,8,0:0:0:0:
256,192,145034,1,8,0:0:0:0:
256,192,145118,1,0,0:0:0:0:
256,192,145287,1,0,0:0:0:0:
256,192,145371,1,0,0:0:0:0:
256,192,145455,1,8,0:0:0:0:
256,192,145624,1,0,0:0:0:0:
256,192,145708,1,0,0:0:0:0:
256,192,145792,1,0,0:0:0:0:
256,192,145877,1,8,0:0:0:0:
256,192,145961,1,0,0:0:0:0:
256,192,146129,1,8,0:0:0:0:
256,192,146298,1,0,0:0:0:0:
256,192,146466,1,12,0:0:0:0:
256,192,146804,1,0,0:0:0:0:
256,192,147141,1,0,0:0:0:0:
256,192,147478,1,0,0:0:0:0:
256,192,147815,1,8,0:0:0:0:
256,192,148152,1,0,0:0:0:0:
256,192,148489,1,0,0:0:0:0:
256,192,148826,1,0,0:0:0:0:
256,192,149163,1,8,0:0:0:0:
256,192,149332,1,0,0:0:0:0:
256,192,149500,1,0,0:0:0:0:
256,192,149669,1,0,0:0:0:0:
256,192,149837,1,8,0:0:0:0:
256,192,150006,1,0,0:0:0:0:
256,192,150090,1,0,0:0:0:0:
256,192,150174,1,0,0:0:0:0:
256,192,150259,1,0,0:0:0:0:
256,192,150343,1,0,0:0:0:0:
256,192,150427,1,0,0:0:0:0:
256,192,150511,1,8,0:0:0:0:
256,192,150568,1,8,0:0:0:0:
256,192,150624,1,8,0:0:0:0:
256,192,150680,1,8,0:0:0:0:
256,192,150736,1,8,0:0:0:0:
256,192,151017,1,0,0:0:0:0:
256,192,151101,1,0,0:0:0:0:
256,192,151186,1,8,0:0:0:0:
256,192,151270,1,8,0:0:0:0:
256,192,151354,1,0,0:0:0:0:
256,192,151438,1,0,0:0:0:0:
256,192,151523,1,8,0:0:0:0:
256,192,151607,1,8,0:0:0:0:
256,192,151691,1,8,0:0:0:0:
256,192,151775,1,8,0:0:0:0:
256,192,151860,1,4,0:0:0:0:
256,192,152197,1,8,0:0:0:0:
256,192,152365,1,0,0:0:0:0:
256,192,152534,1,0,0:0:0:0:
256,192,152618,1,8,0:0:0:0:
256,192,152702,1,0,0:0:0:0:
256,192,152787,1,0,0:0:0:0:
256,192,152871,1,8,0:0:0:0:
256,192,153040,1,8,0:0:0:0:
256,192,153124,1,8,0:0:0:0:
256,192,153208,1,0,0:0:0:0:
256,192,153377,1,0,0:0:0:0:
256,192,153461,1,0,0:0:0:0:
256,192,153545,1,8,0:0:0:0:
256,192,153629,1,0,0:0:0:0:
256,192,153714,1,8,0:0:0:0:
256,192,153798,1,8,0:0:0:0:
256,192,153882,1,0,0:0:0:0:
256,192,154051,1,8,0:0:0:0:
256,192,154135,1,0,0:0:0:0:
256,192,154219,1,8,0:0:0:0:
256,192,154388,1,0,0:0:0:0:
256,192,154556,1,0,0:0:0:0:
256,192,154893,1,8,0:0:0:0:
256,192,154978,1,8,0:0:0:0:
256,192,155062,1,0,0:0:0:0:
256,192,155146,1,8,0:0:0:0:
256,192,155231,1,0,0:0:0:0:
256,192,155399,1,0,0:0:0:0:
256,192,155483,1,0,0:0:0:0:
256,192,155568,1,8,0:0:0:0:
256,192,155736,1,12,0:0:0:0:
256,192,155905,1,0,0:0:0:0:
256,192,156073,1,0,0:0:0:0:
256,192,156157,1,0,0:0:0:0:
256,192,156242,1,8,0:0:0:0:
256,192,156410,1,8,0:0:0:0:
256,192,156495,1,8,0:0:0:0:
256,192,156579,1,0,0:0:0:0:
256,192,156663,1,8,0:0:0:0:
256,192,156747,1,0,0:0:0:0:
256,192,156832,1,0,0:0:0:0:
256,192,156916,1,8,0:0:0:0:
256,192,157084,1,0,0:0:0:0:
256,192,157253,1,0,0:0:0:0:
256,192,157590,1,8,0:0:0:0:
256,192,157759,1,0,0:0:0:0:
256,192,157843,1,0,0:0:0:0:
256,192,157927,1,0,0:0:0:0:
256,192,158096,1,8,0:0:0:0:
256,192,158180,1,0,0:0:0:0:
256,192,158264,1,8,0:0:0:0:
256,192,158348,1,0,0:0:0:0:
256,192,158433,1,0,0:0:0:0:
256,192,158517,1,8,0:0:0:0:
256,192,158601,1,0,0:0:0:0:
256,192,158770,1,0,0:0:0:0:
256,192,158854,1,0,0:0:0:0:
256,192,158938,1,8,0:0:0:0:
256,192,159107,1,8,0:0:0:0:
256,192,159191,1,0,0:0:0:0:
256,192,159360,1,8,0:0:0:0:
256,192,159528,1,0,0:0:0:0:
256,192,159613,1,8,0:0:0:0:
256,192,159781,1,8,0:0:0:0:
256,192,159865,1,8,0:0:0:0:
256,192,159950,1,0,0:0:0:0:
256,192,160034,1,0,0:0:0:0:
256,192,160118,1,8,0:0:0:0:
256,192,160202,1,0,0:0:0:0:
256,192,160287,1,8,0:0:0:0:
256,192,160455,1,4,0:0:0:0:
256,192,160624,1,8,0:0:0:0:
256,192,160708,1,8,0:0:0:0:
256,192,160792,1,0,0:0:0:0:
256,192,160877,1,0,0:0:0:0:
256,192,160961,1,8,0:0:0:0:
256,192,161129,1,0,0:0:0:0:
256,192,161298,1,0,0:0:0:0:
256,192,161382,1,8,0:0:0:0:
256,192,161551,1,8,0:0:0:0:
256,192,161635,1,0,0:0:0:0:
256,192,161804,1,0,0:0:0:0:
256,192,161888,1,8,0:0:0:0:
256,192,161972,1,0,0:0:0:0:
256,192,162056,1,8,0:0:0:0:
256,192,162141,1,0,0:0:0:0:
256,192,162225,1,0,0:0:0:0:
256,192,162309,1,8,0:0:0:0:
256,192,162393,1,8,0:0:0:0:
256,192,162478,1,8,0:0:0:0:
256,192,162646,1,4,0:0:0:0:
256,192,162983,1,8,0:0:0:0:
256,192,163152,1,8,0:0:0:0:
256,192,163236,1,8,0:0:0:0:
256,192,163320,1,0,0:0:0:0:
256,192,163405,1,8,0:0:0:0:
256,192,163489,1,0,0:0:0:0:
256,192,163657,1,8,0:0:0:0:
256,192,163826,1,0,0:0:0:0:
256,192,163910,1,8,0:0:0:0:
256,192,163995,1,0,0:0:0:0:
256,192,164163,1,8,0:0:0:0:
256,192,164332,1,8,0:0:0:0:
256,192,164500,1,0,0:0:0:0:
256,192,164584,1,0,0:0:0:0:
256,192,164669,1,8,0:0:0:0:
256,192,164837,1,0,0:0:0:0:
256,192,165006,1,8,0:0:0:0:
256,192,165090,1,8,0:0:0:0:
256,192,165174,1,0,0:0:0:0:
256,192,165259,1,8,0:0:0:0:
256,192,165343,1,0,0:0:0:0:
256,192,165511,1,0,0:0:0:0:
256,192,165680,1,8,0:0:0:0:
256,192,165848,1,0,0:0:0:0:
256,192,165933,1,0,0:0:0:0:
256,192,166017,1,0,0:0:0:0:
256,192,166186,1,0,0:0:0:0:
256,192,166354,1,8,0:0:0:0:
256,192,166438,1,0,0:0:0:0:
256,192,166523,1,12,0:0:0:0:
256,192,166691,1,0,0:0:0:0:
256,192,166860,1,0,0:0:0:0:
256,192,166944,1,0,0:0:0:0:
256,192,167028,1,8,0:0:0:0:
256,192,167197,1,8,0:0:0:0:
256,192,167281,1,0,0:0:0:0:
256,192,167450,1,8,0:0:0:0:
256,192,167534,1,0,0:0:0:0:
256,192,167702,1,8,0:0:0:0:
256,192,167787,1,8,0:0:0:0:
256,192,167871,1,0,0:0:0:0:
256,192,167955,1,0,0:0:0:0:
256,192,168040,1,12,0:0:0:0:
256,192,168377,1,8,0:0:0:0:
256,192,168545,1,0,0:0:0:0:
256,192,168629,1,8,0:0:0:0:
256,192,168714,1,0,0:0:0:0:
256,192,168798,1,8,0:0:0:0:
256,192,168882,1,0,0:0:0:0:
256,192,169051,1,8,0:0:0:0:
256,192,169219,1,8,0:0:0:0:
256,192,169304,1,8,0:0:0:0:
256,192,169388,1,0,0:0:0:0:
256,192,169556,1,0,0:0:0:0:
256,192,169725,1,8,0:0:0:0:
256,192,169893,1,0,0:0:0:0:
256,192,169978,1,8,0:0:0:0:
256,192,170062,1,0,0:0:0:0:
256,192,170146,1,0,0:0:0:0:
256,192,170231,1,8,0:0:0:0:
256,192,170315,1,0,0:0:0:0:
256,192,170399,1,8,0:0:0:0:
256,192,170568,1,8,0:0:0:0:
256,192,170736,1,0,0:0:0:0:
256,192,171073,1,8,0:0:0:0:
256,192,171242,1,8,0:0:0:0:
256,192,171326,1,0,0:0:0:0:
256,192,171410,1,8,0:0:0:0:
256,192,171495,1,8,0:0:0:0:
256,192,171579,1,0,0:0:0:0:
256,192,171747,1,8,0:0:0:0:
256,192,171916,1,0,0:0:0:0:
256,192,172084,1,8,0:0:0:0:
256,192,172253,1,0,0:0:0:0:
256,192,172337,1,0,0:0:0:0:
256,192,172422,1,8,0:0:0:0:
256,192,172590,1,0,0:0:0:0:
256,192,172674,1,0,0:0:0:0:
256,192,172759,1,0,0:0:0:0:
256,192,172843,1,8,0:0:0:0:
256,192,172927,1,8,0:0:0:0:
256,192,173011,1,0,0:0:0:0:
256,192,173096,1,8,0:0:0:0:
256,192,173180,1,8,0:0:0:0:
256,192,173264,1,8,0:0:0:0:
256,192,173433,1,4,0:0:0:0:
256,192,173770,1,8,0:0:0:0:
256,192,174275,1,0,0:0:0:0:
256,192,174444,1,8,0:0:0:0:
256,192,174781,1,0,0:0:0:0:
256,192,175118,1,8,0:0:0:0:
256,192,175287,1,0,0:0:0:0:
256,192,175371,1,8,0:0:0:0:
256,192,175455,1,8,0:0:0:0:
256,192,175540,1,0,0:0:0:0:
256,192,175624,1,0,0:0:0:0:
256,192,175792,1,8,0:0:0:0:
256,192,175961,1,0,0:0:0:0:
256,192,176129,1,0,0:0:0:0:
256,192,176466,1,8,0:0:0:0:
256,192,176635,1,8,0:0:0:0:
256,192,176972,1,0,0:0:0:0:
256,192,177141,1,8,0:0:0:0:
256,192,177267,1,8,0:0:0:0:
256,192,177393,1,8,0:0:0:0:
256,192,177520,1,0,0:0:0:0:
256,192,177646,1,0,0:0:0:0:
256,192,177773,1,8,0:0:0:0:
256,192,177899,1,0,0:0:0:0:
256,192,178025,1,8,0:0:0:0:
256,192,178152,1,8,0:0:0:0:
256,192,178236,1,0,0:0:0:0:
256,192,178320,1,8,0:0:0:0:
256,192,178489,1,8,0:0:0:0:
256,192,178657,1,0,0:0:0:0:
256,192,178826,1,4,0:0:0:0:
256,192,179163,1,8,0:0:0:0:
256,192,179332,1,8,0:0:0:0:
256,192,179669,1,0,0:0:0:0:
256,192,179837,1,8,0:0:0:0:
256,192,180090,1,8,0:0:0:0:
256,192,180174,1,0,0:0:0:0:
256,192,180511,1,8,0:0:0:0:
256,192,180680,1,0,0:0:0:0:
256,192,180764,1,8,0:0:0:0:
256,192,180848,1,0,0:0:0:0:
256,192,181017,1,0,0:0:0:0:
256,192,181186,1,8,0:0:0:0:
256,192,181523,1,0,0:0:0:0:
256,192,181607,1,0,0:0:0:0:
256,192,181691,1,0,0:0:0:0:
256,192,181775,1,0,0:0:0:0:
256,192,181860,1,8,0:0:0:0:
256,192,182028,1,12,0:0:0:0:
256,192,182365,1,0,0:0:0:0:
256,192,182534,1,8,0:0:0:0:
256,192,182787,1,8,0:0:0:0:
256,192,182871,1,0,0:0:0:0:
256,192,183040,1,8,0:0:0:0:
256,192,183208,1,0,0:0:0:0:
256,192,183292,1,8,0:0:0:0:
256,192,183377,1,0,0:0:0:0:
256,192,183461,1,0,0:0:0:0:
256,192,183545,1,8,0:0:0:0:
256,192,183629,1,0,0:0:0:0:
256,192,183714,1,0,0:0:0:0:
256,192,183798,1,8,0:0:0:0:
256,192,183882,1,8,0:0:0:0:
256,192,183966,1,8,0:0:0:0:
256,192,184051,1,8,0:0:0:0:
256,192,184219,1,0,0:0:0:0:
256,192,184388,1,8,0:0:0:0:
256,192,184556,1,8,0:0:0:0:
256,192,184725,1,0,0:0:0:0:
256,192,185062,1,0,0:0:0:0:
256,192,185231,1,8,0:0:0:0:
256,192,185399,1,8,0:0:0:0:
256,192,185483,1,8,0:0:0:0:
256,192,185568,1,0,0:0:0:0:
256,192,185736,1,0,0:0:0:0:
256,192,185820,1,8,0:0:0:0:
256,192,185905,1,0,0:0:0:0:
256,192,185989,1,0,0:0:0:0:
256,192,186073,1,8,0:0:0:0:
256,192,186157,1,8,0:0:0:0:
256,192,186242,1,0,0:0:0:0:
256,192,186410,1,0,0:0:0:0:
256,192,186495,1,0,0:0:0:0:
256,192,186579,1,8,0:0:0:0:
256,192,186663,1,0,0:0:0:0:
256,192,186747,1,8,0:0:0:0:
256,192,186916,1,0,0:0:0:0:
256,192,187084,1,0,0:0:0:0:
256,192,187169,1,8,0:0:0:0:
256,192,187253,1,0,0:0:0:0:
256,192,187422,1,8,0:0:0:0:
256,192,187590,1,0,0:0:0:0:
256,192,187674,1,8,0:0:0:0:
256,192,187759,1,0,0:0:0:0:
256,192,187843,1,0,0:0:0:0:
256,192,187927,1,8,0:0:0:0:
256,192,188096,1,8,0:0:0:0:
256,192,188180,1,8,0:0:0:0:
256,192,188264,1,0,0:0:0:0:
256,192,188348,1,0,0:0:0:0:
256,192,188433,1,8,0:0:0:0:
256,192,188517,1,0,0:0:0:0:
256,192,188601,1,8,0:0:0:0:
256,192,188770,1,0,0:0:0:0:
256,192,188854,1,8,0:0:0:0:
256,192,188938,1,0,0:0:0:0:
256,192,189023,1,8,0:0:0:0:
256,192,189107,1,8,0:0:0:0:
256,192,189191,1,0,0:0:0:0:
256,192,189275,1,8,0:0:0:0:
256,192,189360,1,0,0:0:0:0:
256,192,189444,1,0,0:0:0:0:
256,192,189528,1,0,0:0:0:0:
256,192,189613,1,12,0:0:0:0:
256,192,189950,1,0,0:0:0:0:
256,192,190287,1,0,0:0:0:0:
256,192,190399,1,8,0:0:0:0:
256,192,190511,1,8,0:0:0:0:
256,192,190624,1,0,0:0:0:0:
256,192,190792,1,0,0:0:0:0:
256,192,190961,1,8,0:0:0:0:
256,192,191298,1,0,0:0:0:0:
256,192,191635,1,0,0:0:0:0:
256,192,191972,1,0,0:0:0:0:
256,192,192309,1,8,0:0:0:0:
256,192,192478,1,0,0:0:0:0:
256,192,192646,1,0,0:0:0:0:
256,192,192815,1,0,0:0:0:0:
256,192,192983,1,8,0:0:0:0:
256,192,193152,1,0,0:0:0:0:
256,192,193320,1,0,0:0:0:0:
256,192,193489,1,0,0:0:0:0:
256,192,193657,1,8,0:0:0:0:
256,192,193742,1,8,0:0:0:0:
256,192,193826,1,0,0:0:0:0:
256,192,193910,1,8,0:0:0:0:
256,192,193995,1,8,0:0:0:0:
256,192,194079,1,0,0:0:0:0:
256,192,194163,1,8,0:0:0:0:
256,192,194247,1,8,0:0:0:0:
256,192,194332,1,0,0:0:0:0:
256,192,194416,1,8,0:0:0:0:
256,192,194500,1,8,0:0:0:0:
256,192,194584,1,0,0:0:0:0:
256,192,194669,1,8,0:0:0:0:
256,192,194753,1,8,0:0:0:0:
256,192,194837,1,8,0:0:0:0:
256,192,194922,1,8,0:0:0:0:
256,192,195006,1,0,0:0:0:0:
256,192,195174,1,0,0:0:0:0:
256,192,195231,1,0,0:0:0:0:
256,192,195287,1,0,0:0:0:0:
256,192,195343,1,8,0:0:0:0:
256,192,195680,1,0,0:0:0:0:
256,192,196017,1,8,0:0:0:0:
256,192,196186,1,8,0:0:0:0:
256,192,196354,1,0,0:0:0:0:
256,192,196860,1,0,0:0:0:0:
256,192,197028,1,8,0:0:0:0:
256,192,197365,1,0,0:0:0:0:
256,192,197534,1,0,0:0:0:0:
256,192,197702,1,8,0:0:0:0:
256,192,198040,1,8,0:0:0:0:
256,192,198208,1,8,0:0:0:0:
256,192,198377,1,0,0:0:0:0:
256,192,198714,1,8,0:0:0:0:
256,192,199051,1,0,0:0:0:0:
256,192,199219,1,8,0:0:0:0:
256,192,199388,1,0,0:0:0:0:
256,192,199556,1,8,0:0:0:0:
256,192,199725,1,0,0:0:0:0:
256,192,199893,1,8,0:0:0:0:
256,192,199950,1,8,0:0:0:0:
256,192,200006,1,8,0:0:0:0:
256,192,200062,1,0,0:0:0:0:
256,192,200231,1,0,0:0:0:0:
256,192,200399,1,8,0:0:0:0:
256,192,200568,1,0,0:0:0:0:
256,192,200736,1,8,0:0:0:0:
256,192,201073,1,8,0:0:0:0:
256,192,201242,1,0,0:0:0:0:
256,192,201298,1,0,0:0:0:0:
256,192,201354,1,0,0:0:0:0:
256,192,201410,1,8,0:0:0:0:
256,192,201579,1,8,0:0:0:0:
256,192,201747,1,0,0:0:0:0:
256,192,202084,1,8,0:0:0:0:
256,192,202422,1,0,0:0:0:0:
256,192,202759,1,0,0:0:0:0:
256,192,203096,1,8,0:0:0:0:
256,192,203433,1,8,0:0:0:0:
256,192,203601,1,8,0:0:0:0:
256,192,203770,1,0,0:0:0:0:
256,192,204107,1,8,0:0:0:0:
256,192,204444,1,8,0:0:0:0:
256,192,204697,1,8,0:0:0:0:
256,192,204950,1,8,0:0:0:0:
256,192,205202,1,8,0:0:0:0:
256,192,205455,1,8,0:0:0:0:
256,192,205624,1,8,0:0:0:0:
256,192,205792,1,4,0:0:0:0:
256,192,206129,1,8,0:0:0:0:
256,192,206466,1,0,0:0:0:0:
256,192,206804,1,8,0:0:0:0:
256,192,207141,1,0,0:0:0:0:
256,192,207478,1,8,0:0:0:0:
256,192,207590,1,8,0:0:0:0:
256,192,207702,1,8,0:0:0:0:
256,192,207815,1,0,0:0:0:0:
256,192,207927,1,0,0:0:0:0:
256,192,208040,1,8,0:0:0:0:
256,192,208152,1,8,0:0:0:0:
256,192,208264,1,0,0:0:0:0:
256,192,208377,1,8,0:0:0:0:
256,192,208489,1,0,0:0:0:0:
256,192,208826,1,8,0:0:0:0:
256,192,208995,1,0,0:0:0:0:
256,192,209163,1,8,0:0:0:0:
256,192,209500,1,8,0:0:0:0:
256,192,209837,1,8,0:0:0:0:
256,192,210174,1,0,0:0:0:0:
256,192,210287,1,0,0:0:0:0:
256,192,210399,1,0,0:0:0:0:
256,192,210511,1,8,0:0:0:0:
256,192,210624,1,8,0:0:0:0:
256,192,210736,1,8,0:0:0:0:
256,192,210848,1,0,0:0:0:0:
256,192,210961,1,8,0:0:0:0:
256,192,211073,1,8,0:0:0:0:
256,192,211186,1,0,0:0:0:0:
256,192,211523,1,8,0:0:0:0:
256,192,211860,1,0,0:0:0:0:
256,192,212197,1,8,0:0:0:0:
256,192,212365,1,8,0:0:0:0:
256,192,212534,1,0,0:0:0:0:
256,192,212871,1,8,0:0:0:0:
256,192,213208,1,0,0:0:0:0:
256,192,213545,1,8,0:0:0:0:
256,192,213882,1,0,0:0:0:0:
256,192,214219,1,8,0:0:0:0:
256,192,214556,1,0,0:0:0:0:
256,192,214893,1,8,0:0:0:0:
256,192,215062,1,8,0:0:0:0:
256,192,215231,1,0,0:0:0:0:
256,192,215315,1,8,0:0:0:0:
256,192,215399,1,8,0:0:0:0:
256,192,215483,1,8,0:0:0:0:
256,192,215568,1,8,0:0:0:0:
256,192,215905,1,0,0:0:0:0:
256,192,216242,1,8,0:0:0:0:
256,192,216579,1,12,0:0:0:0:
256,192,216916,1,0,0:0:0:0:
256,192,217253,1,0,0:0:0:0:
256,192,217590,1,0,0:0:0:0:
256,192,217927,1,8,0:0:0:0:
256,192,218264,1,0,0:0:0:0:
256,192,218601,1,8,0:0:0:0:
256,192,218938,1,0,0:0:0:0:
256,192,219275,1,8,0:0:0:0:
256,192,219444,1,0,0:0:0:0:
256,192,219613,1,0,0:0:0:0:
256,192,219781,1,0,0:0:0:0:
256,192,219950,1,8,0:0:0:0:
256,192,220118,1,0,0:0:0:0:
256,192,220287,1,0,0:0:0:0:
256,192,220455,1,0,0:0:0:0:
256,192,220624,1,8,0:0:0:0:
256,192,220708,1,0,0:0:0:0:
256,192,220792,1,0,0:0:0:0:
256,192,220877,1,0,0:0:0:0:
256,192,220961,1,8,0:0:0:0:
256,192,221045,1,0,0:0:0:0:
256,192,221129,1,0,0:0:0:0:
256,192,221214,1,0,0:0:0:0:
256,192,221298,1,8,0:0:0:0:
256,192,221382,1,8,0:0:0:0:
256,192,221466,1,0,0:0:0:0:
256,192,221551,1,0,0:0:0:0:
256,192,221635,1,8,0:0:0:0:
256,192,221719,1,8,0:0:0:0:
256,192,221804,1,8,0:0:0:0:
256,192,221888,1,0,0:0:0:0:
256,192,221972,1,8,0:0:0:0:
256,192,222056,1,0,0:0:0:0:
256,192,222141,1,8,0:0:0:0:
256,192,222197,1,8,0:0:0:0:
256,192,222253,1,8,0:0:0:0:
256,192,222309,1,0,0:0:0:0:
256,192,222393,1,8,0:0:0:0:
256,192,222478,1,0,0:0:0:0:
256,192,222534,1,0,0:0:0:0:
256,192,222590,1,0,0:0:0:0:
256,192,222646,1,8,0:0:0:0:
256,192,222731,1,8,0:0:0:0:
256,192,222815,1,8,0:0:0:0:
256,192,222899,1,8,0:0:0:0:
256,192,222983,1,0,0:0:0:0:
256,192,223320,1,4,0:0:0:0:
256,192,223489,1,0,0:0:0:0:
256,192,223573,1,0,0:0:0:0:
256,192,223657,1,8,0:0:0:0:
256,192,223826,1,0,0:0:0:0:
256,192,223995,1,0,0:0:0:0:
256,192,224079,1,8,0:0:0:0:
256,192,224163,1,0,0:0:0:0:
256,192,224247,1,0,0:0:0:0:
256,192,224332,1,8,0:0:0:0:
256,192,224500,1,8,0:0:0:0:
256,192,224584,1,8,0:0:0:0:
256,192,224669,1,0,0:0:0:0:
256,192,224837,1,0,0:0:0:0:
256,192,224922,1,0,0:0:0:0:
256,192,225006,1,8,0:0:0:0:
256,192,225090,1,0,0:0:0:0:
256,192,225174,1,8,0:0:0:0:
256,192,225259,1,8,0:0:0:0:
256,192,225343,1,0,0:0:0:0:
256,192,225511,1,8,0:0:0:0:
256,192,225596,1,0,0:0:0:0:
256,192,225680,1,8,0:0:0:0:
256,192,225848,1,0,0:0:0:0:
256,192,226017,1,0,0:0:0:0:
256,192,226186,1,8,0:0:0:0:
256,192,226270,1,0,0:0:0:0:
256,192,226354,1,8,0:0:0:0:
256,192,226438,1,8,0:0:0:0:
256,192,226523,1,0,0:0:0:0:
256,192,226607,1,8,0:0:0:0:
256,192,226691,1,0,0:0:0:0:
256,192,226860,1,0,0:0:0:0:
256,192,226944,1,0,0:0:0:0:
256,192,227028,1,8,0:0:0:0:
256,192,227197,1,12,0:0:0:0:
256,192,227365,1,0,0:0:0:0:
256,192,227534,1,0,0:0:0:0:
256,192,227618,1,0,0:0:0:0:
256,192,227702,1,8,0:0:0:0:
256,192,227871,1,8,0:0:0:0:
256,192,227955,1,8,0:0:0:0:
256,192,228040,1,0,0:0:0:0:
256,192,228124,1,8,0:0:0:0:
256,192,228208,1,0,0:0:0:0:
256,192,228292,1,0,0:0:0:0:
256,192,228377,1,8,0:0:0:0:
256,192,228545,1,0,0:0:0:0:
256,192,228714,1,0,0:0:0:0:
256,192,228966,1,0,0:0:0:0:
256,192,229051,1,8,0:0:0:0:
256,192,229135,1,8,0:0:0:0:
256,192,229219,1,0,0:0:0:0:
256,192,229388,1,0,0:0:0:0:
256,192,229556,1,8,0:0:0:0:
256,192,229641,1,0,0:0:0:0:
256,192,229725,1,8,0:0:0:0:
256,192,229809,1,0,0:0:0:0:
256,192,229893,1,0,0:0:0:0:
256,192,229978,1,8,0:0:0:0:
256,192,230062,1,0,0:0:0:0:
256,192,230231,1,0,0:0:0:0:
256,192,230315,1,0,0:0:0:0:
256,192,230399,1,8,0:0:0:0:
256,192,230568,1,8,0:0:0:0:
256,192,230652,1,0,0:0:0:0:
256,192,230820,1,8,0:0:0:0:
256,192,230989,1,0,0:0:0:0:
256,192,231073,1,8,0:0:0:0:
256,192,231242,1,8,0:0:0:0:
256,192,231326,1,8,0:0:0:0:
256,192,231410,1,0,0:0:0:0:
256,192,231663,1,0,0:0:0:0:
256,192,231747,1,8,0:0:0:0:
256,192,231916,1,0,0:0:0:0:
256,192,232000,1,0,0:0:0:0:
256,192,232084,1,8,0:0:0:0:
256,192,232169,1,0,0:0:0:0:
256,192,232253,1,8,0:0:0:0:
256,192,232337,1,8,0:0:0:0:
256,192,232422,1,0,0:0:0:0:
256,192,232590,1,0,0:0:0:0:
256,192,232759,1,0,0:0:0:0:
256,192,232843,1,8,0:0:0:0:
256,192,233011,1,8,0:0:0:0:
256,192,233096,1,0,0:0:0:0:
256,192,233264,1,0,0:0:0:0:
256,192,233348,1,8,0:0:0:0:
256,192,233433,1,0,0:0:0:0:
256,192,233517,1,8,0:0:0:0:
256,192,233601,1,0,0:0:0:0:
256,192,233686,1,0,0:0:0:0:
256,192,233770,1,8,0:0:0:0:
256,192,233854,1,8,0:0:0:0:
256,192,233938,1,8,0:0:0:0:
256,192,234023,1,8,0:0:0:0:
256,192,234107,1,4,0:0:0:0:
256,192,234444,1,8,0:0:0:0:
256,192,234613,1,8,0:0:0:0:
256,192,234697,1,8,0:0:0:0:
256,192,234781,1,0,0:0:0:0:
256,192,234865,1,8,0:0:0:0:
256,192,234950,1,0,0:0:0:0:
256,192,235118,1,8,0:0:0:0:
256,192,235287,1,0,0:0:0:0:
256,192,235371,1,8,0:0:0:0:
256,192,235455,1,0,0:0:0:0:
256,192,235624,1,8,0:0:0:0:
256,192,235792,1,8,0:0:0:0:
256,192,235961,1,0,0:0:0:0:
256,192,236045,1,0,0:0:0:0:
256,192,236129,1,8,0:0:0:0:
256,192,236298,1,0,0:0:0:0:
256,192,236466,1,8,0:0:0:0:
256,192,236551,1,8,0:0:0:0:
256,192,236635,1,0,0:0:0:0:
256,192,236719,1,8,0:0:0:0:
256,192,236804,1,0,0:0:0:0:
256,192,236972,1,0,0:0:0:0:
256,192,237141,1,8,0:0:0:0:
256,192,237309,1,0,0:0:0:0:
256,192,237393,1,0,0:0:0:0:
256,192,237478,1,0,0:0:0:0:
256,192,237646,1,0,0:0:0:0:
256,192,237815,1,8,0:0:0:0:
256,192,237983,1,12,0:0:0:0:
256,192,238152,1,0,0:0:0:0:
256,192,238320,1,0,0:0:0:0:
256,192,238405,1,0,0:0:0:0:
256,192,238489,1,8,0:0:0:0:
256,192,238657,1,8,0:0:0:0:
256,192,238742,1,0,0:0:0:0:
256,192,238910,1,8,0:0:0:0:
256,192,238995,1,0,0:0:0:0:
256,192,239163,1,8,0:0:0:0:
256,192,239247,1,8,0:0:0:0:
256,192,239332,1,0,0:0:0:0:
256,192,239416,1,0,0:0:0:0:
256,192,239500,1,12,0:0:0:0:
256,192,239837,1,8,0:0:0:0:
256,192,240006,1,0,0:0:0:0:
256,192,240090,1,8,0:0:0:0:
256,192,240174,1,0,0:0:0:0:
256,192,240259,1,8,0:0:0:0:
256,192,240343,1,0,0:0:0:0:
256,192,240511,1,8,0:0:0:0:
256,192,240680,1,8,0:0:0:0:
256,192,240764,1,8,0:0:0:0:
256,192,240848,1,0,0:0:0:0:
256,192,241017,1,0,0:0:0:0:
256,192,241186,1,8,0:0:0:0:
256,192,241354,1,0,0:0:0:0:
256,192,241438,1,8,0:0:0:0:
256,192,241523,1,0,0:0:0:0:
256,192,241607,1,0,0:0:0:0:
256,192,241691,1,8,0:0:0:0:
256,192,241775,1,0,0:0:0:0:
256,192,241860,1,8,0:0:0:0:
256,192,242028,1,0,0:0:0:0:
256,192,242197,1,8,0:0:0:0:
256,192,242534,1,8,0:0:0:0:
256,192,242702,1,8,0:0:0:0:
256,192,242787,1,0,0:0:0:0:
256,192,242871,1,8,0:0:0:0:
256,192,242955,1,8,0:0:0:0:
256,192,243040,1,0,0:0:0:0:
256,192,243208,1,8,0:0:0:0:
256,192,243377,1,0,0:0:0:0:
256,192,243545,1,0,0:0:0:0:
256,192,243714,1,0,0:0:0:0:
256,192,243798,1,0,0:0:0:0:
256,192,243882,1,8,0:0:0:0:
256,192,244051,1,0,0:0:0:0:
256,192,244135,1,0,0:0:0:0:
256,192,244219,1,0,0:0:0:0:
256,192,244304,1,8,0:0:0:0:
256,192,244388,1,8,0:0:0:0:
256,192,244472,1,0,0:0:0:0:
256,192,244556,1,8,0:0:0:0:
256,192,244641,1,8,0:0:0:0:
256,192,244725,1,8,0:0:0:0:
256,192,244893,1,4,0:0:0:0:
256,192,245231,1,8,0:0:0:0:
256,192,245736,1,0,0:0:0:0:
256,192,245905,1,8,0:0:0:0:
256,192,246242,1,0,0:0:0:0:
256,192,246579,1,8,0:0:0:0:
256,192,246747,1,0,0:0:0:0:
256,192,246832,1,8,0:0:0:0:
256,192,247000,1,8,0:0:0:0:
256,192,247084,1,0,0:0:0:0:
256,192,247253,1,8,0:0:0:0:
256,192,247422,1,0,0:0:0:0:
256,192,247590,1,0,0:0:0:0:
256,192,247927,1,8,0:0:0:0:
256,192,248096,1,8,0:0:0:0:
256,192,248433,1,0,0:0:0:0:
256,192,248601,1,8,0:0:0:0:
256,192,248770,1,8,0:0:0:0:
256,192,248854,1,8,0:0:0:0:
256,192,248938,1,0,0:0:0:0:
256,192,249275,1,8,0:0:0:0:
256,192,249444,1,0,0:0:0:0:
256,192,249528,1,8,0:0:0:0:
256,192,249613,1,0,0:0:0:0:
256,192,249697,1,8,0:0:0:0:
256,192,249781,1,0,0:0:0:0:
256,192,249950,1,8,0:0:0:0:
256,192,250118,1,0,0:0:0:0:
256,192,250287,1,4,0:0:0:0:
256,192,250624,1,8,0:0:0:0:
256,192,250792,1,8,0:0:0:0:
256,192,251129,1,0,0:0:0:0:
256,192,251298,1,8,0:0:0:0:
256,192,251635,1,0,0:0:0:0:
256,192,251972,1,8,0:0:0:0:
256,192,252141,1,0,0:0:0:0:
256,192,252225,1,8,0:0:0:0:
256,192,252393,1,8,0:0:0:0:
256,192,252478,1,0,0:0:0:0:
256,192,252646,1,8,0:0:0:0:
256,192,252815,1,0,0:0:0:0:
256,192,252983,1,0,0:0:0:0:
256,192,253320,1,8,0:0:0:0:
256,192,253489,1,12,0:0:0:0:
256,192,253826,1,0,0:0:0:0:
256,192,253995,1,8,0:0:0:0:
256,192,254079,1,8,0:0:0:0:
256,192,254163,1,8,0:0:0:0:
256,192,254247,1,8,0:0:0:0:
256,192,254332,1,0,0:0:0:0:
256,192,254500,1,0,0:0:0:0:
256,192,254669,1,8,0:0:0:0:
256,192,254837,1,0,0:0:0:0:
256,192,254922,1,8,0:0:0:0:
256,192,255006,1,0,0:0:0:0:
256,192,255090,1,8,0:0:0:0:
256,192,255174,1,0,0:0:0:0:
256,192,255259,1,8,0:0:0:0:
256,192,255343,1,8,0:0:0:0:
256,192,255427,1,0,0:0:0:0:
256,192,255511,1,0,0:0:0:0:
256,192,255680,1,4,0:0:0:0:
256,192,256017,1,8,0:0:0:0:
256,192,256186,1,0,0:0:0:0:
256,192,256523,1,0,0:0:0:0:
256,192,256691,1,8,0:0:0:0:
256,192,256860,1,0,0:0:0:0:
256,192,256944,1,0,0:0:0:0:
256,192,257028,1,0,0:0:0:0:
256,192,257197,1,8,0:0:0:0:
256,192,257281,1,0,0:0:0:0:
256,192,257365,1,8,0:0:0:0:
256,192,257450,1,8,0:0:0:0:
256,192,257534,1,0,0:0:0:0:
256,192,257618,1,8,0:0:0:0:
256,192,257702,1,0,0:0:0:0:
256,192,257871,1,8,0:0:0:0:
256,192,258040,1,8,0:0:0:0:
256,192,258124,1,8,0:0:0:0:
256,192,258208,1,8,0:0:0:0:
256,192,258292,1,8,0:0:0:0:
256,192,258377,1,0,0:0:0:0:
256,192,258629,1,8,0:0:0:0:
256,192,258882,1,0,0:0:0:0:
256,192,259051,1,8,0:0:0:0:
256,192,259135,1,8,0:0:0:0:
256,192,259219,1,0,0:0:0:0:
256,192,259388,1,8,0:0:0:0:
256,192,259556,1,0,0:0:0:0:
256,192,259641,1,8,0:0:0:0:
256,192,259725,1,0,0:0:0:0:
256,192,259893,1,0,0:0:0:0:
256,192,260062,1,8,0:0:0:0:
256,192,260146,1,8,0:0:0:0:
256,192,260231,1,0,0:0:0:0:
256,192,260315,1,8,0:0:0:0:
256,192,260399,1,0,0:0:0:0:
256,192,260483,1,0,0:0:0:0:
256,192,260568,1,8,0:0:0:0:
256,192,260652,1,8,0:0:0:0:
256,192,260736,1,8,0:0:0:0:
256,192,260905,1,0,0:0:0:0:
256,192,261073,1,12,0:0:0:0:
256,192,261410,1,0,0:0:0:0:
256,192,261747,1,0,0:0:0:0:
256,192,261860,1,8,0:0:0:0:
256,192,261972,1,8,0:0:0:0:
256,192,262084,1,0,0:0:0:0:
256,192,262253,1,0,0:0:0:0:
256,192,262337,1,0,0:0:0:0:
256,192,262422,1,8,0:0:0:0:
256,192,262759,1,0,0:0:0:0:
256,192,263096,1,0,0:0:0:0:
256,192,263433,1,0,0:0:0:0:
256,192,263770,1,8,0:0:0:0:
256,192,263938,1,0,0:0:0:0:
256,192,264107,1,0,0:0:0:0:
256,192,264275,1,0,0:0:0:0:
256,192,264444,1,8,0:0:0:0:
256,192,264613,1,0,0:0:0:0:
256,192,264781,1,0,0:0:0:0:
256,192,264950,1,0,0:0:0:0:
256,192,265118,1,8,0:0:0:0:
256,192,265202,1,0,0:0:0:0:
256,192,265287,1,0,0:0:0:0:
256,192,265371,1,0,0:0:0:0:
256,192,265455,1,8,0:0:0:0:
256,192,265540,1,0,0:0:0:0:
256,192,265624,1,8,0:0:0:0:
256,192,265708,1,0,0:0:0:0:
256,192,265792,1,8,0:0:0:0:
256,192,265877,1,8,0:0:0:0:
256,192,265961,1,8,0:0:0:0:
256,192,266045,1,8,0:0:0:0:
256,192,266129,1,0,0:0:0:0:
256,192,266186,1,0,0:0:0:0:
256,192,266242,1,0,0:0:0:0:
256,192,266298,1,8,0:0:0:0:
256,192,266382,1,8,0:0:0:0:
256,192,266466,1,4,0:0:0:0:
256,192,266804,1,8,0:0:0:0:
256,192,267309,1,0,0:0:0:0:
256,192,267478,1,8,0:0:0:0:
256,192,267646,1,0,0:0:0:0:
256,192,267815,1,0,0:0:0:0:
256,192,268068,1,0,0:0:0:0:
256,192,268152,1,8,0:0:0:0:
256,192,268320,1,8,0:0:0:0:
256,192,268405,1,0,0:0:0:0:
256,192,268573,1,0,0:0:0:0:
256,192,268657,1,8,0:0:0:0:
256,192,268826,1,8,0:0:0:0:
256,192,268995,1,12,0:0:0:0:
256,192,269163,1,0,0:0:0:0:
256,192,269500,1,8,0:0:0:0:
256,192,270006,1,0,0:0:0:0:
256,192,270174,1,8,0:0:0:0:
256,192,270343,1,0,0:0:0:0:
256,192,270511,1,0,0:0:0:0:
256,192,270764,1,0,0:0:0:0:
256,192,270848,1,8,0:0:0:0:
256,192,271017,1,8,0:0:0:0:
256,192,271101,1,0,0:0:0:0:
256,192,271270,1,8,0:0:0:0:
256,192,271354,1,8,0:0:0:0:
256,192,271438,1,0,0:0:0:0:
256,192,271523,1,8,0:0:0:0:
256,192,271691,1,8,0:0:0:0:
256,192,271860,1,4,0:0:0:0:
256,192,272197,1,8,0:0:0:0:
256,192,272702,1,0,0:0:0:0:
256,192,272871,1,8,0:0:0:0:
256,192,273040,1,0,0:0:0:0:
256,192,273208,1,0,0:0:0:0:
256,192,273461,1,0,0:0:0:0:
256,192,273545,1,8,0:0:0:0:
256,192,273714,1,0,0:0:0:0:
256,192,273798,1,8,0:0:0:0:
256,192,273882,1,0,0:0:0:0:
256,192,273966,1,8,0:0:0:0:
256,192,274051,1,8,0:0:0:0:
256,192,274135,1,0,0:0:0:0:
256,192,274219,1,8,0:0:0:0:
256,192,274388,1,8,0:0:0:0:
256,192,274556,1,0,0:0:0:0:
224,192,274725,1,0,0:0:0:0:
256,192,274893,1,8,0:0:0:0:
256,192,275231,1,8,0:0:0:0:
256,192,275399,1,0,0:0:0:0:
256,192,275568,1,8,0:0:0:0:
256,192,275905,1,0,0:0:0:0:
256,192,276242,1,8,0:0:0:0:
256,192,276410,1,8,0:0:0:0:
256,192,276495,1,8,0:0:0:0:
256,192,276579,1,0,0:0:0:0:
256,192,276663,1,8,0:0:0:0:
256,192,276747,1,0,0:0:0:0:
256,192,276832,1,0,0:0:0:0:
256,192,276916,1,8,0:0:0:0:
256,192,277000,1,8,0:0:0:0:
256,192,277084,1,8,0:0:0:0:
256,192,277253,1,4,0:0:0:0:
256,192,277590,1,8,0:0:0:0:
256,192,278096,1,0,0:0:0:0:
256,192,278264,1,8,0:0:0:0:
256,192,278433,1,0,0:0:0:0:
256,192,278601,1,0,0:0:0:0:
256,192,278854,1,0,0:0:0:0:
256,192,278938,1,8,0:0:0:0:
256,192,279107,1,0,0:0:0:0:
256,192,279191,1,8,0:0:0:0:
256,192,279275,1,0,0:0:0:0:
256,192,279360,1,8,0:0:0:0:
256,192,279444,1,8,0:0:0:0:
256,192,279528,1,0,0:0:0:0:
256,192,279613,1,8,0:0:0:0:
256,192,279781,1,12,0:0:0:0:
256,192,279950,1,0,0:0:0:0:
256,192,280287,1,8,0:0:0:0:
256,192,280792,1,0,0:0:0:0:
256,192,280961,1,8,0:0:0:0:
256,192,281298,1,0,0:0:0:0:
256,192,281635,1,8,0:0:0:0:
256,192,281804,1,0,0:0:0:0:
256,192,281888,1,8,0:0:0:0:
256,192,281972,1,0,0:0:0:0:
256,192,282056,1,8,0:0:0:0:
256,192,282141,1,8,0:0:0:0:
256,192,282225,1,0,0:0:0:0:
256,192,282309,1,8,0:0:0:0:
256,192,282478,1,8,0:0:0:0:
256,192,282646,1,4,0:0:0:0:
256,192,282983,1,8,0:0:0:0:
256,192,283489,1,0,0:0:0:0:
256,192,283657,1,8,0:0:0:0:
256,192,283826,1,0,0:0:0:0:
256,192,283995,1,0,0:0:0:0:
256,192,284247,1,0,0:0:0:0:
256,192,284332,1,8,0:0:0:0:
256,192,284500,1,8,0:0:0:0:
256,192,284584,1,0,0:0:0:0:
256,192,284669,1,8,0:0:0:0:
256,192,284753,1,8,0:0:0:0:
256,192,284837,1,0,0:0:0:0:
256,192,285006,1,8,0:0:0:0:
256,192,285174,1,0,0:0:0:0:
256,192,285343,1,0,0:0:0:0:
256,192,285680,1,8,0:0:0:0:
256,192,285848,1,8,0:0:0:0:
256,192,285933,1,8,0:0:0:0:
256,192,286017,1,0,0:0:0:0:
256,192,286101,1,8,0:0:0:0:
256,192,286186,1,0,0:0:0:0:
256,192,286270,1,0,0:0:0:0:
256,192,286354,1,8,0:0:0:0:
256,192,286523,1,4,0:0:0:0:
256,192,286691,1,12,0:0:0:0:
