osu file format v14

[General]
AudioFilename: audio.mp3
AudioLeadIn: 0
PreviewTime: 109219
Countdown: 1
SampleSet: Normal
StackLeniency: 0.7
Mode: 1
LetterboxInBreaks: 0
WidescreenStoryboard: 1

[Editor]
DistanceSpacing: 1
BeatDivisor: 4
GridSize: 32
TimelineZoom: 2.2

[Metadata]
Title:Kimi ga Shinu no o Nagamete Iru yo
TitleUnicode:君が死ぬのを眺めているよ
Artist:Camellia
ArtistUnicode:かめりあ
Creator:[_Chichinya_]
Version:Oni
Source:osu!
Tags:fa Shinsekai- Electronic Novelty Japanese watching you die i will witness your end Featured Artist vocaloid 初音ミク hatsune miku
BeatmapID:2160810
BeatmapSetID:1033067

[Difficulty]
HPDrainRate:5
CircleSize:2
OverallDifficulty:5
ApproachRate:10
SliderMultiplier:1.4
SliderTickRate:2

[Events]
//Background and Video events
0,0,"wallhaven-neep9w.jpg",0,0
//Break Periods
//Storyboard Layer 0 (Background)
//Storyboard Layer 1 (Fail)
//Storyboard Layer 2 (Pass)
//Storyboard Layer 3 (Foreground)
//Storyboard Layer 4 (Overlay)
//Storyboard Sound Samples

[TimingPoints]
849,337.078651685393,4,1,0,45,1,0
11635,-100,4,1,0,50,0,0
22422,-100,4,1,0,80,0,0
65568,-100,4,1,0,80,0,1
76017,-100,4,1,0,80,0,0
76354,-100,4,1,0,80,0,1
87141,-100,4,1,0,80,0,0
151860,-100,4,1,0,80,0,1
162309,-100,4,1,0,80,0,0
162646,-100,4,1,0,80,0,1
173433,-100,4,1,0,80,0,0
195174,-100,4,1,0,70,0,0
195680,-100,4,1,0,60,0,0
196354,-100,4,1,0,50,0,0
205708,-100,4,1,0,80,0,0
205877,-100,4,1,0,50,0,0
211186,-100,4,1,0,52,0,0
211860,-100,4,1,0,54,0,0
212534,-100,4,1,0,56,0,0
213208,-100,4,1,0,58,0,0
213882,-100,4,1,0,60,0,0
214556,-100,4,1,0,62,0,0
215231,-100,4,1,0,64,0,0
216579,-100,4,1,0,66,0,0
217927,-100,4,1,0,68,0,0
219275,-100,4,1,0,70,0,0
221972,-100,4,1,0,55,0,0
223320,-100,4,1,0,80,0,1
233770,-100,4,1,0,80,0,0
234107,-100,4,1,0,80,0,1
244893,-100,4,1,0,80,0,0

[Colours]
Combo1 : 238,189,98
Combo2 : 65,226,137
Combo3 : 255,193,6
Combo4 : 62,172,155

[HitObjects]
256,192,849,5,4,0:0:0:0:
256,192,2197,1,8,0:0:0:0:
256,192,2871,1,8,0:0:0:0:
256,192,3545,1,0,0:0:0:0:
256,192,4893,1,0,0:0:0:0:
256,192,5568,1,8,0:0:0:0:
256,192,6242,1,8,0:0:0:0:
256,192,7590,1,8,0:0:0:0:
256,192,8264,1,8,0:0:0:0:
256,192,8938,1,0,0:0:0:0:
256,192,9613,1,8,0:0:0:0:
256,192,9781,1,0,0:0:0:0:
256,192,10287,1,8,0:0:0:0:
256,192,10792,1,0,0:0:0:0:
256,192,10961,1,8,0:0:0:0:
256,192,11045,1,8,0:0:0:0:
256,192,11129,1,0,0:0:0:0:
256,192,11298,1,8,0:0:0:0:
256,192,11466,1,8,0:0:0:0:
256,192,11635,1,0,0:0:0:0:
256,192,12309,1,0,0:0:0:0:
256,192,12983,1,0,0:0:0:0:
256,192,13657,1,0,0:0:0:0:
256,192,14332,1,0,0:0:0:0:
256,192,15006,1,0,0:0:0:0:
256,192,15680,1,0,0:0:0:0:
256,192,16354,1,0,0:0:0:0:
256,192,17028,1,8,0:0:0:0:
256,192,17365,1,0,0:0:0:0:
256,192,17702,1,0,0:0:0:0:
256,192,18040,1,0,0:0:0:0:
256,192,18377,1,8,0:0:0:0:
256,192,18714,1,0,0:0:0:0:
256,192,19051,1,0,0:0:0:0:
256,192,19388,1,0,0:0:0:0:
256,192,19725,1,8,0:0:0:0:
256,192,19893,1,0,0:0:0:0:
256,192,20062,1,0,0:0:0:0:
256,192,20399,1,8,0:0:0:0:
256,192,20568,1,0,0:0:0:0:
256,192,20736,1,0,0:0:0:0:
256,192,21073,1,8,0:0:0:0:
256,192,21157,1,0,0:0:0:0:
256,192,21242,1,0,0:0:0:0:
256,192,21326,1,0,0:0:0:0:
256,192,21410,1,8,0:0:0:0:
256,192,21579,1,0,0:0:0:0:
256,192,21747,1,8,0:0:0:0:
256,192,21832,1,8,0:0:0:0:
256,192,21916,1,0,0:0:0:0:
256,192,22000,1,0,0:0:0:0:
256,192,22084,1,8,0:0:0:0:
256,192,22422,1,4,0:0:0:0:
256,192,22759,1,8,0:0:0:0:
256,192,23096,1,8,0:0:0:0:
256,192,23264,1,0,0:0:0:0:
256,192,23433,1,8,0:0:0:0:
256,192,23601,1,0,0:0:0:0:
256,192,23770,1,0,0:0:0:0:
256,192,24023,1,0,0:0:0:0:
256,192,24107,1,8,0:0:0:0:
256,192,24275,1,0,0:0:0:0:
256,192,24360,1,8,0:0:0:0:
256,192,24613,1,0,0:0:0:0:
256,192,24697,1,0,0:0:0:0:
256,192,24781,1,8,0:0:0:0:
256,192,24950,1,12,0:0:0:0:
256,192,25118,1,0,0:0:0:0:
256,192,25455,1,8,0:0:0:0:
256,192,25961,1,0,0:0:0:0:
256,192,26129,1,8,0:0:0:0:
256,192,26466,1,0,0:0:0:0:
256,192,26804,1,8,0:0:0:0:
256,192,26972,1,0,0:0:0:0:
256,192,27056,1,0,0:0:0:0:
256,192,27225,1,8,0:0:0:0:
256,192,27309,1,0,0:0:0:0:
256,192,27478,1,8,0:0:0:0:
256,192,27646,1,8,0:0:0:0:
256,192,27815,1,4,0:0:0:0:
256,192,28152,1,8,0:0:0:0:
256,192,28657,1,0,0:0:0:0:
256,192,28826,1,8,0:0:0:0:
256,192,29163,1,0,0:0:0:0:
256,192,29416,1,0,0:0:0:0:
256,192,29500,1,8,0:0:0:0:
256,192,29669,1,0,0:0:0:0:
256,192,29753,1,8,0:0:0:0:
256,192,30006,1,0,0:0:0:0:
256,192,30174,1,8,0:0:0:0:
256,192,30511,1,0,0:0:0:0:
256,192,30848,1,8,0:0:0:0:
256,192,31354,1,0,0:0:0:0:
256,192,31523,1,8,0:0:0:0:
256,192,31860,1,0,0:0:0:0:
256,192,32197,1,8,0:0:0:0:
256,192,32365,1,0,0:0:0:0:
256,192,32450,1,0,0:0:0:0:
256,192,32618,1,0,0:0:0:0:
256,192,32702,1,0,0:0:0:0:
256,192,32871,1,8,0:0:0:0:
256,192,32955,1,8,0:0:0:0:
256,192,33124,1,8,0:0:0:0:
256,192,33208,1,4,0:0:0:0:
256,192,33545,1,8,0:0:0:0:
256,192,34051,1,0,0:0:0:0:
256,192,34219,1,8,0:0:0:0:
256,192,34556,1,0,0:0:0:0:
256,192,34893,1,8,0:0:0:0:
256,192,35062,1,8,0:0:0:0:
256,192,35146,1,0,0:0:0:0:
256,192,35315,1,0,0:0:0:0:
256,192,35399,1,0,0:0:0:0:
256,192,35568,1,8,0:0:0:0:
256,192,35736,1,12,0:0:0:0:
256,192,35905,1,0,0:0:0:0:
256,192,36242,1,8,0:0:0:0:
256,192,36410,1,0,0:0:0:0:
256,192,36747,1,0,0:0:0:0:
256,192,36916,1,8,0:0:0:0:
256,192,37253,1,0,0:0:0:0:
256,192,37590,1,8,0:0:0:0:
256,192,37759,1,8,0:0:0:0:
256,192,37843,1,0,0:0:0:0:
256,192,38011,1,8,0:0:0:0:
256,192,38096,1,0,0:0:0:0:
256,192,38264,1,8,0:0:0:0:
256,192,38433,1,0,0:0:0:0:
256,192,38601,1,4,0:0:0:0:
256,192,38938,1,8,0:0:0:0:
256,192,39444,1,0,0:0:0:0:
256,192,39613,1,8,0:0:0:0:
256,192,39950,1,0,0:0:0:0:
256,192,40287,1,8,0:0:0:0:
256,192,40455,1,8,0:0:0:0:
256,192,40540,1,8,0:0:0:0:
256,192,40624,1,0,0:0:0:0:
256,192,40792,1,0,0:0:0:0:
256,192,40961,1,8,0:0:0:0:
256,192,41129,1,0,0:0:0:0:
256,192,41298,1,0,0:0:0:0:
256,192,41635,1,8,0:0:0:0:
256,192,42141,1,0,0:0:0:0:
256,192,42309,1,8,0:0:0:0:
256,192,42646,1,0,0:0:0:0:
256,192,42983,1,8,0:0:0:0:
256,192,43152,1,0,0:0:0:0:
256,192,43236,1,0,0:0:0:0:
256,192,43405,1,8,0:0:0:0:
256,192,43573,1,8,0:0:0:0:
256,192,43658,1,8,0:0:0:0:
256,192,43742,1,8,0:0:0:0:
256,192,43826,1,8,0:0:0:0:
256,192,43995,1,4,0:0:0:0:
256,192,44332,1,8,0:0:0:0:
256,192,44837,1,0,0:0:0:0:
256,192,45006,1,8,0:0:0:0:
256,192,45343,1,0,0:0:0:0:
256,192,45680,1,8,0:0:0:0:
256,192,45848,1,0,0:0:0:0:
256,192,45933,1,8,0:0:0:0:
256,192,46017,1,0,0:0:0:0:
256,192,46186,1,0,0:0:0:0:
256,192,46354,1,8,0:0:0:0:
256,192,46691,1,0,0:0:0:0:
256,192,46775,1,0,0:0:0:0:
256,192,46860,1,8,0:0:0:0:
256,192,46944,1,8,0:0:0:0:
256,192,47028,1,0,0:0:0:0:
256,192,47365,1,0,0:0:0:0:
256,192,47534,1,0,0:0:0:0:
256,192,47702,1,8,0:0:0:0:
256,192,48040,1,0,0:0:0:0:
256,192,48377,1,8,0:0:0:0:
256,192,48545,1,8,0:0:0:0:
256,192,48629,1,0,0:0:0:0:
256,192,48798,1,0,0:0:0:0:
256,192,48882,1,8,0:0:0:0:
256,192,49051,1,8,0:0:0:0:
256,192,49219,1,8,0:0:0:0:
256,192,49304,1,8,0:0:0:0:
256,192,49388,1,0,0:0:0:0:
256,192,49725,1,8,0:0:0:0:
256,192,50231,1,0,0:0:0:0:
256,192,50399,1,8,0:0:0:0:
256,192,50568,1,0,0:0:0:0:
256,192,50736,1,0,0:0:0:0:
256,192,51073,1,8,0:0:0:0:
256,192,51242,1,8,0:0:0:0:
256,192,51326,1,0,0:0:0:0:
256,192,51579,1,0,0:0:0:0:
256,192,51747,1,8,0:0:0:0:
256,192,52084,1,0,0:0:0:0:
256,192,52422,1,8,0:0:0:0:
256,192,52590,1,0,0:0:0:0:
256,192,52927,1,0,0:0:0:0:
256,192,53096,1,8,0:0:0:0:
256,192,53264,1,8,0:0:0:0:
256,192,53433,1,0,0:0:0:0:
256,192,53686,1,0,0:0:0:0:
256,192,53938,1,8,0:0:0:0:
256,192,54107,1,0,0:0:0:0:
256,192,54275,1,8,0:0:0:0:
256,192,54360,1,8,0:0:0:0:
256,192,54444,1,0,0:0:0:0:
256,192,54613,1,8,0:0:0:0:
256,192,54781,1,0,0:0:0:0:
256,192,54865,1,0,0:0:0:0:
256,192,54950,1,8,0:0:0:0:
256,192,55034,1,8,0:0:0:0:
256,192,55118,1,0,0:0:0:0:
256,192,55455,1,0,0:0:0:0:
256,192,55792,1,8,0:0:0:0:
256,192,56129,1,0,0:0:0:0:
256,192,56466,1,8,0:0:0:0:
256,192,56635,1,0,0:0:0:0:
256,192,56719,1,8,0:0:0:0:
256,192,56888,1,8,0:0:0:0:
256,192,56972,1,0,0:0:0:0:
256,192,57141,1,8,0:0:0:0:
256,192,57309,1,0,0:0:0:0:
256,192,57478,1,0,0:0:0:0:
256,192,57562,1,0,0:0:0:0:
256,192,57646,1,8,0:0:0:0:
256,192,57731,1,8,0:0:0:0:
256,192,57815,1,0,0:0:0:0:
256,192,58152,1,0,0:0:0:0:
256,192,58320,1,0,0:0:0:0:
256,192,58489,1,8,0:0:0:0:
256,192,58826,1,0,0:0:0:0:
256,192,59163,1,8,0:0:0:0:
256,192,59332,1,0,0:0:0:0:
256,192,59416,1,0,0:0:0:0:
256,192,59584,1,0,0:0:0:0:
256,192,59669,1,8,0:0:0:0:
256,192,59837,1,8,0:0:0:0:
256,192,60006,1,0,0:0:0:0:
256,192,60174,1,12,0:0:0:0:
256,192,60511,1,0,0:0:0:0:
256,192,60848,1,0,0:0:0:0:
256,192,61186,1,0,0:0:0:0:
256,192,61523,1,8,0:0:0:0:
256,192,61860,1,0,0:0:0:0:
256,192,62197,1,0,0:0:0:0:
256,192,62534,1,0,0:0:0:0:
256,192,62871,1,8,0:0:0:0:
256,192,63040,1,0,0:0:0:0:
256,192,63208,1,0,0:0:0:0:
256,192,63377,1,0,0:0:0:0:
256,192,63545,1,8,0:0:0:0:
256,192,63714,1,0,0:0:0:0:
256,192,63882,1,0,0:0:0:0:
256,192,64051,1,0,0:0:0:0:
256,192,64219,1,8,0:0:0:0:
256,192,64304,1,8,0:0:0:0:
256,192,64388,1,0,0:0:0:0:
256,192,64556,1,8,0:0:0:0:
256,192,64725,1,0,0:0:0:0:
256,192,64893,1,8,0:0:0:0:
256,192,64978,1,8,0:0:0:0:
256,192,65062,1,0,0:0:0:0:
256,192,65146,1,0,0:0:0:0:
256,192,65231,1,8,0:0:0:0:
256,192,65568,1,4,0:0:0:0:
256,192,65736,1,0,0:0:0:0:
256,192,65905,1,8,0:0:0:0:
256,192,66242,1,0,0:0:0:0:
256,192,66410,1,0,0:0:0:0:
256,192,66495,1,0,0:0:0:0:
256,192,66579,1,8,0:0:0:0:
256,192,66747,1,8,0:0:0:0:
256,192,66916,1,0,0:0:0:0:
256,192,67084,1,0,0:0:0:0:
256,192,67169,1,0,0:0:0:0:
256,192,67253,1,8,0:0:0:0:
256,192,67422,1,8,0:0:0:0:
256,192,67506,1,0,0:0:0:0:
256,192,67590,1,8,0:0:0:0:
256,192,67843,1,0,0:0:0:0:
256,192,67927,1,8,0:0:0:0:
256,192,68096,1,0,0:0:0:0:
256,192,68264,1,0,0:0:0:0:
256,192,68433,1,8,0:0:0:0:
256,192,68517,1,0,0:0:0:0:
256,192,68601,1,8,0:0:0:0:
256,192,68770,1,0,0:0:0:0:
256,192,68854,1,8,0:0:0:0:
256,192,68938,1,0,0:0:0:0:
256,192,69275,1,8,0:0:0:0:
256,192,69444,1,12,0:0:0:0:
256,192,69613,1,0,0:0:0:0:
256,192,69950,1,8,0:0:0:0:
256,192,70118,1,8,0:0:0:0:
256,192,70202,1,8,0:0:0:0:
256,192,70287,1,0,0:0:0:0:
256,192,70371,1,8,0:0:0:0:
256,192,70540,1,0,0:0:0:0:
256,192,70624,1,8,0:0:0:0:
256,192,70792,1,0,0:0:0:0:
256,192,70961,1,0,0:0:0:0:
256,192,71298,1,8,0:0:0:0:
256,192,71466,1,0,0:0:0:0:
256,192,71635,1,0,0:0:0:0:
256,192,71804,1,8,0:0:0:0:
256,192,71888,1,0,0:0:0:0:
256,192,71972,1,8,0:0:0:0:
256,192,72141,1,8,0:0:0:0:
256,192,72309,1,0,0:0:0:0:
256,192,72646,1,8,0:0:0:0:
256,192,72815,1,0,0:0:0:0:
256,192,72899,1,0,0:0:0:0:
256,192,73068,1,0,0:0:0:0:
256,192,73236,1,0,0:0:0:0:
256,192,73320,1,8,0:0:0:0:
256,192,73489,1,8,0:0:0:0:
256,192,73573,1,8,0:0:0:0:
256,192,73657,1,0,0:0:0:0:
256,192,73995,1,8,0:0:0:0:
256,192,74163,1,0,0:0:0:0:
256,192,74500,1,8,0:0:0:0:
256,192,74584,1,8,0:0:0:0:
256,192,74669,1,0,0:0:0:0:
256,192,74837,1,0,0:0:0:0:
256,192,75006,1,0,0:0:0:0:
256,192,75090,1,8,0:0:0:0:
256,192,75259,1,8,0:0:0:0:
256,192,75343,1,0,0:0:0:0:
256,192,75511,1,0,0:0:0:0:
256,192,75596,1,8,0:0:0:0:
256,192,75680,1,0,0:0:0:0:
256,192,75848,1,0,0:0:0:0:
256,192,76017,1,8,0:0:0:0:
256,192,76101,1,8,0:0:0:0:
256,192,76186,1,8,0:0:0:0:
256,192,76354,1,4,0:0:0:0:
256,192,76691,1,8,0:0:0:0:
256,192,76860,1,8,0:0:0:0:
256,192,77028,1,0,0:0:0:0:
256,192,77113,1,8,0:0:0:0:
256,192,77197,1,0,0:0:0:0:
256,192,77365,1,8,0:0:0:0:
256,192,77534,1,8,0:0:0:0:
256,192,77618,1,8,0:0:0:0:
256,192,77702,1,0,0:0:0:0:
256,192,78040,1,8,0:0:0:0:
256,192,78208,1,0,0:0:0:0:
256,192,78292,1,0,0:0:0:0:
256,192,78377,1,8,0:0:0:0:
256,192,78545,1,0,0:0:0:0:
256,192,78714,1,8,0:0:0:0:
256,192,78798,1,8,0:0:0:0:
256,192,78882,1,0,0:0:0:0:
256,192,79051,1,0,0:0:0:0:
256,192,79388,1,8,0:0:0:0:
256,192,79556,1,0,0:0:0:0:
256,192,79641,1,0,0:0:0:0:
256,192,79725,1,0,0:0:0:0:
256,192,79893,1,0,0:0:0:0:
256,192,80062,1,8,0:0:0:0:
256,192,80231,1,12,0:0:0:0:
256,192,80399,1,0,0:0:0:0:
256,192,80736,1,8,0:0:0:0:
256,192,80905,1,8,0:0:0:0:
256,192,80989,1,0,0:0:0:0:
256,192,81157,1,8,0:0:0:0:
256,192,81242,1,0,0:0:0:0:
256,192,81410,1,8,0:0:0:0:
256,192,81495,1,8,0:0:0:0:
256,192,81579,1,0,0:0:0:0:
256,192,81747,1,8,0:0:0:0:
256,192,82084,1,8,0:0:0:0:
256,192,82253,1,0,0:0:0:0:
256,192,82337,1,8,0:0:0:0:
256,192,82506,1,8,0:0:0:0:
256,192,82590,1,0,0:0:0:0:
256,192,82759,1,8,0:0:0:0:
256,192,82927,1,8,0:0:0:0:
256,192,83011,1,8,0:0:0:0:
256,192,83096,1,0,0:0:0:0:
256,192,83433,1,8,0:0:0:0:
256,192,83601,1,0,0:0:0:0:
256,192,83686,1,8,0:0:0:0:
256,192,83770,1,0,0:0:0:0:
256,192,83938,1,8,0:0:0:0:
256,192,84023,1,0,0:0:0:0:
256,192,84107,1,8,0:0:0:0:
256,192,84275,1,8,0:0:0:0:
256,192,84444,1,0,0:0:0:0:
256,192,84781,1,8,0:0:0:0:
256,192,84950,1,8,0:0:0:0:
256,192,85118,1,8,0:0:0:0:
256,192,85202,1,8,0:0:0:0:
256,192,85287,1,0,0:0:0:0:
256,192,85455,1,8,0:0:0:0:
256,192,85624,1,0,0:0:0:0:
256,192,85792,1,0,0:0:0:0:
256,192,85961,1,0,0:0:0:0:
256,192,86129,1,8,0:0:0:0:
256,192,86298,1,0,0:0:0:0:
256,192,86382,1,0,0:0:0:0:
256,192,86551,1,8,0:0:0:0:
256,192,86635,1,0,0:0:0:0:
256,192,86719,1,8,0:0:0:0:
256,192,86804,1,8,0:0:0:0:
256,192,86972,1,8,0:0:0:0:
256,192,87141,1,4,0:0:0:0:
256,192,87478,1,8,0:0:0:0:
256,192,87983,1,0,0:0:0:0:
256,192,88152,1,8,0:0:0:0:
256,192,88489,1,0,0:0:0:0:
256,192,88826,1,8,0:0:0:0:
256,192,88995,1,0,0:0:0:0:
256,192,89079,1,8,0:0:0:0:
256,192,89247,1,8,0:0:0:0:
256,192,89332,1,0,0:0:0:0:
256,192,89500,1,8,0:0:0:0:
256,192,89669,1,0,0:0:0:0:
256,192,89837,1,0,0:0:0:0:
256,192,90174,1,8,0:0:0:0:
256,192,90343,1,8,0:0:0:0:
256,192,90680,1,0,0:0:0:0:
256,192,90848,1,8,0:0:0:0:
256,192,91186,1,0,0:0:0:0:
256,192,91523,1,8,0:0:0:0:
256,192,91691,1,0,0:0:0:0:
256,192,91775,1,8,0:0:0:0:
256,192,91944,1,8,0:0:0:0:
256,192,92028,1,0,0:0:0:0:
256,192,92197,1,8,0:0:0:0:
256,192,92365,1,0,0:0:0:0:
256,192,92534,1,4,0:0:0:0:
256,192,92871,1,8,0:0:0:0:
256,192,93040,1,0,0:0:0:0:
256,192,93377,1,0,0:0:0:0:
256,192,93545,1,8,0:0:0:0:
256,192,93882,1,0,0:0:0:0:
256,192,94219,1,8,0:0:0:0:
256,192,94388,1,8,0:0:0:0:
256,192,94472,1,0,0:0:0:0:
256,192,94641,1,0,0:0:0:0:
256,192,94725,1,0,0:0:0:0:
256,192,94893,1,8,0:0:0:0:
256,192,95231,1,0,0:0:0:0:
256,192,95568,1,8,0:0:0:0:
256,192,95736,1,12,0:0:0:0:
256,192,96242,1,8,0:0:0:0:
256,192,96579,1,0,0:0:0:0:
256,192,96747,1,0,0:0:0:0:
256,192,96916,1,8,0:0:0:0:
256,192,97084,1,0,0:0:0:0:
256,192,97169,1,0,0:0:0:0:
256,192,97337,1,8,0:0:0:0:
256,192,97506,1,8,0:0:0:0:
256,192,97590,1,8,0:0:0:0:
256,192,97675,1,8,0:0:0:0:
256,192,97759,1,8,0:0:0:0:
256,192,97927,1,4,0:0:0:0:
256,192,98264,1,8,0:0:0:0:
256,192,98770,1,0,0:0:0:0:
256,192,98938,1,8,0:0:0:0:
256,192,99275,1,0,0:0:0:0:
256,192,99613,1,8,0:0:0:0:
256,192,99781,1,0,0:0:0:0:
256,192,99865,1,8,0:0:0:0:
256,192,100118,1,8,0:0:0:0:
256,192,100287,1,8,0:0:0:0:
256,192,100371,1,8,0:0:0:0:
256,192,100455,1,8,0:0:0:0:
256,192,100540,1,8,0:0:0:0:
256,192,100624,1,0,0:0:0:0:
256,192,100961,1,8,0:0:0:0:
256,192,101466,1,0,0:0:0:0:
256,192,101635,1,8,0:0:0:0:
256,192,101972,1,0,0:0:0:0:
256,192,102141,1,0,0:0:0:0:
256,192,102225,1,0,0:0:0:0:
256,192,102309,1,8,0:0:0:0:
256,192,102478,1,0,0:0:0:0:
256,192,102562,1,8,0:0:0:0:
256,192,102731,1,8,0:0:0:0:
256,192,102815,1,0,0:0:0:0:
256,192,102983,1,8,0:0:0:0:
256,192,103320,1,12,0:0:0:0:
256,192,103657,1,0,0:0:0:0:
256,192,103995,1,0,0:0:0:0:
256,192,104332,1,0,0:0:0:0:
256,192,104669,1,8,0:0:0:0:
256,192,105006,1,0,0:0:0:0:
256,192,105343,1,0,0:0:0:0:
256,192,105680,1,0,0:0:0:0:
256,192,106017,1,8,0:0:0:0:
256,192,106186,1,0,0:0:0:0:
256,192,106354,1,0,0:0:0:0:
256,192,106523,1,0,0:0:0:0:
256,192,106691,1,8,0:0:0:0:
256,192,106860,1,0,0:0:0:0:
256,192,107028,1,0,0:0:0:0:
256,192,107197,1,0,0:0:0:0:
256,192,107365,1,8,0:0:0:0:
256,192,107450,1,0,0:0:0:0:
256,192,107534,1,0,0:0:0:0:
256,192,107702,1,8,0:0:0:0:
256,192,107871,1,0,0:0:0:0:
256,192,108040,1,8,0:0:0:0:
256,192,108124,1,8,0:0:0:0:
256,192,108208,1,0,0:0:0:0:
256,192,108292,1,0,0:0:0:0:
256,192,108377,1,8,0:0:0:0:
256,192,108714,1,4,0:0:0:0:
256,192,111242,1,12,0:0:0:0:
256,192,111410,1,4,0:0:0:0:
256,192,111747,1,4,0:0:0:0:
256,192,113601,1,12,0:0:0:0:
256,192,114107,1,4,0:0:0:0:
256,192,116635,1,12,0:0:0:0:
256,192,117983,1,12,0:0:0:0:
256,192,118152,1,4,0:0:0:0:
256,192,118405,1,4,0:0:0:0:
256,192,118657,1,12,0:0:0:0:
256,192,119500,1,4,0:0:0:0:
256,192,120174,1,8,0:0:0:0:
256,192,120848,1,8,0:0:0:0:
256,192,121523,1,8,0:0:0:0:
256,192,122028,1,4,0:0:0:0:
256,192,122702,1,0,0:0:0:0:
256,192,123040,1,0,0:0:0:0:
256,192,123377,1,8,0:0:0:0:
256,192,123545,1,0,0:0:0:0:
256,192,123714,1,8,0:0:0:0:
256,192,124051,1,0,0:0:0:0:
256,192,124556,1,0,0:0:0:0:
256,192,124725,1,0,0:0:0:0:
256,192,124893,1,12,0:0:0:0:
256,192,125062,1,0,0:0:0:0:
256,192,125231,1,0,0:0:0:0:
256,192,125399,1,0,0:0:0:0:
256,192,125736,1,8,0:0:0:0:
256,192,125905,1,0,0:0:0:0:
256,192,126073,1,0,0:0:0:0:
256,192,126242,1,8,0:0:0:0:
256,192,126495,1,0,0:0:0:0:
256,192,126579,1,8,0:0:0:0:
256,192,126747,1,0,0:0:0:0:
256,192,126916,1,8,0:0:0:0:
256,192,127084,1,0,0:0:0:0:
256,192,127253,1,0,0:0:0:0:
256,192,127422,1,8,0:0:0:0:
256,192,127590,1,8,0:0:0:0:
256,192,127759,1,0,0:0:0:0:
256,192,127927,1,8,0:0:0:0:
256,192,128264,1,8,0:0:0:0:
256,192,128601,1,8,0:0:0:0:
256,192,128938,1,8,0:0:0:0:
256,192,129275,1,0,0:0:0:0:
256,192,129444,1,0,0:0:0:0:
256,192,129613,1,8,0:0:0:0:
256,192,129697,1,8,0:0:0:0:
256,192,129781,1,0,0:0:0:0:
256,192,129865,1,0,0:0:0:0:
256,192,129950,1,8,0:0:0:0:
256,192,130287,1,4,0:0:0:0:
256,192,130624,1,8,0:0:0:0:
256,192,131129,1,0,0:0:0:0:
256,192,131298,1,8,0:0:0:0:
256,192,131635,1,0,0:0:0:0:
256,192,131972,1,8,0:0:0:0:
256,192,132141,1,0,0:0:0:0:
256,192,132225,1,8,0:0:0:0:
256,192,132393,1,8,0:0:0:0:
256,192,132478,1,0,0:0:0:0:
256,192,132646,1,8,0:0:0:0:
256,192,132815,1,0,0:0:0:0:
256,192,132983,1,0,0:0:0:0:
256,192,133320,1,8,0:0:0:0:
256,192,133826,1,0,0:0:0:0:
256,192,133995,1,8,0:0:0:0:
256,192,134332,1,0,0:0:0:0:
256,192,134669,1,8,0:0:0:0:
256,192,134837,1,0,0:0:0:0:
256,192,134922,1,0,0:0:0:0:
256,192,135090,1,0,0:0:0:0:
256,192,135174,1,0,0:0:0:0:
256,192,135343,1,8,0:0:0:0:
256,192,135511,1,8,0:0:0:0:
256,192,135680,1,0,0:0:0:0:
256,192,136017,1,8,0:0:0:0:
256,192,136523,1,0,0:0:0:0:
256,192,136691,1,8,0:0:0:0:
256,192,136860,1,8,0:0:0:0:
256,192,136944,1,8,0:0:0:0:
256,192,137028,1,0,0:0:0:0:
256,192,137365,1,8,0:0:0:0:
256,192,137450,1,0,0:0:0:0:
256,192,137618,1,8,0:0:0:0:
256,192,137702,1,0,0:0:0:0:
256,192,137871,1,0,0:0:0:0:
256,192,138040,1,8,0:0:0:0:
256,192,138377,1,0,0:0:0:0:
256,192,138714,1,8,0:0:0:0:
256,192,139219,1,0,0:0:0:0:
256,192,139388,1,8,0:0:0:0:
256,192,139556,1,0,0:0:0:0:
256,192,139725,1,0,0:0:0:0:
256,192,140062,1,8,0:0:0:0:
256,192,140231,1,8,0:0:0:0:
256,192,140315,1,0,0:0:0:0:
256,192,140483,1,8,0:0:0:0:
256,192,140652,1,8,0:0:0:0:
256,192,140736,1,8,0:0:0:0:
256,192,140821,1,8,0:0:0:0:
256,192,140905,1,8,0:0:0:0:
256,192,141073,1,4,0:0:0:0:
256,192,141410,1,8,0:0:0:0:
256,192,141916,1,0,0:0:0:0:
256,192,142084,1,8,0:0:0:0:
256,192,142422,1,0,0:0:0:0:
256,192,142759,1,8,0:0:0:0:
256,192,142927,1,0,0:0:0:0:
256,192,143011,1,8,0:0:0:0:
256,192,143264,1,0,0:0:0:0:
256,192,143433,1,8,0:0:0:0:
256,192,143770,1,0,0:0:0:0:
256,192,143854,1,0,0:0:0:0:
256,192,143938,1,8,0:0:0:0:
256,192,144023,1,8,0:0:0:0:
256,192,144107,1,0,0:0:0:0:
256,192,144444,1,0,0:0:0:0:
256,192,144613,1,0,0:0:0:0:
256,192,144781,1,8,0:0:0:0:
256,192,145118,1,0,0:0:0:0:
256,192,145287,1,0,0:0:0:0:
256,192,145455,1,8,0:0:0:0:
256,192,145624,1,0,0:0:0:0:
256,192,145708,1,0,0:0:0:0:
256,192,145792,1,0,0:0:0:0:
256,192,145961,1,0,0:0:0:0:
256,192,146129,1,8,0:0:0:0:
256,192,146466,1,12,0:0:0:0:
256,192,146804,1,0,0:0:0:0:
256,192,147141,1,0,0:0:0:0:
256,192,147478,1,0,0:0:0:0:
256,192,147815,1,8,0:0:0:0:
256,192,148152,1,0,0:0:0:0:
256,192,148489,1,0,0:0:0:0:
256,192,148826,1,0,0:0:0:0:
256,192,149163,1,8,0:0:0:0:
256,192,149332,1,0,0:0:0:0:
256,192,149500,1,0,0:0:0:0:
256,192,149669,1,0,0:0:0:0:
256,192,149837,1,8,0:0:0:0:
256,192,150006,1,0,0:0:0:0:
256,192,150090,1,0,0:0:0:0:
256,192,150174,1,8,0:0:0:0:
256,192,150259,1,8,0:0:0:0:
256,192,150343,1,0,0:0:0:0:
256,192,150427,1,0,0:0:0:0:
256,192,150511,1,8,0:0:0:0:
256,192,151523,1,8,0:0:0:0:
256,192,151607,1,8,0:0:0:0:
256,192,151691,1,8,0:0:0:0:
256,192,151860,1,4,0:0:0:0:
256,192,152197,1,8,0:0:0:0:
256,192,152534,1,0,0:0:0:0:
256,192,152702,1,0,0:0:0:0:
256,192,152787,1,0,0:0:0:0:
256,192,152871,1,8,0:0:0:0:
256,192,153039,1,8,0:0:0:0:
256,192,153208,1,0,0:0:0:0:
256,192,153376,1,0,0:0:0:0:
256,192,153461,1,0,0:0:0:0:
256,192,153545,1,8,0:0:0:0:
256,192,153714,1,8,0:0:0:0:
256,192,153798,1,0,0:0:0:0:
256,192,153882,1,8,0:0:0:0:
256,192,154135,1,0,0:0:0:0:
256,192,154219,1,8,0:0:0:0:
256,192,154388,1,0,0:0:0:0:
256,192,154556,1,0,0:0:0:0:
256,192,154725,1,8,0:0:0:0:
256,192,154809,1,0,0:0:0:0:
256,192,154893,1,8,0:0:0:0:
256,192,155062,1,0,0:0:0:0:
256,192,155146,1,8,0:0:0:0:
256,192,155230,1,0,0:0:0:0:
256,192,155567,1,8,0:0:0:0:
256,192,155736,1,12,0:0:0:0:
256,192,155905,1,0,0:0:0:0:
256,192,156242,1,8,0:0:0:0:
256,192,156410,1,8,0:0:0:0:
256,192,156494,1,8,0:0:0:0:
256,192,156579,1,0,0:0:0:0:
256,192,156663,1,8,0:0:0:0:
256,192,156832,1,0,0:0:0:0:
256,192,156916,1,8,0:0:0:0:
256,192,157084,1,0,0:0:0:0:
256,192,157253,1,4,0:0:0:0:
256,192,157590,1,8,0:0:0:0:
256,192,157758,1,0,0:0:0:0:
256,192,157927,1,0,0:0:0:0:
256,192,158096,1,8,0:0:0:0:
256,192,158180,1,0,0:0:0:0:
256,192,158264,1,8,0:0:0:0:
256,192,158433,1,8,0:0:0:0:
256,192,158601,1,0,0:0:0:0:
256,192,158938,1,8,0:0:0:0:
256,192,159107,1,0,0:0:0:0:
256,192,159191,1,0,0:0:0:0:
256,192,159360,1,0,0:0:0:0:
256,192,159528,1,0,0:0:0:0:
256,192,159612,1,8,0:0:0:0:
256,192,159781,1,8,0:0:0:0:
256,192,159865,1,8,0:0:0:0:
256,192,159949,1,0,0:0:0:0:
256,192,160287,1,8,0:0:0:0:
256,192,160455,1,0,0:0:0:0:
256,192,160792,1,8,0:0:0:0:
256,192,160876,1,8,0:0:0:0:
256,192,160961,1,0,0:0:0:0:
256,192,161129,1,0,0:0:0:0:
256,192,161298,1,0,0:0:0:0:
256,192,161382,1,8,0:0:0:0:
256,192,161551,1,8,0:0:0:0:
256,192,161635,1,0,0:0:0:0:
256,192,161803,1,0,0:0:0:0:
256,192,161888,1,8,0:0:0:0:
256,192,161972,1,0,0:0:0:0:
256,192,162140,1,0,0:0:0:0:
256,192,162309,1,8,0:0:0:0:
256,192,162393,1,8,0:0:0:0:
256,192,162478,1,8,0:0:0:0:
256,192,162646,1,4,0:0:0:0:
256,192,162983,1,8,0:0:0:0:
256,192,163152,1,8,0:0:0:0:
256,192,163320,1,0,0:0:0:0:
256,192,163405,1,8,0:0:0:0:
256,192,163489,1,0,0:0:0:0:
256,192,163657,1,8,0:0:0:0:
256,192,163826,1,8,0:0:0:0:
256,192,163910,1,8,0:0:0:0:
256,192,163994,1,0,0:0:0:0:
256,192,164332,1,8,0:0:0:0:
256,192,164500,1,0,0:0:0:0:
256,192,164584,1,0,0:0:0:0:
256,192,164669,1,8,0:0:0:0:
256,192,164837,1,0,0:0:0:0:
256,192,165006,1,8,0:0:0:0:
256,192,165090,1,8,0:0:0:0:
256,192,165174,1,0,0:0:0:0:
256,192,165343,1,0,0:0:0:0:
256,192,165680,1,8,0:0:0:0:
256,192,165848,1,0,0:0:0:0:
256,192,165933,1,0,0:0:0:0:
256,192,166017,1,0,0:0:0:0:
256,192,166185,1,0,0:0:0:0:
256,192,166354,1,8,0:0:0:0:
256,192,166523,1,12,0:0:0:0:
256,192,166691,1,0,0:0:0:0:
256,192,167028,1,8,0:0:0:0:
256,192,167197,1,8,0:0:0:0:
256,192,167281,1,0,0:0:0:0:
256,192,167449,1,8,0:0:0:0:
256,192,167534,1,0,0:0:0:0:
256,192,167702,1,8,0:0:0:0:
256,192,167787,1,8,0:0:0:0:
256,192,167871,1,0,0:0:0:0:
256,192,168040,1,4,0:0:0:0:
256,192,168376,1,8,0:0:0:0:
256,192,168545,1,0,0:0:0:0:
256,192,168629,1,8,0:0:0:0:
256,192,168798,1,8,0:0:0:0:
256,192,168882,1,0,0:0:0:0:
256,192,169051,1,8,0:0:0:0:
256,192,169219,1,8,0:0:0:0:
256,192,169303,1,8,0:0:0:0:
256,192,169388,1,0,0:0:0:0:
256,192,169725,1,8,0:0:0:0:
256,192,169893,1,0,0:0:0:0:
256,192,169978,1,8,0:0:0:0:
256,192,170062,1,0,0:0:0:0:
256,192,170230,1,8,0:0:0:0:
256,192,170315,1,0,0:0:0:0:
256,192,170399,1,8,0:0:0:0:
256,192,170567,1,8,0:0:0:0:
256,192,170736,1,0,0:0:0:0:
256,192,171073,1,8,0:0:0:0:
256,192,171242,1,8,0:0:0:0:
256,192,171410,1,8,0:0:0:0:
256,192,171494,1,8,0:0:0:0:
256,192,171579,1,0,0:0:0:0:
256,192,171747,1,8,0:0:0:0:
256,192,171916,1,0,0:0:0:0:
256,192,172084,1,0,0:0:0:0:
256,192,172253,1,0,0:0:0:0:
256,192,172421,1,8,0:0:0:0:
256,192,172590,1,0,0:0:0:0:
256,192,172674,1,0,0:0:0:0:
256,192,172843,1,8,0:0:0:0:
256,192,172927,1,0,0:0:0:0:
256,192,173011,1,8,0:0:0:0:
256,192,173096,1,8,0:0:0:0:
256,192,173264,1,8,0:0:0:0:
256,192,173433,1,4,0:0:0:0:
256,192,173770,1,8,0:0:0:0:
256,192,174275,1,0,0:0:0:0:
256,192,174444,1,8,0:0:0:0:
256,192,174781,1,0,0:0:0:0:
256,192,175118,1,8,0:0:0:0:
256,192,175287,1,0,0:0:0:0:
256,192,175371,1,8,0:0:0:0:
256,192,175540,1,8,0:0:0:0:
256,192,175624,1,0,0:0:0:0:
256,192,175792,1,8,0:0:0:0:
256,192,175961,1,0,0:0:0:0:
256,192,176129,1,0,0:0:0:0:
256,192,176466,1,8,0:0:0:0:
256,192,176635,1,8,0:0:0:0:
256,192,176972,1,0,0:0:0:0:
256,192,177141,1,8,0:0:0:0:
256,192,177309,1,8,0:0:0:0:
256,192,177393,1,8,0:0:0:0:
256,192,177478,1,0,0:0:0:0:
256,192,177815,1,8,0:0:0:0:
256,192,177983,1,0,0:0:0:0:
256,192,178068,1,8,0:0:0:0:
256,192,178236,1,8,0:0:0:0:
256,192,178320,1,0,0:0:0:0:
256,192,178489,1,8,0:0:0:0:
256,192,178657,1,8,0:0:0:0:
256,192,178826,1,0,0:0:0:0:
256,192,179163,1,8,0:0:0:0:
256,192,179332,1,8,0:0:0:0:
256,192,179669,1,0,0:0:0:0:
256,192,179837,1,8,0:0:0:0:
256,192,180090,1,0,0:0:0:0:
256,192,180174,1,0,0:0:0:0:
256,192,180511,1,8,0:0:0:0:
256,192,180764,1,0,0:0:0:0:
256,192,180848,1,0,0:0:0:0:
256,192,181017,1,0,0:0:0:0:
256,192,181186,1,8,0:0:0:0:
256,192,181523,1,0,0:0:0:0:
256,192,181607,1,0,0:0:0:0:
256,192,181691,1,0,0:0:0:0:
256,192,181775,1,0,0:0:0:0:
256,192,181860,1,8,0:0:0:0:
256,192,182028,1,12,0:0:0:0:
256,192,182365,1,0,0:0:0:0:
256,192,182534,1,8,0:0:0:0:
256,192,182871,1,0,0:0:0:0:
256,192,183040,1,0,0:0:0:0:
256,192,183208,1,8,0:0:0:0:
256,192,183377,1,0,0:0:0:0:
256,192,183461,1,0,0:0:0:0:
256,192,183545,1,0,0:0:0:0:
256,192,183714,1,0,0:0:0:0:
256,192,183882,1,8,0:0:0:0:
256,192,183966,1,8,0:0:0:0:
256,192,184051,1,8,0:0:0:0:
256,192,184135,1,8,0:0:0:0:
256,192,184219,1,0,0:0:0:0:
256,192,184556,1,8,0:0:0:0:
256,192,184725,1,0,0:0:0:0:
256,192,185062,1,0,0:0:0:0:
256,192,185231,1,8,0:0:0:0:
256,192,185568,1,0,0:0:0:0:
256,192,185736,1,0,0:0:0:0:
256,192,185820,1,0,0:0:0:0:
256,192,185905,1,8,0:0:0:0:
256,192,186073,1,0,0:0:0:0:
256,192,186157,1,8,0:0:0:0:
256,192,186326,1,8,0:0:0:0:
256,192,186410,1,0,0:0:0:0:
256,192,186579,1,8,0:0:0:0:
256,192,186747,1,0,0:0:0:0:
256,192,186916,1,0,0:0:0:0:
256,192,187253,1,8,0:0:0:0:
256,192,187422,1,0,0:0:0:0:
256,192,187759,1,0,0:0:0:0:
256,192,187927,1,8,0:0:0:0:
256,192,188096,1,8,0:0:0:0:
256,192,188180,1,8,0:0:0:0:
256,192,188264,1,0,0:0:0:0:
256,192,188517,1,0,0:0:0:0:
256,192,188601,1,8,0:0:0:0:
256,192,188770,1,0,0:0:0:0:
256,192,188854,1,0,0:0:0:0:
256,192,188938,1,8,0:0:0:0:
256,192,189023,1,0,0:0:0:0:
256,192,189191,1,0,0:0:0:0:
256,192,189275,1,8,0:0:0:0:
256,192,189613,1,12,0:0:0:0:
256,192,189950,1,0,0:0:0:0:
256,192,190287,1,0,0:0:0:0:
256,192,190624,1,0,0:0:0:0:
256,192,190961,1,8,0:0:0:0:
256,192,191298,1,0,0:0:0:0:
256,192,191635,1,0,0:0:0:0:
256,192,191972,1,0,0:0:0:0:
256,192,192309,1,8,0:0:0:0:
256,192,192478,1,0,0:0:0:0:
256,192,192646,1,0,0:0:0:0:
256,192,192815,1,0,0:0:0:0:
256,192,192983,1,8,0:0:0:0:
256,192,193152,1,0,0:0:0:0:
256,192,193320,1,0,0:0:0:0:
256,192,193489,1,0,0:0:0:0:
256,192,193657,1,8,0:0:0:0:
256,192,193742,1,0,0:0:0:0:
256,192,193826,1,0,0:0:0:0:
256,192,193995,1,8,0:0:0:0:
256,192,194163,1,0,0:0:0:0:
256,192,194332,1,8,0:0:0:0:
256,192,194416,1,8,0:0:0:0:
256,192,194500,1,0,0:0:0:0:
256,192,194584,1,0,0:0:0:0:
256,192,194669,1,8,0:0:0:0:
256,192,194837,1,0,0:0:0:0:
256,192,195006,1,12,0:0:0:0:
256,192,195680,1,8,0:0:0:0:
256,192,196017,1,8,0:0:0:0:
256,192,196354,1,0,0:0:0:0:
256,192,197028,1,8,0:0:0:0:
256,192,197365,1,0,0:0:0:0:
256,192,197534,1,8,0:0:0:0:
256,192,197702,1,0,0:0:0:0:
256,192,198040,1,0,0:0:0:0:
256,192,198208,1,8,0:0:0:0:
256,192,199051,1,0,0:0:0:0:
256,192,199219,1,8,0:0:0:0:
256,192,199388,1,0,0:0:0:0:
256,192,199556,1,8,0:0:0:0:
256,192,199725,1,0,0:0:0:0:
256,192,199893,1,8,0:0:0:0:
256,192,199978,1,8,0:0:0:0:
256,192,200062,1,0,0:0:0:0:
256,192,200399,1,0,0:0:0:0:
256,192,201242,1,8,0:0:0:0:
256,192,201410,1,8,0:0:0:0:
256,192,201747,1,0,0:0:0:0:
256,192,202084,1,0,0:0:0:0:
256,192,202422,1,8,0:0:0:0:
256,192,202759,1,8,0:0:0:0:
256,192,203096,1,0,0:0:0:0:
256,192,203433,1,8,0:0:0:0:
256,192,203601,1,8,0:0:0:0:
256,192,204444,1,8,0:0:0:0:
256,192,204697,1,8,0:0:0:0:
256,192,204950,1,8,0:0:0:0:
256,192,205202,1,8,0:0:0:0:
256,192,205455,1,8,0:0:0:0:
256,192,205792,1,4,0:0:0:0:
256,192,206129,1,8,0:0:0:0:
256,192,206466,1,0,0:0:0:0:
256,192,207141,1,0,0:0:0:0:
256,192,207478,1,8,0:0:0:0:
256,192,207815,1,0,0:0:0:0:
256,192,208489,1,0,0:0:0:0:
256,192,208826,1,8,0:0:0:0:
256,192,208995,1,0,0:0:0:0:
256,192,209163,1,8,0:0:0:0:
256,192,209500,1,8,0:0:0:0:
256,192,209837,1,8,0:0:0:0:
256,192,210174,1,0,0:0:0:0:
256,192,210511,1,0,0:0:0:0:
256,192,210848,1,8,0:0:0:0:
256,192,211186,1,0,0:0:0:0:
256,192,211860,1,0,0:0:0:0:
256,192,212534,1,0,0:0:0:0:
256,192,213208,1,0,0:0:0:0:
256,192,213882,1,0,0:0:0:0:
256,192,214556,1,0,0:0:0:0:
256,192,215231,1,0,0:0:0:0:
256,192,215315,1,8,0:0:0:0:
256,192,215399,1,8,0:0:0:0:
256,192,215483,1,8,0:0:0:0:
256,192,215568,1,0,0:0:0:0:
256,192,215905,1,0,0:0:0:0:
256,192,216242,1,8,0:0:0:0:
256,192,216579,1,12,0:0:0:0:
256,192,216916,1,0,0:0:0:0:
256,192,217253,1,0,0:0:0:0:
256,192,217590,1,0,0:0:0:0:
256,192,217927,1,8,0:0:0:0:
256,192,218264,1,0,0:0:0:0:
256,192,218601,1,0,0:0:0:0:
256,192,218938,1,0,0:0:0:0:
256,192,219275,1,8,0:0:0:0:
256,192,219444,1,0,0:0:0:0:
256,192,219613,1,0,0:0:0:0:
256,192,219781,1,0,0:0:0:0:
256,192,219950,1,8,0:0:0:0:
256,192,220118,1,0,0:0:0:0:
256,192,220287,1,0,0:0:0:0:
256,192,220455,1,0,0:0:0:0:
256,192,220624,1,8,0:0:0:0:
256,192,220708,1,8,0:0:0:0:
256,192,220792,1,0,0:0:0:0:
256,192,220877,1,0,0:0:0:0:
256,192,220961,1,8,0:0:0:0:
256,192,221129,1,0,0:0:0:0:
256,192,221298,1,8,0:0:0:0:
256,192,221466,1,0,0:0:0:0:
256,192,221551,1,0,0:0:0:0:
256,192,221635,1,8,0:0:0:0:
256,192,221719,1,8,0:0:0:0:
256,192,221804,1,8,0:0:0:0:
256,192,221972,1,0,0:0:0:0:
256,192,222141,1,0,0:0:0:0:
256,192,222309,1,8,0:0:0:0:
256,192,222478,1,0,0:0:0:0:
256,192,222646,1,8,0:0:0:0:
256,192,222731,1,8,0:0:0:0:
256,192,222815,1,8,0:0:0:0:
256,192,222899,1,8,0:0:0:0:
256,192,222983,1,0,0:0:0:0:
256,192,223320,1,4,0:0:0:0:
256,192,223488,1,0,0:0:0:0:
256,192,223657,1,8,0:0:0:0:
256,192,223994,1,0,0:0:0:0:
256,192,224162,1,0,0:0:0:0:
256,192,224247,1,0,0:0:0:0:
256,192,224331,1,8,0:0:0:0:
256,192,224499,1,8,0:0:0:0:
256,192,224668,1,0,0:0:0:0:
256,192,224836,1,0,0:0:0:0:
256,192,224921,1,0,0:0:0:0:
256,192,225005,1,8,0:0:0:0:
256,192,225174,1,8,0:0:0:0:
256,192,225258,1,0,0:0:0:0:
256,192,225342,1,8,0:0:0:0:
256,192,225595,1,0,0:0:0:0:
256,192,225679,1,8,0:0:0:0:
256,192,225848,1,0,0:0:0:0:
256,192,226016,1,0,0:0:0:0:
256,192,226185,1,8,0:0:0:0:
256,192,226269,1,0,0:0:0:0:
256,192,226353,1,8,0:0:0:0:
256,192,226522,1,0,0:0:0:0:
256,192,226606,1,8,0:0:0:0:
256,192,226690,1,0,0:0:0:0:
256,192,227027,1,8,0:0:0:0:
256,192,227196,1,12,0:0:0:0:
256,192,227365,1,0,0:0:0:0:
256,192,227702,1,8,0:0:0:0:
256,192,227870,1,8,0:0:0:0:
256,192,227954,1,8,0:0:0:0:
256,192,228039,1,0,0:0:0:0:
256,192,228123,1,8,0:0:0:0:
256,192,228292,1,0,0:0:0:0:
256,192,228376,1,8,0:0:0:0:
256,192,228544,1,0,0:0:0:0:
256,192,228713,1,0,0:0:0:0:
256,192,229050,1,8,0:0:0:0:
256,192,229218,1,0,0:0:0:0:
256,192,229387,1,0,0:0:0:0:
256,192,229556,1,8,0:0:0:0:
256,192,229640,1,0,0:0:0:0:
256,192,229724,1,8,0:0:0:0:
256,192,229893,1,8,0:0:0:0:
256,192,230061,1,0,0:0:0:0:
256,192,230398,1,8,0:0:0:0:
256,192,230567,1,0,0:0:0:0:
256,192,230651,1,0,0:0:0:0:
256,192,230820,1,0,0:0:0:0:
256,192,230988,1,0,0:0:0:0:
256,192,231072,1,8,0:0:0:0:
256,192,231241,1,8,0:0:0:0:
256,192,231325,1,8,0:0:0:0:
256,192,231409,1,0,0:0:0:0:
256,192,231747,1,8,0:0:0:0:
256,192,231915,1,0,0:0:0:0:
256,192,232252,1,8,0:0:0:0:
256,192,232336,1,8,0:0:0:0:
256,192,232421,1,0,0:0:0:0:
256,192,232589,1,0,0:0:0:0:
256,192,232758,1,0,0:0:0:0:
256,192,232842,1,8,0:0:0:0:
256,192,233011,1,8,0:0:0:0:
256,192,233095,1,0,0:0:0:0:
256,192,233263,1,0,0:0:0:0:
256,192,233348,1,8,0:0:0:0:
256,192,233432,1,0,0:0:0:0:
256,192,233600,1,0,0:0:0:0:
256,192,233769,1,8,0:0:0:0:
256,192,233854,1,8,0:0:0:0:
256,192,233938,1,8,0:0:0:0:
256,192,234106,1,4,0:0:0:0:
256,192,234443,1,8,0:0:0:0:
256,192,234612,1,8,0:0:0:0:
256,192,234780,1,0,0:0:0:0:
256,192,234865,1,8,0:0:0:0:
256,192,234949,1,0,0:0:0:0:
256,192,235117,1,8,0:0:0:0:
256,192,235286,1,8,0:0:0:0:
256,192,235370,1,8,0:0:0:0:
256,192,235454,1,0,0:0:0:0:
256,192,235792,1,8,0:0:0:0:
256,192,235960,1,0,0:0:0:0:
256,192,236044,1,0,0:0:0:0:
256,192,236129,1,8,0:0:0:0:
256,192,236297,1,0,0:0:0:0:
256,192,236466,1,8,0:0:0:0:
256,192,236550,1,8,0:0:0:0:
256,192,236634,1,0,0:0:0:0:
256,192,236803,1,0,0:0:0:0:
256,192,237140,1,8,0:0:0:0:
256,192,237308,1,0,0:0:0:0:
256,192,237393,1,0,0:0:0:0:
256,192,237477,1,0,0:0:0:0:
256,192,237645,1,0,0:0:0:0:
256,192,237814,1,8,0:0:0:0:
256,192,237983,1,12,0:0:0:0:
256,192,238151,1,0,0:0:0:0:
256,192,238488,1,8,0:0:0:0:
256,192,238657,1,8,0:0:0:0:
256,192,238741,1,0,0:0:0:0:
256,192,238909,1,8,0:0:0:0:
256,192,238994,1,0,0:0:0:0:
256,192,239162,1,8,0:0:0:0:
256,192,239247,1,8,0:0:0:0:
256,192,239332,1,0,0:0:0:0:
256,192,239500,1,0,0:0:0:0:
256,192,239837,1,8,0:0:0:0:
256,192,240006,1,0,0:0:0:0:
256,192,240090,1,8,0:0:0:0:
256,192,240258,1,8,0:0:0:0:
256,192,240342,1,0,0:0:0:0:
256,192,240511,1,8,0:0:0:0:
256,192,240679,1,8,0:0:0:0:
256,192,240763,1,8,0:0:0:0:
256,192,240848,1,0,0:0:0:0:
256,192,241185,1,8,0:0:0:0:
256,192,241353,1,0,0:0:0:0:
256,192,241438,1,8,0:0:0:0:
256,192,241522,1,0,0:0:0:0:
256,192,241690,1,8,0:0:0:0:
256,192,241775,1,0,0:0:0:0:
256,192,241859,1,8,0:0:0:0:
256,192,242027,1,8,0:0:0:0:
256,192,242196,1,0,0:0:0:0:
256,192,242533,1,8,0:0:0:0:
256,192,242702,1,8,0:0:0:0:
256,192,242870,1,8,0:0:0:0:
256,192,242954,1,8,0:0:0:0:
256,192,243039,1,0,0:0:0:0:
256,192,243207,1,8,0:0:0:0:
256,192,243376,1,0,0:0:0:0:
256,192,243544,1,0,0:0:0:0:
256,192,243713,1,0,0:0:0:0:
256,192,243881,1,8,0:0:0:0:
256,192,244050,1,0,0:0:0:0:
256,192,244134,1,0,0:0:0:0:
256,192,244304,1,8,0:0:0:0:
256,192,244387,1,0,0:0:0:0:
256,192,244472,1,8,0:0:0:0:
256,192,244556,1,8,0:0:0:0:
256,192,244724,1,8,0:0:0:0:
256,192,244893,1,4,0:0:0:0:
256,192,245231,1,8,0:0:0:0:
256,192,245736,1,0,0:0:0:0:
256,192,245905,1,8,0:0:0:0:
256,192,246242,1,0,0:0:0:0:
256,192,246579,1,8,0:0:0:0:
256,192,246747,1,0,0:0:0:0:
256,192,246832,1,8,0:0:0:0:
256,192,247000,1,8,0:0:0:0:
256,192,247084,1,0,0:0:0:0:
256,192,247253,1,8,0:0:0:0:
256,192,247422,1,0,0:0:0:0:
256,192,247590,1,0,0:0:0:0:
256,192,247927,1,8,0:0:0:0:
256,192,248433,1,0,0:0:0:0:
256,192,248601,1,8,0:0:0:0:
256,192,248938,1,0,0:0:0:0:
256,192,249275,1,8,0:0:0:0:
256,192,249444,1,8,0:0:0:0:
256,192,249528,1,0,0:0:0:0:
256,192,249697,1,0,0:0:0:0:
256,192,249781,1,8,0:0:0:0:
256,192,249950,1,8,0:0:0:0:
256,192,250118,1,8,0:0:0:0:
256,192,250202,1,8,0:0:0:0:
256,192,250287,1,0,0:0:0:0:
256,192,250624,1,8,0:0:0:0:
256,192,250792,1,0,0:0:0:0:
256,192,251129,1,0,0:0:0:0:
256,192,251298,1,8,0:0:0:0:
256,192,251635,1,0,0:0:0:0:
256,192,251972,1,8,0:0:0:0:
256,192,252141,1,8,0:0:0:0:
256,192,252225,1,0,0:0:0:0:
256,192,252393,1,0,0:0:0:0:
256,192,252478,1,0,0:0:0:0:
256,192,252646,1,8,0:0:0:0:
256,192,252983,1,0,0:0:0:0:
256,192,253320,1,8,0:0:0:0:
256,192,253489,1,12,0:0:0:0:
256,192,253826,1,0,0:0:0:0:
256,192,253995,1,8,0:0:0:0:
256,192,254332,1,0,0:0:0:0:
256,192,254500,1,0,0:0:0:0:
256,192,254669,1,8,0:0:0:0:
256,192,254837,1,0,0:0:0:0:
256,192,254922,1,0,0:0:0:0:
256,192,255090,1,8,0:0:0:0:
256,192,255258,1,8,0:0:0:0:
256,192,255342,1,8,0:0:0:0:
256,192,255426,1,8,0:0:0:0:
256,192,255511,1,8,0:0:0:0:
256,192,255680,1,0,0:0:0:0:
256,192,256017,1,8,0:0:0:0:
256,192,256523,1,0,0:0:0:0:
256,192,256691,1,8,0:0:0:0:
256,192,257028,1,0,0:0:0:0:
256,192,257365,1,8,0:0:0:0:
256,192,257534,1,0,0:0:0:0:
256,192,257618,1,8,0:0:0:0:
256,192,257871,1,8,0:0:0:0:
256,192,258040,1,8,0:0:0:0:
256,192,258124,1,8,0:0:0:0:
256,192,258208,1,8,0:0:0:0:
256,192,258292,1,8,0:0:0:0:
256,192,258377,1,0,0:0:0:0:
256,192,258714,1,8,0:0:0:0:
256,192,259051,1,8,0:0:0:0:
256,192,259135,1,8,0:0:0:0:
256,192,259219,1,0,0:0:0:0:
256,192,259304,1,8,0:0:0:0:
256,192,259472,1,8,0:0:0:0:
256,192,259556,1,0,0:0:0:0:
256,192,259641,1,8,0:0:0:0:
256,192,259725,1,0,0:0:0:0:
256,192,259978,1,0,0:0:0:0:
256,192,260062,1,8,0:0:0:0:
256,192,260231,1,8,0:0:0:0:
256,192,260315,1,8,0:0:0:0:
256,192,260399,1,8,0:0:0:0:
256,192,260568,1,0,0:0:0:0:
256,192,260736,1,8,0:0:0:0:
256,192,261073,1,12,0:0:0:0:
256,192,261410,1,0,0:0:0:0:
256,192,261747,1,0,0:0:0:0:
256,192,262084,1,0,0:0:0:0:
256,192,262422,1,8,0:0:0:0:
256,192,262759,1,0,0:0:0:0:
256,192,263096,1,0,0:0:0:0:
256,192,263433,1,0,0:0:0:0:
256,192,263770,1,8,0:0:0:0:
256,192,263938,1,0,0:0:0:0:
256,192,264107,1,0,0:0:0:0:
256,192,264275,1,0,0:0:0:0:
256,192,264444,1,8,0:0:0:0:
256,192,264613,1,0,0:0:0:0:
256,192,264781,1,0,0:0:0:0:
256,192,264950,1,0,0:0:0:0:
256,192,265118,1,8,0:0:0:0:
256,192,265202,1,0,0:0:0:0:
256,192,265287,1,0,0:0:0:0:
256,192,265455,1,8,0:0:0:0:
256,192,265624,1,0,0:0:0:0:
256,192,265792,1,8,0:0:0:0:
256,192,265877,1,8,0:0:0:0:
256,192,265961,1,0,0:0:0:0:
256,192,266045,1,0,0:0:0:0:
256,192,266129,1,8,0:0:0:0:
256,192,266466,1,4,0:0:0:0:
256,192,266804,1,8,0:0:0:0:
256,192,267309,1,0,0:0:0:0:
256,192,267478,1,8,0:0:0:0:
256,192,267815,1,0,0:0:0:0:
256,192,268152,1,8,0:0:0:0:
256,192,268320,1,0,0:0:0:0:
256,192,268405,1,8,0:0:0:0:
256,192,268657,1,0,0:0:0:0:
256,192,268826,1,8,0:0:0:0:
256,192,268995,1,12,0:0:0:0:
256,192,269163,1,0,0:0:0:0:
256,192,269500,1,8,0:0:0:0:
256,192,270006,1,0,0:0:0:0:
256,192,270174,1,8,0:0:0:0:
256,192,270511,1,0,0:0:0:0:
256,192,270848,1,8,0:0:0:0:
256,192,271017,1,0,0:0:0:0:
256,192,271101,1,8,0:0:0:0:
256,192,271270,1,8,0:0:0:0:
256,192,271354,1,0,0:0:0:0:
256,192,271523,1,8,0:0:0:0:
256,192,271691,1,0,0:0:0:0:
256,192,271860,1,4,0:0:0:0:
256,192,272197,1,8,0:0:0:0:
256,192,272534,1,0,0:0:0:0:
256,192,272871,1,8,0:0:0:0:
256,192,273040,1,8,0:0:0:0:
256,192,273208,1,0,0:0:0:0:
256,192,273461,1,8,0:0:0:0:
256,192,273545,1,8,0:0:0:0:
256,192,273714,1,8,0:0:0:0:
256,192,273798,1,0,0:0:0:0:
256,192,273882,1,8,0:0:0:0:
256,192,274051,1,0,0:0:0:0:
256,192,274219,1,8,0:0:0:0:
256,192,274388,1,8,0:0:0:0:
256,192,274556,1,0,0:0:0:0:
256,192,274893,1,8,0:0:0:0:
256,192,275399,1,0,0:0:0:0:
256,192,275568,1,8,0:0:0:0:
256,192,275905,1,0,0:0:0:0:
256,192,276242,1,8,0:0:0:0:
256,192,276410,1,0,0:0:0:0:
256,192,276495,1,0,0:0:0:0:
256,192,276579,1,0,0:0:0:0:
256,192,276747,1,8,0:0:0:0:
256,192,276916,1,8,0:0:0:0:
256,192,277000,1,8,0:0:0:0:
256,192,277084,1,0,0:0:0:0:
256,192,277253,1,4,0:0:0:0:
256,192,277590,1,8,0:0:0:0:
256,192,278096,1,0,0:0:0:0:
256,192,278264,1,8,0:0:0:0:
256,192,278433,1,8,0:0:0:0:
256,192,278601,1,0,0:0:0:0:
256,192,278854,1,0,0:0:0:0:
256,192,278938,1,8,0:0:0:0:
256,192,279107,1,8,0:0:0:0:
256,192,279444,1,0,0:0:0:0:
256,192,279613,1,8,0:0:0:0:
256,192,279781,1,12,0:0:0:0:
256,192,279950,1,0,0:0:0:0:
256,192,280287,1,8,0:0:0:0:
256,192,280792,1,0,0:0:0:0:
256,192,280961,1,8,0:0:0:0:
256,192,281298,1,0,0:0:0:0:
256,192,281635,1,8,0:0:0:0:
256,192,281804,1,0,0:0:0:0:
256,192,281888,1,8,0:0:0:0:
256,192,282056,1,8,0:0:0:0:
256,192,282141,1,0,0:0:0:0:
256,192,282309,1,8,0:0:0:0:
256,192,282478,1,8,0:0:0:0:
256,192,282562,1,8,0:0:0:0:
256,192,282646,1,0,0:0:0:0:
256,192,282983,1,8,0:0:0:0:
256,192,283489,1,0,0:0:0:0:
256,192,283657,1,8,0:0:0:0:
256,192,283826,1,8,0:0:0:0:
256,192,283995,1,0,0:0:0:0:
256,192,284247,1,8,0:0:0:0:
256,192,284332,1,8,0:0:0:0:
256,192,284500,1,8,0:0:0:0:
256,192,284753,1,8,0:0:0:0:
256,192,284837,1,0,0:0:0:0:
256,192,285006,1,8,0:0:0:0:
256,192,285174,1,8,0:0:0:0:
256,192,285343,1,0,0:0:0:0:
256,192,285680,1,8,0:0:0:0:
256,192,285848,1,0,0:0:0:0:
256,192,285933,1,8,0:0:0:0:
256,192,286101,1,8,0:0:0:0:
256,192,286186,1,0,0:0:0:0:
256,192,286354,1,0,0:0:0:0:
256,192,286523,1,12,0:0:0:0:
256,192,286691,1,12,0:0:0:0:
